osu file format v14

[General]
AudioFilename: audio.mp3
AudioLeadIn: 0
PreviewTime: 55492
Countdown: 0
SampleSet: Normal
StackLeniency: 0.7
Mode: 1
LetterboxInBreaks: 0
WidescreenStoryboard: 0

[Editor]
Bookmarks: 16201,30529,37693,44858,52022,71723,86052,121873,136201,150529,157693,164858
DistanceSpacing: 0.8
BeatDivisor: 4
GridSize: 32
TimelineZoom: 2.499999

[Metadata]
Title:Kantan na Koto
TitleUnicode:カンタンナコト
Artist:THE ORAL CIGARETTES
ArtistUnicode:THE ORAL CIGARETTES
Creator:Chiswell
Version:Hoshikuz's Muzukashii
Source:
Tags:japanese rock j-rock a-sketch metalstream peaceful hoshikuz wzxxzw
BeatmapID:2229793
BeatmapSetID:1063938

[Difficulty]
HPDrainRate:6
CircleSize:4
OverallDifficulty:5
ApproachRate:5
SliderMultiplier:1.4
SliderTickRate:1

[Events]
//Background and Video events
0,0,"bg.png",0,0
//Break Periods
//Storyboard Layer 0 (Background)
//Storyboard Layer 1 (Fail)
//Storyboard Layer 2 (Pass)
//Storyboard Layer 3 (Foreground)
//Storyboard Layer 4 (Overlay)
//Storyboard Sound Samples

[TimingPoints]
1873,447.761194029851,4,1,0,60,1,0
55604,-100,4,1,0,70,0,1
69261,-100,4,1,0,60,0,0
100380,-100,4,1,0,70,0,1
114708,-100,4,1,0,60,0,0
179186,-100,4,1,0,70,0,1
193514,-100,4,1,0,60,0,0
209186,-100,4,1,0,70,0,0

[HitObjects]
224,160,1873,5,0,0:0:0:0:
288,160,2320,1,8,0:0:0:0:
224,160,2544,1,0,0:0:0:0:
288,160,2880,1,8,0:0:0:0:
224,160,3216,1,0,0:0:0:0:
224,160,3664,1,0,0:0:0:0:
288,160,4111,1,8,0:0:0:0:
224,160,4335,1,0,0:0:0:0:
288,160,4671,1,8,0:0:0:0:
224,160,5007,1,0,0:0:0:0:
224,160,5455,1,0,0:0:0:0:
288,160,5902,1,8,0:0:0:0:
224,160,6126,1,0,0:0:0:0:
288,160,6462,1,8,0:0:0:0:
224,160,6798,1,0,0:0:0:0:
224,160,7246,1,0,0:0:0:0:
288,160,7693,1,8,0:0:0:0:
288,160,7917,1,8,0:0:0:0:
224,160,8141,1,0,0:0:0:0:
224,160,9037,1,0,0:0:0:0:
288,160,9484,1,8,0:0:0:0:
224,160,9708,1,0,0:0:0:0:
288,160,10044,1,8,0:0:0:0:
224,160,10380,1,0,0:0:0:0:
224,160,10828,1,0,0:0:0:0:
288,160,11275,1,8,0:0:0:0:
224,160,11499,1,0,0:0:0:0:
288,160,11835,1,8,0:0:0:0:
224,160,12171,1,0,0:0:0:0:
224,160,12619,1,0,0:0:0:0:
288,160,13067,1,8,0:0:0:0:
224,160,13290,1,0,0:0:0:0:
288,160,13626,1,8,0:0:0:0:
224,160,13962,1,0,0:0:0:0:
224,160,14410,1,0,0:0:0:0:
224,160,15305,1,0,0:0:0:0:
288,160,15529,1,8,0:0:0:0:
288,160,15641,1,8,0:0:0:0:
288,160,15753,1,8,0:0:0:0:
288,160,15977,1,8,0:0:0:0:
224,160,16201,1,0,0:0:0:0:
288,160,16649,1,8,0:0:0:0:
224,160,16873,1,0,0:0:0:0:
224,160,17096,1,0,0:0:0:0:
288,160,17544,1,8,0:0:0:0:
224,160,17992,1,0,0:0:0:0:
288,160,18440,1,8,0:0:0:0:
288,160,18664,1,8,0:0:0:0:
224,160,18887,1,0,0:0:0:0:
288,160,19335,1,8,0:0:0:0:
224,160,19783,1,0,0:0:0:0:
288,160,20231,1,8,0:0:0:0:
224,160,20455,1,0,0:0:0:0:
224,160,20678,1,0,0:0:0:0:
288,160,21126,1,8,0:0:0:0:
224,160,21574,1,0,0:0:0:0:
288,160,22470,1,8,0:0:0:0:
288,160,22693,1,8,0:0:0:0:
288,160,22917,1,8,0:0:0:0:
224,160,23365,1,0,0:0:0:0:
288,160,23813,1,8,0:0:0:0:
224,160,24037,1,0,0:0:0:0:
224,160,24261,1,0,0:0:0:0:
288,160,24708,1,8,0:0:0:0:
224,160,25156,1,0,0:0:0:0:
288,160,25604,1,8,0:0:0:0:
288,160,25828,1,8,0:0:0:0:
224,160,26052,1,0,0:0:0:0:
224,160,26499,1,0,0:0:0:0:
224,160,26947,1,0,0:0:0:0:
288,160,27283,1,8,0:0:0:0:
224,160,27619,1,0,0:0:0:0:
288,160,27955,1,8,0:0:0:0:
288,160,28290,1,8,0:0:0:0:
224,160,28626,1,0,0:0:0:0:
288,160,28962,1,8,0:0:0:0:
224,160,29298,1,0,0:0:0:0:
288,224,29634,1,12,0:0:0:0:
288,224,29858,1,12,0:0:0:0:
224,160,30529,1,0,0:0:0:0:
288,160,30977,1,8,0:0:0:0:
224,160,31201,1,0,0:0:0:0:
288,160,31537,1,8,0:0:0:0:
224,160,31873,1,0,0:0:0:0:
224,160,32320,1,0,0:0:0:0:
288,160,32768,1,8,0:0:0:0:
224,160,32992,1,0,0:0:0:0:
288,160,33328,1,8,0:0:0:0:
224,160,33664,1,0,0:0:0:0:
224,160,34111,1,0,0:0:0:0:
288,160,34559,1,8,0:0:0:0:
224,160,34783,1,0,0:0:0:0:
288,160,35119,1,8,0:0:0:0:
224,160,35455,1,0,0:0:0:0:
224,160,35902,1,0,0:0:0:0:
224,160,36798,1,0,0:0:0:0:
288,160,37022,1,8,0:0:0:0:
288,160,37134,1,8,0:0:0:0:
288,160,37246,1,8,0:0:0:0:
288,160,37470,1,8,0:0:0:0:
224,160,37693,1,0,0:0:0:0:
224,160,37917,1,0,0:0:0:0:
224,160,38141,1,0,0:0:0:0:
224,160,38365,1,0,0:0:0:0:
288,160,38589,1,8,0:0:0:0:
288,160,39037,1,8,0:0:0:0:
288,160,39149,1,8,0:0:0:0:
288,160,39261,1,8,0:0:0:0:
288,160,39484,1,8,0:0:0:0:
288,160,39708,1,8,0:0:0:0:
288,160,39932,1,8,0:0:0:0:
224,160,40156,1,0,0:0:0:0:
288,160,40380,1,8,0:0:0:0:
224,160,41275,1,0,0:0:0:0:
224,160,41499,1,0,0:0:0:0:
224,160,41723,1,0,0:0:0:0:
224,160,41947,1,0,0:0:0:0:
288,160,42171,1,8,0:0:0:0:
288,160,42619,1,8,0:0:0:0:
288,160,42731,1,8,0:0:0:0:
288,160,42843,1,8,0:0:0:0:
288,160,43067,1,8,0:0:0:0:
288,160,43290,1,8,0:0:0:0:
288,160,43514,1,8,0:0:0:0:
224,160,43738,1,0,0:0:0:0:
288,160,43962,1,8,0:0:0:0:
288,160,44858,1,8,0:0:0:0:
288,160,44970,1,8,0:0:0:0:
288,160,45081,1,8,0:0:0:0:
288,160,45193,1,8,0:0:0:0:
224,160,45417,1,0,0:0:0:0:
224,160,45753,1,0,0:0:0:0:
224,160,45865,1,0,0:0:0:0:
224,160,45977,1,0,0:0:0:0:
288,160,46201,1,8,0:0:0:0:
224,160,46649,1,0,0:0:0:0:
288,160,47096,1,8,0:0:0:0:
224,160,47544,1,0,0:0:0:0:
288,160,47992,1,8,0:0:0:0:
288,160,48440,1,8,0:0:0:0:
224,160,48775,1,0,0:0:0:0:
288,160,49111,1,8,0:0:0:0:
224,160,49447,1,0,0:0:0:0:
288,160,49783,1,8,0:0:0:0:
224,160,50231,1,0,0:0:0:0:
224,160,50455,1,0,0:0:0:0:
224,160,50678,1,0,0:0:0:0:
224,160,50790,1,0,0:0:0:0:
224,160,51014,1,0,0:0:0:0:
224,160,51126,1,0,0:0:0:0:
288,160,51574,1,8,0:0:0:0:
224,224,52022,1,4,0:0:0:0:
224,224,52470,1,4,0:0:0:0:
224,224,52917,1,4,0:0:0:0:
224,224,53365,1,4,0:0:0:0:
224,224,53813,1,4,0:0:0:0:
288,224,54037,1,12,0:0:0:0:
224,224,54261,1,4,0:0:0:0:
288,224,54484,1,12,0:0:0:0:
224,224,54708,1,4,0:0:0:0:
288,224,54932,1,12,0:0:0:0:
288,224,55156,1,12,0:0:0:0:
288,224,55604,1,12,0:0:0:0:
224,160,56052,1,0,0:0:0:0:
288,160,56275,1,8,0:0:0:0:
288,160,56499,1,8,0:0:0:0:
288,160,56611,1,8,0:0:0:0:
288,160,56723,1,8,0:0:0:0:
288,160,56947,1,8,0:0:0:0:
224,160,57395,1,0,0:0:0:0:
224,160,58290,1,0,0:0:0:0:
224,160,58402,1,0,0:0:0:0:
224,160,58514,1,0,0:0:0:0:
288,160,58738,1,8,0:0:0:0:
288,224,59186,1,12,0:0:0:0:
224,160,59634,1,0,0:0:0:0:
224,160,59858,1,0,0:0:0:0:
288,160,60081,1,8,0:0:0:0:
288,160,60193,1,8,0:0:0:0:
288,160,60305,1,8,0:0:0:0:
288,160,60529,1,8,0:0:0:0:
224,160,60977,1,0,0:0:0:0:
288,160,61873,1,8,0:0:0:0:
288,160,61984,1,8,0:0:0:0:
288,160,62096,1,8,0:0:0:0:
288,160,62320,1,8,0:0:0:0:
288,224,62768,1,12,0:0:0:0:
224,160,63216,1,0,0:0:0:0:
288,160,63440,1,8,0:0:0:0:
288,160,63664,1,8,0:0:0:0:
288,160,63775,1,8,0:0:0:0:
288,160,63887,1,8,0:0:0:0:
288,160,64111,1,8,0:0:0:0:
256,160,64559,1,0,0:0:0:0:
224,160,65455,1,0,0:0:0:0:
224,160,65567,1,0,0:0:0:0:
224,160,65678,1,0,0:0:0:0:
427,114,65902,1,8,0:0:0:0:
224,160,66350,1,0,0:0:0:0:
288,160,66798,1,8,0:0:0:0:
224,160,67022,1,0,0:0:0:0:
288,160,67246,1,8,0:0:0:0:
288,160,67358,1,8,0:0:0:0:
288,160,67470,1,8,0:0:0:0:
288,160,67693,1,8,0:0:0:0:
288,224,68141,1,12,0:0:0:0:
288,224,68589,1,12,0:0:0:0:
288,224,69037,1,12,0:0:0:0:
288,224,69261,1,12,0:0:0:0:
224,160,69932,1,0,0:0:0:0:
224,160,70380,1,0,0:0:0:0:
224,160,70828,1,0,0:0:0:0:
224,160,71723,1,0,0:0:0:0:
288,160,72171,1,8,0:0:0:0:
224,160,72395,1,0,0:0:0:0:
288,160,72731,1,8,0:0:0:0:
224,160,73067,1,0,0:0:0:0:
224,160,73514,1,0,0:0:0:0:
288,160,73962,1,8,0:0:0:0:
224,160,74186,1,0,0:0:0:0:
288,160,74522,1,8,0:0:0:0:
224,160,74858,1,0,0:0:0:0:
224,160,75305,1,0,0:0:0:0:
288,160,75753,1,8,0:0:0:0:
224,160,75977,1,0,0:0:0:0:
288,160,76313,1,8,0:0:0:0:
224,160,76649,1,0,0:0:0:0:
224,160,77096,1,0,0:0:0:0:
288,160,77544,1,8,0:0:0:0:
288,160,77768,1,8,0:0:0:0:
224,160,77992,1,0,0:0:0:0:
224,160,78887,1,0,0:0:0:0:
288,160,79335,1,8,0:0:0:0:
224,160,79559,1,0,0:0:0:0:
288,160,79895,1,8,0:0:0:0:
224,160,80231,1,0,0:0:0:0:
224,160,80678,1,0,0:0:0:0:
288,160,81126,1,8,0:0:0:0:
224,160,81350,1,0,0:0:0:0:
288,160,81686,1,8,0:0:0:0:
224,160,82022,1,0,0:0:0:0:
224,160,82470,1,0,0:0:0:0:
288,160,82917,1,8,0:0:0:0:
224,160,83141,1,0,0:0:0:0:
288,160,83477,1,8,0:0:0:0:
224,160,83813,1,0,0:0:0:0:
224,160,84261,1,0,0:0:0:0:
224,160,85156,1,0,0:0:0:0:
288,160,85380,1,8,0:0:0:0:
288,160,85492,1,8,0:0:0:0:
288,160,85604,1,8,0:0:0:0:
288,160,85828,1,8,0:0:0:0:
224,160,86052,1,0,0:0:0:0:
224,160,86499,1,0,0:0:0:0:
288,160,86723,1,8,0:0:0:0:
224,160,86947,1,0,0:0:0:0:
224,160,87619,1,0,0:0:0:0:
224,160,87843,1,0,0:0:0:0:
224,160,88290,1,0,0:0:0:0:
288,160,88514,1,8,0:0:0:0:
224,160,88738,1,0,0:0:0:0:
288,160,88962,1,8,0:0:0:0:
224,160,89186,1,0,0:0:0:0:
288,160,89298,1,8,0:0:0:0:
224,160,89634,1,0,0:0:0:0:
224,160,90081,1,0,0:0:0:0:
288,160,90305,1,8,0:0:0:0:
224,160,90529,1,0,0:0:0:0:
288,160,91201,1,8,0:0:0:0:
224,160,91425,1,0,0:0:0:0:
224,160,91873,1,0,0:0:0:0:
288,160,92096,1,8,0:0:0:0:
224,160,92320,1,0,0:0:0:0:
288,160,92544,1,8,0:0:0:0:
224,160,92768,1,0,0:0:0:0:
288,160,92880,1,8,0:0:0:0:
224,160,93216,1,0,0:0:0:0:
224,160,93664,1,0,0:0:0:0:
288,160,93887,1,8,0:0:0:0:
224,160,94111,1,0,0:0:0:0:
224,160,94783,1,0,0:0:0:0:
224,160,95007,1,0,0:0:0:0:
224,160,95455,1,0,0:0:0:0:
288,160,95678,1,8,0:0:0:0:
224,160,95902,1,0,0:0:0:0:
288,160,96126,1,8,0:0:0:0:
224,160,96350,1,0,0:0:0:0:
288,160,96462,1,8,0:0:0:0:
288,160,96798,1,8,0:0:0:0:
224,160,97134,1,0,0:0:0:0:
288,160,97470,1,8,0:0:0:0:
224,160,97805,1,0,0:0:0:0:
288,224,98141,1,12,0:0:0:0:
288,224,98477,1,12,0:0:0:0:
224,160,99932,1,0,0:0:0:0:
224,160,100044,1,0,0:0:0:0:
224,160,100156,1,0,0:0:0:0:
288,224,100380,1,12,0:0:0:0:
224,160,100828,1,0,0:0:0:0:
224,160,101052,1,0,0:0:0:0:
288,160,101275,1,8,0:0:0:0:
288,160,101387,1,8,0:0:0:0:
288,160,101499,1,8,0:0:0:0:
288,160,101723,1,8,0:0:0:0:
224,160,102171,1,0,0:0:0:0:
224,160,103067,1,0,0:0:0:0:
224,160,103178,1,0,0:0:0:0:
224,160,103290,1,0,0:0:0:0:
288,160,103514,1,8,0:0:0:0:
288,224,103962,1,12,0:0:0:0:
224,160,104410,1,0,0:0:0:0:
288,160,104634,1,8,0:0:0:0:
288,160,104858,1,8,0:0:0:0:
288,160,104970,1,8,0:0:0:0:
288,160,105081,1,8,0:0:0:0:
288,160,105305,1,8,0:0:0:0:
224,160,105753,1,0,0:0:0:0:
288,160,106649,1,8,0:0:0:0:
288,160,106761,1,8,0:0:0:0:
288,160,106873,1,8,0:0:0:0:
288,160,107096,1,8,0:0:0:0:
288,224,107544,1,12,0:0:0:0:
224,160,107992,1,0,0:0:0:0:
224,160,108216,1,0,0:0:0:0:
288,160,108440,1,8,0:0:0:0:
288,160,108552,1,8,0:0:0:0:
288,160,108664,1,8,0:0:0:0:
288,160,108887,1,8,0:0:0:0:
224,160,109335,1,0,0:0:0:0:
224,160,110231,1,0,0:0:0:0:
224,160,110343,1,0,0:0:0:0:
224,160,110455,1,0,0:0:0:0:
320,160,110678,1,8,0:0:0:0:
224,160,111126,1,0,0:0:0:0:
288,160,111574,1,8,0:0:0:0:
288,160,111798,1,8,0:0:0:0:
288,160,112022,1,8,0:0:0:0:
288,160,112134,1,8,0:0:0:0:
288,160,112246,1,8,0:0:0:0:
288,160,112470,1,8,0:0:0:0:
288,160,113141,1,8,0:0:0:0:
224,160,113365,1,0,0:0:0:0:
224,160,113477,1,0,0:0:0:0:
288,160,113701,1,8,0:0:0:0:
288,160,113813,1,8,0:0:0:0:
224,160,114708,1,0,0:0:0:0:
224,160,115156,1,0,0:0:0:0:
224,160,115604,1,0,0:0:0:0:
224,160,116052,1,0,0:0:0:0:
224,160,116499,1,0,0:0:0:0:
224,160,116947,1,0,0:0:0:0:
224,160,117395,1,0,0:0:0:0:
224,160,117843,1,0,0:0:0:0:
224,160,118290,1,0,0:0:0:0:
224,160,118738,1,0,0:0:0:0:
224,160,119186,1,0,0:0:0:0:
288,160,119634,1,8,0:0:0:0:
224,224,120081,1,4,0:0:0:0:
224,224,120305,1,4,0:0:0:0:
224,224,120529,1,4,0:0:0:0:
224,224,120753,1,4,0:0:0:0:
224,224,120977,1,4,0:0:0:0:
224,160,121873,1,0,0:0:0:0:
224,160,122096,1,0,0:0:0:0:
224,160,122544,1,0,0:0:0:0:
224,160,122768,1,0,0:0:0:0:
224,160,123216,1,0,0:0:0:0:
224,160,123440,1,0,0:0:0:0:
224,160,123887,1,0,0:0:0:0:
224,160,124111,1,0,0:0:0:0:
224,160,124559,1,0,0:0:0:0:
224,160,124783,1,0,0:0:0:0:
224,160,125455,1,0,0:0:0:0:
224,160,125678,1,0,0:0:0:0:
224,160,126126,1,0,0:0:0:0:
224,160,126350,1,0,0:0:0:0:
224,160,126798,1,0,0:0:0:0:
224,160,127022,1,0,0:0:0:0:
224,160,127470,1,0,0:0:0:0:
224,160,127693,1,0,0:0:0:0:
224,160,128141,1,0,0:0:0:0:
224,160,128365,1,0,0:0:0:0:
224,160,129037,1,0,0:0:0:0:
224,160,129261,1,0,0:0:0:0:
288,160,129484,1,8,0:0:0:0:
224,160,129708,1,0,0:0:0:0:
224,160,129932,1,0,0:0:0:0:
288,160,130380,1,8,0:0:0:0:
224,160,130604,1,0,0:0:0:0:
224,160,130828,1,0,0:0:0:0:
224,160,131052,1,0,0:0:0:0:
288,160,131275,1,8,0:0:0:0:
224,160,131723,1,0,0:0:0:0:
224,160,131947,1,0,0:0:0:0:
288,160,132171,1,8,0:0:0:0:
224,160,132619,1,0,0:0:0:0:
224,160,132843,1,0,0:0:0:0:
288,160,133067,1,8,0:0:0:0:
224,160,133290,1,0,0:0:0:0:
224,160,133514,1,0,0:0:0:0:
288,160,133962,1,8,0:0:0:0:
224,160,134186,1,0,0:0:0:0:
224,160,134410,1,0,0:0:0:0:
224,160,134634,1,0,0:0:0:0:
288,160,134858,1,8,0:0:0:0:
288,160,136201,1,8,0:0:0:0:
224,160,136873,1,0,0:0:0:0:
288,160,137096,1,8,0:0:0:0:
224,160,137320,1,0,0:0:0:0:
224,160,137544,1,0,0:0:0:0:
288,160,137768,1,8,0:0:0:0:
288,160,137992,1,8,0:0:0:0:
288,160,138664,1,8,0:0:0:0:
224,160,139111,1,0,0:0:0:0:
224,160,139335,1,0,0:0:0:0:
288,160,139559,1,8,0:0:0:0:
288,160,139783,1,8,0:0:0:0:
224,160,140231,1,0,0:0:0:0:
288,160,140678,1,8,0:0:0:0:
224,160,141126,1,0,0:0:0:0:
224,160,141574,1,0,0:0:0:0:
288,160,142022,1,8,0:0:0:0:
224,160,142470,1,0,0:0:0:0:
224,160,142917,1,0,0:0:0:0:
288,160,143365,1,8,0:0:0:0:
224,160,144037,1,0,0:0:0:0:
288,160,144261,1,8,0:0:0:0:
224,160,144484,1,0,0:0:0:0:
224,160,144708,1,0,0:0:0:0:
288,160,144932,1,8,0:0:0:0:
288,160,145156,1,8,0:0:0:0:
224,160,145828,1,0,0:0:0:0:
288,160,146275,1,0,0:0:0:0:
288,160,146499,1,8,0:0:0:0:
224,160,146723,1,0,0:0:0:0:
288,160,146947,1,8,0:0:0:0:
224,160,147395,1,0,0:0:0:0:
288,160,147843,1,8,0:0:0:0:
288,160,148290,1,8,0:0:0:0:
288,160,148738,1,8,0:0:0:0:
224,160,149186,1,0,0:0:0:0:
224,160,149634,1,0,0:0:0:0:
224,160,150529,1,0,0:0:0:0:
288,160,150753,1,8,0:0:0:0:
288,160,150977,1,8,0:0:0:0:
224,160,151201,1,0,0:0:0:0:
224,160,151425,1,0,0:0:0:0:
288,160,151873,1,8,0:0:0:0:
224,160,152320,1,0,0:0:0:0:
224,160,152544,1,0,0:0:0:0:
288,160,152768,1,8,0:0:0:0:
224,160,152992,1,0,0:0:0:0:
224,160,153216,1,0,0:0:0:0:
288,160,153664,1,8,0:0:0:0:
288,160,153887,1,8,0:0:0:0:
224,160,154111,1,0,0:0:0:0:
288,160,154335,1,8,0:0:0:0:
288,160,154783,1,8,0:0:0:0:
224,160,155007,1,0,0:0:0:0:
288,160,155231,1,8,0:0:0:0:
288,160,155678,1,8,0:0:0:0:
224,160,155902,1,0,0:0:0:0:
224,160,156126,1,0,0:0:0:0:
288,160,156350,1,8,0:0:0:0:
288,160,156798,1,8,0:0:0:0:
288,160,157693,1,8,0:0:0:0:
224,160,157917,1,0,0:0:0:0:
224,160,158141,1,0,0:0:0:0:
288,160,158365,1,8,0:0:0:0:
288,160,158589,1,8,0:0:0:0:
224,160,159037,1,0,0:0:0:0:
288,160,159261,1,8,0:0:0:0:
288,160,159484,1,8,0:0:0:0:
224,160,159708,1,0,0:0:0:0:
224,160,159932,1,0,0:0:0:0:
288,160,160156,1,8,0:0:0:0:
288,160,160380,1,8,0:0:0:0:
288,160,160828,1,8,0:0:0:0:
288,160,161052,1,8,0:0:0:0:
224,160,161275,1,0,0:0:0:0:
288,160,161611,1,8,0:0:0:0:
288,160,161723,1,8,0:0:0:0:
288,160,161947,1,8,0:0:0:0:
224,160,162171,1,0,0:0:0:0:
288,160,162507,1,8,0:0:0:0:
288,160,162619,1,8,0:0:0:0:
288,160,162843,1,8,0:0:0:0:
288,160,163067,1,8,0:0:0:0:
288,160,163402,1,8,0:0:0:0:
288,160,163514,1,8,0:0:0:0:
288,160,163738,1,8,0:0:0:0:
224,160,163962,1,0,0:0:0:0:
224,160,164858,1,0,0:0:0:0:
288,160,165305,1,8,0:0:0:0:
224,160,165529,1,0,0:0:0:0:
224,160,165641,1,0,0:0:0:0:
288,160,165865,1,8,0:0:0:0:
288,160,165977,1,8,0:0:0:0:
224,160,166201,1,0,0:0:0:0:
224,160,166649,1,0,0:0:0:0:
288,160,167096,1,8,0:0:0:0:
224,160,167320,1,0,0:0:0:0:
224,160,167432,1,0,0:0:0:0:
288,160,167656,1,8,0:0:0:0:
432,114,167768,1,8,0:0:0:0:
224,160,167992,1,0,0:0:0:0:
224,160,168440,1,0,0:0:0:0:
288,160,168887,1,8,0:0:0:0:
224,160,169111,1,0,0:0:0:0:
224,160,169223,1,0,0:0:0:0:
288,160,169447,1,8,0:0:0:0:
288,160,169559,1,8,0:0:0:0:
224,160,169783,1,0,0:0:0:0:
224,160,170231,1,0,0:0:0:0:
288,160,170678,1,8,0:0:0:0:
288,160,171126,1,8,0:0:0:0:
288,160,172022,1,8,0:0:0:0:
224,160,172358,1,0,0:0:0:0:
224,160,172470,1,0,0:0:0:0:
288,160,172693,1,8,0:0:0:0:
288,160,173029,1,8,0:0:0:0:
288,160,173365,1,8,0:0:0:0:
288,160,173589,1,8,0:0:0:0:
288,160,173813,1,8,0:0:0:0:
224,160,174149,1,0,0:0:0:0:
224,160,174261,1,0,0:0:0:0:
288,160,174484,1,8,0:0:0:0:
288,160,174820,1,8,0:0:0:0:
288,160,175156,1,8,0:0:0:0:
288,160,175380,1,8,0:0:0:0:
288,160,175604,1,8,0:0:0:0:
224,160,175940,1,0,0:0:0:0:
224,160,176052,1,0,0:0:0:0:
288,160,176275,1,8,0:0:0:0:
288,160,176611,1,8,0:0:0:0:
288,160,176947,1,8,0:0:0:0:
288,160,177171,1,8,0:0:0:0:
256,192,177395,12,12,178738,0:0:0:0:
288,224,179186,5,12,0:0:0:0:
224,160,179634,1,0,0:0:0:0:
288,160,179858,1,8,0:0:0:0:
224,160,179970,1,0,0:0:0:0:
224,160,180193,1,0,0:0:0:0:
288,160,180417,1,8,0:0:0:0:
288,160,180529,1,8,0:0:0:0:
224,160,180753,1,0,0:0:0:0:
224,160,180977,1,0,0:0:0:0:
224,160,181201,1,0,0:0:0:0:
288,160,181425,1,8,0:0:0:0:
224,160,181761,1,0,0:0:0:0:
224,160,181873,1,0,0:0:0:0:
224,160,181984,1,0,0:0:0:0:
288,160,182320,1,8,0:0:0:0:
288,224,182768,1,12,0:0:0:0:
224,160,183216,1,0,0:0:0:0:
288,160,183440,1,8,0:0:0:0:
224,160,183552,1,0,0:0:0:0:
224,160,183775,1,0,0:0:0:0:
288,160,183999,1,8,0:0:0:0:
288,160,184111,1,8,0:0:0:0:
288,160,184335,1,8,0:0:0:0:
224,160,184559,1,0,0:0:0:0:
224,160,184783,1,0,0:0:0:0:
288,160,185007,1,8,0:0:0:0:
288,160,185343,1,8,0:0:0:0:
288,160,185455,1,8,0:0:0:0:
288,160,185567,1,8,0:0:0:0:
288,160,185902,1,8,0:0:0:0:
288,224,186350,1,12,0:0:0:0:
224,160,186798,1,0,0:0:0:0:
288,160,187022,1,8,0:0:0:0:
224,160,187134,1,0,0:0:0:0:
224,160,187358,1,0,0:0:0:0:
288,160,187581,1,8,0:0:0:0:
288,160,187693,1,8,0:0:0:0:
224,160,187917,1,0,0:0:0:0:
224,160,188141,1,0,0:0:0:0:
224,160,188365,1,0,0:0:0:0:
288,160,188589,1,8,0:0:0:0:
224,160,189037,1,0,0:0:0:0:
224,160,189932,1,0,0:0:0:0:
288,160,190380,1,8,0:0:0:0:
288,160,190604,1,8,0:0:0:0:
224,160,190716,1,0,0:0:0:0:
224,160,190940,1,0,0:0:0:0:
288,160,191164,1,8,0:0:0:0:
288,160,191275,1,8,0:0:0:0:
224,160,191499,1,0,0:0:0:0:
288,160,191947,1,8,0:0:0:0:
224,160,192171,1,0,0:0:0:0:
224,160,192283,1,0,0:0:0:0:
288,160,192507,1,8,0:0:0:0:
288,160,192619,1,8,0:0:0:0:
224,160,192843,1,0,0:0:0:0:
224,160,193067,1,0,0:0:0:0:
224,160,193290,1,0,0:0:0:0:
288,224,193514,1,12,0:0:0:0:
224,160,193962,1,0,0:0:0:0:
288,160,194186,1,8,0:0:0:0:
224,160,194298,1,0,0:0:0:0:
224,160,194522,1,0,0:0:0:0:
288,160,194858,1,8,0:0:0:0:
224,160,195305,1,0,0:0:0:0:
288,160,195753,1,8,0:0:0:0:
288,160,196649,1,8,0:0:0:0:
288,224,197096,1,12,0:0:0:0:
224,160,197544,1,0,0:0:0:0:
288,160,197768,1,8,0:0:0:0:
224,160,197880,1,0,0:0:0:0:
224,160,198104,1,0,0:0:0:0:
288,160,198440,1,8,0:0:0:0:
224,160,198887,1,0,0:0:0:0:
288,160,199335,1,8,0:0:0:0:
224,160,199783,1,0,0:0:0:0:
224,160,200231,1,0,0:0:0:0:
288,224,200678,1,12,0:0:0:0:
224,160,201126,1,0,0:0:0:0:
288,160,201350,1,8,0:0:0:0:
224,160,201462,1,0,0:0:0:0:
224,160,201686,1,0,0:0:0:0:
288,160,202022,1,8,0:0:0:0:
224,160,202470,1,0,0:0:0:0:
288,160,202917,1,8,0:0:0:0:
224,160,203813,1,0,0:0:0:0:
224,160,204261,1,0,0:0:0:0:
288,160,204708,1,8,0:0:0:0:
288,160,204932,1,8,0:0:0:0:
224,160,205044,1,0,0:0:0:0:
224,160,205268,1,0,0:0:0:0:
288,160,205604,1,8,0:0:0:0:
288,224,206052,1,12,0:0:0:0:
288,224,206275,1,12,0:0:0:0:
288,224,206499,1,12,0:0:0:0:
288,224,206723,1,12,0:0:0:0:
288,224,206947,1,12,0:0:0:0:
288,224,207171,1,12,0:0:0:0:
224,160,207843,1,0,0:0:0:0:
224,160,208290,1,0,0:0:0:0:
224,160,208738,1,0,0:0:0:0:
288,224,209186,1,12,0:0:0:0:
