osu file format v14

[General]
AudioFilename: audio.mp3
AudioLeadIn: 0
PreviewTime: 55492
Countdown: 0
SampleSet: Normal
StackLeniency: 0.7
Mode: 1
LetterboxInBreaks: 0
WidescreenStoryboard: 0

[Editor]
DistanceSpacing: 0.8
BeatDivisor: 4
GridSize: 32
TimelineZoom: 2.599999

[Metadata]
Title:Kantan na Koto
TitleUnicode:カンタンナコト
Artist:THE ORAL CIGARETTES
ArtistUnicode:THE ORAL CIGARETTES
Creator:Chiswell
Version:Futsuu
Source:
Tags:japanese rock j-rock a-sketch metalstream peaceful hoshikuz wzxxzw
BeatmapID:2229987
BeatmapSetID:1063938

[Difficulty]
HPDrainRate:7
CircleSize:5
OverallDifficulty:4
ApproachRate:5
SliderMultiplier:1.4
SliderTickRate:1

[Events]
//Background and Video events
0,0,"bg.png",0,0
//Break Periods
//Storyboard Layer 0 (Background)
//Storyboard Layer 1 (Fail)
//Storyboard Layer 2 (Pass)
//Storyboard Layer 3 (Foreground)
//Storyboard Layer 4 (Overlay)
//Storyboard Sound Samples

[TimingPoints]
1873,447.761194029851,4,1,0,60,1,0
55604,-100,4,1,0,70,0,1
69261,-100,4,1,0,60,0,0
100380,-100,4,1,0,70,0,1
114708,-100,4,1,0,60,0,0
179186,-100,4,1,0,70,0,1
193514,-100,4,1,0,60,0,0
209186,-100,4,1,0,70,0,0

[HitObjects]
256,192,1873,5,4,0:0:0:0:
256,192,2768,1,2,0:0:0:0:
256,192,3664,1,0,0:0:0:0:
256,192,4111,1,2,0:0:0:0:
256,192,4559,1,0,0:0:0:0:
256,192,5455,1,0,0:0:0:0:
256,192,6350,1,2,0:0:0:0:
256,192,7246,1,0,0:0:0:0:
256,192,7693,1,2,0:0:0:0:
256,192,8141,1,0,0:0:0:0:
256,192,8589,1,2,0:0:0:0:
256,192,8813,1,2,0:0:0:0:
256,192,9037,1,0,0:0:0:0:
256,192,9932,1,2,0:0:0:0:
256,192,10828,1,0,0:0:0:0:
256,192,11275,1,2,0:0:0:0:
256,192,11723,1,0,0:0:0:0:
256,192,12619,1,0,0:0:0:0:
256,192,13514,1,2,0:0:0:0:
256,192,14410,1,0,0:0:0:0:
256,192,15305,1,0,0:0:0:0:
256,192,15529,1,2,0:0:0:0:
256,192,15753,1,2,0:0:0:0:
256,192,15977,1,2,0:0:0:0:
256,192,16201,1,0,0:0:0:0:
256,192,16649,1,2,0:0:0:0:
256,192,16873,1,0,0:0:0:0:
256,192,17096,1,0,0:0:0:0:
256,192,17544,1,2,0:0:0:0:
256,192,17992,1,0,0:0:0:0:
256,192,18440,1,2,0:0:0:0:
256,192,18887,1,0,0:0:0:0:
256,192,19783,1,0,0:0:0:0:
256,192,20231,1,2,0:0:0:0:
256,192,20678,1,0,0:0:0:0:
256,192,20902,1,0,0:0:0:0:
256,192,21126,1,2,0:0:0:0:
256,192,21574,1,0,0:0:0:0:
256,192,22022,1,2,0:0:0:0:
256,192,22470,1,2,0:0:0:0:
256,192,23365,1,0,0:0:0:0:
256,192,23813,1,2,0:0:0:0:
256,192,24037,1,0,0:0:0:0:
256,192,24261,1,0,0:0:0:0:
256,192,24708,1,2,0:0:0:0:
256,192,25156,1,0,0:0:0:0:
256,192,25604,1,2,0:0:0:0:
256,192,25828,1,0,0:0:0:0:
256,192,26052,1,0,0:0:0:0:
256,192,26499,1,2,0:0:0:0:
256,192,26947,1,0,0:0:0:0:
256,192,27619,1,0,0:0:0:0:
256,192,28290,1,2,0:0:0:0:
256,192,28962,1,0,0:0:0:0:
256,192,29634,1,4,0:0:0:0:
256,192,29858,1,4,0:0:0:0:
256,192,30529,1,0,0:0:0:0:
256,192,31424,1,0,0:0:0:0:
256,192,32320,1,0,0:0:0:0:
256,192,32767,1,2,0:0:0:0:
256,192,33215,1,0,0:0:0:0:
256,192,34111,1,0,0:0:0:0:
256,192,35006,1,0,0:0:0:0:
256,192,35902,1,0,0:0:0:0:
256,192,36349,1,2,0:0:0:0:
256,192,36797,1,0,0:0:0:0:
256,192,37022,1,2,0:0:0:0:
256,192,37245,1,2,0:0:0:0:
256,192,37469,1,2,0:0:0:0:
256,192,37693,1,0,0:0:0:0:
256,192,38141,1,0,0:0:0:0:
256,192,38365,1,0,0:0:0:0:
256,192,38589,1,2,0:0:0:0:
256,192,39484,1,0,0:0:0:0:
256,192,39932,1,0,0:0:0:0:
256,192,40379,1,2,0:0:0:0:
256,192,41275,1,0,0:0:0:0:
256,192,41723,1,0,0:0:0:0:
256,192,41947,1,0,0:0:0:0:
256,192,42171,1,2,0:0:0:0:
256,192,43066,1,0,0:0:0:0:
256,192,43962,1,2,0:0:0:0:
256,192,44185,1,0,0:0:0:0:
256,192,44409,1,0,0:0:0:0:
256,192,44857,1,2,0:0:0:0:
256,192,45305,1,0,0:0:0:0:
256,192,45753,1,2,0:0:0:0:
256,192,46649,1,0,0:0:0:0:
256,192,47096,1,2,0:0:0:0:
256,192,47320,1,0,0:0:0:0:
256,192,47544,1,0,0:0:0:0:
256,192,47992,1,2,0:0:0:0:
256,192,48440,1,0,0:0:0:0:
256,192,49111,1,0,0:0:0:0:
256,192,49783,1,2,0:0:0:0:
256,192,50231,1,2,0:0:0:0:
256,192,50455,1,2,0:0:0:0:
256,192,50678,1,2,0:0:0:0:
256,192,51126,1,0,0:0:0:0:
256,192,51574,1,2,0:0:0:0:
256,192,52022,1,6,0:0:0:0:
256,192,52470,1,6,0:0:0:0:
256,192,52917,1,6,0:0:0:0:
256,192,53365,1,6,0:0:0:0:
256,192,53813,1,6,0:0:0:0:
256,192,54037,1,4,0:0:0:0:
256,192,54261,1,6,0:0:0:0:
256,192,54708,1,6,0:0:0:0:
256,192,55604,1,4,0:0:0:0:
256,192,56052,1,2,0:0:0:0:
256,192,56499,1,0,0:0:0:0:
256,192,57395,1,0,0:0:0:0:
256,192,57843,1,2,0:0:0:0:
256,192,58290,1,0,0:0:0:0:
256,192,58514,1,0,0:0:0:0:
256,192,58738,1,2,0:0:0:0:
256,192,59186,1,0,0:0:0:0:
256,192,59634,1,2,0:0:0:0:
256,192,60081,1,0,0:0:0:0:
256,192,60977,1,0,0:0:0:0:
256,192,61424,1,2,0:0:0:0:
256,192,61873,1,2,0:0:0:0:
256,192,62096,1,0,0:0:0:0:
256,192,62320,1,2,0:0:0:0:
256,192,62768,1,0,0:0:0:0:
256,192,63216,1,2,0:0:0:0:
256,192,63664,1,0,0:0:0:0:
256,192,64559,1,0,0:0:0:0:
256,192,65007,1,2,0:0:0:0:
256,192,65455,1,0,0:0:0:0:
256,192,65678,1,0,0:0:0:0:
256,192,65902,1,2,0:0:0:0:
256,192,66350,1,0,0:0:0:0:
256,192,66798,1,2,0:0:0:0:
256,192,67246,1,0,0:0:0:0:
256,192,68141,1,4,0:0:0:0:
256,192,68589,1,4,0:0:0:0:
256,192,69037,1,4,0:0:0:0:
256,192,71723,1,4,0:0:0:0:
256,192,72618,1,2,0:0:0:0:
256,192,73514,1,0,0:0:0:0:
256,192,73961,1,2,0:0:0:0:
256,192,74409,1,0,0:0:0:0:
256,192,75305,1,0,0:0:0:0:
256,192,76200,1,2,0:0:0:0:
256,192,77096,1,0,0:0:0:0:
256,192,77543,1,2,0:0:0:0:
256,192,77991,1,0,0:0:0:0:
256,192,78439,1,2,0:0:0:0:
256,192,78663,1,2,0:0:0:0:
256,192,78887,1,0,0:0:0:0:
256,192,79782,1,2,0:0:0:0:
256,192,80678,1,0,0:0:0:0:
256,192,81125,1,2,0:0:0:0:
256,192,81573,1,0,0:0:0:0:
256,192,82469,1,0,0:0:0:0:
256,192,83364,1,2,0:0:0:0:
256,192,84260,1,0,0:0:0:0:
256,192,85155,1,0,0:0:0:0:
256,192,85379,1,2,0:0:0:0:
256,192,85603,1,2,0:0:0:0:
256,192,85827,1,2,0:0:0:0:
256,192,86051,1,0,0:0:0:0:
256,192,86499,1,2,0:0:0:0:
256,192,86946,1,0,0:0:0:0:
256,192,87171,1,0,0:0:0:0:
256,192,87395,1,0,0:0:0:0:
256,192,87842,1,0,0:0:0:0:
256,192,88290,1,0,0:0:0:0:
256,192,88737,1,2,0:0:0:0:
256,192,89633,1,0,0:0:0:0:
256,192,90081,1,2,0:0:0:0:
256,192,90528,1,0,0:0:0:0:
256,192,90752,1,0,0:0:0:0:
256,192,90977,1,0,0:0:0:0:
256,192,91424,1,2,0:0:0:0:
256,192,91872,1,0,0:0:0:0:
256,192,92320,1,2,0:0:0:0:
256,192,93215,1,0,0:0:0:0:
256,192,93664,1,2,0:0:0:0:
256,192,94111,1,0,0:0:0:0:
256,192,94335,1,0,0:0:0:0:
256,192,94558,1,0,0:0:0:0:
256,192,95006,1,0,0:0:0:0:
256,192,95454,1,0,0:0:0:0:
256,192,95678,1,2,0:0:0:0:
256,192,95902,1,0,0:0:0:0:
256,192,96349,1,0,0:0:0:0:
256,192,96797,1,0,0:0:0:0:
256,192,97469,1,0,0:0:0:0:
256,192,98140,1,6,0:0:0:0:
256,192,98365,1,6,0:0:0:0:
256,192,98589,1,6,0:0:0:0:
256,192,99932,1,2,0:0:0:0:
256,192,100156,1,2,0:0:0:0:
256,192,100380,1,4,0:0:0:0:
256,192,100828,1,2,0:0:0:0:
256,192,101275,1,0,0:0:0:0:
256,192,102171,1,0,0:0:0:0:
256,192,102619,1,2,0:0:0:0:
256,192,103066,1,0,0:0:0:0:
256,192,103290,1,0,0:0:0:0:
256,192,103514,1,2,0:0:0:0:
256,192,103962,1,0,0:0:0:0:
256,192,104410,1,2,0:0:0:0:
256,192,104857,1,0,0:0:0:0:
256,192,105753,1,0,0:0:0:0:
256,192,106200,1,2,0:0:0:0:
256,192,106649,1,2,0:0:0:0:
256,192,106872,1,0,0:0:0:0:
256,192,107096,1,2,0:0:0:0:
256,192,107544,1,0,0:0:0:0:
256,192,107992,1,2,0:0:0:0:
256,192,108440,1,0,0:0:0:0:
256,192,109335,1,0,0:0:0:0:
256,192,109783,1,2,0:0:0:0:
256,192,110231,1,0,0:0:0:0:
256,192,110454,1,0,0:0:0:0:
256,192,110678,1,2,0:0:0:0:
256,192,111126,1,0,0:0:0:0:
256,192,111574,1,2,0:0:0:0:
256,192,112022,1,0,0:0:0:0:
256,192,112469,1,2,0:0:0:0:
256,192,113141,1,2,0:0:0:0:
256,192,113365,1,2,0:0:0:0:
256,192,113813,1,4,0:0:0:0:
256,192,114708,1,0,0:0:0:0:
256,192,115156,1,0,0:0:0:0:
256,192,115604,1,0,0:0:0:0:
256,192,116052,1,0,0:0:0:0:
256,192,116500,1,0,0:0:0:0:
256,192,117395,1,0,0:0:0:0:
256,192,118290,1,0,0:0:0:0:
256,192,118738,1,0,0:0:0:0:
256,192,119186,1,0,0:0:0:0:
256,192,119634,1,2,0:0:0:0:
256,192,120081,1,6,0:0:0:0:
256,192,120305,1,6,0:0:0:0:
256,192,120529,1,6,0:0:0:0:
256,192,120753,1,6,0:0:0:0:
256,192,120977,1,6,0:0:0:0:
256,192,121873,1,0,0:0:0:0:
256,192,122320,1,0,0:0:0:0:
256,192,122768,1,2,0:0:0:0:
256,192,123216,1,0,0:0:0:0:
256,192,123440,1,0,0:0:0:0:
256,192,123887,1,0,0:0:0:0:
256,192,124111,1,0,0:0:0:0:
256,192,124559,1,0,0:0:0:0:
256,192,125007,1,2,0:0:0:0:
256,192,125455,1,0,0:0:0:0:
256,192,125902,1,0,0:0:0:0:
256,192,126350,1,2,0:0:0:0:
256,192,126798,1,0,0:0:0:0:
256,192,127022,1,0,0:0:0:0:
256,192,127470,1,0,0:0:0:0:
256,192,127693,1,0,0:0:0:0:
256,192,128141,1,0,0:0:0:0:
256,192,128589,1,2,0:0:0:0:
256,192,129037,1,0,0:0:0:0:
256,192,129484,1,2,0:0:0:0:
256,192,129932,1,0,0:0:0:0:
256,192,130828,1,0,0:0:0:0:
256,192,131275,1,2,0:0:0:0:
256,192,131723,1,0,0:0:0:0:
256,192,132619,1,0,0:0:0:0:
256,192,133066,1,2,0:0:0:0:
256,192,133514,1,0,0:0:0:0:
256,192,133738,1,0,0:0:0:0:
256,192,133962,1,2,0:0:0:0:
256,192,134410,1,0,0:0:0:0:
256,192,134634,1,0,0:0:0:0:
256,192,134858,1,2,0:0:0:0:
256,192,135081,1,0,0:0:0:0:
256,192,136201,1,4,0:0:0:0:
256,192,137096,1,2,0:0:0:0:
256,192,137992,1,0,0:0:0:0:
256,192,138440,1,2,0:0:0:0:
256,192,138887,1,0,0:0:0:0:
256,192,139783,1,0,0:0:0:0:
256,192,140678,1,2,0:0:0:0:
256,192,141574,1,0,0:0:0:0:
256,192,142022,1,2,0:0:0:0:
256,192,142470,1,0,0:0:0:0:
256,192,142917,1,2,0:0:0:0:
256,192,143141,1,2,0:0:0:0:
256,192,143365,1,0,0:0:0:0:
256,192,144261,1,2,0:0:0:0:
256,192,145157,1,0,0:0:0:0:
256,192,145605,1,2,0:0:0:0:
256,192,146052,1,0,0:0:0:0:
256,192,146948,1,0,0:0:0:0:
256,192,147843,1,0,0:0:0:0:
256,192,148291,1,2,0:0:0:0:
256,192,148739,1,0,0:0:0:0:
256,192,149635,1,2,0:0:0:0:
256,192,150530,1,0,0:0:0:0:
256,192,150977,1,2,0:0:0:0:
256,192,151425,1,0,0:0:0:0:
256,192,151872,1,2,0:0:0:0:
256,192,152320,1,0,0:0:0:0:
256,192,152767,1,2,0:0:0:0:
256,192,153216,1,0,0:0:0:0:
256,192,154111,1,0,0:0:0:0:
256,192,154558,1,2,0:0:0:0:
256,192,155007,1,0,0:0:0:0:
256,192,155454,1,2,0:0:0:0:
256,192,155902,1,0,0:0:0:0:
256,192,156349,1,2,0:0:0:0:
256,192,156798,1,0,0:0:0:0:
256,192,157693,1,2,0:0:0:0:
256,192,158141,1,2,0:0:0:0:
256,192,158365,1,2,0:0:0:0:
256,192,158589,1,2,0:0:0:0:
256,192,159037,1,2,0:0:0:0:
256,192,159484,1,2,0:0:0:0:
256,192,159708,1,2,0:0:0:0:
256,192,159932,1,2,0:0:0:0:
256,192,160380,1,2,0:0:0:0:
256,192,161275,1,2,0:0:0:0:
256,192,161723,1,0,0:0:0:0:
256,192,161947,1,2,0:0:0:0:
256,192,162171,1,2,0:0:0:0:
256,192,162619,1,0,0:0:0:0:
256,192,162843,1,2,0:0:0:0:
256,192,163067,1,2,0:0:0:0:
256,192,163514,1,0,0:0:0:0:
256,192,163962,1,2,0:0:0:0:
256,192,164186,1,0,0:0:0:0:
256,192,164410,1,2,0:0:0:0:
256,192,164858,1,2,0:0:0:0:
256,192,165305,1,2,0:0:0:0:
256,192,165753,1,2,0:0:0:0:
256,192,166201,1,2,0:0:0:0:
256,192,166649,1,2,0:0:0:0:
256,192,167544,1,2,0:0:0:0:
256,192,168440,1,2,0:0:0:0:
256,192,168887,1,2,0:0:0:0:
256,192,169335,1,2,0:0:0:0:
256,192,169783,1,2,0:0:0:0:
256,192,170231,1,2,0:0:0:0:
256,192,171126,1,2,0:0:0:0:
256,192,172022,1,6,0:0:0:0:
256,192,172470,1,0,0:0:0:0:
256,192,172693,1,2,0:0:0:0:
256,192,173365,1,6,0:0:0:0:
256,192,173813,1,6,0:0:0:0:
256,192,174261,1,0,0:0:0:0:
256,192,174484,1,2,0:0:0:0:
256,192,175156,1,6,0:0:0:0:
256,192,175604,1,6,0:0:0:0:
256,192,176052,1,0,0:0:0:0:
256,192,176275,1,2,0:0:0:0:
256,192,176947,1,2,0:0:0:0:
256,192,177395,12,0,178738,0:0:0:0:
256,192,179186,5,4,0:0:0:0:
256,192,179634,1,2,0:0:0:0:
256,192,180081,1,0,0:0:0:0:
256,192,180977,1,0,0:0:0:0:
256,192,181425,1,2,0:0:0:0:
256,192,181872,1,0,0:0:0:0:
256,192,182096,1,0,0:0:0:0:
256,192,182320,1,2,0:0:0:0:
256,192,182544,1,2,0:0:0:0:
256,192,182768,1,0,0:0:0:0:
256,192,183216,1,2,0:0:0:0:
256,192,183663,1,0,0:0:0:0:
256,192,184559,1,0,0:0:0:0:
256,192,185006,1,2,0:0:0:0:
256,192,185455,1,2,0:0:0:0:
256,192,185678,1,0,0:0:0:0:
256,192,185902,1,2,0:0:0:0:
256,192,186126,1,2,0:0:0:0:
256,192,186350,1,0,0:0:0:0:
256,192,186798,1,2,0:0:0:0:
256,192,187246,1,0,0:0:0:0:
256,192,188141,1,0,0:0:0:0:
256,192,188589,1,2,0:0:0:0:
256,192,189037,1,0,0:0:0:0:
256,192,189260,1,0,0:0:0:0:
256,192,189484,1,2,0:0:0:0:
256,192,189708,1,2,0:0:0:0:
256,192,189932,1,0,0:0:0:0:
256,192,190380,1,2,0:0:0:0:
256,192,190828,1,0,0:0:0:0:
256,192,191275,1,2,0:0:0:0:
256,192,191947,1,2,0:0:0:0:
256,192,192171,1,2,0:0:0:0:
256,192,192619,1,0,0:0:0:0:
256,192,193514,1,4,0:0:0:0:
256,192,193962,1,2,0:0:0:0:
256,192,194409,1,0,0:0:0:0:
256,192,195305,1,0,0:0:0:0:
256,192,195753,1,2,0:0:0:0:
256,192,196200,1,0,0:0:0:0:
256,192,196648,1,2,0:0:0:0:
256,192,196873,1,2,0:0:0:0:
256,192,197096,1,0,0:0:0:0:
256,192,197544,1,2,0:0:0:0:
256,192,197991,1,0,0:0:0:0:
256,192,198887,1,0,0:0:0:0:
256,192,199334,1,2,0:0:0:0:
256,192,199783,1,0,0:0:0:0:
256,192,200230,1,2,0:0:0:0:
256,192,200455,1,2,0:0:0:0:
256,192,200678,1,0,0:0:0:0:
256,192,201126,1,2,0:0:0:0:
256,192,201574,1,0,0:0:0:0:
256,192,202469,1,0,0:0:0:0:
256,192,202917,1,2,0:0:0:0:
256,192,203365,1,0,0:0:0:0:
256,192,203812,1,2,0:0:0:0:
256,192,204037,1,2,0:0:0:0:
256,192,204260,1,0,0:0:0:0:
256,192,204708,1,2,0:0:0:0:
256,192,205156,1,0,0:0:0:0:
256,192,206052,1,2,0:0:0:0:
256,192,206275,1,2,0:0:0:0:
256,192,206499,1,2,0:0:0:0:
256,192,206723,1,2,0:0:0:0:
256,192,206947,1,2,0:0:0:0:
256,192,207395,1,2,0:0:0:0:
256,192,207843,1,0,0:0:0:0:
256,192,208290,1,2,0:0:0:0:
256,192,208738,1,0,0:0:0:0:
256,192,209186,1,4,0:0:0:0:
