osu file format v14

[General]
AudioFilename: audio.mp3
AudioLeadIn: 0
PreviewTime: 100668
Countdown: 0
SampleSet: None
StackLeniency: 0.7
Mode: 0
LetterboxInBreaks: 0
WidescreenStoryboard: 1

[Editor]
Bookmarks: 94299,109093,128819,135395,168271,187586,189230,192518,195189,231970
DistanceSpacing: 1.3
BeatDivisor: 4
GridSize: 16
TimelineZoom: 2.599999

[Metadata]
Title:Halloween No Yoin
TitleUnicode:Halloween No Yoin
Artist:THE ORAL CIGARETTES
ArtistUnicode:THE ORAL CIGARETTES
Creator:zip_
Version:Extreme
Source:
Tags:
BeatmapID:3605390
BeatmapSetID:1469467

[Difficulty]
HPDrainRate:4
CircleSize:3.7
OverallDifficulty:9
ApproachRate:10
SliderMultiplier:2
SliderTickRate:1

[Events]
//Background and Video events
0,0,"huVwMiUe_4x.jpg",0,0
//Break Periods
2,168471,187136
//Storyboard Layer 0 (Background)
//Storyboard Layer 1 (Fail)
//Storyboard Layer 2 (Pass)
//Storyboard Layer 3 (Foreground)
//Storyboard Layer 4 (Overlay)
//Storyboard Sound Samples

[TimingPoints]
6961,-100,4,1,0,100,0,0
15395,410.958904109589,4,1,0,100,1,0
15395,-100,4,1,0,100,0,0
16011,-71.4285714285714,4,1,0,100,0,0
72929,-1000,4,1,0,100,0,0
74573,-100,4,1,0,100,0,0
87723,-76.9230769230769,4,1,0,100,0,0
121833,-333.333333333333,4,1,0,100,0,0
122244,-250,4,1,0,100,0,0
124710,-1000,4,1,0,100,0,0
125121,-100,4,1,0,100,0,0
127997,-71.4285714285714,4,1,0,100,0,0
135395,-166.666666666667,4,1,0,100,0,0
141970,-66.6666666666667,4,1,0,100,0,0
148031,-1000,4,1,0,100,0,0
148545,-62.5,4,1,0,100,0,0
161696,-83.3333333333333,4,1,0,100,0,0
189230,-83.3333333333333,4,1,0,100,0,0
195805,-66.6666666666667,4,1,0,100,0,0
208956,-125,4,1,0,100,0,0

[HitObjects]
177,140,15395,6,0,L|250:93,1,50,4|0,0:0|0:0,0:0:0:0:
322,37,15600,1,0,0:0:0:0:
250,275,15703,2,0,L|253:203,1,50,0|4,0:0|0:0,0:0:0:0:
228,23,15908,1,0,0:0:0:0:
455,159,16011,2,0,P|390:158|353:153,1,69.9999978637696
96,63,16216,6,0,L|108:148,1,69.9999978637696,4|0,0:0|0:0,0:0:0:0:
173,337,16422,1,0,0:0:0:0:
138,39,16525,5,0,0:0:0:0:
71,348,16627,2,0,L|80:260,1,69.9999978637696,4|0,0:0|0:0,0:0:0:0:
94,93,16833,6,0,P|157:88|178:78,1,69.9999978637696
336,211,17038,2,0,L|321:131,1,69.9999978637696,4|0,0:0|0:0,0:0:0:0:
282,31,17244,1,0,0:0:0:0:
486,139,17347,6,0,P|428:152|380:161,1,69.9999978637696,0|4,0:0|0:0,0:0:0:0:
180,197,17552,1,0,0:0:0:0:
405,33,17655,1,0,0:0:0:0:
98,48,17758,6,0,P|148:74|182:97,1,69.9999978637696,0|4,0:0|0:0,0:0:0:0:
386,285,17963,1,0,0:0:0:0:
316,88,18066,1,0,0:0:0:0:
258,317,18168,1,0,0:0:0:0:
405,195,18271,5,4,0:0:0:0:
196,115,18374,2,0,P|193:155|179:238,1,69.9999978637696
167,350,18579,1,0,0:0:0:0:
466,304,18682,6,0,P|418:316|395:331,1,69.9999978637696,4|0,0:0|0:0,0:0:0:0:
344,168,18888,2,0,P|392:180|415:195,1,69.9999978637696
212,250,19093,1,4,0:0:0:0:
267,19,19196,1,0,0:0:0:0:
331,207,19299,6,0,P|335:256|334:305,1,69.9999978637696
141,131,19504,1,4,0:0:0:0:
423,88,19607,1,0,0:0:0:0:
186,282,19710,6,0,P|174:329|167:378,1,69.9999978637696
385,236,19915,1,4,0:0:0:0:
113,150,20018,1,0,0:0:0:0:
309,96,20121,2,0,P|309:56|308:22,1,69.9999978637696
300,332,20326,5,4,0:0:0:0:
461,181,20429,1,0,0:0:0:0:
213,181,20531,2,0,P|165:172|123:150,1,69.9999978637696
331,228,20737,5,4,0:0:0:0:
331,228,20840,1,0,0:0:0:0:
292,44,20942,2,0,B|290:84|290:84|288:128,1,69.9999978637696
261,320,21148,1,4,0:0:0:0:
261,320,21251,1,0,0:0:0:0:
360,230,21353,1,0,0:0:0:0:
65,196,21456,2,0,P|106:197|155:201,1,69.9999978637696,0|4,0:0|0:0,0:0:0:0:
292,299,21661,6,0,P|291:249|290:222,1,69.9999978637696
269,36,21867,1,0,0:0:0:0:
32,319,21970,6,0,P|68:323|130:333,1,69.9999978637696,4|0,0:0|0:0,0:0:0:0:
289,153,22175,1,0,0:0:0:0:
239,336,22278,6,0,P|236:295|233:260,1,69.9999978637696,0|4,0:0|0:0,0:0:0:0:
86,93,22484,1,0,0:0:0:0:
331,29,22586,6,0,P|260:50|244:49,1,69.9999978637696
21,225,22792,1,4,0:0:0:0:
231,161,22895,1,0,0:0:0:0:
147,287,22997,5,0,0:0:0:0:
198,95,23100,1,0,0:0:0:0:
292,256,23203,2,0,P|327:248|390:253,1,69.9999978637696,4|0,0:0|0:0,0:0:0:0:
105,142,23408,1,0,0:0:0:0:
456,121,23511,2,0,L|456:42,1,69.9999978637696,0|4,0:0|0:0,0:0:0:0:
400,274,23716,5,0,0:0:0:0:
261,237,23819,1,0,0:0:0:0:
477,205,23922,5,0,0:0:0:0:
323,323,24025,1,4,0:0:0:0:
372,103,24127,2,0,L|371:183,1,69.9999978637696
471,314,24333,1,0,0:0:0:0:
241,168,24436,5,4,0:0:0:0:
481,313,24539,1,0,0:0:0:0:
159,280,24641,5,0,0:0:0:0:
499,315,24744,1,0,0:0:0:0:
281,339,24847,6,0,P|282:296|284:265,1,69.9999978637696,4|0,0:0|0:0,0:0:0:0:
331,76,25052,1,0,0:0:0:0:
382,155,25155,1,0,0:0:0:0:
173,22,25258,2,0,L|158:110,1,69.9999978637696,4|0,0:0|0:0,0:0:0:0:
38,264,25463,5,0,0:0:0:0:
119,209,25566,1,0,0:0:0:0:
179,301,25668,2,0,P|236:337|270:339,1,69.9999978637696,4|0,0:0|0:0,0:0:0:0:
422,116,25874,5,0,0:0:0:0:
341,61,25977,1,0,0:0:0:0:
281,153,26079,2,0,P|224:189|190:191,1,69.9999978637696,4|0,0:0|0:0,0:0:0:0:
349,301,26285,5,0,0:0:0:0:
246,36,26388,1,0,0:0:0:0:
245,361,26490,6,0,P|251:319|257:276,1,69.9999978637696,4|0,0:0|0:0,0:0:0:0:
329,76,26696,1,0,0:0:0:0:
146,219,26799,1,0,0:0:0:0:
259,170,26901,1,4,0:0:0:0:
46,53,27004,2,0,P|86:60|118:48,1,69.9999978637696
36,228,27210,2,0,L|35:308,1,69.9999978637696,0|4,0:0|0:0,0:0:0:0:
193,339,27415,1,0,0:0:0:0:
297,179,27518,2,0,P|227:174|204:167,1,69.9999978637696
107,145,27723,5,4,0:0:0:0:
263,20,27826,1,0,0:0:0:0:
310,297,27929,2,0,L|307:225,1,69.9999978637696
400,65,28134,2,0,P|336:48|372:174,1,209.999993591309,4|0,0:0|0:0,0:0:0:0:
69,126,28545,1,14,0:0:0:0:
455,245,29367,5,8,0:0:0:0:
10,182,30189,5,0,0:0:0:0:
462,22,30600,5,8,0:0:0:0:
256,192,31011,5,0,0:0:0:0:
256,304,31422,1,8,0:0:0:0:
416,96,31833,5,0,0:0:0:0:
96,96,32244,1,8,0:0:0:0:
256,352,32655,5,0,0:0:0:0:
256,96,33066,1,2,0:0:0:0:
438,177,33477,6,0,P|420:235|414:263,1,69.9999978637696,4|0,0:0|0:0,0:0:0:0:
400,355,33682,1,0,0:0:0:0:
282,133,33785,6,0,P|291:193|298:220,1,69.9999978637696,0|4,0:0|0:0,0:0:0:0:
400,355,33990,1,0,0:0:0:0:
93,254,34093,5,0,0:0:0:0:
365,217,34196,1,0,0:0:0:0:
151,37,34299,1,4,0:0:0:0:
253,318,34401,2,0,L|245:200,1,69.9999978637696
241,12,34607,1,0,0:0:0:0:
330,133,34710,6,0,L|415:117,1,69.9999978637696,4|0,0:0|0:0,0:0:0:0:
123,350,34915,5,0,0:0:0:0:
88,64,35018,1,0,0:0:0:0:
321,246,35121,6,0,P|263:243|220:249,1,69.9999978637696,4|0,0:0|0:0,0:0:0:0:
31,200,35326,1,0,0:0:0:0:
203,59,35429,1,0,0:0:0:0:
192,360,35531,6,0,L|204:285,1,69.9999978637696,4|0,0:0|0:0,0:0:0:0:
230,171,35737,1,0,0:0:0:0:
377,328,35840,1,0,0:0:0:0:
384,53,35942,6,0,L|368:136,1,69.9999978637696,4|0,0:0|0:0,0:0:0:0:
302,304,36148,1,0,0:0:0:0:
267,32,36251,1,0,0:0:0:0:
55,159,36353,6,0,P|88:150|130:151,1,69.9999978637696,4|0,0:0|0:0,0:0:0:0:
327,214,36559,1,0,0:0:0:0:
191,27,36662,1,0,0:0:0:0:
186,331,36764,2,0,P|192:295|198:253,1,69.9999978637696,4|0,0:0|0:0,0:0:0:0:
306,77,36970,1,0,0:0:0:0:
90,251,37073,5,0,0:0:0:0:
349,332,37175,1,4,0:0:0:0:
184,132,37278,1,0,0:0:0:0:
446,105,37381,5,0,0:0:0:0:
159,208,37484,1,0,0:0:0:0:
358,6,37586,1,4,0:0:0:0:
300,307,37689,2,0,L|287:227,1,69.9999978637696
262,76,37895,1,0,0:0:0:0:
183,336,37997,1,4,0:0:0:0:
17,191,38100,5,0,0:0:0:0:
336,227,38203,2,0,L|260:191,1,69.9999978637696
85,40,38408,1,4,0:0:0:0:
140,173,38511,6,0,L|142:256,1,69.9999978637696
237,21,38716,1,0,0:0:0:0:
235,297,38819,2,0,L|211:376,1,69.9999978637696,4|0,0:0|0:0,0:0:0:0:
315,139,39025,1,0,0:0:0:0:
47,206,39127,6,0,P|87:215|124:221,1,69.9999978637696,0|4,0:0|0:0,0:0:0:0:
375,237,39333,1,0,0:0:0:0:
179,47,39436,1,0,0:0:0:0:
416,306,39538,2,0,L|402:219,1,69.9999978637696,0|4,0:0|0:0,0:0:0:0:
381,47,39744,1,0,0:0:0:0:
242,234,39847,1,0,0:0:0:0:
474,131,39949,1,0,0:0:0:0:
251,9,40052,2,0,P|253:57|255:101,1,69.9999978637696,4|0,0:0|0:0,0:0:0:0:
256,320,40258,1,0,0:0:0:0:
91,193,40360,6,0,P|150:177|176:166,1,69.9999978637696,0|4,0:0|0:0,0:0:0:0:
374,172,40566,1,0,0:0:0:0:
155,35,40668,1,0,0:0:0:0:
396,201,40771,1,0,0:0:0:0:
349,17,40874,6,0,L|336:95,1,69.9999978637696,4|0,0:0|0:0,0:0:0:0:
289,266,41079,2,0,P|294:308|302:343,1,69.9999978637696
88,194,41285,5,4,0:0:0:0:
397,258,41388,1,0,0:0:0:0:
166,66,41490,1,0,0:0:0:0:
186,301,41593,2,0,P|196:256|206:224,1,69.9999978637696,0|4,0:0|0:0,0:0:0:0:
276,39,41799,1,0,0:0:0:0:
276,39,41901,1,0,0:0:0:0:
276,39,42004,1,0,0:0:0:0:
393,201,42107,6,0,P|332:177|304:170,1,69.9999978637696,4|0,0:0|0:0,0:0:0:0:
72,117,42312,1,0,0:0:0:0:
72,117,42415,1,0,0:0:0:0:
347,64,42518,6,0,P|298:108|275:124,1,69.9999978637696,4|0,0:0|0:0,0:0:0:0:
77,257,42723,1,0,0:0:0:0:
77,257,42826,1,0,0:0:0:0:
315,340,42929,6,0,L|329:259,1,69.9999978637696,4|0,0:0|0:0,0:0:0:0:
376,72,43134,1,0,0:0:0:0:
235,283,43237,1,0,0:0:0:0:
226,19,43340,2,0,P|228:64|229:97,1,69.9999978637696,4|0,0:0|0:0,0:0:0:0:
455,140,43545,5,0,0:0:0:0:
110,174,43648,2,0,P|152:160|176:149,1,69.9999978637696,0|4,0:0|0:0,0:0:0:0:
359,17,43853,5,0,0:0:0:0:
185,355,43956,2,0,P|202:314|210:289,1,69.9999978637696
215,87,44162,5,4,0:0:0:0:
340,206,44264,1,0,0:0:0:0:
173,197,44367,1,0,0:0:0:0:
324,30,44470,2,0,P|320:81|316:125,1,69.9999978637696,0|4,0:0|0:0,0:0:0:0:
288,340,44675,1,0,0:0:0:0:
58,209,44778,6,0,P|94:207|128:223,1,69.9999978637696
378,296,44984,2,0,P|380:199|393:147,1,139.999995727539,4|0,0:0|0:0,0:0:0:0:
281,108,45292,5,0,0:0:0:0:
478,241,45395,1,4,0:0:0:0:
391,14,45497,2,0,P|391:61|393:105,1,69.9999978637696
416,335,45703,1,0,0:0:0:0:
294,257,45805,2,0,P|339:247|370:243,1,69.9999978637696,4|0,0:0|0:0,0:0:0:0:
240,89,46011,2,0,P|195:79|164:75,1,69.9999978637696
128,274,46216,1,4,0:0:0:0:
108,11,46319,1,0,0:0:0:0:
276,174,46422,5,0,0:0:0:0:
54,158,46525,1,0,0:0:0:0:
258,27,46627,1,4,0:0:0:0:
171,165,46730,6,0,L|161:251,1,69.9999978637696
149,358,46936,1,0,0:0:0:0:
424,161,47038,6,0,P|477:134|502:112,1,69.9999978637696,4|0,0:0|0:0,0:0:0:0:
156,71,47244,2,0,P|103:44|78:22,1,69.9999978637696
230,251,47449,1,4,0:0:0:0:
299,42,47552,1,0,0:0:0:0:
57,160,47655,6,0,P|101:172|127:182,1,69.9999978637696
350,268,47860,1,4,0:0:0:0:
82,322,47963,1,0,0:0:0:0:
344,138,48066,1,0,0:0:0:0:
226,352,48168,1,0,0:0:0:0:
195,123,48271,2,0,P|237:192|366:202,1,209.999993591309,4|0,0:0|0:0,0:0:0:0:
341,36,48682,6,0,L|333:114,1,69.9999978637696,4|0,0:0|0:0,0:0:0:0:
281,283,48888,1,0,0:0:0:0:
447,237,48990,1,0,0:0:0:0:
128,155,49093,1,4,0:0:0:0:
128,155,49196,1,0,0:0:0:0:
128,155,49299,2,0,P|133:232|135:330,1,139.999995727539,0|4,0:0|0:0,0:0:0:0:
41,303,49607,5,0,0:0:0:0:
231,225,49710,2,0,P|275:211|304:213,1,69.9999978637696
237,13,49915,6,0,L|271:91,1,69.9999978637696,4|0,0:0|0:0,0:0:0:0:
237,13,50121,2,0,L|246:103,1,69.9999978637696
365,260,50326,6,0,L|310:325,1,69.9999978637696,4|0,0:0|0:0,0:0:0:0:
365,260,50532,2,0,L|331:344,1,69.9999978637696
458,136,50737,5,4,0:0:0:0:
140,66,50942,1,0,0:0:0:0:
316,210,51148,1,4,0:0:0:0:
302,11,51251,1,0,0:0:0:0:
225,152,51353,2,0,L|192:264,1,69.9999978637696
40,343,51559,5,4,0:0:0:0:
267,267,51764,1,0,0:0:0:0:
25,109,51970,1,4,0:0:0:0:
276,17,52073,1,0,0:0:0:0:
164,103,52175,6,0,L|171:191,1,69.9999978637696
429,226,52381,6,0,P|377:212|346:204,1,69.9999978637696,4|0,0:0|0:0,0:0:0:0:
253,106,52586,2,0,P|305:92|336:84,1,69.9999978637696
112,368,52792,6,0,P|164:354|195:346,1,69.9999978637696,4|0,0:0|0:0,0:0:0:0:
288,248,52997,2,0,P|236:234|205:226,1,69.9999978637696
38,120,53203,6,0,P|83:109|111:101,1,69.9999978637696,4|0,0:0|0:0,0:0:0:0:
244,168,53408,2,0,P|289:179|317:187,1,69.9999978637696
419,100,53614,6,0,P|417:53|418:24,1,69.9999978637696,4|0,0:0|0:0,0:0:0:0:
383,324,53819,2,0,L|470:344,1,69.9999978637696
483,219,54025,1,4,0:0:0:0:
242,100,54127,1,0,0:0:0:0:
242,100,54230,6,0,P|244:148|246:187,1,69.9999978637696
244,346,54436,5,4,0:0:0:0:
123,274,54538,1,0,0:0:0:0:
376,168,54641,1,0,0:0:0:0:
113,43,54744,1,0,0:0:0:0:
113,43,54847,2,0,B|210:4|203:103|328:83,1,209.999993591309,4|0,0:0|0:0,0:0:0:0:
191,269,55258,2,0,P|206:183|214:125,1,139.999995727539,4|0,0:0|0:0,0:0:0:0:
93,176,55566,5,0,0:0:0:0:
353,141,55668,2,0,P|299:157|274:158,1,69.9999978637696,4|0,0:0|0:0,0:0:0:0:
138,350,55874,6,2,P|217:288|352:323,1,209.999993591309
141,42,56285,6,0,L|161:128,1,69.9999978637696
400,109,56490,2,0,L|380:195,1,69.9999978637696,4|0,0:0|0:0,0:0:0:0:
84,240,56696,2,0,L|104:326,1,69.9999978637696
372,319,56901,1,2,0:0:0:0:
283,142,57004,1,2,0:0:0:0:
283,142,57107,1,2,0:0:0:0:
249,313,57210,2,0,P|288:276|301:257,1,69.9999978637696
381,87,57415,1,2,0:0:0:0:
381,87,57518,1,2,0:0:0:0:
222,181,57621,6,0,P|275:182|298:178,1,69.9999978637696
485,57,57826,1,2,0:0:0:0:
485,57,57929,1,2,0:0:0:0:
485,57,58031,1,4,0:0:0:0:
229,40,58134,6,0,P|169:62|141:61,1,69.9999978637696,12|0,0:0|0:0,0:0:0:0:
81,187,58340,2,0,P|141:209|169:208,1,69.9999978637696,8|0,0:0|0:0,0:0:0:0:
231,328,58545,2,0,P|171:350|143:349,1,69.9999978637696,8|0,0:0|0:0,0:0:0:0:
44,312,58751,5,8,0:0:0:0:
240,147,58853,1,0,0:0:0:0:
285,217,58956,2,0,P|322:217|362:236,1,69.9999978637696,12|0,0:0|0:0,0:0:0:0:
398,24,59162,5,2,0:0:0:0:
361,136,59264,1,0,0:0:0:0:
261,22,59367,2,0,L|268:99,1,69.9999978637696,4|0,0:0|0:0,0:0:0:0:
291,343,59573,1,0,0:0:0:0:
360,218,59675,1,0,0:0:0:0:
120,262,59778,2,0,P|164:237|181:216,1,69.9999978637696,4|0,0:0|0:0,0:0:0:0:
226,108,59984,2,0,P|243:60|243:33,1,69.9999978637696
91,30,60189,5,4,0:0:0:0:
167,206,60292,1,0,0:0:0:0:
15,164,60395,5,0,0:0:0:0:
281,246,60497,2,0,P|333:256|365:257,1,69.9999978637696,0|4,0:0|0:0,0:0:0:0:
181,358,60703,5,0,0:0:0:0:
199,141,60805,1,0,0:0:0:0:
72,299,60908,1,0,0:0:0:0:
364,218,61011,1,4,0:0:0:0:
275,348,61113,5,0,0:0:0:0:
239,85,61216,1,0,0:0:0:0:
361,363,61319,5,0,0:0:0:0:
400,57,61422,2,0,L|390:143,1,69.9999978637696,4|0,0:0|0:0,0:0:0:0:
189,165,61627,6,0,P|258:196|271:217,1,69.9999978637696
172,332,61833,2,0,P|103:363|90:384,1,69.9999978637696,4|0,0:0|0:0,0:0:0:0:
272,266,62038,1,0,0:0:0:0:
103,81,62141,1,0,0:0:0:0:
292,69,62244,2,0,P|346:55|380:37,1,69.9999978637696,4|0,0:0|0:0,0:0:0:0:
129,212,62449,2,0,P|73:227|44:224,1,69.9999978637696
399,231,62655,2,0,P|445:257|476:287,1,69.9999978637696,4|0,0:0|0:0,0:0:0:0:
299,174,62860,5,0,0:0:0:0:
341,304,62963,1,0,0:0:0:0:
453,155,63066,1,4,0:0:0:0:
197,85,63168,1,0,0:0:0:0:
167,278,63271,6,0,P|206:261|235:254,1,69.9999978637696
354,72,63477,1,4,0:0:0:0:
288,340,63579,1,0,0:0:0:0:
197,85,63682,1,0,0:0:0:0:
449,268,63785,1,0,0:0:0:0:
449,268,63888,2,0,L|449:347,1,69.9999978637696,4|0,0:0|0:0,0:0:0:0:
418,61,64093,5,0,0:0:0:0:
418,61,64196,2,0,L|363:123,1,69.9999978637696,0|4,0:0|0:0,0:0:0:0:
114,163,64401,5,0,0:0:0:0:
114,163,64504,2,0,L|169:225,1,69.9999978637696
227,362,64710,5,4,0:0:0:0:
291,100,64812,1,0,0:0:0:0:
291,100,64915,2,0,L|287:219,1,69.9999978637696
278,284,65121,1,4,0:0:0:0:
386,187,65223,1,0,0:0:0:0:
160,127,65326,1,0,0:0:0:0:
404,18,65429,2,0,P|416:63|442:100,1,69.9999978637696,0|4,0:0|0:0,0:0:0:0:
306,222,65634,2,0,P|351:232|396:226,1,69.9999978637696
479,343,65840,1,0,0:0:0:0:
184,244,65942,1,4,0:0:0:0:
304,129,66045,6,0,L|229:144,1,69.9999978637696
24,178,66251,1,0,0:0:0:0:
142,347,66353,6,0,P|141:293|140:269,1,69.9999978637696,4|0,0:0|0:0,0:0:0:0:
122,40,66559,1,0,0:0:0:0:
289,283,66662,6,0,P|290:229|291:205,1,69.9999978637696,0|4,0:0|0:0,0:0:0:0:
299,13,66868,1,0,0:0:0:0:
102,124,66970,5,0,0:0:0:0:
425,163,67073,1,0,0:0:0:0:
425,163,67175,2,0,P|376:150|344:139,1,69.9999978637696,4|0,0:0|0:0,0:0:0:0:
216,295,67381,2,0,P|265:282|297:271,1,69.9999978637696
354,352,67586,1,4,0:0:0:0:
294,101,67689,1,0,0:0:0:0:
208,182,67792,5,0,0:0:0:0:
407,70,67895,1,0,0:0:0:0:
192,15,67997,2,0,P|191:62|191:103,1,69.9999978637696,4|0,0:0|0:0,0:0:0:0:
52,248,68203,5,0,0:0:0:0:
52,248,68305,2,0,L|131:232,1,69.9999978637696,0|4,0:0|0:0,0:0:0:0:
398,173,68511,5,0,0:0:0:0:
398,173,68613,2,0,L|319:157,1,69.9999978637696
144,89,68819,1,4,0:0:0:0:
220,299,68922,2,0,L|227:219,1,69.9999978637696
251,23,69127,1,0,0:0:0:0:
251,23,69230,1,4,0:0:0:0:
419,125,69333,6,0,P|451:157|470:200,1,69.9999978637696
233,147,69538,1,0,0:0:0:0:
410,301,69641,2,0,P|362:339|333:342,1,69.9999978637696,4|0,0:0|0:0,0:0:0:0:
181,248,69847,5,0,0:0:0:0:
344,228,69949,1,0,0:0:0:0:
160,76,70052,2,0,L|165:152,1,69.9999978637696,4|0,0:0|0:0,0:0:0:0:
98,262,70258,2,0,L|114:336,1,69.9999978637696
304,160,70463,5,4,0:0:0:0:
69,163,70566,1,0,0:0:0:0:
296,17,70668,1,0,0:0:0:0:
238,300,70771,1,0,0:0:0:0:
238,300,70874,2,0,L|235:225,1,69.9999978637696,4|0,0:0|0:0,0:0:0:0:
228,126,71079,6,0,P|320:118|365:252,1,209.999993591309,14|0,0:0|0:0,0:0:0:0:
384,24,71490,6,0,P|358:69|342:95,1,69.9999978637696,2|0,0:0|0:0,0:0:0:0:
153,134,71696,1,4,0:0:0:0:
153,134,71799,1,0,0:0:0:0:
259,327,71901,6,0,P|222:290|201:268,1,69.9999978637696,2|0,0:0|0:0,0:0:0:0:
144,96,72107,1,4,0:0:0:0:
144,96,72210,1,0,0:0:0:0:
95,266,72312,6,0,P|131:229|152:207,1,69.9999978637696,2|0,0:0|0:0,0:0:0:0:
210,35,72518,1,4,0:0:0:0:
210,35,72621,1,0,0:0:0:0:
31,101,72723,5,0,0:0:0:0:
331,164,72826,1,0,0:0:0:0:
22,342,72929,5,14,0:0:0:0:
250,62,73340,6,0,L|251:84,1,20,4|4,0:0|0:0,0:0:0:0:
208,304,74162,5,2,0:0:0:0:
465,161,74573,6,0,B|363:133|383:219|253:182,1,200
81,127,75189,1,0,0:0:0:0:
122,288,75395,1,0,0:0:0:0:
236,33,75600,5,0,0:0:0:0:
236,33,75805,2,0,L|241:172,1,100
395,276,76216,5,0,0:0:0:0:
411,287,76627,1,0,0:0:0:0:
91,120,77038,5,0,0:0:0:0:
73,129,77449,2,0,L|75:238,1,100
300,210,77860,6,0,P|379:212|346:97,1,200
154,94,78477,5,0,0:0:0:0:
248,122,78579,1,0,0:0:0:0:
151,311,78682,2,0,P|219:293|346:343,1,200
351,142,79299,6,0,L|359:83,1,50
477,53,79504,2,0,P|422:78|292:69,1,150
145,40,79915,5,0,0:0:0:0:
89,209,80326,1,0,0:0:0:0:
323,119,80531,5,0,0:0:0:0:
379,288,80737,1,0,0:0:0:0:
139,340,80942,5,0,0:0:0:0:
291,258,81045,1,0,0:0:0:0:
173,21,81148,1,0,0:0:0:0:
36,185,81764,6,0,L|95:172,1,50
197,76,81970,6,0,P|257:76|316:201,1,200
79,276,82792,6,0,P|139:213|140:111,1,150
149,153,83203,2,0,P|171:264|191:348,1,200
346,272,83819,5,0,0:0:0:0:
419,165,83922,1,0,0:0:0:0:
235,75,84025,2,0,P|316:48|449:83,1,200
211,198,84641,5,0,0:0:0:0:
198,213,84847,1,0,0:0:0:0:
359,298,85052,5,0,0:0:0:0:
372,313,85258,1,0,0:0:0:0:
157,311,85463,6,0,L|97:293,1,50
108,173,85668,2,0,P|142:94|142:45,1,100
357,37,86079,5,0,0:0:0:0:
411,191,86285,1,0,0:0:0:0:
386,9,86490,5,0,0:0:0:0:
318,279,86696,1,0,0:0:0:0:
252,166,86799,1,0,0:0:0:0:
446,139,86901,2,0,P|339:132|280:66,1,200
88,25,87415,5,0,0:0:0:0:
146,125,87518,1,0,0:0:0:0:
50,185,87621,1,0,0:0:0:0:
126,354,87723,2,0,L|201:325,1,64.9999970245363
126,354,87929,2,0,L|180:306,1,64.9999970245363
436,218,88134,2,0,L|361:189,1,64.9999970245363
436,218,88340,2,0,L|382:170,1,64.9999970245363
210,20,88545,2,0,L|234:96,1,64.9999970245363
210,20,88751,2,0,L|206:92,1,64.9999970245363
282,208,88956,2,0,L|257:284,1,64.9999970245363
282,208,89162,2,0,L|285:280,1,64.9999970245363
36,177,89367,6,0,P|91:160|111:157,1,64.9999970245363
279,131,89573,2,0,P|216:113|201:105,1,64.9999970245363
429,337,89778,6,0,P|374:320|354:317,1,64.9999970245363
186,291,89984,2,0,P|249:273|264:265,1,64.9999970245363
393,97,90189,1,0,0:0:0:0:
423,219,90292,1,0,0:0:0:0:
393,97,90395,5,0,0:0:0:0:
423,219,90497,1,0,0:0:0:0:
283,35,90600,5,0,0:0:0:0:
238,237,90703,1,0,0:0:0:0:
283,35,90805,5,0,0:0:0:0:
238,237,90908,1,0,0:0:0:0:
33,205,91011,5,0,0:0:0:0:
393,81,91216,1,0,0:0:0:0:
414,319,91833,5,0,0:0:0:0:
49,92,92038,1,0,0:0:0:0:
210,321,92655,6,0,P|221:232|226:181,2,129.999994049073
122,216,93168,5,0,0:0:0:0:
368,188,93271,1,0,0:0:0:0:
183,19,93477,1,0,0:0:0:0:
411,85,93682,6,0,L|381:150,1,64.9999970245363
251,224,93888,2,0,L|351:274,1,64.9999970245363
458,314,94093,1,0,0:0:0:0:
309,88,94196,1,0,0:0:0:0:
275,307,94299,6,0,L|282:383,1,64.9999970245363
267,29,94504,1,0,0:0:0:0:
131,259,94607,6,0,L|97:327,1,64.9999970245363
240,20,94812,1,0,0:0:0:0:
395,195,94915,6,0,P|338:180|316:171,1,64.9999970245363
82,139,95121,1,0,0:0:0:0:
366,32,95223,1,0,0:0:0:0:
206,274,95326,1,0,0:0:0:0:
118,38,95429,1,0,0:0:0:0:
319,225,95531,2,0,P|362:232|396:233,1,64.9999970245363
118,313,95737,2,0,P|77:338|44:350,1,64.9999970245363
188,109,95942,5,0,0:0:0:0:
217,337,96045,1,0,0:0:0:0:
188,109,96148,5,0,0:0:0:0:
217,337,96251,1,0,0:0:0:0:
347,17,96353,5,0,0:0:0:0:
318,245,96456,1,0,0:0:0:0:
347,17,96559,5,0,0:0:0:0:
318,245,96662,1,0,0:0:0:0:
470,160,96764,6,0,P|429:151|397:141,1,64.9999970245363
198,196,96970,1,0,0:0:0:0:
280,10,97073,1,0,0:0:0:0:
59,222,97175,6,0,L|65:312,1,64.9999970245363
250,222,97381,1,0,0:0:0:0:
147,43,97484,1,0,0:0:0:0:
397,104,97586,6,0,L|385:184,1,64.9999970245363
313,335,97792,1,0,0:0:0:0:
180,211,97895,1,0,0:0:0:0:
493,132,97997,1,0,0:0:0:0:
285,23,98100,1,0,0:0:0:0:
473,234,98203,1,0,0:0:0:0:
394,19,98305,5,0,0:0:0:0:
319,259,98408,1,0,0:0:0:0:
216,22,98511,5,0,0:0:0:0:
340,354,98614,2,0,L|263:344,1,64.9999970245363
58,229,98819,6,0,P|101:217|129:209,1,64.9999970245363
362,130,99025,2,0,P|319:118|291:110,1,64.9999970245363
118,41,99230,5,0,0:0:0:0:
164,285,99333,2,0,L|178:382,1,64.9999970245363
282,22,99538,5,0,0:0:0:0:
162,253,99641,2,0,L|113:320,1,64.9999970245363
365,248,99847,1,0,0:0:0:0:
135,131,99949,2,0,P|173:122|204:110,1,64.9999970245363
418,52,100155,1,0,0:0:0:0:
262,227,100258,2,0,L|263:324,1,64.9999970245363
243,14,100463,1,0,0:0:0:0:
465,157,100566,1,0,0:0:0:0:
145,214,100668,1,0,0:0:0:0:
396,353,100771,2,0,L|328:336,1,64.9999970245363
56,299,100977,5,0,0:0:0:0:
56,299,101079,2,0,L|135:267,1,64.9999970245363
339,161,101285,5,0,0:0:0:0:
339,161,101387,2,0,L|260:129,1,64.9999970245363
114,30,101593,5,0,0:0:0:0:
114,30,101696,2,0,L|121:114,1,64.9999970245363
144,343,101901,1,0,0:0:0:0:
144,343,102004,1,0,0:0:0:0:
251,253,102107,6,0,P|297:246|333:241,1,64.9999970245363
337,40,102312,1,0,0:0:0:0:
425,264,102415,1,0,0:0:0:0:
345,169,102518,5,0,0:0:0:0:
492,70,102621,1,0,0:0:0:0:
207,21,102723,1,0,0:0:0:0:
331,350,102826,2,0,L|332:278,1,64.9999970245363
123,136,103031,6,0,L|49:120,1,64.9999970245363
360,68,103237,1,0,0:0:0:0:
171,292,103340,2,0,L|177:386,1,64.9999970245363
145,37,103545,1,0,0:0:0:0:
145,37,103648,1,0,0:0:0:0:
321,208,103751,6,0,P|375:204|395:194,1,64.9999970245363
253,98,103956,1,0,0:0:0:0:
280,326,104059,1,0,0:0:0:0:
92,177,104162,5,0,0:0:0:0:
320,207,104264,1,0,0:0:0:0:
150,10,104367,2,0,L|158:102,1,64.9999970245363
178,233,104573,1,0,0:0:0:0:
382,53,104675,2,0,L|314:108,1,64.9999970245363
51,122,104881,5,0,0:0:0:0:
265,263,104984,1,0,0:0:0:0:
128,315,105086,1,0,0:0:0:0:
357,152,105189,1,0,0:0:0:0:
398,319,105292,1,0,0:0:0:0:
234,93,105395,2,0,L|225:182,1,64.9999970245363
234,93,105600,2,0,L|283:159,1,64.9999970245363
229,358,105805,6,0,L|177:268,1,64.9999970245363
229,358,106011,2,0,L|271:292,1,64.9999970245363
81,219,106216,1,0,0:0:0:0:
320,164,106319,1,0,0:0:0:0:
320,164,106422,1,0,0:0:0:0:
97,39,106525,1,0,0:0:0:0:
97,39,106627,2,0,L|179:29,1,64.9999970245363
403,28,106833,5,0,0:0:0:0:
205,174,106936,1,0,0:0:0:0:
459,275,107038,1,0,0:0:0:0:
413,168,107141,1,0,0:0:0:0:
259,332,107244,1,0,0:0:0:0:
231,57,107347,1,0,0:0:0:0:
72,227,107449,6,0,L|175:212,1,64.9999970245363
324,60,107860,5,0,0:0:0:0:
338,103,107963,1,0,0:0:0:0:
369,136,108066,1,0,0:0:0:0:
413,145,108168,1,0,0:0:0:0:
245,53,108682,5,0,0:0:0:0:
293,96,108785,1,0,0:0:0:0:
223,191,108888,5,0,0:0:0:0:
210,247,108990,1,0,0:0:0:0:
205,305,109093,6,0,P|251:308|295:322,1,64.9999970245363
472,213,109299,6,0,P|414:194|402:185,1,64.9999970245363
273,30,109504,2,0,P|266:81|262:108,1,64.9999970245363
96,217,109710,1,0,0:0:0:0:
306,208,109812,1,0,0:0:0:0:
127,59,109915,2,0,L|138:133,1,64.9999970245363
155,332,110121,2,0,P|228:352|302:332,1,129.999994049073
299,123,110429,5,0,0:0:0:0:
435,271,110531,2,0,P|399:263|357:251,1,64.9999970245363
138,177,110737,6,0,L|156:90,1,64.9999970245363
167,82,110942,2,0,L|156:151,1,64.9999970245363
340,323,111148,6,0,L|322:236,1,64.9999970245363
311,228,111353,2,0,L|322:297,1,64.9999970245363
179,271,111559,5,0,0:0:0:0:
241,61,111662,1,0,0:0:0:0:
321,132,111764,2,0,P|360:127|399:117,1,64.9999970245363
165,27,111970,6,0,P|162:83|161:113,1,64.9999970245363
150,338,112175,2,0,P|153:282|154:252,1,64.9999970245363
35,176,112381,5,0,0:0:0:0:
233,114,112484,1,0,0:0:0:0:
35,176,112586,1,0,0:0:0:0:
321,301,112689,5,0,0:0:0:0:
148,91,112792,1,0,0:0:0:0:
321,301,112895,1,0,0:0:0:0:
430,108,112997,6,0,P|398:125|369:136,1,64.9999970245363
189,201,113203,6,0,P|221:184|250:173,1,64.9999970245363
419,297,113408,6,0,P|388:277|364:258,1,64.9999970245363
153,133,113614,6,0,P|183:152|207:171,1,64.9999970245363
246,327,113819,1,0,0:0:0:0:
324,64,113922,1,0,0:0:0:0:
151,132,114025,6,0,P|184:121|233:116,1,64.9999970245363
336,27,114230,1,0,0:0:0:0:
176,243,114333,1,0,0:0:0:0:
325,241,114436,5,0,0:0:0:0:
50,98,114538,2,0,L|59:181,1,64.9999970245363
75,340,114744,1,0,0:0:0:0:
308,140,114847,6,0,P|273:160|226:166,1,64.9999970245363
137,172,115052,1,0,0:0:0:0:
313,331,115155,1,0,0:0:0:0:
298,16,115258,2,0,L|304:90,1,64.9999970245363
466,160,115463,5,0,0:0:0:0:
187,238,115566,1,0,0:0:0:0:
466,160,115668,2,0,L|383:131,1,64.9999970245363
207,40,115874,1,0,0:0:0:0:
315,202,115977,6,0,P|316:251|316:286,1,64.9999970245363
314,37,116182,1,0,0:0:0:0:
142,147,116285,6,0,P|103:158|69:157,1,64.9999970245363
412,85,116490,1,0,0:0:0:0:
215,336,116696,5,0,0:0:0:0:
218,29,116799,1,0,0:0:0:0:
319,174,116901,6,0,P|349:186|383:208,1,64.9999970245363
112,281,117107,6,0,L|108:187,1,64.9999970245363
112,281,117312,2,0,L|173:233,1,64.9999970245363
128,71,117518,5,0,0:0:0:0:
255,214,117621,1,0,0:0:0:0:
374,55,117723,2,0,P|330:75|236:64,1,129.999994049073
106,210,118031,5,0,0:0:0:0:
299,149,118134,1,0,0:0:0:0:
369,340,118237,2,0,L|369:255,1,64.9999970245363
216,270,118442,5,0,0:0:0:0:
415,162,118545,1,0,0:0:0:0:
198,34,118648,2,0,L|202:115,1,64.9999970245363
369,58,118853,5,0,0:0:0:0:
58,215,118956,2,0,P|97:210|158:346,1,194.999991073609
340,194,119367,5,0,0:0:0:0:
340,194,119470,2,0,L|264:182,1,64.9999970245363
130,69,119675,5,0,0:0:0:0:
130,69,119778,2,0,L|206:57,1,64.9999970245363
416,28,119984,5,0,0:0:0:0:
429,242,120086,1,0,0:0:0:0:
221,168,120189,5,0,0:0:0:0:
477,125,120292,1,0,0:0:0:0:
180,288,120395,5,0,0:0:0:0:
488,335,120497,1,0,0:0:0:0:
264,31,120600,6,0,L|263:69,1,32.4999985122681
144,315,121833,6,0,L|149:257,1,44.999998626709
385,132,122244,5,0,0:0:0:0:
399,124,122655,1,0,0:0:0:0:
128,91,123066,5,0,0:0:0:0:
114,83,123477,1,0,0:0:0:0:
256,256,123888,5,0,0:0:0:0:
256,272,124299,1,0,0:0:0:0:
235,28,124710,5,0,0:0:0:0:
54,142,125121,5,0,0:0:0:0:
344,172,125531,5,0,0:0:0:0:
176,353,125942,5,0,0:0:0:0:
309,36,126353,5,0,0:0:0:0:
429,283,126764,5,0,0:0:0:0:
154,181,126970,1,0,0:0:0:0:
425,104,127175,5,0,0:0:0:0:
382,339,127381,1,0,0:0:0:0:
331,35,127586,5,0,0:0:0:0:
276,346,127792,1,0,0:0:0:0:
45,181,127997,6,0,P|87:167|122:162,1,69.9999978637696
249,59,128203,5,0,0:0:0:0:
133,268,128305,1,0,0:0:0:0:
361,259,128408,1,0,0:0:0:0:
97,51,128511,1,0,0:0:0:0:
230,316,128614,1,0,0:0:0:0:
388,54,128716,1,0,0:0:0:0:
175,186,128819,2,0,P|183:141|186:112,1,69.9999978637696
133,351,129025,1,0,0:0:0:0:
394,220,129127,6,0,P|451:214|483:209,1,69.9999978637696
53,239,129333,1,0,0:0:0:0:
300,244,129436,6,0,L|312:331,1,69.9999978637696
284,44,129641,1,0,0:0:0:0:
142,202,129744,6,0,L|130:289,1,69.9999978637696
175,20,129949,1,0,0:0:0:0:
458,131,130052,6,0,P|415:140|381:157,1,69.9999978637696
306,351,130258,1,0,0:0:0:0:
229,111,130360,1,0,0:0:0:0:
443,237,130463,5,0,0:0:0:0:
156,301,130566,2,0,P|195:284|227:264,1,69.9999978637696
376,77,130771,1,0,0:0:0:0:
86,122,130874,2,0,L|111:207,1,69.9999978637696
77,357,131079,1,0,0:0:0:0:
217,55,131182,6,0,L|242:140,1,69.9999978637696
210,364,131388,1,0,0:0:0:0:
454,214,131490,5,0,0:0:0:0:
216,197,131593,1,0,0:0:0:0:
450,329,131696,5,0,0:0:0:0:
267,28,131799,1,0,0:0:0:0:
288,262,131901,5,0,0:0:0:0:
442,53,132004,1,0,0:0:0:0:
184,104,132107,2,0,P|222:115|268:133,1,69.9999978637696
320,339,132312,6,0,L|316:256,1,69.9999978637696
491,182,132518,2,0,P|448:215|431:220,1,69.9999978637696
267,16,132723,2,0,L|251:101,1,69.9999978637696
194,209,132929,6,0,L|209:294,1,69.9999978637696
91,37,133134,5,0,0:0:0:0:
320,150,133237,1,0,0:0:0:0:
95,188,133340,5,0,0:0:0:0:
388,37,133442,1,0,0:0:0:0:
337,202,133545,5,0,0:0:0:0:
179,48,133648,1,0,0:0:0:0:
280,322,133751,5,0,0:0:0:0:
287,17,133853,1,0,0:0:0:0:
442,268,133956,6,0,P|389:264|366:264,1,69.9999978637696
111,300,134162,1,0,0:0:0:0:
284,139,134264,1,0,0:0:0:0:
220,362,134367,1,0,0:0:0:0:
71,150,134470,1,0,0:0:0:0:
372,150,134573,1,0,0:0:0:0:
61,328,134675,1,0,0:0:0:0:
288,51,134778,1,0,0:0:0:0:
320,288,134881,1,0,0:0:0:0:
107,68,134984,1,0,0:0:0:0:
443,45,135086,1,0,0:0:0:0:
158,286,135189,5,0,0:0:0:0:
236,22,135292,1,0,0:0:0:0:
174,322,135395,2,0,B|211:307|233:284|240:246|233:211|206:188|179:180|179:180|166:180|166:180|156:183|156:183|152:188|152:188|147:199|149:207|152:213|152:213|154:217|166:219|183:214|229:178|333:179|365:215,1,449.99998626709
432,49,137038,6,0,B|410:78|386:100|345:112|299:114|240:104|185:60|166:37|166:37|159:74|189:135|108:176,1,449.99998626709
336,342,138682,2,0,B|293:337|277:323|274:302|276:278|289:253|316:253|316:253|318:253|323:255|326:259|327:263|327:272|321:284|296:285|232:225|160:282|160:282|157:287|159:297|167:299|179:295|220:194|205:177,1,449.99998626709
320,30,140326,6,0,B|335:56|322:90|322:90|319:94|312:96|303:97|301:115|305:156|365:190|365:190|372:193|387:195|401:195|417:187|426:174|425:142|425:142|412:174|280:223,1,449.99998626709
55,123,141970,6,0,P|89:113|131:97,1,75.0000028610231
101,328,142175,1,0,0:0:0:0:
347,237,142278,2,0,P|308:229|258:222,1,75.0000028610231
318,32,142586,5,0,0:0:0:0:
220,222,142689,1,0,0:0:0:0:
400,154,142792,1,0,0:0:0:0:
130,63,142895,2,0,P|135:102|139:145,1,75.0000028610231
227,327,143203,5,0,0:0:0:0:
271,258,143305,1,0,0:0:0:0:
351,278,143408,1,0,0:0:0:0:
496,200,143511,6,0,P|451:189|412:180,1,75.0000028610231
285,17,143716,5,0,0:0:0:0:
309,226,143819,1,0,0:0:0:0:
172,33,143922,5,0,0:0:0:0:
136,305,144025,1,0,0:0:0:0:
423,114,144230,5,0,0:0:0:0:
92,99,144333,1,0,0:0:0:0:
426,231,144436,5,0,0:0:0:0:
74,245,144538,2,0,P|111:239|155:227,1,75.0000028610231
284,37,144847,5,0,0:0:0:0:
284,37,144949,1,0,0:0:0:0:
284,37,145052,2,0,P|279:88|275:134,1,75.0000028610231
226,354,145258,5,0,0:0:0:0:
319,260,145360,1,0,0:0:0:0:
147,292,145463,1,0,0:0:0:0:
425,337,145566,1,0,0:0:0:0:
199,45,145874,5,0,0:0:0:0:
239,257,145977,1,0,0:0:0:0:
277,133,146079,1,0,0:0:0:0:
56,323,146182,1,0,0:0:0:0:
426,203,146490,5,0,0:0:0:0:
145,209,146593,1,0,0:0:0:0:
468,111,146696,5,0,0:0:0:0:
167,10,146799,1,0,0:0:0:0:
281,251,147107,6,0,P|275:295|271:334,1,75.0000028610231
310,69,147312,1,0,0:0:0:0:
310,69,147415,1,0,0:0:0:0:
104,227,147723,5,0,0:0:0:0:
306,157,147826,1,0,0:0:0:0:
57,46,147929,1,0,0:0:0:0:
276,252,148031,2,0,L|279:275,1,20
444,85,148545,5,0,0:0:0:0:
219,123,148648,1,0,0:0:0:0:
456,282,148751,2,0,P|440:249|417:211,1,80
327,39,148956,5,0,0:0:0:0:
209,229,149059,1,0,0:0:0:0:
84,79,149162,2,0,P|121:95|165:102,1,80
128,338,149367,5,0,0:0:0:0:
288,203,149470,1,0,0:0:0:0:
346,347,149573,2,0,P|348:297|351:263,1,80
322,20,149778,5,0,0:0:0:0:
477,146,149881,1,0,0:0:0:0:
199,104,149984,2,0,P|192:143|178:197,1,80
145,344,150189,5,0,0:0:0:0:
347,243,150292,1,0,0:0:0:0:
63,150,150395,1,0,0:0:0:0:
368,261,150497,1,0,0:0:0:0:
276,30,150600,6,0,P|281:81|286:124,1,80
209,259,150805,1,0,0:0:0:0:
104,46,150908,1,0,0:0:0:0:
391,73,151011,1,0,0:0:0:0:
74,254,151114,2,0,P|107:250|169:240,1,80
229,66,151319,5,0,0:0:0:0:
274,323,151422,1,0,0:0:0:0:
340,109,151525,5,0,0:0:0:0:
271,342,151627,1,0,0:0:0:0:
454,220,151730,5,0,0:0:0:0:
454,220,151833,2,0,P|414:217|357:202,1,80
127,121,152038,2,0,P|167:118|224:103,1,80
118,309,152244,1,0,0:0:0:0:
263,231,152347,1,0,0:0:0:0:
4,180,152449,1,0,0:0:0:0:
298,50,152552,1,0,0:0:0:0:
30,26,152655,6,0,P|49:89|57:119,1,80
57,318,152860,1,0,0:0:0:0:
271,251,152963,2,0,P|222:235|175:207,1,80
329,351,153168,1,0,0:0:0:0:
381,60,153271,6,0,P|377:112|374:153,1,80
163,108,153477,5,0,0:0:0:0:
463,192,153579,1,0,0:0:0:0:
166,275,153682,1,0,0:0:0:0:
370,49,153785,5,0,0:0:0:0:
398,318,153888,1,0,0:0:0:0:
281,37,153990,5,0,0:0:0:0:
253,324,154093,1,0,0:0:0:0:
160,30,154196,5,0,0:0:0:0:
218,346,154299,1,0,0:0:0:0:
239,25,154401,5,0,0:0:0:0:
85,351,154504,1,0,0:0:0:0:
70,12,154607,5,0,0:0:0:0:
124,365,154710,1,0,0:0:0:0:
375,156,154812,5,0,0:0:0:0:
7,127,154915,2,0,P|47:135|89:156,1,80
289,351,155121,6,0,P|287:309|285:261,1,80
279,168,155326,1,0,0:0:0:0:
182,323,155429,1,0,0:0:0:0:
194,234,155531,6,0,P|196:192|198:144,1,80
204,51,155736,1,0,0:0:0:0:
301,206,155839,1,0,0:0:0:0:
56,123,155942,1,0,0:0:0:0:
385,42,156045,2,0,L|393:132,1,80
425,342,156251,1,0,0:0:0:0:
135,284,156353,6,0,P|177:273|230:262,1,80
465,233,156559,1,0,0:0:0:0:
196,69,156662,1,0,0:0:0:0:
320,353,156764,6,0,P|325:308|328:268,1,80
330,42,156970,1,0,0:0:0:0:
156,273,157073,1,0,0:0:0:0:
452,96,157175,6,0,P|401:107|364:113,1,80
82,206,157381,1,0,0:0:0:0:
422,273,157484,1,0,0:0:0:0:
149,75,157586,5,0,0:0:0:0:
193,323,157689,1,0,0:0:0:0:
311,133,157792,5,0,0:0:0:0:
17,272,157895,1,0,0:0:0:0:
369,264,157997,5,0,0:0:0:0:
14,128,158100,1,0,0:0:0:0:
266,354,158203,5,0,0:0:0:0:
257,32,158305,1,0,0:0:0:0:
399,148,158408,2,0,P|439:170|478:173,1,80
153,280,158614,1,0,0:0:0:0:
485,271,158716,1,0,0:0:0:0:
148,78,158819,2,0,P|137:126|126:166,1,80
71,339,159025,1,0,0:0:0:0:
204,242,159127,1,0,0:0:0:0:
18,237,159230,6,0,P|56:230|113:226,1,80
321,247,159436,1,0,0:0:0:0:
116,135,159538,1,0,0:0:0:0:
239,59,159641,6,0,P|243:104|251:165,1,80
283,299,159847,1,0,0:0:0:0:
344,124,159949,1,0,0:0:0:0:
490,273,160052,6,0,P|443:264|391:251,1,80
157,235,160258,2,0,P|201:217|235:198,1,80
388,27,160463,2,0,P|370:74|355:126,1,80
319,333,160668,2,0,P|313:283|306:240,1,80
236,40,160874,1,0,0:0:0:0:
395,162,160977,1,0,0:0:0:0:
70,216,161079,2,0,P|93:174|112:134,1,80
359,73,161285,5,0,0:0:0:0:
81,145,161388,1,0,0:0:0:0:
419,213,161490,5,0,0:0:0:0:
66,131,161593,1,0,0:0:0:0:
373,337,161696,2,0,P|356:278|228:277,1,179.999994506836
163,344,162107,6,0,L|166:279,1,59.9999981689454
187,73,162312,2,0,L|181:141,1,59.9999981689454
297,199,162518,6,0,P|362:171|431:78,1,179.999994506836
346,300,162929,2,0,P|309:239|308:123,1,179.999994506836
54,65,163340,6,0,L|105:114,1,59.9999981689454
200,202,163545,2,0,L|149:153,1,59.9999981689454
115,21,163751,6,0,L|110:91,1,59.9999981689454
103,220,163956,2,0,L|107:149,1,59.9999981689454
255,55,164162,5,0,0:0:0:0:
438,148,164367,1,0,0:0:0:0:
432,334,164573,1,0,0:0:0:0:
242,226,164778,6,0,L|338:237,1,59.9999981689454
103,338,164984,2,0,P|114:230|118:169,1,119.999996337891
71,88,165292,5,0,0:0:0:0:
303,88,165395,6,0,L|194:42,1,59.9999981689454
406,197,165600,2,0,L|334:218,1,59.9999981689454
205,236,165805,6,0,L|214:317,1,59.9999981689454
205,236,166011,2,0,L|214:317,1,59.9999981689454
205,236,166216,2,0,L|214:317,1,59.9999981689454
348,128,166422,5,0,0:0:0:0:
81,158,166525,1,0,0:0:0:0:
192,80,166627,2,0,L|197:0,1,59.9999981689454
192,80,166833,2,0,L|197:0,1,59.9999981689454
192,80,167038,2,0,L|197:0,1,59.9999981689454
24,284,167244,5,0,0:0:0:0:
391,336,167449,1,0,0:0:0:0:
350,52,167655,5,0,0:0:0:0:
192,234,167758,1,0,0:0:0:0:
406,239,167860,1,0,0:0:0:0:
135,77,167963,1,0,0:0:0:0:
478,108,168066,1,0,0:0:0:0:
121,303,168168,1,0,0:0:0:0:
322,234,168271,1,0,0:0:0:0:
50,127,187586,6,0,L|121:109,1,59.9999981689454
437,85,187792,2,0,L|351:43,1,59.9999981689454
49,320,187997,6,0,L|120:302,1,59.9999981689454
436,278,188203,2,0,L|350:236,1,59.9999981689454
191,50,188408,6,0,L|201:137,1,59.9999981689454
314,336,188614,5,0,0:0:0:0:
134,332,188716,1,0,0:0:0:0:
354,219,188819,1,0,0:0:0:0:
85,237,188922,1,0,0:0:0:0:
349,91,189025,1,0,0:0:0:0:
53,123,189127,1,0,0:0:0:0:
279,14,189230,2,0,P|266:134|261:209,1,179.999994506836
320,138,189641,2,0,P|254:244|218:294,1,179.999994506836
334,256,190052,2,0,P|211:292|140:296,1,179.999994506836
13,189,190463,6,0,B|60:68|60:68|37:126,1,179.999994506836
83,332,190874,2,0,B|55:192|55:192|66:246,1,179.999994506836
209,331,191285,2,0,B|83:262|83:262|132:288,1,179.999994506836
291,45,191696,6,0,P|333:107|452:107,1,179.999994506836
291,149,192107,2,0,P|249:211|130:211,1,179.999994506836
482,308,192518,5,0,0:0:0:0:
33,122,192723,1,0,0:0:0:0:
238,144,192929,6,4,L|240:79,2,59.9999981689454
4,327,193340,5,0,0:0:0:0:
492,62,193545,1,0,0:0:0:0:
235,264,193751,6,4,L|233:199,2,59.9999981689454
263,17,194162,5,0,0:0:0:0:
334,305,194367,1,0,0:0:0:0:
257,130,194573,5,0,0:0:0:0:
164,365,194778,1,0,0:0:0:0:
511,189,194984,5,0,0:0:0:0:
0,191,195189,5,0,0:0:0:0:
382,35,195395,1,0,0:0:0:0:
169,10,195600,5,0,0:0:0:0:
137,303,195703,1,0,0:0:0:0:
378,151,195805,2,0,P|328:168|285:166,1,75.0000028610231
77,103,196011,1,0,0:0:0:0:
277,317,196114,1,0,0:0:0:0:
302,42,196216,6,0,P|281:96|273:137,1,75.0000028610231
173,341,196422,1,0,0:0:0:0:
138,30,196525,1,0,0:0:0:0:
38,239,196627,6,0,P|83:228|126:218,1,75.0000028610231
357,155,196833,1,0,0:0:0:0:
37,89,196936,1,0,0:0:0:0:
248,349,197038,6,0,P|248:291|246:252,1,75.0000028610231
219,33,197244,1,0,0:0:0:0:
478,241,197347,6,0,P|427:211|392:194,1,75.0000028610231
189,108,197553,1,0,0:0:0:0:
429,51,197655,6,0,P|378:80|343:97,1,75.0000028610231
97,207,197861,1,0,0:0:0:0:
327,246,197963,1,0,0:0:0:0:
168,53,198066,1,0,0:0:0:0:
341,266,198168,1,0,0:0:0:0:
325,98,198271,5,0,0:0:0:0:
84,293,198374,1,0,0:0:0:0:
396,183,198477,1,0,0:0:0:0:
31,120,198579,2,0,P|69:132|122:147,1,75.0000028610231
237,201,198785,1,0,0:0:0:0:
197,52,198888,1,0,0:0:0:0:
148,356,198990,1,0,0:0:0:0:
444,271,199093,6,0,P|391:259|330:235,1,75.0000028610231
107,199,199299,1,0,0:0:0:0:
390,105,199401,1,0,0:0:0:0:
162,316,199504,6,0,P|175:263|201:203,1,75.0000028610231
253,48,199710,1,0,0:0:0:0:
316,331,199812,1,0,0:0:0:0:
30,92,199915,6,0,P|75:112|106:123,1,75.0000028610231
376,207,200121,1,0,0:0:0:0:
6,285,200223,1,0,0:0:0:0:
279,20,200326,6,0,L|263:109,1,75.0000028610231
198,353,200531,2,0,L|214:264,1,75.0000028610231
477,113,200737,5,0,0:0:0:0:
280,168,200840,1,0,0:0:0:0:
503,276,200942,5,0,0:0:0:0:
280,168,201045,1,0,0:0:0:0:
473,380,201148,5,0,0:0:0:0:
281,116,201251,1,0,0:0:0:0:
304,353,201353,5,0,0:0:0:0:
490,166,201456,1,0,0:0:0:0:
178,222,201559,5,0,0:0:0:0:
488,318,201662,1,0,0:0:0:0:
142,134,201764,5,0,0:0:0:0:
494,333,201867,1,0,0:0:0:0:
321,32,201970,6,0,P|314:81|304:143,1,75.0000028610231
229,337,202175,1,0,0:0:0:0:
361,249,202278,1,0,0:0:0:0:
11,204,202381,1,0,0:0:0:0:
349,338,202484,5,0,0:0:0:0:
28,102,202586,1,0,0:0:0:0:
110,328,202689,5,0,0:0:0:0:
158,43,202792,1,0,0:0:0:0:
148,365,202895,5,0,0:0:0:0:
297,106,202997,1,0,0:0:0:0:
71,176,203100,6,0,P|112:198|153:202,1,75.0000028610231
379,193,203305,1,0,0:0:0:0:
134,16,203408,1,0,0:0:0:0:
221,319,203511,6,0,P|215:272|226:233,1,75.0000028610231
315,25,203716,1,0,0:0:0:0:
394,357,203819,1,0,0:0:0:0:
78,120,203922,6,0,P|111:142|152:146,1,75.0000028610231
442,128,204127,1,0,0:0:0:0:
69,323,204230,1,0,0:0:0:0:
289,14,204333,6,0,L|291:99,1,75.0000028610231
301,359,204538,1,0,0:0:0:0:
130,92,204641,1,0,0:0:0:0:
480,300,204744,6,0,P|442:288|392:272,1,75.0000028610231
77,198,204949,1,0,0:0:0:0:
485,142,205052,1,0,0:0:0:0:
77,3,205155,6,0,L|152:85,1,75.0000028610231
290,303,205360,1,0,0:0:0:0:
276,66,205463,1,0,0:0:0:0:
149,351,205566,1,0,0:0:0:0:
440,230,205668,1,0,0:0:0:0:
1,180,205771,2,0,P|49:158|82:141,1,75.0000028610231
192,48,205977,5,0,0:0:0:0:
141,217,206079,1,0,0:0:0:0:
195,31,206182,5,0,0:0:0:0:
139,231,206285,1,0,0:0:0:0:
312,80,206388,5,0,0:0:0:0:
349,335,206490,1,0,0:0:0:0:
311,52,206593,5,0,0:0:0:0:
357,353,206696,1,0,0:0:0:0:
486,187,206799,6,0,P|440:172|396:154,1,75.0000028610231
141,70,207004,2,0,P|187:55|231:37,1,75.0000028610231
159,312,207210,1,0,0:0:0:0:
324,145,207312,6,0,P|320:191|318:229,1,75.0000028610231
117,115,207518,2,0,P|121:161|123:199,1,75.0000028610231
388,38,207723,6,0,P|384:84|382:122,1,75.0000028610231
56,32,207929,2,0,P|60:78|62:116,1,75.0000028610231
100,338,208134,6,0,P|151:318|176:313,1,75.0000028610231
403,218,208340,2,0,P|352:198|327:193,1,75.0000028610231
163,51,208545,5,0,0:0:0:0:
238,288,208648,1,0,0:0:0:0:
377,56,208751,1,0,0:0:0:0:
39,157,208853,1,0,0:0:0:0:
491,192,208956,2,0,P|458:265|473:351,1,160
239,249,209573,1,0,0:0:0:0:
366,103,209778,6,0,P|298:104|221:43,1,160
211,29,210395,1,0,0:0:0:0:
70,126,210600,6,0,L|79:224,1,80
221,192,211011,2,0,L|211:286,1,80
95,356,211422,5,0,0:0:0:0:
278,271,211627,1,0,0:0:0:0:
386,103,211833,1,0,0:0:0:0:
400,72,212038,6,0,L|402:184,1,80
144,86,212449,5,0,0:0:0:0:
346,293,212655,2,0,P|288:311|175:273,1,160
90,218,213271,5,0,0:0:0:0:
245,154,213477,2,0,L|251:44,1,80
234,343,213888,6,0,P|168:342|134:354,2,80
457,264,214504,6,0,L|409:247,1,40
173,221,214710,2,0,P|244:202|301:40,1,240
91,52,215531,5,0,0:0:0:0:
125,248,215737,1,0,0:0:0:0:
211,116,215942,5,0,0:0:0:0:
81,358,216148,1,0,0:0:0:0:
360,295,216353,6,0,P|292:273|190:282,1,160
335,73,216970,5,0,0:0:0:0:
181,152,217175,2,0,L|157:41,2,80
366,200,217792,1,0,0:0:0:0:
56,306,217997,2,0,B|139:278|119:360|232:325,1,160
126,147,218614,5,0,0:0:0:0:
399,214,218819,2,0,P|310:167|281:123,1,120
348,333,219230,6,0,P|355:253|350:172,1,160
207,238,219847,5,0,0:0:0:0:
436,129,220052,1,0,0:0:0:0:
208,42,220258,1,0,0:0:0:0:
68,202,220463,6,0,L|81:359,1,120
73,172,220874,2,0,L|86:329,1,120
293,97,221285,6,0,L|280:254,1,120
288,67,221696,2,0,L|282:130,3,40
175,289,222107,6,0,P|227:288|307:315,1,120
387,195,222518,2,0,P|365:246|265:252,1,160
249,57,223134,1,0,0:0:0:0:
236,188,223237,1,0,0:0:0:0:
40,107,223340,2,0,P|94:121|137:117,1,80
351,40,223751,5,0,0:0:0:0:
450,122,224162,1,0,0:0:0:0:
459,327,224573,1,0,0:0:0:0:
161,105,224984,5,0,0:0:0:0:
143,321,225395,1,0,0:0:0:0:
309,168,225805,1,0,0:0:0:0:
16,178,226216,1,0,0:0:0:0:
363,326,226627,1,0,0:0:0:0:
16,147,227038,1,0,0:0:0:0:
378,35,227449,2,0,L|361:208,1,160
164,191,228271,6,0,L|181:364,1,160
431,181,229093,5,0,0:0:0:0:
206,115,229299,1,0,0:0:0:0:
403,42,229401,1,0,0:0:0:0:
403,42,229504,1,0,0:0:0:0:
288,260,229710,1,0,0:0:0:0:
53,62,229915,6,0,P|121:86|238:71,1,160
62,290,230737,1,0,0:0:0:0:
251,195,231045,1,0,0:0:0:0:
260,355,231148,6,0,L|251:183,1,160
72,152,231764,5,0,0:0:0:0:
385,82,231867,1,0,0:0:0:0:
46,164,231970,2,0,L|56:225,1,40
180,66,232175,2,0,L|171:126,1,40
46,164,232381,6,0,L|56:225,1,40
180,66,232586,2,0,L|171:126,1,40
105,341,232792,6,0,L|156:318,1,40
315,240,232997,2,0,L|366:274,1,40
371,35,233203,6,0,L|368:97,1,40
369,74,233408,2,0,L|367:142,1,40
193,117,233614,6,0,L|196:179,1,40
194,156,233819,2,0,L|197:222,1,40
447,300,234025,1,0,0:0:0:0:
46,339,234230,1,0,0:0:0:0:
436,175,234436,1,0,0:0:0:0:
78,37,234847,5,0,0:0:0:0:
256,144,235258,6,0,L|256:176,1,20
