osu file format v14

[General]
AudioFilename: audio.mp3
AudioLeadIn: 0
PreviewTime: 45969
Countdown: 0
SampleSet: Soft
StackLeniency: 0.5
Mode: 0
LetterboxInBreaks: 0
WidescreenStoryboard: 0

[Editor]
Bookmarks: 11515,21906,39406,40734,73781
DistanceSpacing: 1.4
BeatDivisor: 4
GridSize: 16
TimelineZoom: 2.4

[Metadata]
Title:GET BACK
TitleUnicode:GET BACK
Artist:THE ORAL CIGARETTES
ArtistUnicode:THE ORAL CIGARETTES
Creator:NexusQI
Version:Hard
Source:
Tags:japanese rock amy before it's its too late cut short ver version
BeatmapID:2268880
BeatmapSetID:1012262

[Difficulty]
HPDrainRate:4
CircleSize:3.7
OverallDifficulty:6.5
ApproachRate:7.7
SliderMultiplier:1.8
SliderTickRate:1

[Events]
//Background and Video events
0,0,"bg.jpg",0,0
//Break Periods
//Storyboard Layer 0 (Background)
//Storyboard Layer 1 (Fail)
//Storyboard Layer 2 (Pass)
//Storyboard Layer 3 (Foreground)
//Storyboard Layer 4 (Overlay)
//Storyboard Sound Samples

[TimingPoints]
344,312.5,4,2,3,65,1,0
1594,-133.333333333333,4,2,1,50,0,0
11437,-133.333333333333,4,2,1,5,0,0
11594,-142.857142857143,4,2,1,65,0,0
21594,-153.846153846154,4,2,1,65,0,0
45969,-250,4,2,1,75,0,0
46594,-133.333333333333,4,2,1,80,0,1
63781,-133.333333333333,4,2,1,80,0,1
64094,-133.333333333333,4,2,1,80,0,1
74094,-133.333333333333,4,2,1,80,0,1
81594,-133.333333333333,4,2,1,65,0,0
91594,-125,4,2,1,60,0,0
92844,-125,4,2,1,55,0,0
94094,-125,4,2,1,50,0,0
95344,-125,4,2,1,45,0,0
96594,-125,4,2,1,40,0,0
97635,-133.333333333333,4,2,1,40,0,0

[Colours]
Combo1 : 244,138,191
Combo2 : 88,174,255
Combo3 : 74,134,255
Combo4 : 88,210,255

[HitObjects]
16,66,344,5,2,0:0:0:0:
35,79,656,1,2,0:0:0:0:
54,92,969,1,2,0:0:0:0:
73,105,1281,1,2,0:0:0:0:
152,40,1594,6,0,L|240:32,2,67.5000025749208,2|2|2,3:2|0:2|3:2,0:0:0:0:
94,166,2062,2,0,P|74:122|77:82,1,67.5000025749208,2|0,0:0|3:0,0:0:0:0:
111,173,2375,2,0,P|91:129|94:89,1,67.5000025749208,2|0,0:0|3:0,0:0:0:0:
175,227,2687,2,0,P|195:183|192:143,1,67.5000025749208,2|0,0:0|3:0,0:0:0:0:
192,220,3000,2,0,P|212:176|209:136,1,67.5000025749208,2|0,0:0|3:0,0:0:0:0:
204,60,3312,1,2,0:0:0:0:
300,88,3469,6,0,L|359:99,3,33.7500012874604,2|2|2|2,3:2|0:2|0:2|0:2,0:0:0:0:
378,102,3781,2,0,L|436:94,3,33.7500012874604,2|2|2|2,3:2|0:2|0:2|0:2,0:0:0:0:
349,143,4094,6,0,P|346:176|358:216,2,67.5000025749208,2|2|2,3:2|0:2|3:2,0:0:0:0:
435,179,4562,2,0,L|520:174,1,67.5000025749208,2|0,0:0|3:0,0:0:0:0:
444,187,4875,2,0,L|529:182,1,67.5000025749208,2|0,0:0|3:0,0:0:0:0:
467,271,5187,2,0,L|382:266,1,67.5000025749208,2|0,0:0|3:0,0:0:0:0:
458,279,5500,2,0,L|373:274,1,67.5000025749208,2|0,0:0|3:0,0:0:0:0:
326,344,5812,1,2,0:0:0:0:
238,307,5969,6,0,L|181:298,3,33.7500012874604,2|2|2|2,3:2|0:2|0:2|0:2,0:0:0:0:
161,320,6281,2,0,L|104:329,3,33.7500012874604,2|2|2|2,3:2|0:2|0:2|0:2,0:0:0:0:
85,302,6594,6,0,P|79:269|88:237,2,67.5000025749208,2|2|2,3:2|0:2|3:2,0:0:0:0:
166,211,7062,2,0,P|172:178|163:145,1,67.5000025749208,2|0,0:0|3:0,0:0:0:0:
182,201,7375,2,0,P|188:168|179:135,1,67.5000025749208,2|0,0:0|3:0,0:0:0:0:
66,166,7687,2,0,P|59:133|68:100,1,67.5000025749208,2|0,0:0|3:0,0:0:0:0:
50,156,8000,2,0,P|43:123|52:90,1,67.5000025749208,2|0,0:0|3:0,0:0:0:0:
112,18,8312,1,2,0:0:0:0:
201,49,8469,6,0,L|263:58,3,33.7500012874604,2|2|2|2,3:2|0:2|0:2|0:2,0:0:0:0:
279,67,8781,2,0,L|341:58,3,33.7500012874604,2|2|2|2,3:2|0:2|0:2|0:2,0:0:0:0:
359,96,9094,5,10,0:0:0:0:
359,96,9172,1,8,0:0:0:0:
359,96,9250,2,0,L|422:98,2,33.7500012874604,10|8|10,0:0|0:0|0:0,0:0:0:0:
389,282,9719,5,8,0:0:0:0:
300,250,9875,2,0,P|256:238|213:247,1,67.5000025749208,2|0,3:2|0:0,0:0:0:0:
155,290,10187,1,2,3:2:0:0:
21,93,11594,6,0,P|74:67|143:67,1,125.999996154785,6|8,3:2|0:0,0:0:0:0:
203,127,12062,2,0,P|238:144|270:146,1,62.9999980773926,2|0,0:0|3:0,0:0:0:0:
326,85,12375,2,0,P|361:68|393:66,1,62.9999980773926,2|8,3:2|0:0,0:0:0:0:
481,102,12687,6,0,B|498:135|498:135|471:242,1,125.999996154785,6|2,3:2|3:2,0:0:0:0:
409,280,13156,2,0,P|370:261|333:264,1,62.9999980773926,10|0,0:0|0:0,0:0:0:0:
304,335,13469,2,0,L|225:331,1,62.9999980773926,2|0,3:2|3:0,0:0:0:0:
161,370,13781,2,0,P|148:332|155:286,1,62.9999980773926,10|0,0:0|0:0,0:0:0:0:
176,205,14094,6,0,P|200:174|288:155,1,125.999996154785,6|8,3:2|0:0,0:0:0:0:
363,185,14562,1,2,0:0:0:0:
396,102,14719,1,0,3:0:0:0:
328,45,14875,2,0,P|291:28|251:32,1,62.9999980773926,2|8,3:2|0:0,0:0:0:0:
161,33,15187,6,0,P|108:47|72:123,1,125.999996154785,6|2,3:2|3:2,0:0:0:0:
24,179,15656,2,0,L|39:271,1,62.9999980773926,10|0,0:0|0:0,0:0:0:0:
82,315,15969,2,0,P|117:318|167:299,1,62.9999980773926,2|0,3:2|3:0,0:0:0:0:
167,226,16281,2,0,P|210:216|242:225,1,62.9999980773926,10|0,0:0|0:0,0:0:0:0:
314,283,16594,6,0,B|353:268|384:273|372:292|412:302|449:287,1,125.999996154785,6|8,3:2|0:0,0:0:0:0:
422,204,17062,2,0,L|414:138,1,62.9999980773926,2|0,0:0|3:0,0:0:0:0:
489,93,17375,2,0,L|497:27,1,62.9999980773926,2|8,3:2|0:0,0:0:0:0:
392,21,17687,6,0,B|341:21|341:21|321:39|321:39|269:42,1,125.999996154785,6|2,3:2|3:2,0:0:0:0:
186,60,18156,2,0,L|106:55,1,62.9999980773926,10|0,0:0|0:0,0:0:0:0:
50,107,18469,2,0,P|48:144|59:173,1,62.9999980773926,2|0,3:2|3:0,0:0:0:0:
139,198,18781,2,0,P|141:235|130:264,1,62.9999980773926,10|0,0:0|0:0,0:0:0:0:
78,343,19094,6,0,L|233:333,1,125.999996154785,6|8,3:2|0:0,0:0:0:0:
291,339,19562,1,2,0:0:0:0:
306,251,19719,1,0,3:0:0:0:
239,193,19875,2,0,P|223:157|226:119,1,62.9999980773926,2|8,3:2|0:0,0:0:0:0:
277,42,20187,6,0,B|316:19|316:19|419:37,1,125.999996154785,6|2,3:2|3:2,0:0:0:0:
457,96,20656,2,0,L|452:158,1,62.9999980773926,10|0,0:0|0:0,0:0:0:0:
387,230,20969,2,0,P|372:202|371:170,1,62.9999980773926,2|8,3:2|0:0,0:0:0:0:
458,311,21281,2,0,P|472:283|474:251,1,62.9999980773926,2|8,3:2|0:0,0:0:0:0:
359,340,21594,6,0,P|314:317|228:328,1,116.999994644165,4|10,3:2|0:0,0:0:0:0:
174,344,22062,1,2,0:0:0:0:
174,344,22219,2,0,L|167:263,1,58.4999973220826,2|0,3:2|3:0,0:0:0:0:
92,264,22531,1,10,0:2:0:0:
92,264,22687,2,0,B|76:177|76:177|95:128,1,116.999994644165,2|2,3:2|3:2,0:0:0:0:
123,73,23156,1,10,0:2:0:0:
123,73,23312,1,2,0:0:0:0:
183,128,23469,2,0,P|217:144|259:138,1,58.4999973220826,2|0,3:2|3:0,0:0:0:0:
286,82,23781,2,0,P|317:69|358:71,1,58.4999973220826,10|2,0:0|0:0,0:0:0:0:
404,129,24094,5,2,3:2:0:0:
404,129,24250,1,2,0:0:0:0:
470,81,24406,2,0,B|488:117|488:117|467:212,1,116.999994644165,10|2,0:0|3:2,0:0:0:0:
424,259,24875,2,0,P|434:295|428:335,1,58.4999973220826,2|8,3:2|0:0,0:0:0:0:
359,352,25187,2,0,B|327:332|297:337|309:356|274:363|241:351,1,116.999994644165,2|2,3:2|3:2,0:0:0:0:
228,272,25656,2,0,P|181:264|152:275,1,58.4999973220826,8|2,0:0|0:0,0:0:0:0:
117,328,25969,1,2,3:2:0:0:
117,328,26125,1,2,3:2:0:0:
39,301,26281,2,0,L|29:227,1,58.4999973220826,8|2,0:0|0:0,0:0:0:0:
61,166,26594,6,0,L|66:92,1,58.4999973220826,2|0,3:2|0:0,0:0:0:0:
76,26,26906,2,0,P|103:19|143:34,1,58.4999973220826,10|0,0:0|0:0,0:0:0:0:
147,102,27219,2,0,P|187:101|225:83,1,58.4999973220826,2|2,3:2|3:2,0:0:0:0:
261,40,27531,1,10,0:2:0:0:
261,40,27687,2,0,L|396:37,1,116.999994644165,2|2,3:2|3:2,0:0:0:0:
457,17,28156,2,0,P|458:63|448:89,1,58.4999973220826,10|2,0:2|0:0,0:0:0:0:
401,137,28469,2,0,L|317:127,1,58.4999973220826,2|2,3:2|3:2,0:0:0:0:
271,169,28781,2,0,L|187:178,1,58.4999973220826,10|2,0:2|0:0,0:0:0:0:
137,201,29094,5,2,3:2:0:0:
137,201,29250,1,0,0:2:0:0:
152,281,29406,2,0,P|183:294|223:289,1,58.4999973220826,10|0,0:0|0:0,0:0:0:0:
286,277,29719,1,2,3:2:0:0:
286,277,29876,1,2,3:2:0:0:
344,333,30031,2,0,L|423:328,1,58.4999973220826,8|2,0:0|0:0,0:0:0:0:
446,261,30344,5,2,3:2:0:0:
446,261,30501,1,2,3:2:0:0:
488,192,30656,2,0,L|483:112,1,58.4999973220826,8|2,0:0|0:0,0:0:0:0:
438,71,30969,1,2,3:2:0:0:
438,71,31125,1,2,3:2:0:0:
369,112,31281,2,0,P|333:120|295:117,1,58.4999973220826,8|2,0:0|0:0,0:0:0:0:
224,42,31594,6,0,L|228:115,1,58.4999973220826,6|0,3:2|0:0,0:0:0:0:
153,128,31906,2,0,L|148:201,1,58.4999973220826,10|0,0:0|0:0,0:0:0:0:
197,249,32219,2,0,P|231:240|276:247,2,58.4999973220826,2|0|10,3:2|3:2|0:2,0:0:0:0:
235,318,32687,2,0,P|300:336|367:321,1,116.999994644165,2|2,3:2|3:2,0:0:0:0:
409,278,33156,2,0,L|402:202,1,58.4999973220826,8|2,0:0|0:0,0:0:0:0:
483,191,33469,2,0,L|489:115,1,58.4999973220826,2|2,3:2|3:2,0:0:0:0:
436,72,33781,2,0,P|397:61|352:67,1,58.4999973220826,10|2,0:2|0:0,0:0:0:0:
340,135,34094,5,2,3:2:0:0:
340,135,34250,1,2,0:0:0:0:
264,183,34406,2,0,L|132:179,1,116.999994644165,10|2,0:0|3:2,0:0:0:0:
127,104,34875,2,0,P|94:91|52:99,1,58.4999973220826,2|8,3:2|0:0,0:0:0:0:
23,157,35187,2,0,B|6:187|6:187|34:284,1,116.999994644165,2|2,3:2|3:2,0:0:0:0:
109,250,35656,2,0,P|156:243|185:254,1,58.4999973220826,10|2,0:0|0:0,0:0:0:0:
229,306,35969,1,2,3:2:0:0:
229,306,36125,1,2,3:2:0:0:
280,369,36281,2,0,L|365:365,1,58.4999973220826,10|2,0:0|0:0,0:0:0:0:
373,288,36594,6,0,P|360:249|364:226,1,58.4999973220826,2|2,3:2|0:0,0:0:0:0:
432,191,36906,2,0,P|445:152|441:129,1,58.4999973220826,10|0,0:0|0:0,0:0:0:0:
368,99,37219,2,0,L|295:89,1,58.4999973220826,2|2,3:2|3:2,0:0:0:0:
246,37,37531,1,10,0:2:0:0:
246,37,37687,2,0,B|223:68|223:68|230:155,1,116.999994644165,2|2,3:2|3:2,0:0:0:0:
290,213,38156,2,0,L|281:287,1,58.4999973220826,8|2,0:0|0:0,0:0:0:0:
219,323,38469,2,0,P|184:304|143:308,1,58.4999973220826,2|0,3:2|3:0,0:0:0:0:
84,308,38781,2,0,L|82:238,1,58.4999973220826,10|2,0:2|0:0,0:0:0:0:
58,170,39094,6,0,P|103:147|183:165,1,116.999994644165,2|10,3:2|0:0,0:0:0:0:
241,189,39562,1,0,0:0:0:0:
260,108,39719,2,0,L|271:45,1,58.4999973220826,2|2,3:2|3:2,0:0:0:0:
341,17,40031,2,0,P|375:17|418:29,1,58.4999973220826,10|0,0:2|0:0,0:0:0:0:
464,96,40344,6,0,P|439:129|432:224,1,116.999994644165,2|10,3:2|0:0,0:0:0:0:
418,283,40812,1,2,0:0:0:0:
350,336,40969,2,0,L|296:333,3,29.2499986610413,10|8|8|8,0:2|0:0|0:0|0:0,0:0:0:0:
282,316,41281,2,0,L|228:319,3,29.2499986610413,10|8|8|8,0:2|0:0|0:0|0:0,0:0:0:0:
210,340,41594,6,0,P|177:283|191:208,1,116.999994644165,4|8,3:2|0:0,0:0:0:0:
133,150,42062,1,0,3:0:0:0:
133,150,42219,2,0,L|50:155,1,58.4999973220826,8|0,0:0|3:0,0:0:0:0:
198,77,42531,2,0,L|281:82,1,58.4999973220826,8|0,0:0|3:0,0:0:0:0:
344,38,42844,6,0,L|427:33,1,58.4999973220826,8|0,0:0|3:0,0:0:0:0:
486,70,43156,1,8,0:0:0:0:
486,70,43312,1,0,3:0:0:0:
446,155,43469,1,8,0:0:0:0:
446,155,43625,1,0,3:0:0:0:
474,241,43781,2,0,L|458:317,1,58.4999973220826,8|0,0:0|0:0,0:0:0:0:
370,364,44094,6,0,P|309:347|248:356,1,116.999994644165,4|8,3:2|0:0,0:0:0:0:
166,366,44562,1,8,0:0:0:0:
166,366,44719,2,0,L|161:300,1,58.4999973220826,8|8,0:0|0:0,0:0:0:0:
209,224,45031,1,8,0:0:0:0:
209,224,45187,1,8,0:0:0:0:
156,135,45344,2,0,L|103:129,3,29.2499986610413,8|8|8|8,0:0|0:0|0:0|0:2,0:0:0:0:
94,157,45656,2,0,L|41:163,3,29.2499986610413,8|8|8|8,0:2|0:0|0:0|0:0,0:0:0:0:
23,142,45969,5,2,3:2:0:0:
130,270,46594,6,0,P|167:257|222:259,1,67.5000025749208,4|0,3:2|0:0,0:0:0:0:
258,331,46906,1,10,0:0:0:0:
258,331,47062,2,0,B|298:318|329:318|318:338|352:350|407:330,1,135.000005149842,2|0,0:0|3:0,0:0:0:0:
486,355,47531,1,10,0:0:0:0:
486,355,47687,2,0,B|468:309|468:309|485:206,1,135.000005149842,2|0,0:0|0:0,0:0:0:0:
498,134,48156,1,10,0:0:0:0:
498,134,48312,2,0,L|409:127,1,67.5000025749208,2|0,0:0|3:0,0:0:0:0:
344,88,48625,2,0,L|252:96,1,67.5000025749208,2|8,3:2|0:0,0:0:0:0:
190,56,48937,1,2,0:0:0:0:
120,138,49094,6,0,B|104:228|104:228|130:291,1,135.000005149842,4|8,3:2|0:0,0:0:0:0:
193,208,49562,2,0,P|230:193|261:196,1,67.5000025749208,2|0,0:0|3:0,0:0:0:0:
291,283,49875,2,0,P|328:298|359:295,1,67.5000025749208,2|8,3:2|0:0,0:0:0:0:
411,220,50187,2,0,B|439:192|439:192|445:297,1,135.000005149842,2|2,0:0|0:0,0:0:0:0:
415,377,50656,2,0,L|335:368,1,67.5000025749208,8|0,0:0|0:0,0:0:0:0:
257,372,50969,1,2,3:2:0:0:
257,372,51125,1,2,3:2:0:0:
291,283,51281,2,0,L|285:198,1,67.5000025749208,10|2,0:2|0:0,0:0:0:0:
234,112,51594,6,0,P|188:87|92:97,1,135.000005149842,4|10,3:2|0:0,0:0:0:0:
58,172,52062,1,2,0:0:0:0:
58,172,52219,2,0,L|71:258,1,67.5000025749208,0|2,3:0|3:2,0:0:0:0:
122,315,52531,1,10,0:0:0:0:
182,242,52687,1,2,0:0:0:0:
248,323,52844,6,0,B|295:316|295:316|323:330|323:330|384:325,1,135.000005149842,6|8,3:2|0:0,0:0:0:0:
431,247,53312,2,0,P|442:203|435:177,1,67.5000025749208,2|0,0:2|3:0,0:0:0:0:
344,163,53625,2,0,P|333:119|340:93,1,67.5000025749208,2|8,3:2|0:0,0:0:0:0:
387,17,53937,1,2,0:0:0:0:
271,3,54094,5,6,3:2:0:0:
271,3,54250,1,2,0:0:0:0:
197,61,54406,2,0,B|145:67|145:67|123:89|123:89|62:98,1,135.000005149842,10|0,0:0|3:0,0:0:0:0:
19,176,54875,1,0,3:0:0:0:
19,176,55031,2,0,P|52:187|104:180,1,67.5000025749208,8|0,0:0|0:0,0:0:0:0:
179,190,55344,6,0,L|224:184,3,33.7500012874604,8|8|8|8,0:2|0:0|0:0|0:0,0:0:0:0:
251,159,55656,2,0,L|295:163,3,33.7500012874604,8|8|8|8,0:2|0:0|0:0|0:0,0:0:0:0:
314,199,55969,2,0,L|361:198,3,33.7500012874604,10|8|10|8,0:2|0:0|0:0|0:0,0:0:0:0:
384,169,56281,2,0,L|427:163,3,33.7500012874604,10|8|10|8,0:2|0:0|0:0|0:0,0:0:0:0:
456,182,56594,6,0,L|457:268,1,67.5000025749208,6|0,3:2|0:0,0:0:0:0:
425,340,56906,1,10,0:0:0:0:
425,340,57062,2,0,B|361:318|361:318|282:330,1,135.000005149842,2|0,0:0|3:2,0:0:0:0:
205,354,57531,1,10,0:0:0:0:
205,354,57687,2,0,P|114:342|85:300,1,135.000005149842,2|0,0:2|0:0,0:0:0:0:
60,227,58156,1,10,0:0:0:0:
60,227,58312,2,0,L|70:145,1,67.5000025749208,2|0,0:0|3:0,0:0:0:0:
151,114,58625,2,0,L|141:32,1,67.5000025749208,2|8,3:2|0:0,0:0:0:0:
220,0,58937,1,2,0:0:0:0:
295,80,59094,6,0,B|328:68|371:70|358:93|390:94|432:88,1,135.000005149842,6|10,3:2|0:0,0:0:0:0:
505,140,59562,2,0,L|493:230,1,67.5000025749208,2|0,0:0|3:0,0:0:0:0:
403,229,59875,2,0,L|415:319,1,67.5000025749208,2|8,3:2|0:0,0:0:0:0:
354,370,60187,2,0,P|324:355|278:360,1,67.5000025749208,2|0,0:0|3:2,0:0:0:0:
195,350,60500,1,2,0:0:0:0:
245,270,60656,2,0,L|238:178,1,67.5000025749208,8|0,0:0|0:0,0:0:0:0:
208,113,60969,6,0,P|174:113|132:129,2,67.5000025749208,2|2|10,3:2|3:2|0:2,0:0:0:0:
297,143,61437,2,0,B|334:155|334:155|447:126,1,135.000005149842,2|0,0:0|0:0,0:0:0:0:
387,50,61906,1,10,0:0:0:0:
387,50,62062,2,0,L|242:43,1,135.000005149842,2|0,0:0|3:0,0:0:0:0:
168,32,62531,1,10,0:2:0:0:
168,32,62687,1,2,0:2:0:0:
190,120,62844,6,0,L|180:202,1,67.5000025749208,8|0,0:0|3:0,0:0:0:0:
111,241,63156,2,0,L|121:323,1,67.5000025749208,8|0,0:0|3:0,0:0:0:0:
203,350,63469,2,0,L|254:358,3,33.7500012874604,10|0|0|0,0:2|3:2|3:2|3:2,0:0:0:0:
271,323,63781,2,0,P|303:312|356:308,1,67.5000025749208,14|2,0:0|0:0,0:0:0:0:
428,284,64094,6,0,L|433:198,1,67.5000025749208,4|0,3:2|0:0,0:0:0:0:
408,125,64406,1,10,0:2:0:0:
339,189,64562,2,0,B|302:179|270:189|282:207|238:217|193:202,1,135.000005149842,2|0,3:2|3:0,0:0:0:0:
153,282,65031,1,10,0:0:0:0:
109,201,65187,2,0,B|83:164|83:164|105:63,1,135.000005149842,2|0,3:2|3:0,0:0:0:0:
130,0,65656,1,10,0:0:0:0:
130,0,65812,2,0,P|90:-4|54:8,1,67.5000025749208,2|8,3:2|0:0,0:0:0:0:
2,70,66125,2,0,L|7:155,1,67.5000025749208,2|8,3:2|0:0,0:0:0:0:
0,238,66437,1,2,3:2:0:0:
109,201,66594,6,0,L|191:186,1,67.5000025749208,12|0,0:0|3:0,0:0:0:0:
247,256,66906,1,10,0:0:0:0:
247,256,67062,2,0,L|340:263,1,67.5000025749208,2|8,3:2|0:0,0:0:0:0:
404,291,67375,2,8,L|405:207,1,67.5000025749208,2|8,3:2|0:2,0:0:0:0:
457,145,67687,6,0,B|414:122|414:122|310:143,1,135.000005149842,2|2,3:2|3:2,0:0:0:0:
261,72,68156,2,0,P|232:58|186:62,1,67.5000025749208,10|0,0:0|3:0,0:0:0:0:
109,86,68469,1,10,0:2:0:0:
109,86,68625,1,2,3:2:0:0:
169,165,68781,1,10,0:2:0:0:
169,165,68937,1,2,3:2:0:0:
135,269,69094,6,0,P|105:255|71:256,1,67.5000025749208,12|0,0:0|3:0,0:0:0:0:
14,331,69406,1,10,0:2:0:0:
107,358,69562,2,0,B|175:377|175:377|241:361,1,135.000005149842,2|2,3:2|3:2,0:0:0:0:
284,279,70031,1,8,0:0:0:0:
211,218,70187,1,2,3:2:0:0:
272,126,70344,6,0,L|263:44,1,67.5000025749208,14|0,0:0|3:0,0:0:0:0:
361,79,70656,1,10,0:0:0:0:
361,79,70812,2,0,L|454:84,1,67.5000025749208,2|8,3:2|0:0,0:0:0:0:
485,158,71125,2,0,P|500:201|488:243,1,67.5000025749208,2|8,3:2|0:0,0:0:0:0:
434,292,71437,1,2,3:2:0:0:
358,234,71594,6,0,L|280:230,1,67.5000025749208,14|2,0:0|3:2,0:0:0:0:
205,262,71906,2,0,L|204:187,1,67.5000025749208,10|0,0:2|3:0,0:0:0:0:
259,118,72219,1,8,0:0:0:0:
259,118,72375,1,0,3:0:0:0:
187,64,72531,1,8,0:0:0:0:
187,64,72687,1,0,0:0:0:0:
111,120,72844,6,0,L|51:111,3,33.7500012874604,8|8|8|8,0:2|0:0|0:0|0:0,0:0:0:0:
46,150,73156,2,0,L|-14:159,3,33.7500012874604,8|8|8|8,0:2|0:0|0:0|0:0,0:0:0:0:
6,202,73469,2,0,P|5:228|13:250,3,33.7500012874604,10|8|10|8,0:2|0:0|0:0|0:0,0:0:0:0:
50,253,73781,2,0,P|51:279|43:301,3,33.7500012874604,10|8|10|8,0:2|0:0|0:0|0:0,0:0:0:0:
74,326,74094,6,0,L|152:326,1,67.5000025749208,4|0,3:2|0:0,0:0:0:0:
235,302,74406,1,10,0:0:0:0:
235,302,74562,2,0,P|277:278|358:294,1,135.000005149842,2|0,0:0|3:0,0:0:0:0:
447,339,75031,1,10,0:0:0:0:
447,339,75187,2,0,L|446:199,1,135.000005149842,2|0,0:2|0:0,0:0:0:0:
419,124,75656,1,10,0:0:0:0:
419,124,75812,2,0,P|382:138|353:141,1,67.5000025749208,2|0,0:2|3:0,0:0:0:0:
285,80,76125,2,0,P|248:66|219:63,1,67.5000025749208,2|8,3:2|0:0,0:0:0:0:
133,90,76437,1,2,0:0:0:0:
190,192,76594,6,0,B|207:222|207:222|185:346,1,135.000005149842,6|8,3:2|0:0,0:0:0:0:
106,357,77062,2,0,L|93:273,1,67.5000025749208,2|0,0:0|3:0,0:0:0:0:
22,235,77375,2,0,L|35:151,1,67.5000025749208,2|8,3:2|0:0,0:0:0:0:
51,79,77687,2,0,P|101:49|203:65,1,135.000005149842,2|2,0:0|0:0,0:0:0:0:
246,109,78156,2,0,L|323:107,1,67.5000025749208,8|0,0:0|0:0,0:0:0:0:
391,59,78469,2,0,L|468:61,2,67.5000025749208,2|2|10,3:2|3:2|0:2,0:0:0:0:
387,149,78937,1,2,0:2:0:0:
454,228,79094,6,0,B|469:259|469:259|442:361,1,135.000005149842,4|10,3:2|0:0,0:0:0:0:
364,303,79562,2,0,L|274:297,1,67.5000025749208,2|0,0:0|3:0,0:0:0:0:
209,322,79875,1,2,3:2:0:0:
209,322,80031,2,0,L|130:328,1,67.5000025749208,8|2,0:0|0:0,0:0:0:0:
67,273,80344,6,0,L|65:208,3,33.7500012874604,8|8|8|8,0:2|0:0|0:0|0:0,0:0:0:0:
98,207,80656,2,0,L|96:142,3,33.7500012874604,10|8|8|8,0:2|0:0|0:0|0:0,0:0:0:0:
53,157,80969,2,0,L|42:67,1,67.5000025749208,10|8,3:0|3:0,0:0:0:0:
129,30,81281,2,0,L|122:112,1,67.5000025749208,10|8,3:0|3:0,0:0:0:0:
219,42,81594,6,0,P|267:30|300:41,2,67.5000025749208,6|2|10,3:2|3:2|0:2,0:0:0:0:
264,120,82062,2,0,L|260:192,1,67.5000025749208,2|0,0:0|3:0,0:0:0:0:
275,129,82375,2,0,L|271:201,1,67.5000025749208,2|8,3:2|0:0,0:0:0:0:
220,266,82687,2,0,L|224:338,1,67.5000025749208,2|0,0:2|3:0,0:0:0:0:
208,276,83000,2,0,L|212:348,1,67.5000025749208,2|8,3:2|0:0,0:0:0:0:
298,379,83312,1,2,0:0:0:0:
350,302,83469,6,0,L|393:298,3,33.7500012874604,2|2|2|2,3:2|0:2|3:2|0:2,0:0:0:0:
416,329,83781,2,0,L|459:325,3,33.7500012874604,10|2|2|2,0:2|0:2|0:2|0:2,0:0:0:0:
482,291,84094,6,0,P|494:256|490:210,2,67.5000025749208,6|2|10,3:2|3:2|0:2,0:0:0:0:
411,228,84562,2,0,L|403:145,1,67.5000025749208,2|0,0:0|3:0,0:0:0:0:
399,219,84875,2,0,L|389:133,1,67.5000025749208,2|8,3:2|0:0,0:0:0:0:
491,128,85187,2,0,L|500:40,1,67.5000025749208,2|0,0:2|3:0,0:0:0:0:
478,117,85500,2,0,L|487:29,1,67.5000025749208,2|8,0:2|0:0,0:0:0:0:
382,29,85812,1,2,0:0:0:0:
309,90,85969,6,0,L|313:154,3,33.7500012874604,2|2|2|2,3:2|0:2|3:2|0:2,0:0:0:0:
280,159,86281,2,0,L|284:223,3,33.7500012874604,10|2|2|2,0:2|0:2|0:2|0:2,0:0:0:0:
245,223,86594,6,0,L|167:219,2,67.5000025749208,6|2|10,3:2|3:2|0:2,0:0:0:0:
296,297,87062,2,0,L|373:291,1,67.5000025749208,2|0,0:0|3:0,0:0:0:0:
307,307,87375,2,0,L|384:301,1,67.5000025749208,2|8,3:2|0:0,0:0:0:0:
241,357,87687,2,0,L|164:363,1,67.5000025749208,2|0,0:2|3:0,0:0:0:0:
230,347,88000,2,0,L|153:353,1,67.5000025749208,2|8,3:2|0:0,0:0:0:0:
80,305,88312,1,2,0:0:0:0:
98,211,88469,6,0,L|98:164,3,33.7500012874604,2|2|2|2,3:2|0:2|3:2|0:2,0:0:0:0:
76,135,88781,2,0,L|79:97,3,33.7500012874604,10|2|2|2,0:2|0:2|0:2|0:2,0:0:0:0:
121,77,89094,5,10,0:2:0:0:
121,77,89172,1,8,0:0:0:0:
121,77,89250,2,0,L|184:79,2,33.7500012874604,10|8|10,0:0|0:0|0:0,0:0:0:0:
250,219,89719,5,8,0:0:0:0:
326,274,89875,2,0,P|368:280|411:257,1,67.5000025749208,2|0,3:2|0:0,0:0:0:0:
461,209,90187,5,6,3:2:0:0:
256,192,90265,12,2,97635,0:0:0:0:
