osu file format v14

[General]
AudioFilename: audio.mp3
AudioLeadIn: 0
PreviewTime: 45969
Countdown: 0
SampleSet: Soft
StackLeniency: 0.5
Mode: 0
LetterboxInBreaks: 0
WidescreenStoryboard: 0

[Editor]
Bookmarks: 11515,21906,39406,40734,73781
DistanceSpacing: 0.99
BeatDivisor: 4
GridSize: 16
TimelineZoom: 2.4

[Metadata]
Title:GET BACK
TitleUnicode:GET BACK
Artist:THE ORAL CIGARETTES
ArtistUnicode:THE ORAL CIGARETTES
Creator:NexusQI
Version:Expert
Source:
Tags:japanese rock amy before it's its too late cut short ver version
BeatmapID:2267377
BeatmapSetID:1012262

[Difficulty]
HPDrainRate:5.5
CircleSize:3.9
OverallDifficulty:8.5
ApproachRate:9.2
SliderMultiplier:1.8
SliderTickRate:1

[Events]
//Background and Video events
0,0,"bg.jpg",0,0
//Break Periods
//Storyboard Layer 0 (Background)
//Storyboard Layer 1 (Fail)
//Storyboard Layer 2 (Pass)
//Storyboard Layer 3 (Foreground)
//Storyboard Layer 4 (Overlay)
//Storyboard Sound Samples

[TimingPoints]
344,312.5,4,2,3,65,1,0
1594,-117.647058823529,4,2,1,50,0,0
10500,-111.111111111111,4,2,1,55,0,0
10734,-111.111111111111,4,2,1,60,0,0
10969,-111.111111111111,4,2,1,65,0,0
11203,-111.111111111111,4,2,1,70,0,0
11437,-117.647058823529,4,2,1,5,0,0
11594,-105.263157894737,4,2,1,65,0,0
21594,-133.333333333333,4,2,1,65,0,0
45969,-250,4,2,1,75,0,0
46594,-95.2380952380952,4,2,1,80,0,1
63781,-166.666666666667,4,2,1,80,0,1
64094,-86.9565217391304,4,2,1,80,0,1
74094,-95.2380952380952,4,2,1,80,0,1
81594,-100,4,2,1,65,0,0
91594,-125,4,2,1,60,0,0
92844,-125,4,2,1,55,0,0
94094,-125,4,2,1,50,0,0
95344,-125,4,2,1,45,0,0
96594,-125,4,2,1,40,0,0
97453,-200,4,2,1,5,0,0
97635,-200,4,2,1,40,0,0
98156,-200,4,2,1,20,0,0

[Colours]
Combo1 : 244,138,191
Combo2 : 88,174,255
Combo3 : 74,134,255
Combo4 : 88,210,255

[HitObjects]
140,54,344,5,2,0:0:0:0:
74,129,656,1,2,0:0:0:0:
58,246,969,1,2,0:0:0:0:
137,383,1281,1,2,0:0:0:0:
275,210,1594,6,0,L|193:207,1,76.5000014591217,2|2,3:2|0:2,0:0:0:0:
356,142,1906,1,2,3:2:0:0:
238,35,2062,2,0,P|221:88|227:133,1,76.5000014591217,2|0,0:0|3:0,0:0:0:0:
219,19,2375,2,0,P|202:72|208:117,1,76.5000014591217,2|0,0:0|3:0,0:0:0:0:
339,68,2687,2,0,P|356:121|350:166,1,76.5000014591217,2|0,0:0|3:0,0:0:0:0:
358,52,3000,2,0,P|375:105|369:150,1,76.5000014591217,2|0,0:0|3:0,0:0:0:0:
341,255,3312,1,2,0:0:0:0:
462,178,3469,5,2,3:2:0:0:
462,178,3547,1,2,0:2:0:0:
462,178,3625,2,0,L|511:174,1,38.2500007295609,2|2,0:2|0:2,0:0:0:0:
379,258,3781,1,2,3:2:0:0:
379,258,3859,1,2,0:2:0:0:
379,258,3937,2,0,L|330:254,1,38.2500007295609,2|2,0:2|0:2,0:0:0:0:
147,357,4094,6,0,L|245:345,1,76.5000014591217,2|2,3:2|0:2,0:0:0:0:
345,340,4406,1,2,3:2:0:0:
259,201,4562,2,0,L|264:291,1,76.5000014591217,2|0,0:0|3:0,0:0:0:0:
245,191,4875,2,0,L|250:281,1,76.5000014591217,2|0,0:0|3:0,0:0:0:0:
131,115,5187,2,0,L|126:205,1,76.5000014591217,2|0,0:0|3:0,0:0:0:0:
145,105,5500,2,0,L|140:195,1,76.5000014591217,2|0,0:0|3:0,0:0:0:0:
60,48,5812,1,2,0:0:0:0:
215,27,5969,5,2,3:2:0:0:
215,27,6047,1,2,0:2:0:0:
215,27,6125,2,0,L|266:23,1,38.2500007295609,2|2,0:2|0:2,0:0:0:0:
365,127,6281,1,2,3:2:0:0:
365,127,6359,1,2,0:2:0:0:
365,127,6437,2,0,L|314:123,1,38.2500007295609,2|2,0:2|0:2,0:0:0:0:
203,263,6594,6,0,P|186:214|190:172,1,76.5000014591217,2|2,3:2|0:2,0:0:0:0:
243,95,6906,1,2,3:2:0:0:
349,219,7062,2,0,L|264:207,1,76.5000014591217,2|0,0:0|3:0,0:0:0:0:
359,230,7375,2,0,L|274:218,1,76.5000014591217,2|0,0:0|3:0,0:0:0:0:
422,141,7687,2,0,L|507:129,1,76.5000014591217,2|0,0:0|3:0,0:0:0:0:
432,130,8000,2,0,L|517:118,1,76.5000014591217,2|0,0:0|3:0,0:0:0:0:
359,230,8312,1,2,0:0:0:0:
292,81,8469,5,2,3:2:0:0:
292,81,8547,1,2,0:2:0:0:
292,81,8625,2,0,L|294:21,1,38.2500007295609,2|2,0:2|0:2,0:0:0:0:
209,162,8781,1,2,3:2:0:0:
209,162,8859,1,2,0:2:0:0:
209,162,8937,2,0,L|211:222,1,38.2500007295609,2|2,0:2|0:2,0:0:0:0:
127,304,9094,5,10,0:0:0:0:
155,329,9172,1,8,0:0:0:0:
190,341,9250,1,10,0:0:0:0:
227,340,9328,1,8,0:0:0:0:
261,324,9406,2,0,P|300:299|358:299,1,76.5000014591217,10|2,0:0|0:0,0:0:0:0:
512,351,9719,5,8,0:2:0:0:
322,382,9875,1,2,3:2:0:0:
447,146,10187,1,2,3:2:0:0:
256,192,10265,12,0,11437,0:0:0:0:
199,167,11594,6,0,B|269:158|269:158|301:176|301:176|374:170,1,170.999995433807,6|8,3:2|0:0,0:0:0:0:
366,10,12062,2,0,P|329:51|323:80,1,85.4999977169037,2|0,0:0|3:0,0:0:0:0:
457,162,12375,2,0,P|439:109|417:89,1,85.4999977169037,2|8,3:2|0:0,0:0:0:0:
432,285,12687,6,0,P|486:296|514:287,1,85.4999977169037,6|0,3:2|0:0,0:0:0:0:
351,174,13000,1,2,3:2:0:0:
295,314,13156,2,0,P|240:325|212:316,1,85.4999977169037,10|0,0:0|0:0,0:0:0:0:
146,215,13469,2,0,P|183:209|229:226,1,85.4999977169037,2|0,3:2|3:0,0:0:0:0:
84,361,13781,2,0,L|77:264,1,85.4999977169037,10|0,0:0|0:0,0:0:0:0:
156,102,14094,6,0,B|146:216|146:216|121:163,1,170.999995433807,6|8,3:2|0:0,0:0:0:0:
26,25,14562,2,0,L|29:115,1,85.4999977169037,2|0,0:0|3:0,0:0:0:0:
211,34,14875,2,0,P|162:13|125:17,1,85.4999977169037,2|8,3:2|0:0,0:0:0:0:
319,110,15187,6,0,L|330:21,1,85.4999977169037,6|0,3:2|0:0,0:0:0:0:
400,178,15500,1,2,3:2:0:0:
272,211,15656,2,0,L|181:202,1,85.4999977169037,10|0,0:0|0:0,0:0:0:0:
305,316,15969,2,0,L|396:307,1,85.4999977169037,2|0,3:2|3:0,0:0:0:0:
216,286,16281,2,0,P|211:339|225:371,1,85.4999977169037,10|0,0:0|0:0,0:0:0:0:
439,366,16594,6,0,B|462:319|462:319|438:200,1,170.999995433807,6|8,3:2|0:0,0:0:0:0:
509,60,17062,2,0,L|505:147,1,85.4999977169037,2|0,0:0|3:0,0:0:0:0:
334,49,17375,2,0,P|375:28|418:29,1,85.4999977169037,2|8,3:2|0:0,0:0:0:0:
267,161,17687,6,0,P|229:157|188:134,1,85.4999977169037,6|0,3:2|0:0,0:0:0:0:
116,39,18000,1,2,3:2:0:0:
72,181,18156,2,0,P|63:232|74:268,1,85.4999977169037,10|0,0:0|0:0,0:0:0:0:
246,237,18469,2,0,L|160:229,1,85.4999977169037,2|0,3:2|3:0,0:0:0:0:
43,343,18781,2,0,L|129:335,1,85.4999977169037,10|0,0:0|0:0,0:0:0:0:
310,176,19094,6,0,P|332:227|272:323,1,170.999995433807,6|8,3:2|0:0,0:0:0:0:
160,229,19562,2,0,L|246:237,1,85.4999977169037,2|0,0:0|3:0,0:0:0:0:
271,64,19875,2,0,P|233:68|192:102,1,85.4999977169037,2|8,3:2|0:0,0:0:0:0:
419,130,20187,6,0,P|434:95|428:47,1,85.4999977169037,6|0,3:2|0:0,0:0:0:0:
265,146,20500,1,2,3:2:0:0:
398,210,20656,2,0,P|436:212|479:189,1,85.4999977169037,10|0,0:2|0:0,0:0:0:0:
288,52,20969,5,2,3:2:0:0:
477,190,21125,1,8,0:0:0:0:
340,128,21281,1,2,3:2:0:0:
497,29,21437,1,8,0:0:0:0:
288,52,21594,6,0,L|209:56,1,67.5000025749208,4|0,3:2|3:0,0:0:0:0:
63,9,21906,2,0,L|142:13,1,67.5000025749208,10|2,0:0|0:0,0:0:0:0:
40,161,22219,2,0,P|28:120|31:90,1,67.5000025749208,2|0,3:2|3:0,0:0:0:0:
155,163,22531,1,10,0:2:0:0:
155,163,22687,2,0,P|155:196|144:228,1,67.5000025749208,2|0,3:2|0:0,0:0:0:0:
22,313,23000,1,2,3:2:0:0:
22,313,23156,6,0,L|104:306,1,67.5000025749208,10|2,0:2|0:0,0:0:0:0:
249,383,23469,2,0,L|167:376,1,67.5000025749208,2|0,3:2|3:0,0:0:0:0:
270,243,23781,1,10,0:0:0:0:
355,334,23937,1,2,0:0:0:0:
381,166,24094,6,0,L|374:255,1,67.5000025749208,2|2,3:2|0:0,0:0:0:0:
221,126,24406,2,0,P|252:113|299:117,1,67.5000025749208,10|2,0:0|0:0,0:0:0:0:
285,113,24640,1,8,0:0:0:0:
285,113,24719,1,2,3:2:0:0:
203,224,24875,1,2,3:2:0:0:
121,146,25031,1,8,0:0:0:0:
106,308,25187,2,0,L|111:236,1,67.5000025749208,2|2,3:2|0:0,0:0:0:0:
29,370,25500,1,2,3:2:0:0:
1,193,25656,6,0,L|4:274,1,67.5000025749208,8|2,0:0|0:0,0:0:0:0:
3,260,25890,1,8,0:0:0:0:
3,260,25969,1,2,3:2:0:0:
121,217,26125,1,2,3:2:0:0:
101,375,26281,2,0,L|106:294,1,67.5000025749208,8|2,0:0|0:0,0:0:0:0:
305,344,26594,6,0,P|268:332|218:339,1,67.5000025749208,2|0,3:2|0:0,0:0:0:0:
396,365,26906,2,0,P|392:318|341:264,1,101.250003862381,10|0,0:0|0:0,0:0:0:0:
360,275,27219,2,0,L|368:203,1,67.5000025749208,2|2,3:2|3:2,0:0:0:0:
457,111,27531,1,10,0:2:0:0:
457,111,27687,2,0,L|464:183,1,67.5000025749208,2|0,3:2|0:0,0:0:0:0:
343,18,28000,1,2,3:2:0:0:
343,18,28156,6,0,L|335:90,1,67.5000025749208,10|2,0:2|0:0,0:0:0:0:
164,9,28469,1,2,3:2:0:0:
248,50,28625,1,2,3:2:0:0:
171,164,28781,2,0,L|168:93,1,67.5000025749208,10|0,0:2|0:0,0:0:0:0:
110,223,29094,6,0,P|146:254|190:259,1,67.5000025749208,2|0,3:2|0:0,0:0:0:0:
87,132,29406,2,0,P|55:144|32:168,1,67.5000025749208,10|0,0:0|0:0,0:0:0:0:
110,223,29719,1,2,3:2:0:0:
13,254,29875,1,2,3:2:0:0:
79,374,30031,2,0,L|81:299,1,67.5000025749208,8|2,0:0|0:0,0:0:0:0:
264,361,30344,5,2,3:2:0:0:
170,337,30500,1,2,3:2:0:0:
314,274,30656,2,0,P|345:299|362:329,1,67.5000025749208,8|2,0:0|0:0,0:0:0:0:
222,269,30969,1,2,3:2:0:0:
262,183,31125,1,2,3:2:0:0:
83,207,31281,2,0,L|172:198,1,67.5000025749208,8|2,0:0|0:0,0:0:0:0:
34,58,31594,6,0,P|17:104|20:141,1,67.5000025749208,6|0,3:2|0:0,0:0:0:0:
186,109,31906,2,0,L|104:106,1,67.5000025749208,10|0,0:0|0:0,0:0:0:0:
279,146,32219,1,2,3:2:0:0:
336,63,32375,1,0,3:2:0:0:
250,9,32531,1,10,0:2:0:0:
380,143,32687,6,0,L|459:136,1,67.5000025749208,2|0,3:2|0:0,0:0:0:0:
512,258,33000,2,0,P|516:213|507:179,1,67.5000025749208,2|8,3:2|0:0,0:0:0:0:
316,282,33312,1,2,0:0:0:0:
403,234,33469,1,2,3:2:0:0:
488,369,33625,1,2,3:2:0:0:
405,319,33782,1,10,0:2:0:0:
324,377,33937,1,2,0:0:0:0:
309,214,34094,6,0,L|316:289,1,67.5000025749208,2|2,3:2|0:0,0:0:0:0:
210,384,34406,2,0,L|217:309,1,67.5000025749208,10|0,0:2|0:0,0:0:0:0:
157,219,34719,1,2,3:2:0:0:
83,276,34875,1,2,3:2:0:0:
216,316,35031,1,10,0:0:0:0:
153,152,35187,6,0,L|159:240,1,67.5000025749208,2|0,3:2|0:0,0:0:0:0:
73,135,35500,1,2,3:2:0:0:
243,88,35656,2,0,L|237:176,1,67.5000025749208,10|2,0:0|0:0,0:0:0:0:
301,34,35969,1,2,3:2:0:0:
174,55,36125,1,2,3:2:0:0:
326,132,36281,2,0,P|371:140|400:136,1,67.5000025749208,10|2,0:0|0:0,0:0:0:0:
469,19,36594,6,0,L|477:109,1,67.5000025749208,2|2,3:2|0:0,0:0:0:0:
386,204,36906,2,0,L|394:114,1,67.5000025749208,10|0,0:0|0:0,0:0:0:0:
305,231,37219,1,2,3:2:0:0:
454,255,37375,1,2,3:2:0:0:
386,373,37531,1,10,0:2:0:0:
386,373,37687,6,0,B|356:356|336:357|336:357|304:378|270:366,1,101.250003862381,2|0,3:2|0:0,0:0:0:0:
290,370,38000,2,0,L|281:301,1,67.5000025749208,2|8,3:2|0:0,0:0:0:0:
202,210,38312,1,2,0:0:0:0:
202,210,38469,2,0,L|193:279,1,67.5000025749208,2|0,3:2|3:0,0:0:0:0:
261,145,38781,2,0,P|226:125|186:125,1,67.5000025749208,10|2,0:2|0:0,0:0:0:0:
64,200,39094,6,0,P|98:179|118:145,1,67.5000025749208,2|0,3:2|0:0,0:0:0:0:
114,1,39406,2,0,P|117:42|134:75,1,67.5000025749208,10|0,0:0|0:0,0:0:0:0:
223,0,39719,1,2,3:2:0:0:
124,64,39875,1,2,3:2:0:0:
313,51,40031,2,0,L|392:49,1,67.5000025749208,10|0,0:2|0:0,0:0:0:0:
261,145,40344,6,0,L|182:143,1,67.5000025749208,2|0,3:2|0:0,0:0:0:0:
313,239,40656,2,0,L|392:237,1,67.5000025749208,10|2,0:0|0:0,0:0:0:0:
256,331,40969,5,10,0:2:0:0:
227,348,41047,1,8,0:0:0:0:
195,358,41125,1,8,0:0:0:0:
161,358,41203,1,8,0:0:0:0:
128,350,41281,1,10,0:2:0:0:
99,333,41359,1,8,0:0:0:0:
67,323,41437,1,8,0:0:0:0:
33,323,41515,1,8,0:0:0:0:
0,333,41594,6,0,L|5:248,1,67.5000025749208,4|0,3:2|0:0,0:0:0:0:
28,68,41906,5,8,0:0:0:0:
190,169,42062,1,0,3:0:0:0:
188,0,42219,5,8,0:0:0:0:
93,146,42375,1,0,3:0:0:0:
310,179,42531,5,8,0:0:0:0:
164,84,42687,1,0,3:0:0:0:
153,261,42844,5,8,0:0:0:0:
248,115,43000,1,0,3:0:0:0:
290,332,43156,5,8,0:0:0:0:
190,169,43312,1,0,3:0:0:0:
156,374,43469,5,8,0:0:0:0:
251,228,43625,1,0,3:0:0:0:
7,274,43781,2,0,P|84:298|116:289,1,101.250003862381,8|0,0:0|0:0,0:0:0:0:
101,294,44094,6,0,L|94:209,1,67.5000025749208,4|0,3:2|0:0,0:0:0:0:
90,34,44406,5,8,0:0:0:0:
249,119,44562,1,8,0:0:0:0:
39,149,44719,1,8,0:0:0:0:
202,31,44875,1,8,0:0:0:0:
216,232,45031,1,8,0:0:0:0:
21,69,45187,1,8,0:0:0:0:
288,19,45344,5,8,0:0:0:0:
321,20,45422,1,8,0:0:0:0:
353,31,45500,1,8,0:0:0:0:
381,50,45578,1,8,0:2:0:0:
402,76,45656,1,8,0:2:0:0:
416,107,45734,1,8,0:0:0:0:
421,140,45812,1,8,0:0:0:0:
416,173,45890,1,8,0:0:0:0:
403,204,45969,5,2,3:2:0:0:
164,118,46594,6,0,L|280:105,1,94.499997116089,4|0,3:2|0:0,0:0:0:0:
86,45,46906,1,10,0:0:0:0:
84,236,47062,2,0,P|61:191|64:144,1,94.499997116089,2|0,0:0|3:0,0:0:0:0:
204,190,47375,1,0,3:0:0:0:
163,340,47531,1,10,0:0:0:0:
84,236,47687,1,2,0:0:0:0:
257,356,47844,6,0,L|364:349,1,94.499997116089,4|0,3:2|0:0,0:0:0:0:
500,309,48156,1,10,0:0:0:0:
410,177,48312,2,0,L|403:299,1,94.499997116089,2|0,0:0|3:0,0:0:0:0:
353,101,48625,1,2,3:2:0:0:
271,268,48781,2,0,L|267:170,1,94.499997116089,8|2,0:0|0:0,0:0:0:0:
73,364,49094,6,0,B|140:335|176:346|160:363|216:373|265:352,1,188.999994232178,4|8,3:2|0:0,0:0:0:0:
366,230,49562,2,0,L|360:346,1,94.499997116089,2|0,0:0|3:0,0:0:0:0:
267,173,49875,1,2,3:2:0:0:
450,148,50031,1,8,0:0:0:0:
295,73,50187,2,0,P|240:55|179:62,1,94.499997116089,2|0,0:0|3:2,0:0:0:0:
394,26,50500,1,2,0:0:0:0:
450,148,50656,2,0,L|431:257,1,94.499997116089,8|0,0:0|0:0,0:0:0:0:
226,133,50969,5,2,3:2:0:0:
342,174,51125,1,2,3:2:0:0:
130,235,51281,1,10,0:2:0:0:
257,213,51437,1,2,0:0:0:0:
68,298,51594,6,0,B|40:248|40:248|66:110,1,188.999994232178,4|10,3:2|0:0,0:0:0:0:
257,213,52062,2,0,P|207:196|158:201,1,94.499997116089,2|0,0:0|3:2,0:0:0:0:
272,298,52374,1,2,3:2:0:0:
368,202,52530,1,10,0:0:0:0:
330,382,52687,1,2,0:0:0:0:
512,300,52844,6,0,L|398:292,1,94.499997116089,4|0,3:2|0:0,0:0:0:0:
272,298,53156,1,10,0:0:0:0:
355,111,53312,2,0,L|350:222,1,94.499997116089,2|0,0:2|3:0,0:0:0:0:
183,267,53625,2,0,L|178:156,1,94.499997116089,2|8,3:2|0:0,0:0:0:0:
164,37,53937,1,2,0:0:0:0:
78,175,54094,5,6,3:2:0:0:
36,31,54250,1,2,0:0:0:0:
178,172,54406,2,0,L|280:161,1,94.499997116089,10|0,0:0|0:0,0:0:0:0:
466,135,54719,1,0,3:0:0:0:
340,256,54875,1,0,3:0:0:0:
356,64,55031,2,0,L|363:164,1,94.499997116089,8|0,0:0|0:0,0:0:0:0:
431,308,55344,5,8,0:2:0:0:
431,308,55422,1,8,0:0:0:0:
431,308,55500,2,0,L|492:302,1,47.2499985580445,8|8,0:0|0:0,0:0:0:0:
347,371,55656,1,8,0:2:0:0:
347,371,55734,1,8,0:0:0:0:
347,371,55812,2,0,L|286:365,1,47.2499985580445,8|8,0:0|0:0,0:0:0:0:
153,340,55969,5,10,0:2:0:0:
108,325,56047,1,8,0:0:0:0:
74,293,56125,1,10,0:0:0:0:
58,249,56203,1,8,0:0:0:0:
64,202,56281,1,10,0:2:0:0:
90,163,56359,1,8,0:0:0:0:
131,140,56437,1,10,0:0:0:0:
177,137,56515,1,8,0:0:0:0:
220,156,56594,6,0,L|235:258,1,94.499997116089,6|0,3:2|0:0,0:0:0:0:
153,340,56906,1,10,0:0:0:0:
358,333,57062,2,0,L|256:348,1,94.499997116089,2|0,0:0|3:0,0:0:0:0:
381,213,57375,1,0,3:2:0:0:
478,323,57531,1,10,0:0:0:0:
292,268,57687,1,2,0:2:0:0:
447,144,57844,6,0,P|467:194|461:249,1,94.499997116089,4|0,3:2|0:0,0:0:0:0:
292,268,58156,1,10,0:0:0:0:
365,114,58312,2,0,P|398:71|448:49,1,94.499997116089,2|0,0:0|3:0,0:0:0:0:
381,213,58625,1,2,3:2:0:0:
270,94,58781,1,8,0:0:0:0:
197,196,58937,1,2,0:0:0:0:
121,56,59094,6,0,P|70:38|20:39,1,94.499997116089,6|0,3:2|0:0,0:0:0:0:
227,27,59406,1,10,0:0:0:0:
90,144,59562,2,0,P|39:162|-11:161,1,94.499997116089,2|0,0:0|3:0,0:0:0:0:
197,196,59875,1,2,3:2:0:0:
100,331,60031,2,0,L|91:216,1,94.499997116089,8|2,0:0|0:0,0:0:0:0:
204,101,60344,6,0,L|195:216,1,94.499997116089,4|2,3:2|0:0,0:0:0:0:
411,94,60656,2,0,P|357:65|315:66,1,94.499997116089,8|0,0:0|0:0,0:0:0:0:
196,195,60969,1,2,3:2:0:0:
341,145,61125,1,2,3:2:0:0:
420,255,61281,1,10,0:2:0:0:
273,226,61437,1,2,0:0:0:0:
330,384,61594,6,0,L|332:281,1,94.499997116089,6|0,3:2|0:0,0:0:0:0:
341,145,61906,1,10,0:0:0:0:
420,255,62062,1,2,0:0:0:0:
452,62,62219,2,0,L|448:162,1,94.499997116089,0|0,3:0|3:0,0:0:0:0:
244,44,62531,1,10,0:2:0:0:
341,145,62687,1,2,0:2:0:0:
204,258,62844,5,8,0:0:0:0:
244,129,63000,1,0,3:0:0:0:
150,342,63156,5,8,0:0:0:0:
110,213,63312,1,0,3:0:0:0:
281,309,63469,1,10,0:2:0:0:
312,325,63547,1,0,3:2:0:0:
346,333,63625,1,0,3:2:0:0:
382,331,63703,1,0,3:2:0:0:
415,321,63781,2,0,L|425:252,1,53.9999983520508,14|2,0:0|0:0,0:0:0:0:
337,32,64094,6,0,L|348:146,1,103.500001974106,4|0,3:2|0:0,0:0:0:0:
121,59,64406,2,0,P|166:31|227:29,1,103.500001974106,10|2,0:2|3:2,0:0:0:0:
346,135,64719,1,8,0:0:0:0:
194,111,64875,1,0,3:0:0:0:
414,195,65031,1,10,0:0:0:0:
225,222,65187,1,2,3:2:0:0:
410,321,65344,6,0,P|475:340|529:333,1,103.500001974106,12|0,0:0|3:0,0:0:0:0:
325,205,65656,2,0,P|273:204|224:221,1,103.500001974106,10|2,0:0|3:2,0:0:0:0:
125,384,65969,2,0,L|112:282,1,103.500001974106,8|2,0:0|3:2,0:0:0:0:
16,148,66281,2,0,L|3:250,1,103.500001974106,8|2,0:0|3:2,0:0:0:0:
90,14,66594,5,12,0:0:0:0:
161,149,66750,1,0,3:0:0:0:
301,27,66906,1,10,0:0:0:0:
160,67,67062,1,2,3:2:0:0:
386,144,67219,1,8,0:0:0:0:
248,100,67375,1,2,3:2:0:0:
273,285,67531,1,8,0:0:0:0:
306,160,67687,1,2,3:2:0:0:
192,372,67844,6,0,P|176:331|182:264,1,103.500001974106,12|2,0:0|3:2,0:0:0:0:
248,100,68156,1,8,0:0:0:0:
353,251,68312,1,0,3:0:0:0:
350,82,68469,2,0,L|248:100,1,103.500001974106,10|2,0:2|3:2,0:0:0:0:
34,167,68781,2,0,L|137:185,1,103.500001974106,10|2,0:2|3:2,0:0:0:0:
160,0,69094,6,0,P|149:71|161:107,1,103.500001974106,12|0,0:0|3:0,0:0:0:0:
282,246,69406,1,10,0:2:0:0:
248,100,69562,1,2,3:2:0:0:
358,305,69719,1,8,0:0:0:0:
412,140,69875,1,2,3:2:0:0:
444,354,70031,1,8,0:0:0:0:
377,214,70187,1,2,3:2:0:0:
203,346,70344,6,0,L|73:353,1,103.500001974106,12|0,0:0|3:0,0:0:0:0:
13,220,70656,1,10,0:0:0:0:
99,351,70812,1,2,3:2:0:0:
214,169,70969,1,8,0:0:0:0:
92,261,71125,1,2,3:2:0:0:
61,54,71281,1,8,0:0:0:0:
129,174,71437,1,2,3:2:0:0:
267,45,71594,6,0,P|324:23|377:28,1,103.500001974106,14|2,0:0|3:2,0:0:0:0:
485,76,71906,1,10,0:2:0:0:
339,115,72062,1,0,3:0:0:0:
478,262,72219,1,8,0:0:0:0:
427,140,72375,1,0,3:0:0:0:
296,295,72531,1,8,0:0:0:0:
212,62,72844,5,8,0:2:0:0:
162,48,72922,1,8,0:0:0:0:
111,55,73000,1,8,0:0:0:0:
67,81,73078,1,8,0:0:0:0:
37,123,73156,1,8,0:2:0:0:
27,174,73234,1,8,0:0:0:0:
37,224,73312,1,8,0:0:0:0:
66,266,73390,1,8,0:0:0:0:
110,293,73469,2,0,L|129:224,3,51.7500009870529,10|8|10|8,0:2|0:0|0:0|0:0,0:0:0:0:
195,171,73781,2,0,L|213:240,3,51.7500009870529,10|8|10|8,0:2|0:0|0:0|0:0,0:0:0:0:
298,316,74094,6,0,P|361:333|397:328,1,94.499997116089,4|0,3:2|0:0,0:0:0:0:
512,264,74406,1,10,0:0:0:0:
416,138,74562,2,0,L|421:247,1,94.499997116089,2|0,0:0|3:0,0:0:0:0:
337,94,74875,1,0,3:0:0:0:
512,159,75031,1,10,0:0:0:0:
478,23,75187,1,2,0:2:0:0:
339,194,75344,6,0,B|285:174|247:198|259:214|209:229|147:208,1,188.999994232178,6|10,3:2|0:0,0:0:0:0:
151,26,75812,2,0,P|189:64|207:114,1,94.499997116089,2|0,0:2|3:0,0:0:0:0:
38,208,76125,2,0,P|51:156|89:118,1,94.499997116089,2|8,3:2|0:0,0:0:0:0:
258,200,76437,1,2,0:0:0:0:
165,306,76594,6,0,L|156:194,1,94.499997116089,6|0,3:2|0:0,0:0:0:0:
86,377,76906,1,8,0:0:0:0:
245,335,77062,2,0,P|303:323|341:328,1,94.499997116089,2|0,0:0|3:0,0:0:0:0:
460,202,77375,2,0,P|441:258|418:288,1,94.499997116089,2|8,3:2|0:0,0:0:0:0:
354,84,77687,1,2,0:2:0:0:
354,84,77765,1,2,0:2:0:0:
354,84,77844,6,0,L|363:212,1,94.499997116089,0|2,3:2|0:0,0:0:0:0:
150,85,78156,2,0,P|197:61|264:65,1,94.499997116089,8|0,0:0|0:0,0:0:0:0:
360,178,78469,1,2,3:2:0:0:
216,145,78625,1,2,3:2:0:0:
128,263,78781,1,10,0:2:0:0:
265,233,78937,1,2,0:2:0:0:
129,357,79094,6,0,P|67:328|61:195,1,188.999994232178,4|10,3:2|0:0,0:0:0:0:
136,93,79562,1,2,0:0:0:0:
33,64,79719,1,0,3:0:0:0:
209,17,79875,1,2,3:2:0:0:
153,185,80031,2,0,L|131:71,1,94.499997116089,8|2,0:0|0:0,0:0:0:0:
327,67,80344,5,8,0:2:0:0:
363,48,80422,1,8,0:0:0:0:
404,46,80500,1,8,0:0:0:0:
443,59,80578,1,8,0:0:0:0:
474,87,80656,1,10,0:2:0:0:
492,124,80734,1,8,0:0:0:0:
494,165,80812,1,8,0:0:0:0:
480,204,80890,1,8,0:0:0:0:
452,234,80969,5,10,3:0:0:0:
378,141,81125,1,8,3:0:0:0:
321,349,81281,1,10,3:0:0:0:
337,218,81437,1,8,3:0:0:0:
190,330,81594,6,0,P|146:353|85:351,1,90,6|2,3:2|3:2,0:0:0:0:
0,300,81906,1,10,0:2:0:0:
114,180,82062,2,0,L|128:286,1,90,2|0,0:0|3:0,0:0:0:0:
127,167,82375,2,0,L|141:273,1,90,2|8,3:2|0:0,0:0:0:0:
252,110,82687,2,0,L|238:216,1,90,2|0,0:2|3:0,0:0:0:0:
239,97,83000,2,0,L|225:203,1,90,2|8,3:2|0:0,0:0:0:0:
161,40,83312,1,2,0:0:0:0:
333,57,83469,5,2,3:2:0:0:
333,57,83547,1,2,0:2:0:0:
333,57,83625,2,0,L|391:58,1,45,2|2,3:2|0:2,0:0:0:0:
478,140,83781,1,10,0:2:0:0:
478,140,83859,1,2,0:2:0:0:
478,140,83937,2,0,L|420:141,1,45,2|2,0:2|0:2,0:0:0:0:
365,279,84094,6,0,P|343:220|346:185,1,90,6|2,3:2|3:2,0:0:0:0:
458,294,84406,1,10,0:2:0:0:
275,331,84562,2,0,L|164:318,1,90,2|0,0:0|3:0,0:0:0:0:
263,348,84875,2,0,L|152:335,1,90,2|8,3:2|0:0,0:0:0:0:
34,254,85187,2,0,L|145:241,1,90,2|0,0:2|3:0,0:0:0:0:
46,271,85500,2,0,L|157:258,1,90,2|8,3:2|0:0,0:0:0:0:
250,217,85812,1,2,0:0:0:0:
164,124,85969,5,2,3:2:0:0:
164,124,86047,1,2,0:2:0:0:
164,124,86125,2,0,L|161:187,1,45,2|2,3:2|0:2,0:0:0:0:
265,56,86281,1,10,0:2:0:0:
265,56,86359,1,2,0:2:0:0:
265,56,86437,2,0,L|268:119,1,45,2|2,0:2|0:2,0:0:0:0:
363,262,86594,6,0,L|352:167,1,90,6|2,3:2|3:2,0:0:0:0:
424,79,86906,1,10,0:2:0:0:
497,188,87062,2,0,L|486:283,1,90,2|0,0:0|3:0,0:0:0:0:
506,206,87375,2,0,L|495:301,1,90,2|8,3:2|0:0,0:0:0:0:
363,262,87687,2,0,L|374:357,1,90,2|0,0:2|3:0,0:0:0:0:
354,280,88000,2,0,L|365:375,1,90,2|8,3:2|0:0,0:0:0:0:
255,216,88312,1,2,0:0:0:0:
176,334,88469,5,2,3:2:0:0:
176,334,88547,1,2,0:2:0:0:
176,334,88625,2,0,L|104:328,1,45,2|2,3:2|0:2,0:0:0:0:
30,242,88781,1,10,0:2:0:0:
30,242,88859,1,2,0:2:0:0:
30,242,88937,2,0,L|102:236,1,45,2|2,0:2|0:2,0:0:0:0:
116,82,89094,5,10,0:0:0:0:
139,58,89172,1,8,0:0:0:0:
170,43,89250,1,10,0:0:0:0:
203,40,89328,1,8,0:0:0:0:
236,47,89406,2,0,P|275:74|334:83,1,90,10|2,0:0|0:0,0:0:0:0:
489,39,89719,5,8,0:2:0:0:
310,0,89875,1,2,3:2:0:0:
485,225,90187,5,6,3:2:0:0:
256,192,90344,12,0,97453,0:0:0:0:
358,270,97635,6,0,B|368:240|379:221|379:221|353:191|361:127,1,150,2|0,0:0|0:0,0:0:0:0:
