osu file format v14

[General]
AudioFilename: audio.mp3
AudioLeadIn: 0
PreviewTime: 178469
Countdown: 0
SampleSet: Soft
StackLeniency: 0.8
Mode: 0
LetterboxInBreaks: 0
WidescreenStoryboard: 0

[Editor]
Bookmarks: 1594,10344,11594,21594,41594,46594,64094,74094,91906,94094,111594,121594,141594,161594,179406,187844,196594,205344
DistanceSpacing: 2.5
BeatDivisor: 4
GridSize: 16
TimelineZoom: 1.8

[Metadata]
Title:GET BACK
TitleUnicode:GET BACK
Artist:THE ORAL CIGARETTES
ArtistUnicode:THE ORAL CIGARETTES
Creator:MoonLightOri
Version:Tragedy
Source:
Tags:amy japanese rock long version
BeatmapID:2141309
BeatmapSetID:1021023

[Difficulty]
HPDrainRate:5.6
CircleSize:4
OverallDifficulty:9.3
ApproachRate:9.5
SliderMultiplier:1.7
SliderTickRate:1

[Events]
//Background and Video events
0,0,"bg2.jpg",0,0
//Break Periods
//Storyboard Layer 0 (Background)
//Storyboard Layer 1 (Fail)
//Storyboard Layer 2 (Pass)
//Storyboard Layer 3 (Foreground)
//Storyboard Layer 4 (Overlay)
//Storyboard Sound Samples

[TimingPoints]
344,312.5,4,2,1,50,1,0
344,-142.857142857143,4,2,1,50,0,0
11594,-111.111111111111,4,2,1,65,0,0
40969,-181.818181818182,4,2,1,65,0,0
41906,-111.111111111111,4,2,1,80,0,1
43781,-111.111111111111,4,2,1,80,0,0
45344,-111.111111111111,4,2,1,80,0,0
45969,-166.666666666667,4,2,1,80,0,0
46594,-95.2380952380952,4,2,1,80,0,1
55344,-95.2380952380952,4,2,1,80,0,0
56047,-111.111111111111,4,2,1,80,0,0
56594,-95.2380952380952,4,2,1,80,0,1
62844,-166.666666666667,4,2,1,80,0,0
63469,-200,4,2,1,72,0,0
64094,-111.111111111111,4,2,1,65,0,0
91906,-111.111111111111,4,2,1,80,0,0
92844,-133.333333333333,4,2,1,80,0,0
93469,-74.0740740740741,4,2,1,80,0,0
93781,-90.9090909090909,4,2,1,80,0,0
94094,-90.9090909090909,4,2,1,80,0,1
102844,-90.9090909090909,4,2,1,80,0,0
103469,-111.111111111111,4,2,1,80,0,0
104094,-90.9090909090909,4,2,1,80,0,1
111594,-125,4,2,1,65,0,0
121594,-125,4,2,1,50,0,0
151594,-111.111111111111,4,2,1,65,0,0
161594,-86.9565217391304,4,2,1,80,0,1
170344,-125,4,2,1,80,0,0
170969,-86.9565217391304,4,2,1,80,0,0
171594,-86.9565217391304,4,2,1,80,0,1
177844,-86.9565217391304,4,2,1,80,0,0
179094,-86.9565217391304,4,2,1,80,0,1
187844,-125,4,2,1,80,0,0
187844,-125,4,2,1,80,0,0
188469,-83.3333333333333,4,2,1,80,0,0
189094,-86.9565217391304,4,2,1,80,0,1
196594,-117.647058823529,4,2,1,72,0,0
205344,-117.647058823529,4,2,1,5,0,0
212533,-117.647058823529,4,2,1,5,0,0
212609,-117.647058823529,4,2,1,60,0,0

[HitObjects]
143,241,344,5,0,0:0:0:0:
148,251,656,1,0,0:0:0:0:
152,261,969,1,0,0:0:0:0:
157,271,1281,1,0,0:0:0:0:
338,282,1594,6,2,L|417:275,2,59.4999981842042,0|0|0,1:0|0:0|1:0,0:0:0:0:
222,188,2062,2,0,L|215:108,1,59.4999981842042,0|0,0:0|1:0,0:0:0:0:
337,79,2375,2,0,P|337:111|331:138,1,59.4999981842042,0|0,0:0|1:0,0:0:0:0:
176,41,2687,2,0,P|207:35|235:35,1,59.4999981842042,0|0,0:0|1:0,0:0:0:0:
331,137,3000,2,0,P|299:142|271:142,1,59.4999981842042,0|0,0:0|1:0,0:0:0:0:
401,33,3312,5,0,0:0:0:0:
452,147,3469,1,0,1:0:0:0:
452,147,3547,1,0,0:0:0:0:
452,147,3625,2,0,L|454:191,1,29.7499990921021,0|0,0:0|0:0,0:0:0:0:
357,232,3781,1,0,1:0:0:0:
357,232,3859,1,0,0:0:0:0:
357,232,3937,2,0,L|354:276,1,29.7499990921021,0|0,0:0|0:0,0:0:0:0:
424,365,4094,6,2,L|484:360,2,59.4999981842042,0|0|0,1:0|0:0|1:0,0:0:0:0:
279,327,4562,2,0,L|274:267,1,59.4999981842042,0|0,0:0|1:0,0:0:0:0:
415,225,4875,2,0,P|385:231|356:231,1,59.4999981842042,0|0,0:0|1:0,0:0:0:0:
232,145,5187,2,0,P|261:139|290:140,1,59.4999981842042,0|0,0:0|1:0,0:0:0:0:
356,231,5500,2,0,P|360:260|361:290,1,59.4999981842042,0|0,0:0|1:0,0:0:0:0:
224,267,5812,5,0,0:0:0:0:
153,169,5969,1,0,1:0:0:0:
153,169,6047,1,0,0:0:0:0:
153,169,6125,2,0,L|149:139,1,29.7499990921021,0|0,0:0|0:0,0:0:0:0:
244,73,6281,1,0,1:0:0:0:
244,73,6359,1,0,0:0:0:0:
244,73,6437,2,0,L|239:43,1,29.7499990921021,0|0,0:0|0:0,0:0:0:0:
366,78,6594,6,2,L|433:72,2,59.4999981842042,0|0|0,1:0|0:0|1:0,0:0:0:0:
232,145,7062,2,0,L|226:204,1,59.4999981842042,0|0,0:0|1:0,0:0:0:0:
188,306,7375,2,0,P|217:311|246:310,1,59.4999981842042,0|0,0:0|1:0,0:0:0:0:
372,194,7687,2,0,P|342:187|313:188,1,59.4999981842042,0|0,0:0|1:0,0:0:0:0:
348,341,8000,2,0,P|347:311|343:281,1,59.4999981842042,0|0,0:0|1:0,0:0:0:0:
226,204,8312,5,0,0:0:0:0:
140,333,8469,1,0,1:0:0:0:
140,333,8547,1,0,0:0:0:0:
140,333,8625,2,0,L|136:296,1,29.7499990921021,0|0,0:0|0:0,0:0:0:0:
57,219,8781,1,0,1:0:0:0:
57,219,8859,1,0,0:0:0:0:
57,219,8937,2,0,L|60:182,1,29.7499990921021,0|0,0:0|0:0,0:0:0:0:
82,49,9094,5,8,0:2:0:0:
109,37,9172,1,8,0:2:0:0:
137,31,9250,1,8,0:2:0:0:
167,34,9328,1,8,0:2:0:0:
195,42,9406,2,0,P|224:56|272:61,1,59.4999981842042,0|0,0:0|0:0,0:0:0:0:
416,141,9719,5,0,0:0:0:0:
217,167,9875,1,0,1:0:0:0:
469,336,10187,5,0,1:0:0:0:
256,192,10344,12,0,11437,0:0:0:0:
149,289,11594,6,0,B|128:237|128:237|143:127,1,152.999995330811,4|8,1:2|0:2,0:0:0:0:
270,250,12062,2,0,L|276:325,1,76.4999976654053,0|0,1:0|1:0,0:0:0:0:
395,207,12375,1,0,1:0:0:0:
257,125,12531,1,8,0:2:0:0:
387,54,12687,2,0,P|427:45|472:42,1,76.4999976654053,4|0,1:2|1:0,0:0:0:0:
242,112,13000,5,0,1:0:0:0:
376,224,13156,2,0,P|383:263|387:308,1,76.4999976654053,8|0,0:2|1:0,0:0:0:0:
253,268,13469,1,0,1:0:0:0:
343,141,13625,1,0,1:0:0:0:
398,308,13781,2,0,L|391:387,1,76.4999976654053,8|0,0:2|1:0,0:0:0:0:
232,343,14094,6,0,P|173:275|201:211,1,152.999995330811,4|8,1:2|0:2,0:0:0:0:
326,120,14562,2,0,L|402:113,1,76.4999976654053,0|0,1:0|1:0,0:0:0:0:
180,199,14875,1,0,1:0:0:0:
286,286,15031,1,8,0:2:0:0:
251,105,15187,2,0,P|235:62|216:22,1,76.4999976654053,4|0,1:2|1:0,0:0:0:0:
266,297,15500,5,0,1:0:0:0:
370,167,15656,2,0,P|407:142|450:125,1,76.4999976654053,8|0,0:2|1:0,0:0:0:0:
408,297,15969,1,0,1:0:0:0:
305,139,16125,1,0,1:0:0:0:
245,310,16281,2,0,P|208:328|159:325,1,76.4999976654053,8|0,0:2|1:0,0:0:0:0:
58,141,16594,6,0,B|162:147|99:193|208:194,1,152.999995330811,4|8,1:2|0:2,0:0:0:0:
340,264,17062,2,0,L|346:343,1,76.4999976654053,0|0,1:0|1:0,0:0:0:0:
316,127,17375,1,0,1:0:0:0:
226,288,17531,1,8,0:2:0:0:
188,112,17687,2,0,P|178:68|172:18,1,76.4999976654053,4|0,1:2|1:0,0:0:0:0:
69,222,18000,5,0,1:0:0:0:
223,311,18156,2,0,P|262:322|308:327,1,76.4999976654053,8|0,0:2|1:0,0:0:0:0:
416,184,18469,1,0,1:0:0:0:
329,335,18625,1,0,1:0:0:0:
303,147,18781,2,0,L|296:67,1,76.4999976654053,8|0,0:2|1:0,0:0:0:0:
186,222,19094,6,0,L|172:375,1,152.999995330811,4|8,1:2|0:2,0:0:0:0:
313,314,19562,2,0,L|412:305,1,76.4999976654053,0|0,1:0|1:0,0:0:0:0:
378,152,19875,1,0,1:0:0:0:
206,235,20031,1,8,0:2:0:0:
267,68,20187,2,0,P|300:40|332:20,1,76.4999976654053,4|0,1:2|1:0,0:0:0:0:
330,237,20500,5,0,1:0:0:0:
156,136,20656,2,0,P|121:122|81:114,1,76.4999976654053,8|0,0:2|1:0,0:0:0:0:
188,258,20969,5,0,1:0:0:0:
357,129,21125,1,8,0:2:0:0:
290,331,21281,1,8,0:2:0:0:
177,130,21437,1,8,0:2:0:0:
355,253,21594,6,0,P|394:265|444:272,1,76.4999976654053,4|0,1:2|1:0,0:0:0:0:
481,146,21906,2,0,P|443:154|417:180,1,76.4999976654053,8|0,0:2|1:0,0:0:0:0:
339,288,22219,1,0,1:0:0:0:
170,272,22375,1,0,1:0:0:0:
325,146,22531,1,8,0:2:0:0:
120,172,22687,2,8,P|96:142|89:105,1,76.4999976654053,0|0,1:0|1:0,0:0:0:0:
147,10,23000,5,0,1:0:0:0:
223,146,23156,2,0,P|266:157|320:163,1,76.4999976654053,8|0,0:2|1:0,0:0:0:0:
68,128,23469,1,0,1:0:0:0:
151,258,23625,1,0,1:0:0:0:
290,86,23781,2,0,L|296:163,1,76.4999976654053,8|0,0:2|1:0,0:0:0:0:
402,329,24094,2,0,L|395:251,1,76.4999976654053,0|0,1:0|1:0,0:0:0:0:
486,119,24406,6,0,P|444:117|396:123,1,76.4999976654053,8|0,0:0|1:0,0:0:0:0:
392,124,24640,1,0,1:0:0:0:
392,124,24719,1,0,1:0:0:0:
303,251,24875,1,0,1:0:0:0:
215,66,25031,1,8,0:2:0:0:
122,212,25187,2,0,B|110:263|110:263|139:360,1,152.999995330811,0|0,1:0|1:0,0:0:0:0:
204,243,25656,6,0,L|291:250,1,76.4999976654053,8|0,0:2|1:0,0:0:0:0:
303,251,25890,1,0,1:0:0:0:
303,251,25969,1,0,1:0:0:0:
138,359,26125,1,0,1:0:0:0:
108,189,26281,2,0,P|119:147|141:105,1,76.4999976654053,8|0,0:2|1:0,0:0:0:0:
316,78,26594,2,0,P|290:114|235:131,1,76.4999976654053,0|0,1:0|1:0,0:0:0:0:
204,243,26906,6,0,L|295:251,1,76.4999976654053,8|0,0:2|1:0,0:0:0:0:
117,281,27219,1,0,1:0:0:0:
111,122,27375,1,0,1:0:0:0:
219,309,27531,1,8,0:2:0:0:
285,146,27687,2,0,P|301:104|320:72,1,76.4999976654053,0|0,1:0|1:0,0:0:0:0:
408,172,28000,5,0,1:0:0:0:
327,337,28156,1,8,0:2:0:0:
285,146,28312,1,0,1:0:0:0:
400,313,28469,1,0,1:0:0:0:
231,248,28625,2,0,P|192:234|145:226,1,76.4999976654053,0|8,1:0|0:2,0:0:0:0:
111,122,28937,1,0,1:0:0:0:
62,302,29094,6,0,B|155:304|117:369|227:367,1,152.999995330811,0|8,1:0|0:2,0:0:0:0:
208,227,29562,1,0,1:0:0:0:
315,327,29719,1,0,1:0:0:0:
285,146,29875,1,0,1:0:0:0:
167,319,30031,1,8,0:2:0:0:
179,154,30187,2,0,P|147:176|123:224,1,76.4999976654053,0|0,1:0|1:0,0:0:0:0:
201,325,30500,5,0,1:0:0:0:
256,167,30656,1,8,0:2:0:0:
382,277,30812,2,0,P|421:266|449:241,1,76.4999976654053,0|0,1:0|1:0,0:0:0:0:
403,80,31125,1,0,1:0:0:0:
276,183,31281,1,8,0:2:0:0:
192,27,31437,1,0,1:0:0:0:
192,27,31515,1,0,1:0:0:0:
192,27,31594,6,0,P|164:89|165:183,1,152.999995330811,4|8,1:2|0:2,0:0:0:0:
121,276,32062,1,0,1:0:0:0:
251,116,32219,1,0,1:0:0:0:
65,157,32375,1,0,1:0:0:0:
261,234,32531,2,0,P|301:246|339:251,1,76.4999976654053,8|0,0:2|1:0,0:0:0:0:
346,120,32844,1,0,1:0:0:0:
445,216,33000,2,0,L|451:294,1,76.4999976654053,0|8,1:0|0:2,0:0:0:0:
250,337,33312,5,0,1:0:0:0:
277,169,33469,1,0,1:0:0:0:
450,292,33625,1,0,1:0:0:0:
421,111,33781,1,8,0:2:0:0:
324,236,33937,1,0,1:0:0:0:
247,60,34094,6,0,L|163:50,1,76.4999976654053,0|0,1:0|1:0,0:0:0:0:
346,120,34406,2,0,L|430:110,1,76.4999976654053,8|0,0:2|1:0,0:0:0:0:
201,180,34719,1,0,1:0:0:0:
324,236,34875,1,0,1:0:0:0:
166,307,35031,1,8,0:2:0:0:
347,371,35187,2,0,P|387:376|426:377,1,76.4999976654053,0|0,1:0|1:0,0:0:0:0:
256,240,35500,5,0,1:0:0:0:
136,323,35656,2,0,P|97:328|56:329,1,76.4999976654053,8|0,0:2|1:0,0:0:0:0:
40,332,35890,1,0,1:0:0:0:
40,332,35969,1,0,1:0:0:0:
75,135,36125,1,0,1:0:0:0:
200,274,36281,1,8,0:2:0:0:
103,241,36437,1,0,1:0:0:0:
217,148,36594,2,0,P|255:127|315:124,1,76.4999976654053,0|0,1:0|1:0,0:0:0:0:
417,47,36906,6,0,P|375:33|319:27,1,76.4999976654053,8|0,0:2|1:0,0:0:0:0:
159,129,37219,1,0,1:0:0:0:
258,9,37375,1,0,1:2:0:0:
268,187,37531,1,8,0:0:0:0:
105,30,37687,6,0,L|25:23,1,76.4999976654053,0|0,1:0|1:0,0:0:0:0:
159,147,38000,2,0,L|238:140,1,76.4999976654053,0|8,1:0|0:2,0:0:0:0:
355,97,38312,1,0,1:0:0:0:
254,244,38469,1,0,1:0:0:0:
165,70,38625,2,0,L|158:155,1,76.4999976654053,0|8,1:0|0:2,0:0:0:0:
148,264,38937,1,0,1:0:0:0:
287,105,39094,6,0,P|292:62|294:15,1,76.4999976654053,0|0,1:0|1:0,0:0:0:0:
344,214,39406,2,0,P|339:257|337:304,1,76.4999976654053,8|0,0:2|1:0,0:0:0:0:
259,153,39719,1,0,1:0:0:0:
446,108,39875,1,0,1:0:0:0:
239,56,40031,2,0,P|200:46|142:56,1,76.4999976654053,8|0,0:2|1:0,0:0:0:0:
412,12,40344,2,0,P|449:8|486:18,1,76.4999976654053,0|0,1:0|1:0,0:0:0:0:
399,185,40656,5,8,0:2:0:0:
296,0,40812,1,0,1:0:0:0:
139,175,40969,5,8,0:2:0:0:
139,200,41047,1,8,0:2:0:0:
139,226,41125,1,8,0:2:0:0:
139,252,41203,1,8,0:2:0:0:
139,278,41281,1,8,0:2:0:0:
160,305,41359,1,8,0:2:0:0:
160,332,41437,1,8,0:2:0:0:
160,357,41515,1,8,0:2:0:0:
160,384,41593,1,12,0:2:0:0:
244,382,41906,5,8,0:2:0:0:
140,144,42062,1,0,1:0:0:0:
90,322,42219,5,8,0:2:0:0:
277,110,42375,1,0,1:0:0:0:
363,347,42531,5,8,0:2:0:0:
161,166,42687,1,0,1:0:0:0:
394,116,42844,5,8,0:2:0:0:
163,295,43000,1,0,1:0:0:0:
289,84,43156,5,8,0:2:0:0:
229,343,43312,1,0,1:0:0:0:
159,73,43469,5,8,0:2:0:0:
289,291,43625,1,0,1:0:0:0:
342,49,43781,6,0,P|286:33|228:37,1,114.749996498108,8|0,0:2|0:0,0:0:0:0:
159,73,44094,6,0,L|167:171,1,76.4999976654053,8|0,0:2|1:0,0:0:0:0:
193,301,44406,5,8,0:2:0:0:
317,94,44562,1,8,0:2:0:0:
378,332,44719,1,8,0:2:0:0:
166,150,44875,1,8,0:2:0:0:
412,135,45031,1,8,0:2:0:0:
269,351,45187,1,8,0:2:0:0:
91,222,45344,5,8,0:2:0:0:
76,187,45422,1,8,0:2:0:0:
75,149,45500,1,8,0:2:0:0:
88,113,45578,1,8,0:2:0:0:
113,85,45656,1,8,0:2:0:0:
147,68,45734,1,8,0:2:0:0:
185,65,45812,1,8,0:2:0:0:
221,76,45890,1,8,0:2:0:0:
251,100,45969,6,0,P|302:98|354:84,1,101.999996887207,8|0,0:2|0:0,0:0:0:0:
442,110,46437,1,0,0:0:0:0:
259,251,46594,6,0,P|215:252|166:270,1,89.2499972763062,4|0,1:2|1:0,0:0:0:0:
362,367,46906,1,8,0:2:0:0:
434,198,47062,2,0,L|443:89,1,89.2499972763062,0|0,1:0|1:0,0:0:0:0:
272,284,47375,1,0,1:0:0:0:
266,98,47531,1,8,0:2:0:0:
145,251,47687,1,0,1:0:0:0:
52,54,47844,6,0,L|42:162,1,89.2499972763062,4|0,1:2|1:0,0:0:0:0:
76,315,48156,1,8,0:2:0:0:
206,191,48312,2,0,P|253:181|305:184,1,89.2499972763062,0|0,1:0|1:0,0:0:0:0:
139,62,48625,2,0,P|92:52|40:55,1,89.2499972763062,0|8,1:0|0:2,0:0:0:0:
93,199,48937,1,0,1:0:0:0:
278,94,49094,6,0,B|389:88|337:145|453:143,1,178.499994552612,4|8,1:2|0:2,0:0:0:0:
293,182,49562,2,0,L|283:290,1,89.2499972763062,0|0,1:0|1:0,0:0:0:0:
443,142,49875,2,0,L|436:54,1,89.2499972763062,0|8,1:0|0:2,0:0:0:0:
262,66,50187,2,0,P|212:65|155:80,1,89.2499972763062,0|0,1:0|1:0,0:0:0:0:
116,183,50500,5,0,1:0:0:0:
322,138,50656,2,0,P|357:99|353:51,1,89.2499972763062,8|0,0:2|1:0,0:0:0:0:
409,262,50969,1,0,1:0:0:0:
262,66,51125,1,0,1:0:0:0:
262,66,51203,1,0,1:0:0:0:
262,66,51281,1,8,0:2:0:0:
218,255,51437,1,0,1:0:0:0:
89,122,51594,6,0,B|71:179|71:179|89:301,1,178.499994552612,4|8,1:2|0:2,0:0:0:0:
205,331,52062,1,0,1:0:0:0:
296,116,52219,1,0,1:0:0:0:
355,304,52375,1,0,1:0:0:0:
181,211,52531,1,8,0:2:0:0:
387,157,52687,1,0,1:0:0:0:
177,310,52844,6,0,P|99:274|86:187,1,178.499994552612,4|8,1:2|0:2,0:0:0:0:
155,54,53312,1,0,1:0:0:0:
291,225,53469,1,0,1:0:0:0:
252,22,53625,1,0,1:0:0:0:
181,211,53781,1,8,0:2:0:0:
319,63,53937,1,0,1:0:0:0:
428,237,54094,6,0,P|430:284|442:332,1,89.2499972763062,4|0,1:2|1:0,0:0:0:0:
291,225,54406,2,0,P|293:178|305:130,1,89.2499972763062,8|0,0:2|1:2,0:0:0:0:
177,310,54719,1,0,1:0:0:0:
170,144,54875,1,0,1:0:0:0:
353,305,55031,2,0,P|396:319|457:325,1,89.2499972763062,8|0,2:0|1:0,0:0:0:0:
461,98,55344,5,8,0:2:0:0:
431,97,55422,1,8,0:2:0:0:
401,94,55500,1,8,0:2:0:0:
373,85,55578,1,8,0:2:0:0:
349,67,55656,1,8,0:2:0:0:
327,48,55734,1,8,0:2:0:0:
299,37,55812,1,8,0:2:0:0:
270,33,55890,1,8,0:2:0:0:
240,32,55969,1,8,0:2:0:0:
203,50,56047,5,8,0:2:0:0:
174,85,56125,1,8,0:2:0:0:
161,129,56203,1,8,0:2:0:0:
166,174,56281,1,8,0:2:0:0:
187,214,56359,1,8,0:2:0:0:
222,243,56437,1,8,0:2:0:0:
266,257,56515,1,8,0:2:0:0:
311,253,56594,6,0,P|352:239|407:236,1,89.2499972763062,4|0,1:2|1:0,0:0:0:0:
238,350,56906,1,8,0:2:0:0:
268,140,57062,2,0,P|272:96|284:47,1,89.2499972763062,0|0,1:0|1:0,0:0:0:0:
147,196,57375,1,0,1:0:0:0:
357,285,57531,1,8,0:2:0:0:
142,366,57687,1,0,1:0:0:0:
57,162,57844,6,0,P|130:103|206:123,1,178.499994552612,4|8,1:2|0:2,0:0:0:0:
171,294,58312,2,0,P|214:309|269:321,1,89.2499972763062,0|0,1:0|1:0,0:0:0:0:
342,161,58625,2,0,P|299:177|241:188,1,89.2499972763062,0|8,1:0|0:2,0:0:0:0:
402,294,58937,1,0,1:0:0:0:
463,93,59094,6,0,B|353:104|418:36|283:52,1,178.499994552612,4|8,1:2|0:2,0:0:0:0:
132,13,59562,2,0,L|139:101,1,89.2499972763062,0|0,1:0|1:0,0:0:0:0:
219,239,59875,1,0,1:0:0:0:
298,88,60031,1,8,0:2:0:0:
415,259,60187,6,0,P|459:272|512:276,1,89.2499972763062,0|0,1:0|1:0,0:0:0:0:
342,161,60500,2,0,P|298:148|245:144,1,89.2499972763062,0|8,1:0|0:2,0:0:0:0:
189,260,60812,5,0,1:0:0:0:
139,101,60969,1,0,1:0:0:0:
51,231,61125,1,0,1:0:0:0:
223,91,61281,2,0,P|266:73|319:66,1,89.2499972763062,8|0,0:2|1:0,0:0:0:0:
422,170,61594,6,0,L|413:258,1,89.2499972763062,4|0,1:2|1:0,0:0:0:0:
307,66,61906,1,8,0:2:0:0:
230,202,62062,2,0,L|238:291,1,89.2499972763062,0|0,1:0|1:0,0:0:0:0:
182,106,62375,1,0,1:0:0:0:
311,265,62531,1,8,0:2:0:0:
271,51,62687,1,0,1:0:0:0:
191,295,62844,6,0,P|236:321|286:316,1,101.999996887207,4|0,1:2|0:0,0:0:0:0:
312,300,63469,2,0,L|409:289,1,85,0|0,0:0|0:0,0:0:0:0:
286,319,64094,6,0,B|263:258|263:258|270:161,1,152.999995330811,4|8,1:2|0:2,0:0:0:0:
166,302,64562,2,0,P|121:313|71:319,1,76.4999976654053,0|0,1:0|1:0,0:0:0:0:
247,168,64875,1,0,1:0:0:0:
310,313,65031,1,8,0:2:0:0:
374,138,65187,2,0,P|385:93|391:43,1,76.4999976654053,4|0,1:2|1:0,0:0:0:0:
291,328,65500,5,0,1:0:0:0:
163,210,65656,2,0,P|118:199|68:193,1,76.4999976654053,8|0,0:2|1:0,0:0:0:0:
190,302,65969,1,0,1:0:0:0:
69,202,66125,1,0,1:0:0:0:
253,141,66281,2,0,L|337:151,1,76.4999976654053,8|0,0:2|1:0,0:0:0:0:
415,239,66594,6,0,P|368:310|295:301,1,152.999995330811,4|8,1:2|0:2,0:0:0:0:
241,159,67062,2,0,P|230:113|226:73,1,76.4999976654053,0|0,1:0|1:0,0:0:0:0:
207,247,67375,1,0,1:0:0:0:
299,83,67531,1,8,0:2:0:0:
344,247,67687,2,0,P|355:293|359:333,1,76.4999976654053,4|0,1:2|1:0,0:0:0:0:
221,141,68000,5,0,1:0:0:0:
390,80,68156,2,0,P|436:69|476:65,1,76.4999976654053,8|0,0:2|1:0,0:0:0:0:
365,232,68469,1,0,1:0:0:0:
276,75,68625,1,0,1:0:0:0:
207,258,68781,2,0,P|172:270|131:266,1,76.4999976654053,8|0,0:2|1:0,0:0:0:0:
30,99,69094,6,0,B|137:96|74:150|192:147,1,152.999995330811,4|8,1:2|0:2,0:0:0:0:
287,97,69562,2,0,P|287:58|280:21,1,76.4999976654053,0|0,1:0|1:0,0:0:0:0:
263,193,69875,1,0,1:0:0:0:
167,68,70031,1,8,0:2:0:0:
128,222,70187,2,0,P|127:260|134:297,1,76.4999976654053,4|0,1:2|1:0,0:0:0:0:
49,175,70500,5,0,1:0:0:0:
207,283,70656,2,0,P|245:283|282:276,1,76.4999976654053,8|0,0:2|1:0,0:0:0:0:
104,231,70969,1,0,1:0:0:0:
270,171,71125,1,0,1:0:0:0:
141,80,71281,2,0,L|65:73,1,76.4999976654053,8|0,0:2|1:0,0:0:0:0:
280,21,71594,6,0,L|433:10,1,152.999995330811,4|8,1:2|0:2,0:0:0:0:
284,151,72062,2,0,P|287:193|298:241,1,76.4999976654053,0|0,1:0|1:0,0:0:0:0:
302,35,72375,1,0,1:0:0:0:
447,106,72531,1,8,0:2:0:0:
262,169,72687,2,0,P|218:177|165:179,1,76.4999976654053,4|0,1:2|1:0,0:0:0:0:
278,41,73000,5,0,1:0:0:0:
445,174,73156,2,0,P|487:198|541:220,1,76.4999976654053,8|0,0:2|1:0,0:0:0:0:
302,52,73469,5,0,1:0:0:0:
330,242,73625,1,8,0:2:0:0:
211,4,73781,1,8,0:2:0:0:
170,194,73937,1,8,0:2:0:0:
362,97,74094,6,0,P|402:90|449:86,1,76.4999976654053,0|0,1:0|1:0,0:0:0:0:
360,206,74406,2,0,P|336:239|297:258,1,76.4999976654053,8|0,0:2|1:0,0:0:0:0:
209,226,74719,1,0,1:0:0:0:
130,273,74875,1,0,1:0:0:0:
124,181,75031,2,0,L|118:280,1,76.4999976654053,8|0,0:2|0:0,0:0:0:0:
133,369,75344,5,0,1:0:0:0:
254,232,75500,1,0,1:0:0:0:
310,303,75656,1,8,0:2:0:0:
310,303,75812,2,0,L|403:295,1,76.4999976654053,0|0,1:0|1:0,0:0:0:0:
371,177,76125,1,0,1:0:0:0:
369,85,76281,2,0,L|359:187,1,76.4999976654053,8|0,0:2|1:0,0:0:0:0:
314,16,76594,5,0,1:0:0:0:
203,161,76750,1,0,1:0:0:0:
154,83,76906,1,8,0:2:0:0:
154,83,77062,2,0,L|91:89,5,38.2499988327027,0|0|0|0|0|0,0:0|0:0|0:0|0:0|0:0|0:0,0:0:0:0:
178,184,77531,2,0,L|171:260,1,76.4999976654053,8|0,0:2|1:0,0:0:0:0:
74,164,77844,5,0,1:0:0:0:
187,20,78000,1,0,1:0:0:0:
238,95,78156,1,8,0:2:0:0:
238,95,78312,2,0,L|276:91,5,38.2499988327027,0|0|0|0|0|0,0:0|0:0|0:0|0:0|0:0|0:0,0:0:0:0:
131,142,78781,2,0,L|124:218,1,76.4999976654053,8|0,0:2|1:0,0:0:0:0:
53,297,79094,6,0,P|79:330|114:341,1,76.4999976654053,0|0,1:0|1:0,0:0:0:0:
195,286,79406,1,8,0:2:0:0:
241,208,79562,1,0,1:0:0:0:
294,280,79719,2,0,L|383:272,1,76.4999976654053,0|0,1:0|1:0,0:0:0:0:
185,165,80031,2,0,P|185:124|193:76,1,76.4999976654053,8|0,0:2|1:0,0:0:0:0:
142,236,80344,5,0,1:0:0:0:
273,107,80500,1,0,1:0:0:0:
273,107,80656,2,0,L|359:101,1,76.4999976654053,8|0,0:2|1:0,0:0:0:0:
169,193,80969,2,0,L|83:187,1,76.4999976654053,0|0,1:0|1:0,0:0:0:0:
264,248,81281,2,0,P|271:290|273:333,1,76.4999976654053,8|0,0:2|1:0,0:0:0:0:
366,227,81594,5,0,1:0:0:0:
247,87,81750,1,0,1:0:0:0:
190,159,81906,1,8,0:2:0:0:
190,159,82062,2,0,L|134:165,5,38.2499988327027,0|0|0|0|0|0,0:0|0:0|0:0|0:0|0:0|0:0,0:0:0:0:
241,247,82531,2,0,L|247:336,1,76.4999976654053,8|0,0:2|1:0,0:0:0:0:
385,204,82844,5,0,1:0:0:0:
173,123,83000,1,0,1:0:0:0:
368,35,83156,1,8,0:2:0:0:
276,238,83312,1,0,1:0:0:0:
175,37,83469,1,8,0:2:0:0:
137,29,83547,1,8,0:2:0:0:
103,43,83625,1,8,0:2:0:0:
81,74,83703,1,8,0:2:0:0:
80,112,83781,2,0,P|88:150|92:201,1,76.4999976654053,8|0,0:2|1:0,0:0:0:0:
167,292,84094,6,0,L|273:301,1,76.4999976654053,0|0,1:0|1:0,0:0:0:0:
321,190,84406,2,0,P|321:151|312:84,1,76.4999976654053,0|0,1:0|1:0,0:0:0:0:
167,292,84719,2,0,P|167:331|176:398,1,76.4999976654053,0|0,1:0|1:0,0:0:0:0:
220,203,85031,1,0,1:0:0:0:
345,288,85187,6,0,P|390:294|449:292,1,76.4999976654053,0|0,1:0|1:0,0:0:0:0:
204,173,85500,2,0,P|159:167|100:169,1,76.4999976654053,0|0,1:0|1:0,0:0:0:0:
203,281,85812,1,0,1:0:0:0:
308,128,85969,1,0,1:0:0:0:
372,308,86125,1,0,1:0:0:0:
232,116,86281,1,0,1:0:0:0:
168,296,86437,1,0,1:0:0:0:
334,147,86594,6,0,L|418:137,1,76.4999976654053,0|0,1:0|1:0,0:0:0:0:
207,91,86906,2,0,L|123:81,1,76.4999976654053,0|0,1:0|1:0,0:0:0:0:
85,248,87219,1,0,1:0:0:0:
157,169,87375,1,0,1:0:0:0:
192,270,87531,2,0,P|230:278|267:280,1,76.4999976654053,0|0,1:0|1:0,0:0:0:0:
355,106,87844,5,0,1:0:0:0:
295,194,88000,1,0,1:0:0:0:
242,99,88156,2,0,P|235:62|232:24,1,76.4999976654053,0|0,1:0|1:0,0:0:0:0:
129,202,88469,1,0,1:0:0:0:
264,189,88625,1,0,1:0:0:0:
115,233,88781,2,0,P|74:240|31:242,1,76.4999976654053,0|0,1:0|1:0,0:0:0:0:
197,334,89094,6,0,L|292:343,1,76.4999976654053,0|0,1:0|1:0,0:0:0:0:
238,212,89406,2,0,P|241:167|253:114,1,76.4999976654053,0|0,1:0|1:0,0:0:0:0:
367,166,89719,1,0,1:0:0:0:
289,311,89875,1,0,1:0:0:0:
223,122,90031,1,0,1:0:0:0:
366,248,90187,2,0,L|442:239,1,76.4999976654053,0|0,1:0|1:0,0:0:0:0:
256,144,90500,5,0,1:0:0:0:
289,311,90656,1,0,1:0:0:0:
163,111,90812,1,0,1:0:0:0:
126,286,90968,1,0,1:0:0:0:
280,81,91125,1,0,1:0:0:0:
311,281,91281,1,0,1:0:0:0:
130,110,91437,1,0,1:0:0:0:
376,59,91594,2,0,P|415:53|461:51,1,76.4999976654053,0|0,1:0|1:0,0:0:0:0:
367,183,91906,5,8,0:2:0:0:
205,344,92062,1,8,0:2:0:0:
130,110,92219,1,8,0:2:0:0:
343,254,92375,1,8,0:2:0:0:
71,293,92531,2,0,P|37:273|21:240,1,76.4999976654053,8|0,0:2|0:0,0:0:0:0:
165,41,92844,5,8,0:2:0:0:
196,39,92922,1,8,0:2:0:0:
228,40,93000,1,8,0:2:0:0:
259,47,93078,1,8,0:2:0:0:
284,66,93156,1,8,0:2:0:0:
307,87,93234,1,8,0:2:0:0:
337,98,93312,1,8,0:2:0:0:
369,100,93390,1,8,0:2:0:0:
396,95,93469,5,8,0:2:0:0:
340,84,93547,1,0,0:0:0:0:
285,98,93625,1,0,0:0:0:0:
241,135,93703,1,0,0:0:0:0:
218,187,93781,2,0,P|177:213|114:222,1,93.5000028533936,0|0,0:0|0:0,0:0:0:0:
196,39,94094,6,0,P|239:7|305:8,1,93.5000028533936,4|0,1:2|1:0,0:0:0:0:
385,132,94406,1,8,0:2:0:0:
342,340,94562,2,0,L|334:229,1,93.5000028533936,0|0,1:0|1:0,0:0:0:0:
219,103,94874,1,0,1:0:0:0:
159,318,95030,1,8,0:2:0:0:
327,166,95187,1,0,1:0:0:0:
87,197,95343,6,0,L|95:86,1,93.5000028533936,4|0,1:2|1:0,0:0:0:0:
210,207,95656,1,8,0:2:0:0:
159,318,95812,2,0,P|108:329|30:328,1,93.5000028533936,0|0,1:0|1:0,0:0:0:0:
276,185,96125,2,0,P|327:174|405:175,1,93.5000028533936,0|8,1:0|0:2,0:0:0:0:
456,273,96437,1,0,1:0:0:0:
280,255,96594,6,0,B|285:204|285:204|262:160|262:160|268:93,1,140.25000428009,4|0,1:2|0:0,0:0:0:0:
269,84,96906,1,8,0:2:0:0:
203,224,97062,2,0,L|107:231,1,93.5000028533936,0|0,1:0|1:0,0:0:0:0:
344,139,97375,2,0,L|440:146,1,93.5000028533936,0|8,1:0|0:2,0:0:0:0:
378,329,97687,2,0,P|370:280|371:233,1,93.5000028533936,0|0,1:0|1:0,0:0:0:0:
396,109,98000,5,0,1:0:0:0:
231,201,98156,2,0,P|185:211|102:219,1,93.5000028533936,8|0,0:2|1:0,0:0:0:0:
185,44,98469,1,0,1:0:0:0:
138,216,98625,1,0,1:0:0:0:
304,104,98781,1,8,0:2:0:0:
330,285,98937,1,0,1:0:0:0:
171,143,99094,6,0,P|104:147|70:257,1,187.000005706787,4|8,1:2|0:2,0:0:0:0:
158,294,99562,1,0,1:0:0:0:
229,91,99719,1,0,1:0:0:0:
330,285,99875,1,0,1:0:0:0:
148,168,100031,1,8,0:2:0:0:
353,115,100187,1,0,1:0:0:0:
277,312,100344,6,0,B|156:319|227:368|94:372,1,187.000005706787,4|8,1:2|0:2,0:0:0:0:
23,251,100812,1,0,1:0:0:0:
145,83,100969,1,0,1:0:0:0:
133,288,101125,1,0,1:0:0:0:
64,100,101281,1,8,0:2:0:0:
216,221,101437,1,0,1:0:0:0:
245,38,101594,6,0,L|256:139,1,93.5000028533936,4|0,1:2|1:0,0:0:0:0:
154,282,101906,2,0,L|165:181,1,93.5000028533936,8|0,0:2|1:0,0:0:0:0:
285,334,102219,1,0,1:0:0:0:
344,186,102375,1,0,1:0:0:0:
465,292,102531,2,0,P|474:340|477:384,1,93.5000028533936,8|0,0:2|1:0,0:0:0:0:
302,258,102844,5,8,0:2:0:0:
272,259,102922,1,8,0:2:0:0:
242,262,103000,1,8,0:2:0:0:
214,271,103078,1,8,0:2:0:0:
190,289,103156,1,8,0:2:0:0:
168,308,103234,1,8,0:2:0:0:
140,319,103312,1,8,0:2:0:0:
111,323,103390,1,8,0:2:0:0:
81,324,103469,1,8,0:2:0:0:
44,306,103547,5,8,0:2:0:0:
15,271,103625,1,8,0:2:0:0:
2,227,103703,1,8,0:2:0:0:
7,182,103781,1,8,0:2:0:0:
28,142,103859,1,8,0:2:0:0:
63,113,103937,1,8,0:2:0:0:
107,99,104015,1,8,0:2:0:0:
152,103,104094,6,0,P|193:117|252:119,1,93.5000028533936,4|0,1:2|1:0,0:0:0:0:
69,6,104406,1,8,0:2:0:0:
113,211,104562,2,0,P|120:258|117:310,1,93.5000028533936,0|0,1:0|1:0,0:0:0:0:
2,227,104875,1,0,1:0:0:0:
242,171,105031,1,8,0:2:0:0:
80,334,105187,1,0,1:0:0:0:
308,372,105344,6,0,B|437:362|351:305|496:297,1,187.000005706787,4|8,1:2|0:2,0:0:0:0:
467,94,105812,2,0,P|473:144|485:196,1,93.5000028533936,0|0,1:0|1:0,0:0:0:0:
331,293,106125,2,0,P|340:247|346:200,1,93.5000028533936,0|8,1:0|0:2,0:0:0:0:
304,74,106437,1,0,1:0:0:0:
186,219,106594,6,0,B|68:231|137:166|0:176,1,187.000005706787,4|8,1:2|0:2,0:0:0:0:
159,121,107062,2,0,L|168:17,1,93.5000028533936,0|0,1:0|1:0,0:0:0:0:
186,219,107375,1,0,1:0:0:0:
310,106,107531,1,8,0:2:0:0:
369,305,107687,6,0,P|415:312|461:314,1,93.5000028533936,0|0,1:0|1:0,0:0:0:0:
278,209,108000,2,0,P|228:211|179:220,1,93.5000028533936,0|8,1:0|0:2,0:0:0:0:
158,341,108312,1,0,1:0:0:0:
118,171,108469,1,0,1:0:0:0:
272,278,108625,1,0,1:0:0:0:
303,112,108781,2,0,L|413:103,1,93.5000028533936,8|0,0:2|1:0,0:0:0:0:
370,245,109094,6,0,P|373:294|365:345,1,93.5000028533936,4|0,1:2|1:0,0:0:0:0:
345,109,109406,1,8,0:2:0:0:
206,225,109562,2,0,P|203:274|211:325,1,93.5000028533936,0|0,1:0|1:0,0:0:0:0:
145,114,109875,1,0,1:0:0:0:
291,262,110031,1,8,0:2:0:0:
294,65,110187,1,0,1:0:0:0:
154,258,110344,6,0,L|49:268,1,93.5000028533936,4|0,1:2|1:0,0:0:0:0:
221,134,110656,2,0,P|223:82|231:29,1,93.5000028533936,8|0,0:2|0:0,0:0:0:0:
291,262,110969,2,0,P|293:314|301:367,1,93.5000028533936,0|0,1:0|1:0,0:0:0:0:
452,183,111281,2,0,P|401:174|332:172,1,93.5000028533936,8|0,0:2|1:0,0:0:0:0:
202,173,111594,5,0,1:0:0:0:
256,192,111750,12,0,113781,0:0:0:0:
127,103,114094,6,0,L|213:95,1,68,0|0,1:0|1:0,0:0:0:0:
265,196,114406,2,0,L|176:188,2,68,0|8|0,1:0|0:2|1:0,0:0:0:0:
356,113,114875,1,0,1:0:0:0:
356,113,115031,2,0,L|367:263,1,136,8|0,0:2|1:0,0:0:0:0:
275,331,115500,6,0,L|285:221,1,68,0|0,1:0|1:0,0:0:0:0:
247,145,115812,2,0,L|151:153,2,68,0|0|0,1:0|1:0|1:0,0:0:0:0:
362,186,116281,2,0,L|461:192,1,68,0|0,1:0|1:0,0:0:0:0:
382,55,116594,6,0,L|306:63,1,68,0|0,1:0|1:0,0:0:0:0:
228,148,116906,2,0,L|223:215,2,68,0|8|0,1:0|0:2|1:0,0:0:0:0:
134,67,117375,1,0,1:0:0:0:
134,67,117531,2,0,L|120:217,1,136,8|0,0:2|1:0,0:0:0:0:
195,301,118000,6,0,L|286:292,1,68,0|0,1:0|1:0,0:0:0:0:
363,225,118312,2,0,L|460:234,2,68,0|0|0,1:0|1:0|1:0,0:0:0:0:
247,182,118781,1,0,1:0:0:0:
353,122,118937,1,0,1:0:0:0:
216,47,119094,6,0,L|131:54,1,68,0|0,1:0|1:0,0:0:0:0:
67,144,119406,2,0,L|-30:135,2,68,0|8|0,1:0|0:2|1:0,0:0:0:0:
134,246,119875,1,0,1:0:0:0:
134,246,120031,2,0,L|295:260,1,136,8|0,0:2|1:0,0:0:0:0:
353,168,120500,6,0,L|360:250,1,68,0|0,1:0|1:0,0:0:0:0:
412,345,120812,1,0,1:0:0:0:
478,241,120969,1,0,1:0:0:0:
392,72,121594,5,0,1:0:0:0:
330,177,121750,1,0,1:0:0:0:
273,53,121906,2,0,L|176:61,1,68,0|0,1:0|0:0,0:0:0:0:
362,126,122219,2,0,L|374:269,1,136,8|0,0:2|1:0,0:0:0:0:
471,98,122687,1,0,1:0:0:0:
365,35,122844,6,0,L|296:28,1,68,0|0,1:0|0:0,0:0:0:0:
186,80,123156,2,0,L|191:147,1,68,0|0,1:0|0:0,0:0:0:0:
204,270,123469,5,8,0:2:0:0:
341,67,123781,1,0,1:0:0:0:
120,227,124094,5,0,1:0:0:0:
201,118,124250,1,0,1:0:0:0:
234,249,124406,2,0,L|239:316,1,68,0|0,1:0|0:0,0:0:0:0:
159,171,124719,2,0,L|294:159,1,136,8|0,0:2|1:0,0:0:0:0:
140,270,125187,1,0,1:0:0:0:
56,180,125344,6,0,L|49:100,1,68,0|0,1:0|0:0,0:0:0:0:
149,40,125656,2,0,L|228:46,1,68,0|0,1:0|0:0,0:0:0:0:
339,53,125969,5,8,0:2:0:0:
124,169,126281,1,0,1:0:0:0:
343,278,126594,5,0,1:0:0:0:
437,200,126750,1,0,1:0:0:0:
311,148,126906,2,0,L|232:154,1,68,0|0,1:0|0:0,0:0:0:0:
157,298,127219,2,0,L|143:147,1,136,8|0,0:2|1:0,0:0:0:0:
62,333,127687,1,0,1:0:0:0:
175,380,127844,6,0,L|242:374,1,68,0|0,1:0|0:0,0:0:0:0:
268,254,128156,2,0,L|335:259,1,68,0|0,1:0|0:0,0:0:0:0:
458,268,128469,5,8,0:2:0:0:
285,95,128781,1,0,1:0:0:0:
46,151,129094,5,0,1:0:0:0:
42,28,129250,1,0,1:0:0:0:
151,82,129406,2,0,L|218:87,1,68,0|0,1:0|0:0,0:0:0:0:
70,178,129719,2,0,L|58:313,1,136,8|0,0:2|1:0,0:0:0:0:
168,158,130187,1,0,1:0:0:0:
221,268,130344,6,0,L|288:273,1,68,0|0,1:0|0:0,0:0:0:0:
370,183,130656,2,0,L|302:188,1,68,0|0,1:0|0:0,0:0:0:0:
455,248,130969,1,8,0:2:0:0:
400,94,131125,1,8,0:2:0:0:
296,256,131281,2,0,L|303:165,1,68,8|0,0:2|0:0,0:0:0:0:
230,40,131594,5,0,1:0:0:0:
230,40,131750,2,0,L|85:52,1,136,0|0,1:0|0:0,0:0:0:0:
26,55,132219,1,8,0:2:0:0:
91,198,132531,2,0,L|183:189,1,68
211,279,132844,5,0,1:0:0:0:
211,279,133000,2,0,L|355:291,1,136,0|0,1:0|0:0,0:0:0:0:
389,198,133469,1,0,1:0:0:0:
389,198,133625,2,0,P|383:126|314:113,1,136,0|0,1:0|0:0,0:0:0:0:
251,173,134094,6,0,L|164:180,1,68,0|0,1:0|1:0,0:0:0:0:
108,247,134406,1,0,0:0:0:0:
108,247,134562,1,0,0:0:0:0:
193,353,134719,1,8,0:2:0:0:
319,269,135344,6,0,L|324:201,1,68,0|0,1:0|1:0,0:0:0:0:
351,64,135656,1,0,0:0:0:0:
417,204,135812,1,0,0:0:0:0:
271,144,135969,2,0,L|178:152,1,68,8|0,0:2|0:0,0:0:0:0:
107,289,136281,2,0,L|115:193,1,68,0|0,0:0|0:0,0:0:0:0:
81,88,136594,5,0,1:0:0:0:
81,88,136750,2,0,L|226:75,1,136,0|0,1:0|0:0,0:0:0:0:
286,69,137219,1,8,0:2:0:0:
243,220,137531,2,0,L|249:297,1,68
336,326,137844,5,0,1:0:0:0:
336,326,138000,2,0,L|349:168,1,136,0|0,1:0|0:0,0:0:0:0:
379,100,138469,1,0,1:0:0:0:
379,100,138625,2,0,P|315:98|260:161,1,136,0|0,1:0|0:0,0:0:0:0:
213,225,139094,6,0,L|207:292,1,68,0|0,1:0|1:0,0:0:0:0:
132,352,139406,1,0,0:0:0:0:
132,352,139562,1,0,0:0:0:0:
75,228,139719,1,8,0:2:0:0:
225,70,140344,5,0,1:0:0:0:
244,215,140500,1,0,1:0:0:0:
244,215,140969,2,0,L|328:222,1,68,8|0,0:2|0:0,0:0:0:0:
415,132,141281,2,0,P|415:88|409:41,1,68,8|0,0:2|0:0,0:0:0:0:
284,12,141594,5,8,0:2:0:0:
284,28,141672,1,8,0:2:0:0:
284,46,141750,1,8,0:2:0:0:
284,62,141828,1,8,0:2:0:0:
284,79,141906,1,8,0:2:0:0:
284,182,142219,5,0,1:0:0:0:
242,314,142375,2,0,P|206:320|159:321,1,68,8|0,0:2|1:0,0:0:0:0:
366,192,142687,2,0,P|399:187|433:187,1,68,8|0,0:2|1:0,0:0:0:0:
468,196,143156,1,0,1:0:0:0:
468,196,143469,1,0,1:0:0:0:
468,196,143781,1,0,1:0:0:0:
440,311,144094,5,8,0:2:0:0:
424,311,144172,1,8,0:2:0:0:
406,311,144250,1,8,0:2:0:0:
390,311,144328,1,8,0:2:0:0:
373,311,144406,1,8,0:2:0:0:
216,288,144719,5,0,1:0:0:0:
139,151,144875,2,0,P|131:112|129:55,1,68,8|0,0:2|1:0,0:0:0:0:
308,181,145187,2,0,P|316:220|318:277,1,68,8|0,0:2|1:0,0:0:0:0:
326,285,145656,1,0,1:0:0:0:
326,285,145969,1,0,1:0:0:0:
326,285,146281,1,0,1:0:0:0:
218,210,146594,5,8,0:2:0:0:
218,194,146672,1,8,0:2:0:0:
218,176,146750,1,8,0:2:0:0:
218,160,146828,1,8,0:2:0:0:
218,143,146906,1,8,0:2:0:0:
287,24,147219,5,0,1:0:0:0:
317,168,147375,2,0,P|358:177|410:178,1,68,8|0,0:2|1:0,0:0:0:0:
218,56,147687,2,0,P|177:47|125:46,1,68,8|0,0:2|1:0,0:0:0:0:
128,54,148156,1,0,1:0:0:0:
128,54,148469,1,0,1:0:0:0:
128,54,148781,1,0,1:0:0:0:
58,157,149094,5,8,0:2:0:0:
58,174,149172,1,8,0:2:0:0:
58,190,149250,1,8,0:2:0:0:
58,208,149328,1,8,0:2:0:0:
58,224,149406,1,8,0:2:0:0:
116,340,149719,5,0,1:0:0:0:
220,227,149875,2,0,P|260:218|317:214,1,68,8|0,0:2|1:0,0:0:0:0:
112,98,150187,2,0,P|72:89|15:85,1,68,8|0,0:2|1:0,0:0:0:0:
142,217,150500,5,8,0:2:0:0:
246,4,150656,1,8,0:2:0:0:
324,233,150812,1,8,0:2:0:0:
141,79,150969,5,8,0:2:0:0:
401,41,151125,1,8,0:2:0:0:
206,230,151281,1,8,0:2:0:0:
469,212,151437,1,8,0:2:0:0:
250,75,151594,6,0,L|150:66,1,76.4999976654053,12|0,0:2|0:0,0:0:0:0:
304,173,151906,1,0,1:0:0:0:
424,110,152062,2,0,L|524:101,1,76.4999976654053,8|0,0:2|0:0,0:0:0:0:
366,243,152375,1,0,1:0:0:0:
289,109,152531,2,0,P|280:65|278:16,1,76.4999976654053,8|0,0:2|0:0,0:0:0:0:
206,230,152844,2,0,P|197:274|195:323,1,76.4999976654053,8|0,0:2|0:0,0:0:0:0:
159,156,153156,5,0,1:0:0:0:
247,33,153312,1,8,0:2:0:0:
338,177,153469,2,0,P|378:190|429:196,1,76.4999976654053,0|0,0:0|1:0,0:0:0:0:
178,254,153781,2,0,P|138:267|87:273,1,76.4999976654053,8|0,0:2|0:0,0:0:0:0:
252,356,154094,6,0,L|265:197,1,152.999995330811,8|0,0:2|1:0,0:0:0:0:
213,66,154562,1,8,0:2:0:0:
356,142,154719,2,0,P|400:141|454:131,1,76.4999976654053,0|0,1:0|1:0,0:0:0:0:
185,217,155031,2,0,P|141:216|87:206,1,76.4999976654053,8|0,0:2|0:0,0:0:0:0:
218,336,155344,6,0,P|295:308|316:233,1,152.999995330811,8|0,0:2|1:0,0:0:0:0:
272,113,155812,1,8,0:2:0:0:
162,242,155969,2,0,P|164:283|172:324,1,76.4999976654053,0|0,1:0|1:0,0:0:0:0:
85,149,156281,2,0,P|78:111|76:73,1,76.4999976654053,8|0,0:2|0:0,0:0:0:0:
241,61,156594,6,0,P|283:51|353:47,1,76.4999976654053,8|0,0:2|0:0,0:0:0:0:
414,198,156906,1,0,1:0:0:0:
247,175,157062,2,0,P|201:159|153:125,1,76.4999976654053,8|0,0:2|0:0,0:0:0:0:
236,265,157375,1,0,1:0:0:0:
292,89,157531,1,8,0:2:0:0:
374,271,157687,1,0,0:0:0:0:
208,113,157844,6,0,P|169:104|124:105,1,76.4999976654053,8|0,0:2|0:0,0:0:0:0:
147,259,158156,1,0,1:0:0:0:
292,89,158312,1,8,0:2:0:0:
274,301,158469,2,0,P|262:348|239:392,1,76.4999976654053,0|0,0:0|1:0,0:0:0:0:
216,146,158781,1,8,0:2:0:0:
374,293,158937,1,0,0:0:0:0:
390,114,159094,6,0,P|394:70|405:19,1,76.4999976654053,8|0,0:2|0:0,0:0:0:0:
188,171,159406,1,0,1:0:0:0:
398,265,159562,2,0,P|435:271|473:275,1,76.4999976654053,8|0,0:2|0:0,0:0:0:0:
190,293,159875,1,0,1:0:0:0:
429,158,160031,1,8,0:2:0:0:
161,133,160187,1,0,0:0:0:0:
353,332,160344,5,8,0:2:0:0:
396,344,160422,1,8,0:2:0:0:
439,330,160500,1,8,0:2:0:0:
470,298,160578,1,8,0:2:0:0:
479,254,160656,1,8,0:2:0:0:
312,52,160968,5,8,0:2:0:0:
264,289,161125,1,8,0:2:0:0:
264,289,161594,6,0,P|217:302|168:309,1,97.7500018644333,4|0,1:2|1:0,0:0:0:0:
51,243,161906,1,8,0:2:0:0:
199,67,162062,2,0,L|207:164,1,97.7500018644333,0|0,1:0|1:0,0:0:0:0:
264,289,162375,1,0,1:0:0:0:
323,90,162531,1,8,0:2:0:0:
436,248,162687,1,0,1:0:0:0:
207,164,162844,6,0,L|109:172,1,97.7500018644333,4|0,1:2|1:0,0:0:0:0:
231,300,163156,1,8,0:2:0:0:
329,117,163312,2,0,P|336:66|340:4,1,97.7500018644333,0|0,1:0|1:0,0:0:0:0:
178,183,163625,2,0,P|171:235|167:296,1,97.7500018644333,0|8,1:0|0:2,0:0:0:0:
289,179,163937,1,0,1:0:0:0:
343,359,164094,6,0,B|400:352|425:304|425:304|475:340|540:315,1,195.500003728867,4|8,1:2|0:2,0:0:0:0:
331,250,164562,2,0,L|210:263,1,97.7500018644333,0|0,1:0|1:0,0:0:0:0:
362,109,164875,2,0,L|458:94,1,97.7500018644333,0|8,1:0|0:2,0:0:0:0:
489,250,165187,2,0,P|497:298|499:347,1,97.7500018644333,0|0,1:0|1:0,0:0:0:0:
376,179,165500,5,0,1:0:0:0:
214,292,165656,2,0,P|164:298|117:285,1,97.7500018644333,8|0,0:2|1:0,0:0:0:0:
73,92,165969,1,0,1:0:0:0:
237,269,166125,1,0,1:0:0:0:
237,269,166203,1,0,1:0:0:0:
237,269,166281,1,8,0:2:0:0:
190,49,166437,1,0,1:0:0:0:
149,273,166594,6,0,P|217:356|303:319,1,195.500003728867,4|8,1:2|0:2,0:0:0:0:
327,176,167062,1,0,1:0:0:0:
420,359,167219,1,0,1:0:0:0:
463,142,167375,1,0,1:0:0:0:
302,324,167531,1,8,0:2:0:0:
512,258,167687,1,0,1:0:0:0:
297,156,167844,6,0,B|236:130|236:130|107:142,1,195.500003728867,4|8,1:2|0:2,0:0:0:0:
60,270,168312,1,0,1:0:0:0:
199,97,168469,1,0,1:0:0:0:
247,303,168625,1,0,1:0:0:0:
107,142,168781,1,8,0:2:0:0:
170,341,168937,1,0,1:0:0:0:
288,123,169094,6,0,P|341:112|394:109,1,97.7500018644333,4|0,1:2|1:0,0:0:0:0:
285,263,169406,2,0,P|239:249|190:244,1,97.7500018644333,8|0,0:2|1:0,0:0:0:0:
399,135,169719,1,0,1:0:0:0:
344,344,169875,1,0,1:0:0:0:
189,169,170031,2,0,P|169:112|174:49,1,97.7500018644333,8|0,0:2|1:0,0:0:0:0:
412,35,170344,5,8,0:2:0:0:
413,68,170422,1,8,0:2:0:0:
409,102,170500,1,8,0:2:0:0:
399,135,170578,1,8,0:2:0:0:
377,160,170656,1,8,0:2:0:0:
354,185,170734,1,8,0:2:0:0:
340,215,170812,1,8,0:2:0:0:
334,249,170890,1,8,0:2:0:0:
344,295,170969,5,8,0:2:0:0:
380,331,171047,1,8,0:2:0:0:
429,340,171125,1,8,0:2:0:0:
476,322,171203,1,8,0:2:0:0:
504,282,171281,1,8,0:2:0:0:
508,232,171359,1,8,0:2:0:0:
484,188,171437,1,8,0:2:0:0:
440,164,171515,1,8,0:2:0:0:
392,168,171594,6,0,P|341:180|268:178,1,97.7500018644333,4|0,1:2|1:0,0:0:0:0:
398,30,171906,1,8,0:2:0:0:
420,250,172062,2,0,P|433:301|455:346,1,97.7500018644333,0|0,1:0|1:0,0:0:0:0:
294,301,172375,1,0,1:0:0:0:
512,223,172531,1,8,0:2:0:0:
276,138,172687,1,0,1:0:0:0:
465,24,172844,6,0,P|374:3|324:80,1,195.500003728867,4|8,1:2|0:2,0:0:0:0:
335,236,173312,2,0,P|389:250|455:249,1,97.7500018644333,0|0,1:0|1:0,0:0:0:0:
260,104,173625,2,0,P|206:88|140:91,1,97.7500018644333,0|8,1:0|0:2,0:0:0:0:
252,200,173937,1,0,1:0:0:0:
333,27,174094,6,0,B|468:28|378:92|539:85,1,195.500003728867,4|8,1:2|0:0,0:0:0:0:
430,251,174562,2,0,L|422:153,1,97.7500018644333,0|0,1:0|1:0,0:0:0:0:
336,354,174875,1,0,1:0:0:0:
273,179,175031,1,8,0:2:0:0:
171,301,175187,6,0,P|121:298|63:288,1,97.7500018644333,0|0,1:0|1:0,0:0:0:0:
251,159,175500,2,0,P|305:162|359:172,1,97.7500018644333,0|8,1:0|0:2,0:0:0:0:
316,342,175812,1,0,1:0:0:0:
347,169,175969,1,0,1:0:0:0:
503,305,176125,1,0,1:0:0:0:
456,109,176281,1,8,0:2:0:0:
386,280,176437,1,0,1:0:0:0:
249,119,176594,6,0,P|201:116|146:133,1,97.7500018644333,4|0,1:2|1:0,0:0:0:0:
307,14,176906,1,8,0:2:0:0:
417,194,177062,2,0,P|465:197|520:180,1,97.7500018644333,0|0,1:0|1:0,0:0:0:0:
367,76,177375,1,0,1:0:0:0:
335,259,177531,1,8,0:2:0:0:
172,71,177687,1,0,1:0:0:0:
120,249,177844,5,8,0:2:0:0:
345,144,178000,1,0,1:0:0:0:
92,159,178156,5,8,0:2:0:0:
303,318,178312,1,0,1:0:0:0:
202,109,178469,5,8,0:2:0:0:
66,354,178625,1,0,1:0:0:0:
66,354,178703,1,0,1:0:0:0:
66,354,178781,1,8,0:2:0:0:
144,168,178937,1,0,1:0:0:0:
333,338,179094,6,0,L|439:328,1,97.7500018644333,12|0,0:2|1:0,0:0:0:0:
488,164,179406,5,8,0:2:0:0:
294,105,179562,1,0,1:0:0:0:
421,15,179719,5,8,0:2:0:0:
384,224,179875,1,0,1:0:0:0:
220,62,180031,5,8,0:2:0:0:
446,83,180187,1,0,1:0:0:0:
260,254,180344,5,12,0:2:0:0:
288,18,180500,1,0,1:0:0:0:
351,226,180656,5,8,0:2:0:0:
100,126,180812,1,0,1:0:0:0:
313,138,180969,5,8,0:2:0:0:
76,258,181125,1,0,1:0:0:0:
260,254,181281,5,8,0:2:0:0:
39,112,181437,1,0,1:0:0:0:
161,351,181594,5,12,0:2:0:0:
213,60,181750,1,0,1:0:0:0:
347,254,181906,5,8,0:2:0:0:
70,284,182062,1,0,1:0:0:0:
303,166,182219,5,8,0:2:0:0:
33,138,182375,1,0,1:0:0:0:
133,347,182531,5,8,0:2:0:0:
188,98,182687,1,0,1:0:0:0:
346,359,182844,5,12,0:2:0:0:
291,67,183000,1,0,1:0:0:0:
184,251,183156,5,8,0:2:0:0:
453,204,183312,1,0,1:0:0:0:
181,132,183469,6,0,P|135:126|74:132,1,97.7500018644333,8|0,0:2|1:0,0:0:0:0:
291,67,183781,2,0,P|337:61|398:67,1,97.7500018644333,8|0,0:2|1:0,0:0:0:0:
352,286,184094,6,0,L|344:189,1,97.7500018644333,12|0,0:2|1:0,0:0:0:0:
168,201,184406,5,8,0:2:0:0:
375,114,184562,1,0,1:0:0:0:
308,298,184719,5,8,0:2:0:0:
194,79,184875,1,0,1:0:0:0:
390,205,185031,5,8,0:2:0:0:
131,259,185187,1,0,1:0:0:0:
308,17,185344,5,12,0:2:0:0:
349,314,185500,1,0,1:0:0:0:
123,157,185656,5,8,0:2:0:0:
423,98,185812,1,0,1:0:0:0:
82,76,185969,5,8,0:2:0:0:
356,179,186125,1,0,1:0:0:0:
7,192,186281,5,8,0:2:0:0:
269,123,186437,1,0,1:0:0:0:
0,0,186594,5,12,0:2:0:0:
140,260,186750,1,0,1:0:0:0:
267,17,186906,5,8,0:2:0:0:
0,125,187062,1,0,1:0:0:0:
261,257,187219,5,8,0:2:0:0:
154,0,187375,1,0,1:0:0:0:
28,228,187531,6,0,P|31:277|44:330,1,97.7500018644333,8|0,0:2|1:0,0:0:0:0:
134,159,187844,5,8,0:2:0:0:
167,161,187922,1,8,0:2:0:0:
201,167,188000,1,8,0:2:0:0:
231,182,188078,1,8,0:2:0:0:
254,207,188156,1,8,0:2:0:0:
278,231,188234,1,8,0:2:0:0:
308,247,188312,1,8,0:2:0:0:
341,256,188390,1,8,0:2:0:0:
374,261,188469,5,8,0:2:0:0:
423,248,188547,1,8,0:2:0:0:
462,215,188625,1,8,0:2:0:0:
483,169,188703,1,8,0:2:0:0:
482,118,188781,1,8,0:2:0:0:
460,73,188859,1,8,0:2:0:0:
420,42,188937,1,8,0:2:0:0:
371,30,189015,1,8,0:2:0:0:
321,41,189094,6,0,B|205:45|270:113|129:108,1,195.500003728867,4|8,1:2|0:2,0:0:0:0:
62,193,189562,2,0,P|65:241|74:289,1,97.7500018644333,0|0,1:0|1:0,0:0:0:0:
125,121,189875,5,0,1:0:0:0:
266,205,190031,1,8,0:2:0:0:
74,289,190187,1,0,1:0:0:0:
241,115,190344,6,0,B|288:88|288:88|434:82,1,195.500003728867,4|8,1:2|0:2,0:0:0:0:
258,303,190812,2,0,L|267:195,1,97.7500018644333,0|0,1:0|1:0,0:0:0:0:
429,82,191125,2,0,L|438:189,1,97.7500018644333,0|8,1:0|0:2,0:0:0:0:
317,38,191437,1,0,1:0:0:0:
178,132,191594,6,0,P|74:116|45:21,1,195.500003728867,4|8,1:2|0:2,0:0:0:0:
281,40,192062,2,0,P|287:92|291:156,1,97.7500018644333,0|0,1:0|1:0,0:0:0:0:
148,305,192375,2,0,P|149:248|158:189,1,97.7500018644333,0|8,1:0|0:2,0:0:0:0:
138,48,192687,6,0,P|90:50|42:60,1,97.7500018644333,0|0,1:0|1:0,0:0:0:0:
258,69,193000,1,0,1:0:0:0:
195,232,193156,2,0,P|184:279|182:328,1,97.7500018644333,8|0,0:2|1:0,0:0:0:0:
315,184,193469,5,0,1:0:0:0:
490,50,193625,1,0,1:0:0:0:
258,69,193781,1,8,0:2:0:0:
460,174,193937,1,0,1:0:0:0:
228,248,194094,6,0,P|186:263|95:275,1,97.7500018644333,4|0,1:2|1:0,0:0:0:0:
189,99,194406,1,8,0:2:0:0:
284,290,194562,1,0,1:0:0:0:
346,67,194719,1,0,1:0:0:0:
153,208,194875,2,0,P|154:258|163:307,1,97.7500018644333,0|8,1:0|0:2,0:0:0:0:
292,384,195187,1,0,1:0:0:0:
432,210,195344,5,12,0:2:0:0:
447,164,195422,1,8,0:2:0:0:
445,115,195500,1,8,0:2:0:0:
426,71,195578,1,8,0:2:0:0:
391,37,195656,1,8,0:2:0:0:
346,18,195734,1,8,0:2:0:0:
297,17,195812,1,8,0:2:0:0:
252,34,195890,1,8,0:2:0:0:
216,67,195969,1,8,0:2:0:0:
316,143,196125,5,8,0:2:0:0:
116,155,196281,1,8,0:2:0:0:
208,0,196437,1,8,0:2:0:0:
221,242,196594,6,0,L|227:314,2,72.2500013780594,0|0|8,0:0|1:0|0:2,0:0:0:0:
158,115,197062,2,0,L|62:123,1,72.2500013780594,0|0,0:0|0:0,0:0:0:0:
131,250,197375,2,0,P|132:287|138:335,1,72.2500013780594,0|8,1:0|0:2,0:0:0:0:
279,189,197687,2,0,P|283:153|284:117,1,72.2500013780594
234,310,198000,2,0,P|269:314|305:315,1,72.2500013780594,0|8,1:0|0:2,0:0:0:0:
411,252,198312,5,0,0:0:0:0:
317,84,198469,1,0,0:0:0:0:
281,83,198547,1,0,0:0:0:0:
249,100,198625,1,0,1:0:0:0:
230,130,198703,1,0,0:0:0:0:
227,165,198781,2,0,L|222:230,3,36.1250006890297,8|0|0|0,0:2|0:0|0:0|0:0,0:0:0:0:
302,14,199094,5,0,0:0:0:0:
135,189,199250,1,0,1:0:0:0:
174,27,199406,1,8,0:2:0:0:
303,158,199562,2,0,L|310:246,1,72.2500013780594,0|0,0:0|0:0,0:0:0:0:
365,73,199875,2,0,P|407:68|468:70,1,72.2500013780594,0|8,1:0|0:2,0:0:0:0:
222,140,200187,2,0,P|180:135|119:137,1,72.2500013780594,0|0,0:0|0:0,0:0:0:0:
308,230,200500,2,0,L|299:321,1,72.2500013780594,0|8,1:0|0:2,0:0:0:0:
199,378,200812,5,0,0:0:0:0:
101,200,200969,1,0,0:0:0:0:
100,164,201047,1,0,0:0:0:0:
117,132,201125,1,0,1:0:0:0:
147,113,201203,1,0,0:0:0:0:
182,105,201281,2,0,L|246:111,3,36.1250006890297,8|0|0|0,0:2|0:0|0:0|0:0,0:0:0:0:
23,75,201594,5,0,0:0:0:0:
192,192,201750,1,0,1:0:0:0:
0,219,201906,1,8,0:2:0:0:
209,67,202062,2,0,L|291:59,1,72.2500013780594,0|0,0:0|0:0,0:0:0:0:
326,167,202375,2,0,P|324:207|316:268,1,72.2500013780594,0|8,1:0|0:2,0:0:0:0:
190,100,202687,2,0,P|192:60|200:-1,1,72.2500013780594,0|0,0:0|0:0,0:0:0:0:
351,52,203000,2,0,L|442:60,1,72.2500013780594,0|8,1:0|0:2,0:0:0:0:
507,141,203312,5,0,0:0:0:0:
336,253,203469,1,0,0:0:0:0:
300,254,203547,1,0,0:0:0:0:
268,237,203625,1,0,1:0:0:0:
249,207,203703,1,0,0:0:0:0:
241,172,203781,2,0,L|247:107,3,36.1250006890297,8|0|0|0,0:2|0:0|0:0|0:0,0:0:0:0:
120,102,204094,5,8,0:2:0:0:
124,137,204172,1,8,0:2:0:0:
127,173,204250,1,8,0:2:0:0:
130,209,204328,1,8,0:2:0:0:
133,245,204406,2,0,L|140:330,1,72.2500013780594,8|0,0:2|0:0,0:0:0:0:
336,253,204719,5,8,0:2:0:0:
263,65,204875,1,0,0:0:0:0:
70,302,205187,5,0,0:0:0:0:
256,192,205344,12,0,212531,0:0:0:0:
201,113,212609,6,0,B|201:157|179:174|179:174|211:222|211:222|175:258|195:356,1,252.875004823208
