osu file format v14

[General]
AudioFilename: audio.mp3
AudioLeadIn: 0
PreviewTime: 178469
Countdown: 0
SampleSet: Soft
StackLeniency: 0.8
Mode: 0
LetterboxInBreaks: 0
WidescreenStoryboard: 1

[Editor]
Bookmarks: 1594,10344,11594,21594,41594,46594,64094,74094,91906,94094,111594,121594,141594,161594,179406,187844,196594,205344
DistanceSpacing: 0.5
BeatDivisor: 4
GridSize: 32
TimelineZoom: 2.2

[Metadata]
Title:GET BACK
TitleUnicode:GET BACK
Artist:THE ORAL CIGARETTES
ArtistUnicode:THE ORAL CIGARETTES
Creator:MoonLightOri
Version:1-2s pog
Source:
Tags:amy japanese rock long version
BeatmapID:2201170
BeatmapSetID:1021023

[Difficulty]
HPDrainRate:5.4
CircleSize:3.8
OverallDifficulty:9.6
ApproachRate:9.7
SliderMultiplier:1.7
SliderTickRate:1

[Events]
//Background and Video events
0,0,"bg2.jpg",0,0
//Break Periods
//Storyboard Layer 0 (Background)
//Storyboard Layer 1 (Fail)
//Storyboard Layer 2 (Pass)
//Storyboard Layer 3 (Foreground)
//Storyboard Layer 4 (Overlay)
//Storyboard Sound Samples

[TimingPoints]
344,312.5,4,2,1,50,1,0
344,-142.857142857143,4,2,1,40,0,0
656,-136.986301369863,4,2,1,45,0,0
969,-131.578947368421,4,2,1,48,0,0
1281,-126.582278481013,4,2,1,51,0,0
1594,-125,4,2,1,54,0,0
11515,-125,4,2,1,5,0,0
11594,-111.111111111111,4,2,1,65,0,0
21594,-114.942528735632,4,2,1,65,0,0
40969,-111.111111111111,4,2,1,65,0,0
41906,-111.111111111111,4,2,1,80,0,0
43781,-111.111111111111,4,2,1,80,0,0
45344,-76.9230769230769,4,2,1,80,0,0
45969,-166.666666666667,4,2,1,80,0,0
46594,-86.9565217391304,4,2,1,80,0,1
55344,-100,4,2,1,80,0,0
56047,-71.4285714285714,4,2,1,80,0,0
56594,-86.9565217391304,4,2,1,80,0,1
62844,-125,4,2,1,80,0,0
63469,-142.857142857143,4,2,1,72,0,0
64094,-111.111111111111,4,2,1,65,0,0
74094,-111.111111111111,4,2,1,57,0,0
84094,-100,4,2,1,65,0,0
91906,-111.111111111111,4,2,1,80,0,0
92844,-76.9230769230769,4,2,1,80,0,0
93469,-71.4285714285714,4,2,1,80,0,0
94094,-86.9565217391304,4,2,1,80,0,1
102844,-100,4,2,1,80,0,0
103469,-71.4285714285714,4,2,1,80,0,0
104094,-86.9565217391304,4,2,1,80,0,1
111594,-125,4,2,1,65,0,0
121594,-117.647058823529,4,2,1,53,0,0
151594,-105.263157894737,4,2,1,65,0,0
161594,-83.3333333333333,4,2,1,80,0,1
170344,-90.9090909090909,4,2,1,80,0,0
170969,-66.6666666666667,4,2,1,80,0,0
171594,-83.3333333333333,4,2,1,80,0,1
177844,-86.9565217391304,4,2,1,80,0,0
179094,-83.3333333333333,4,2,1,80,0,1
187844,-125,4,2,1,80,0,0
188469,-58.8235294117647,4,2,1,80,0,0
189094,-83.3333333333333,4,2,1,80,0,1
196594,-117.647058823529,4,2,1,72,0,0
212533,-117.647058823529,4,2,1,5,0,0
212609,-117.647058823529,4,2,1,60,0,0

[HitObjects]
402,53,176594,6,0,P|374:95|329:117,1,101.999996887207,4|0,0:0|1:0,0:0:0:0:
99,16,176906,1,8,0:0:0:0:
76,256,177062,2,0,P|85:170|97:139,1,101.999996887207,0|0,1:0|1:0,1:0:0:0:
280,81,177375,1,0,1:0:0:0:
337,328,177531,1,8,0:0:0:0:
172,112,177687,1,0,1:0:0:0:
4,351,177844,5,8,0:0:0:0:
374,240,178000,1,0,1:0:0:0:
4,82,178156,5,8,0:0:0:0:
337,328,178312,1,0,1:0:0:0:
225,26,178469,5,8,0:0:0:0:
162,18,178547,1,8,0:0:0:0:
104,40,178625,1,8,0:0:0:0:
63,89,178703,1,8,0:0:0:0:
54,150,178781,1,8,0:0:0:0:
373,71,178937,1,0,1:0:0:0:
126,317,179094,6,0,P|65:347|17:347,1,101.999996887207,4|0,0:0|1:0,0:0:0:0:
104,40,179406,5,8,0:2:0:0:
224,352,179562,1,0,1:0:0:0:
373,71,179719,5,8,0:2:0:0:
0,162,179875,1,0,1:0:0:0:
326,331,180031,5,8,0:2:0:0:
191,19,180187,1,0,1:0:0:0:
4,375,180344,5,12,0:2:0:0:
331,160,180500,1,0,1:0:0:0:
13,130,180656,5,8,0:2:0:0:
393,255,180812,1,0,1:0:0:0:
65,246,180969,5,8,0:2:0:0:
442,127,181125,1,0,1:0:0:0:
144,81,181281,5,8,0:2:0:0:
495,250,181437,1,0,1:0:0:0:
68,329,181594,5,12,0:2:0:0:
339,63,181750,1,0,1:0:0:0:
267,376,181906,5,8,0:2:0:0:
143,20,182062,1,0,1:0:0:0:
495,250,182219,5,8,0:2:0:0:
70,294,182375,1,0,1:0:0:0:
328,26,182531,5,8,0:2:0:0:
404,364,182687,1,0,1:0:0:0:
79,69,182844,5,12,0:2:0:0:
475,219,183000,1,0,1:0:0:0:
36,288,183156,5,8,0:2:0:0:
339,63,183312,1,0,1:0:0:0:
248,376,183469,5,8,0:2:0:0:
79,69,183625,1,0,1:0:0:0:
9,350,183781,5,8,0:2:0:0:
306,195,183937,1,0,1:0:0:0:
0,21,184094,5,12,0:2:0:0:
0,21,184406,5,8,0:2:0:0:
218,223,184562,1,0,1:0:0:0:
374,37,184719,5,8,0:2:0:0:
39,257,184875,1,0,1:0:0:0:
397,184,185031,5,8,0:2:0:0:
20,110,185187,1,0,1:0:0:0:
396,383,185344,5,12,0:2:0:0:
206,18,185500,1,0,1:0:0:0:
129,371,185656,5,8,0:2:0:0:
346,0,185812,1,0,1:0:0:0:
480,378,185969,5,8,0:2:0:0:
142,10,186125,1,0,1:0:0:0:
39,384,186281,5,8,0:2:0:0:
478,172,186437,1,0,1:0:0:0:
0,0,186594,5,12,0:2:0:0:
487,284,186750,1,0,1:0:0:0:
11,360,186906,5,8,0:2:0:0:
456,25,187062,1,0,1:0:0:0:
192,384,187219,5,8,0:2:0:0:
74,0,187375,1,0,1:0:0:0:
497,384,187531,6,0,P|500:327|486:280,1,101.999996887207,8|0,0:2|1:0,0:0:0:0:
265,35,187844,1,8,0:2:0:0:
218,9,187922,1,8,0:2:0:0:
166,0,188000,1,8,0:2:0:0:
115,8,188078,1,8,0:2:0:0:
69,32,188156,1,8,0:2:0:0:
31,70,188234,1,8,0:2:0:0:
8,116,188312,1,8,0:2:0:0:
0,168,188390,1,8,0:2:0:0:
10,218,188469,5,8,0:2:0:0:
80,175,188547,1,8,0:2:0:0:
162,159,188625,1,8,0:2:0:0:
244,173,188703,1,8,0:2:0:0:
317,212,188781,1,8,0:2:0:0:
395,235,188859,1,8,0:2:0:0:
466,196,188937,1,8,0:2:0:0:
490,118,189015,1,8,0:2:0:0:
453,46,189094,6,0,P|411:29|321:29,1,101.999996887207,4|0,1:2|0:0,0:0:0:0:
