osu file format v14

[General]
AudioFilename: audio.mp3
AudioLeadIn: 0
PreviewTime: 45969
Countdown: 0
SampleSet: Normal
StackLeniency: 0.7
Mode: 1
LetterboxInBreaks: 0
WidescreenStoryboard: 1

[Editor]
Bookmarks: 11594,21594,41594,46594,56594,64094,74094,81594
DistanceSpacing: 0.1
BeatDivisor: 4
GridSize: 32
TimelineZoom: 2

[Metadata]
Title:GET BACK (Cut Ver.)
TitleUnicode:GET BACK (Cut Ver.)
Artist:THE ORAL CIGARETTES
ArtistUnicode:THE ORAL CIGARETTES
Creator:CoEqual
Version:MUZUKASHII
Source:
Tags:ジ オーラル シガレッツ toc エイミー amy カンタンナコト kantannakoto before it’s too late japanese rock jrock j-rock jpop j-pop Takuya Yamanaka 山中 拓也 Akira Akirakani あきらかにあきら Shigenobu Suzuki 鈴木 重伸 Masaya Nakanishi 中西 雅哉
BeatmapID:2882896
BeatmapSetID:1396888

[Difficulty]
HPDrainRate:6
CircleSize:5
OverallDifficulty:4.5
ApproachRate:5
SliderMultiplier:1.4
SliderTickRate:1

[Events]
//Background and Video events
0,0,"bg.jpg",0,-100
//Break Periods
//Storyboard Layer 0 (Background)
//Storyboard Layer 1 (Fail)
//Storyboard Layer 2 (Pass)
//Storyboard Layer 3 (Foreground)
//Storyboard Layer 4 (Overlay)
//Storyboard Sound Samples

[TimingPoints]
344,312.5,4,1,0,50,1,0
344,-100,4,1,0,50,0,0
1515,-100,4,1,0,65,0,0
11515,-100,4,1,0,75,0,0
21515,-100,4,1,0,80,0,0
41515,-100,4,1,0,75,0,0
46515,-100,4,1,0,90,0,0
46594,-100,4,1,0,90,0,1
62844,-100,4,1,0,85,0,0
64015,-100,4,1,0,90,0,0
64094,-100,4,1,0,90,0,1
81594,-100,4,1,0,80,0,0
91594,-100,4,1,0,60,0,0
92844,-100,4,1,0,55,0,0
94094,-100,4,1,0,50,0,0
95344,-100,4,1,0,45,0,0
96594,-100,4,1,0,40,0,0
97844,-100,4,1,0,35,0,0

[HitObjects]
256,192,344,5,8,0:0:0:0:
256,192,656,1,8,0:0:0:0:
256,192,969,1,8,0:0:0:0:
256,192,1281,1,8,0:0:0:0:
256,192,1594,5,4,0:0:0:0:
256,192,1750,1,0,0:0:0:0:
256,192,1906,1,8,0:0:0:0:
256,192,2062,1,8,0:0:0:0:
256,192,2375,1,0,0:0:0:0:
256,192,2687,1,8,0:0:0:0:
256,192,3000,1,8,0:0:0:0:
256,192,3312,1,8,0:0:0:0:
256,192,3469,1,0,0:0:0:0:
256,192,4094,1,8,0:0:0:0:
256,192,4250,1,0,0:0:0:0:
256,192,4406,1,8,0:0:0:0:
256,192,4562,1,8,0:0:0:0:
256,192,4875,1,0,0:0:0:0:
256,192,5187,1,8,0:0:0:0:
256,192,5500,1,8,0:0:0:0:
256,192,5812,1,8,0:0:0:0:
256,192,5969,1,0,0:0:0:0:
256,192,6594,1,8,0:0:0:0:
256,192,6750,1,0,0:0:0:0:
256,192,6906,1,8,0:0:0:0:
256,192,7062,1,8,0:0:0:0:
256,192,7375,1,0,0:0:0:0:
256,192,7687,1,8,0:0:0:0:
256,192,8000,1,8,0:0:0:0:
256,192,8312,1,8,0:0:0:0:
256,192,8469,1,0,0:0:0:0:
256,192,8781,1,8,0:0:0:0:
256,192,8937,1,8,0:0:0:0:
256,192,9094,1,0,0:0:0:0:
256,192,9172,1,0,0:0:0:0:
256,192,9250,1,0,0:0:0:0:
256,192,9406,1,8,0:0:0:0:
256,192,9562,1,8,0:0:0:0:
256,192,9719,1,0,0:0:0:0:
256,192,9875,1,8,0:0:0:0:
256,192,10187,1,8,0:0:0:0:
256,192,11594,5,12,0:0:0:0:
256,192,11906,1,8,0:0:0:0:
256,192,12062,1,8,0:0:0:0:
256,192,12219,1,8,0:0:0:0:
256,192,12375,1,0,0:0:0:0:
256,192,12687,5,4,0:0:0:0:
256,192,13000,1,8,0:0:0:0:
256,192,13156,1,8,0:0:0:0:
256,192,13312,1,0,0:0:0:0:
256,192,13469,1,8,0:0:0:0:
256,192,13781,1,0,0:0:0:0:
256,192,14094,5,12,0:0:0:0:
256,192,14406,1,0,0:0:0:0:
256,192,14562,1,8,0:0:0:0:
256,192,14719,1,8,0:0:0:0:
256,192,14875,1,0,0:0:0:0:
256,192,15187,5,4,0:0:0:0:
256,192,15656,1,8,0:0:0:0:
256,192,15812,1,0,0:0:0:0:
256,192,15969,1,8,0:0:0:0:
256,192,16281,1,0,0:0:0:0:
256,192,16594,5,12,0:0:0:0:
256,192,16906,1,8,0:0:0:0:
256,192,17062,1,8,0:0:0:0:
256,192,17219,1,8,0:0:0:0:
256,192,17375,1,0,0:0:0:0:
256,192,17687,5,4,0:0:0:0:
256,192,18000,1,8,0:0:0:0:
256,192,18156,1,8,0:0:0:0:
256,192,18312,1,0,0:0:0:0:
256,192,18469,1,8,0:0:0:0:
256,192,18781,1,0,0:0:0:0:
256,192,19094,5,12,0:0:0:0:
256,192,19406,1,8,0:0:0:0:
256,192,19562,1,8,0:0:0:0:
256,192,19719,1,8,0:0:0:0:
256,192,19875,1,0,0:0:0:0:
256,192,20187,5,4,0:0:0:0:
256,192,20656,1,8,0:0:0:0:
256,192,20812,1,0,0:0:0:0:
256,192,20969,1,8,0:0:0:0:
256,192,21281,1,8,0:0:0:0:
256,192,21437,1,0,0:0:0:0:
256,192,21515,1,0,0:0:0:0:
256,192,21594,1,0,0:0:0:0:
352,192,21906,1,0,0:0:0:0:
352,192,22062,1,0,0:0:0:0:
352,192,22219,1,8,0:0:0:0:
352,192,22531,1,8,0:0:0:0:
352,192,22687,1,8,0:0:0:0:
352,192,23000,1,0,0:0:0:0:
352,192,23156,1,8,0:0:0:0:
352,192,23312,1,0,0:0:0:0:
352,192,23469,1,0,0:0:0:0:
352,192,23781,1,8,0:0:0:0:
352,192,23937,1,0,0:0:0:0:
352,192,24094,1,0,0:0:0:0:
352,192,24250,1,0,0:0:0:0:
352,192,24406,1,8,0:0:0:0:
256,192,24875,1,0,0:0:0:0:
256,192,25031,1,8,0:0:0:0:
256,192,25187,1,0,0:0:0:0:
256,192,25500,1,0,0:0:0:0:
256,192,25656,1,8,0:0:0:0:
256,192,25969,1,0,0:0:0:0:
256,192,26125,1,0,0:0:0:0:
256,192,26281,1,8,0:0:0:0:
256,192,26437,1,8,0:0:0:0:
256,192,26594,1,0,0:0:0:0:
352,192,26906,1,8,0:0:0:0:
256,192,27062,1,0,0:0:0:0:
352,192,27219,1,8,0:0:0:0:
352,192,27375,1,8,0:0:0:0:
352,192,27531,1,0,0:0:0:0:
352,192,27687,1,0,0:0:0:0:
352,192,28000,1,0,0:0:0:0:
352,192,28156,1,8,0:0:0:0:
352,192,28312,1,0,0:0:0:0:
352,192,28469,1,0,0:0:0:0:
352,192,28625,1,0,0:0:0:0:
352,192,28781,1,8,0:0:0:0:
352,192,29094,1,0,0:0:0:0:
352,192,29406,1,8,0:0:0:0:
256,192,29875,1,0,0:0:0:0:
256,192,30031,1,8,0:0:0:0:
256,192,30187,1,0,0:0:0:0:
256,192,30500,1,0,0:0:0:0:
256,192,30656,1,8,0:0:0:0:
256,192,30969,1,0,0:0:0:0:
256,192,31125,1,0,0:0:0:0:
256,192,31281,1,8,0:0:0:0:
256,192,31437,1,8,0:0:0:0:
256,192,31594,1,0,0:0:0:0:
352,192,31906,1,8,0:0:0:0:
256,192,32062,1,0,0:0:0:0:
352,192,32219,1,8,0:0:0:0:
256,192,32375,1,8,0:0:0:0:
352,192,32531,1,8,0:0:0:0:
352,192,32687,1,0,0:0:0:0:
352,192,33000,1,0,0:0:0:0:
352,192,33156,1,8,0:0:0:0:
352,192,33312,1,0,0:0:0:0:
352,192,33469,1,0,0:0:0:0:
352,192,33781,1,8,0:0:0:0:
352,192,33937,1,8,0:0:0:0:
352,192,34094,1,0,0:0:0:0:
352,192,34250,1,0,0:0:0:0:
352,192,34406,1,8,0:0:0:0:
256,192,34875,1,0,0:0:0:0:
256,192,35031,1,8,0:0:0:0:
256,192,35187,1,0,0:0:0:0:
256,192,35500,1,0,0:0:0:0:
256,192,35656,1,8,0:0:0:0:
256,192,35969,1,0,0:0:0:0:
256,192,36125,1,0,0:0:0:0:
256,192,36281,1,8,0:0:0:0:
256,192,36437,1,0,0:0:0:0:
256,192,36594,1,8,0:0:0:0:
352,192,36906,1,8,0:0:0:0:
256,192,37062,1,0,0:0:0:0:
352,192,37219,1,8,0:0:0:0:
352,192,37531,1,8,0:0:0:0:
352,192,37687,1,8,0:0:0:0:
352,192,38000,1,0,0:0:0:0:
352,192,38156,1,8,0:0:0:0:
352,192,38312,1,0,0:0:0:0:
352,192,38469,1,0,0:0:0:0:
352,192,38625,1,8,0:0:0:0:
352,192,38781,1,8,0:0:0:0:
352,192,38937,1,8,0:0:0:0:
352,192,39094,1,0,0:0:0:0:
352,192,39406,1,8,0:0:0:0:
256,192,39875,1,0,0:0:0:0:
352,192,40031,1,8,0:0:0:0:
256,192,40187,1,0,0:0:0:0:
352,192,40344,1,8,0:0:0:0:
352,192,40656,1,0,0:0:0:0:
352,192,40812,1,0,0:0:0:0:
352,192,40969,1,8,0:0:0:0:
256,192,41047,1,8,0:0:0:0:
256,192,41125,1,8,0:0:0:0:
352,192,41281,1,8,0:0:0:0:
256,192,41437,1,8,0:0:0:0:
256,192,41594,5,4,0:0:0:0:
256,192,41906,1,8,0:0:0:0:
256,192,42219,1,8,0:0:0:0:
256,192,42531,1,8,0:0:0:0:
256,192,42844,1,8,0:0:0:0:
256,192,43156,1,8,0:0:0:0:
256,192,43469,1,8,0:0:0:0:
256,192,43781,1,0,0:0:0:0:
256,192,43859,1,0,0:0:0:0:
256,192,43937,1,0,0:0:0:0:
256,192,44094,5,12,0:0:0:0:
256,192,44406,1,0,0:0:0:0:
256,192,44562,1,0,0:0:0:0:
256,192,44719,1,8,0:0:0:0:
256,192,44875,1,8,0:0:0:0:
256,192,45031,1,0,0:0:0:0:
256,192,45187,1,8,0:0:0:0:
256,192,45344,1,0,0:0:0:0:
256,192,45422,1,0,0:0:0:0:
256,192,45500,1,0,0:0:0:0:
256,192,45656,1,8,0:0:0:0:
256,192,45812,1,0,0:0:0:0:
256,192,45969,1,0,0:0:0:0:
256,192,46594,5,12,0:0:0:0:
256,192,46906,1,8,0:0:0:0:
256,192,47062,1,0,0:0:0:0:
256,192,47375,1,0,0:0:0:0:
256,192,47531,1,8,0:0:0:0:
256,192,47687,1,8,0:0:0:0:
256,192,47765,1,8,0:0:0:0:
256,192,47844,1,8,0:0:0:0:
256,192,48000,1,0,0:0:0:0:
256,192,48156,1,8,0:0:0:0:
256,192,48312,1,0,0:0:0:0:
256,192,48625,1,0,0:0:0:0:
256,192,48781,1,8,0:0:0:0:
256,192,48937,1,8,0:0:0:0:
256,192,49094,1,0,0:0:0:0:
256,192,49250,1,0,0:0:0:0:
256,192,49406,1,8,0:0:0:0:
256,192,49562,1,0,0:0:0:0:
256,192,49875,1,0,0:0:0:0:
256,192,50031,1,8,0:0:0:0:
256,192,50187,1,0,0:0:0:0:
256,192,50265,1,0,0:0:0:0:
256,192,50344,1,0,0:0:0:0:
256,192,50500,1,8,0:0:0:0:
256,192,50656,1,8,0:0:0:0:
256,192,50969,1,0,0:0:0:0:
256,192,51125,1,0,0:0:0:0:
256,192,51281,1,8,0:0:0:0:
256,192,51359,1,8,0:0:0:0:
256,192,51437,1,8,0:0:0:0:
256,192,51906,1,8,0:0:0:0:
256,192,52062,1,0,0:0:0:0:
256,192,52375,1,0,0:0:0:0:
256,192,52531,1,8,0:0:0:0:
256,192,52609,1,8,0:0:0:0:
256,192,52687,1,8,0:0:0:0:
256,192,52844,1,0,0:0:0:0:
256,192,53156,1,8,0:0:0:0:
256,192,53312,1,0,0:0:0:0:
256,192,53625,1,8,0:0:0:0:
256,192,53937,1,0,0:0:0:0:
256,192,54094,1,8,0:0:0:0:
256,192,54250,1,0,0:0:0:0:
256,192,54406,1,8,0:0:0:0:
256,192,54875,1,0,0:0:0:0:
256,192,55031,1,8,0:0:0:0:
256,192,55344,1,0,0:0:0:0:
256,192,55422,1,0,0:0:0:0:
256,192,55500,1,0,0:0:0:0:
256,192,55656,1,8,0:0:0:0:
256,192,55812,1,0,0:0:0:0:
256,192,55969,1,8,0:0:0:0:
256,192,56125,1,0,0:0:0:0:
256,192,56281,1,0,0:0:0:0:
256,192,56359,1,0,0:0:0:0:
256,192,56437,1,0,0:0:0:0:
256,192,56594,5,12,0:0:0:0:
256,192,56906,1,8,0:0:0:0:
256,192,57062,1,0,0:0:0:0:
256,192,57375,1,0,0:0:0:0:
256,192,57531,1,8,0:0:0:0:
256,192,57609,1,8,0:0:0:0:
256,192,57687,1,8,0:0:0:0:
256,192,57844,1,0,0:0:0:0:
256,192,58156,1,8,0:0:0:0:
256,192,58234,1,8,0:0:0:0:
256,192,58312,1,8,0:0:0:0:
256,192,58469,1,0,0:0:0:0:
256,192,58625,1,0,0:0:0:0:
256,192,58937,1,0,0:0:0:0:
256,192,59094,1,0,0:0:0:0:
256,192,59406,1,8,0:0:0:0:
256,192,59562,1,0,0:0:0:0:
256,192,59875,1,0,0:0:0:0:
256,192,60031,1,8,0:0:0:0:
256,192,60187,1,0,0:0:0:0:
256,192,60265,1,0,0:0:0:0:
256,192,60344,1,0,0:0:0:0:
256,192,60500,1,0,0:0:0:0:
256,192,60812,1,0,0:0:0:0:
256,192,60969,1,0,0:0:0:0:
256,192,61125,1,0,0:0:0:0:
256,192,61281,1,8,0:0:0:0:
256,192,61359,1,8,0:0:0:0:
256,192,61437,1,8,0:0:0:0:
256,192,61906,1,8,0:0:0:0:
256,192,62062,1,0,0:0:0:0:
256,192,62375,1,0,0:0:0:0:
256,192,62531,1,0,0:0:0:0:
256,192,62609,1,0,0:0:0:0:
256,192,62687,1,0,0:0:0:0:
256,192,62844,1,8,0:0:0:0:
256,192,63469,1,8,0:0:0:0:
256,192,63781,1,0,0:0:0:0:
256,192,63859,1,0,0:0:0:0:
256,192,63937,1,0,0:0:0:0:
256,192,64094,5,12,0:0:0:0:
256,192,64406,1,8,0:0:0:0:
256,192,64562,1,0,0:0:0:0:
256,192,64719,1,8,0:0:0:0:
256,192,64875,1,0,0:0:0:0:
256,192,65031,1,8,0:0:0:0:
256,192,65109,1,8,0:0:0:0:
256,192,65187,1,8,0:0:0:0:
256,192,65344,1,0,0:0:0:0:
256,192,65656,1,8,0:0:0:0:
256,192,65734,1,8,0:0:0:0:
256,192,65812,1,8,0:0:0:0:
256,192,65969,1,8,0:0:0:0:
256,192,66125,1,0,0:0:0:0:
256,192,66281,1,8,0:0:0:0:
256,192,66437,1,0,0:0:0:0:
256,192,66594,1,8,0:0:0:0:
256,192,66906,1,8,0:0:0:0:
256,192,67062,1,0,0:0:0:0:
256,192,67219,1,8,0:0:0:0:
256,192,67375,1,0,0:0:0:0:
256,192,67531,1,8,0:0:0:0:
256,192,67687,1,8,0:0:0:0:
256,192,67765,1,8,0:0:0:0:
256,192,67844,1,8,0:0:0:0:
256,192,68000,1,0,0:0:0:0:
256,192,68156,1,8,0:0:0:0:
256,192,68469,1,8,0:0:0:0:
256,192,68625,1,0,0:0:0:0:
256,192,68781,1,8,0:0:0:0:
256,192,68859,1,8,0:0:0:0:
256,192,68937,1,8,0:0:0:0:
256,192,69406,1,8,0:0:0:0:
256,192,69562,1,0,0:0:0:0:
256,192,69875,1,0,0:0:0:0:
256,192,70031,1,8,0:0:0:0:
256,192,70109,1,8,0:0:0:0:
256,192,70187,1,8,0:0:0:0:
256,192,70344,1,8,0:0:0:0:
256,192,70656,1,8,0:0:0:0:
256,192,70812,1,0,0:0:0:0:
256,192,71125,1,8,0:0:0:0:
256,192,71437,1,0,0:0:0:0:
256,192,71594,1,8,0:0:0:0:
256,192,71750,1,0,0:0:0:0:
256,192,71906,1,8,0:0:0:0:
256,192,72375,1,0,0:0:0:0:
256,192,72531,1,8,0:0:0:0:
256,192,72844,1,0,0:0:0:0:
256,192,72922,1,0,0:0:0:0:
256,192,73000,1,0,0:0:0:0:
256,192,73156,1,8,0:0:0:0:
256,192,73312,1,0,0:0:0:0:
256,192,73469,1,8,0:0:0:0:
256,192,73625,1,0,0:0:0:0:
256,192,73781,1,0,0:0:0:0:
256,192,73859,1,0,0:0:0:0:
256,192,73937,1,0,0:0:0:0:
256,192,74094,5,12,0:0:0:0:
256,192,74406,1,8,0:0:0:0:
256,192,74562,1,0,0:0:0:0:
256,192,74875,1,0,0:0:0:0:
256,192,75031,1,8,0:0:0:0:
256,192,75109,1,8,0:0:0:0:
256,192,75187,1,8,0:0:0:0:
256,192,75344,1,0,0:0:0:0:
256,192,75656,1,8,0:0:0:0:
256,192,75734,1,8,0:0:0:0:
256,192,75812,1,8,0:0:0:0:
256,192,75969,1,0,0:0:0:0:
256,192,76125,1,0,0:0:0:0:
256,192,76437,1,0,0:0:0:0:
256,192,76594,1,0,0:0:0:0:
256,192,76906,1,8,0:0:0:0:
256,192,77062,1,0,0:0:0:0:
256,192,77375,1,0,0:0:0:0:
256,192,77531,1,8,0:0:0:0:
256,192,77687,1,0,0:0:0:0:
256,192,77765,1,0,0:0:0:0:
256,192,77844,1,0,0:0:0:0:
256,192,78000,1,0,0:0:0:0:
256,192,78312,1,0,0:0:0:0:
256,192,78469,1,0,0:0:0:0:
256,192,78625,1,0,0:0:0:0:
256,192,78781,1,8,0:0:0:0:
256,192,78859,1,8,0:0:0:0:
256,192,78937,1,8,0:0:0:0:
256,192,79406,1,8,0:0:0:0:
256,192,79562,1,0,0:0:0:0:
256,192,79875,1,0,0:0:0:0:
256,192,80031,1,8,0:0:0:0:
256,192,80187,1,0,0:0:0:0:
256,192,80344,1,0,0:0:0:0:
256,192,80422,1,0,0:0:0:0:
256,192,80500,1,0,0:0:0:0:
256,192,80656,1,8,0:0:0:0:
256,192,80812,1,0,0:0:0:0:
256,192,80969,1,8,0:0:0:0:
256,192,81281,1,8,0:0:0:0:
256,192,81437,1,8,0:0:0:0:
256,192,81594,5,4,0:0:0:0:
256,192,81750,1,0,0:0:0:0:
256,192,81906,1,8,0:0:0:0:
256,192,82062,1,8,0:0:0:0:
256,192,82375,1,0,0:0:0:0:
256,192,82687,1,8,0:0:0:0:
256,192,83000,1,8,0:0:0:0:
256,192,83312,1,8,0:0:0:0:
256,192,83469,1,0,0:0:0:0:
256,192,84094,1,8,0:0:0:0:
256,192,84250,1,0,0:0:0:0:
256,192,84406,1,8,0:0:0:0:
256,192,84562,1,8,0:0:0:0:
256,192,84875,1,0,0:0:0:0:
256,192,85187,1,8,0:0:0:0:
256,192,85500,1,8,0:0:0:0:
256,192,85812,1,8,0:0:0:0:
256,192,85969,1,0,0:0:0:0:
256,192,86594,1,8,0:0:0:0:
256,192,86750,1,0,0:0:0:0:
256,192,86906,1,8,0:0:0:0:
256,192,87062,1,8,0:0:0:0:
256,192,87375,1,0,0:0:0:0:
256,192,87687,1,8,0:0:0:0:
256,192,88000,1,8,0:0:0:0:
256,192,88312,1,8,0:0:0:0:
256,192,88469,1,0,0:0:0:0:
256,192,88781,1,0,0:0:0:0:
256,192,88937,1,0,0:0:0:0:
256,192,89094,1,0,0:0:0:0:
256,192,89172,5,0,0:0:0:0:
256,192,89250,1,0,0:0:0:0:
256,192,89406,1,8,0:0:0:0:
256,192,89562,1,8,0:0:0:0:
256,192,89719,1,0,0:0:0:0:
256,192,89875,1,8,0:0:0:0:
256,192,90187,5,12,0:0:0:0:
256,192,90344,12,0,98156,0:0:0:0:
