osu file format v14

[General]
AudioFilename: audio.mp3
AudioLeadIn: 0
PreviewTime: 45969
Countdown: 0
SampleSet: Normal
StackLeniency: 0.7
Mode: 1
LetterboxInBreaks: 0
WidescreenStoryboard: 1

[Editor]
Bookmarks: 11594,21594,26594,31594,36594,41594,46594,56594,64094,74094,81594
DistanceSpacing: 0.1
BeatDivisor: 1
GridSize: 32
TimelineZoom: 1.2

[Metadata]
Title:GET BACK (Cut Ver.)
TitleUnicode:GET BACK (Cut Ver.)
Artist:THE ORAL CIGARETTES
ArtistUnicode:THE ORAL CIGARETTES
Creator:CoEqual
Version:KANTAN
Source:
Tags:ジ オーラル シガレッツ toc エイミー amy カンタンナコト kantannakoto before it’s too late japanese rock jrock j-rock jpop j-pop Takuya Yamanaka 山中 拓也 Akira Akirakani あきらかにあきら Shigenobu Suzuki 鈴木 重伸 Masaya Nakanishi 中西 雅哉
BeatmapID:2882895
BeatmapSetID:1396888

[Difficulty]
HPDrainRate:7
CircleSize:5
OverallDifficulty:2.5
ApproachRate:5
SliderMultiplier:1.4
SliderTickRate:1

[Events]
//Background and Video events
0,0,"bg.jpg",0,-100
//Break Periods
//Storyboard Layer 0 (Background)
//Storyboard Layer 1 (Fail)
//Storyboard Layer 2 (Pass)
//Storyboard Layer 3 (Foreground)
//Storyboard Layer 4 (Overlay)
//Storyboard Sound Samples

[TimingPoints]
344,312.5,4,1,0,50,1,0
344,-100,4,1,0,50,0,0
1515,-100,4,1,0,65,0,0
11515,-100,4,1,0,75,0,0
21515,-100,4,1,0,80,0,0
41515,-100,4,1,0,75,0,0
46515,-100,4,1,0,90,0,0
46594,-100,4,1,0,90,0,1
62844,-100,4,1,0,85,0,0
64015,-100,4,1,0,90,0,0
64094,-100,4,1,0,90,0,1
81594,-100,4,1,0,80,0,0
91594,-100,4,1,0,60,0,0
92844,-100,4,1,0,55,0,0
94094,-100,4,1,0,50,0,0
95344,-100,4,1,0,45,0,0
96594,-100,4,1,0,40,0,0
97844,-100,4,1,0,35,0,0

[HitObjects]
256,192,1594,5,4,0:0:0:0:
256,192,2687,1,8,0:0:0:0:
256,192,3469,1,8,0:0:0:0:
256,192,3781,1,8,0:0:0:0:
256,192,4094,1,0,0:0:0:0:
256,192,5187,1,8,0:0:0:0:
256,192,5969,1,8,0:0:0:0:
256,192,6281,1,8,0:0:0:0:
256,192,6594,1,0,0:0:0:0:
256,192,7687,1,8,0:0:0:0:
256,192,8469,1,8,0:0:0:0:
256,192,9094,1,0,0:0:0:0:
256,192,9875,1,8,0:0:0:0:
256,192,10187,1,8,0:0:0:0:
256,192,11594,5,12,0:0:0:0:
256,192,12062,1,8,0:0:0:0:
256,192,12687,5,4,0:0:0:0:
256,192,13469,1,8,0:0:0:0:
256,192,14094,5,12,0:0:0:0:
256,192,14562,1,8,0:0:0:0:
256,192,15187,5,4,0:0:0:0:
256,192,16281,1,0,0:0:0:0:
256,192,16594,5,12,0:0:0:0:
256,192,17062,1,8,0:0:0:0:
256,192,17687,5,4,0:0:0:0:
256,192,18469,1,8,0:0:0:0:
256,192,19094,5,12,0:0:0:0:
256,192,19562,1,8,0:0:0:0:
256,192,20187,5,4,0:0:0:0:
256,192,21281,1,0,0:0:0:0:
256,192,21594,1,8,0:0:0:0:
352,192,21906,1,0,0:0:0:0:
352,192,22531,1,8,0:0:0:0:
352,192,23156,1,8,0:0:0:0:
352,192,23781,1,0,0:0:0:0:
256,192,24094,1,0,0:0:0:0:
352,192,24406,1,8,0:0:0:0:
256,192,25656,1,8,0:0:0:0:
256,192,26281,1,8,0:0:0:0:
256,192,26594,1,0,0:0:0:0:
352,192,26906,1,8,0:0:0:0:
352,192,27531,1,0,0:0:0:0:
352,192,28156,1,8,0:0:0:0:
352,192,28781,1,0,0:0:0:0:
352,192,29094,1,8,0:0:0:0:
352,192,29406,1,0,0:0:0:0:
256,192,30656,1,8,0:0:0:0:
256,192,31281,1,8,0:0:0:0:
256,192,31594,1,0,0:0:0:0:
352,192,31906,1,8,0:0:0:0:
352,192,32531,1,0,0:0:0:0:
352,192,33156,1,8,0:0:0:0:
352,192,33781,1,0,0:0:0:0:
352,192,34094,1,8,0:0:0:0:
352,192,34406,1,8,0:0:0:0:
256,192,35656,1,8,0:0:0:0:
256,192,36281,1,8,0:0:0:0:
256,192,36594,1,0,0:0:0:0:
352,192,36906,1,8,0:0:0:0:
352,192,37531,1,8,0:0:0:0:
352,192,38156,1,8,0:0:0:0:
352,192,38781,1,0,0:0:0:0:
352,192,39094,1,0,0:0:0:0:
352,192,39406,1,8,0:0:0:0:
256,192,40031,1,0,0:0:0:0:
352,192,40344,1,8,0:0:0:0:
352,192,40969,1,8,0:0:0:0:
352,192,41281,1,8,0:0:0:0:
256,192,41594,5,4,0:0:0:0:
256,192,42844,1,8,0:0:0:0:
256,192,43469,1,8,0:0:0:0:
256,192,43781,1,0,0:0:0:0:
256,192,44094,5,12,0:0:0:0:
256,192,45344,1,0,0:0:0:0:
256,192,45656,1,8,0:0:0:0:
256,192,45969,1,0,0:0:0:0:
256,192,46594,5,4,0:0:0:0:
256,192,47219,1,8,0:0:0:0:
256,192,47844,1,0,0:0:0:0:
256,192,48156,1,8,0:0:0:0:
256,192,48469,1,0,0:0:0:0:
256,192,49094,1,8,0:0:0:0:
256,192,49719,1,0,0:0:0:0:
256,192,50344,1,8,0:0:0:0:
256,192,50969,1,0,0:0:0:0:
256,192,51281,1,0,0:0:0:0:
256,192,51594,1,8,0:0:0:0:
256,192,52219,1,0,0:0:0:0:
256,192,52844,1,8,0:0:0:0:
256,192,53469,1,0,0:0:0:0:
256,192,54094,1,8,0:0:0:0:
256,192,55344,1,8,0:0:0:0:
256,192,55969,1,0,0:0:0:0:
256,192,56281,1,0,0:0:0:0:
256,192,56594,5,12,0:0:0:0:
256,192,57219,1,8,0:0:0:0:
256,192,57844,1,8,0:0:0:0:
256,192,58156,1,0,0:0:0:0:
256,192,58469,1,8,0:0:0:0:
256,192,59094,1,0,0:0:0:0:
256,192,59719,1,8,0:0:0:0:
256,192,60344,1,0,0:0:0:0:
256,192,60969,1,0,0:0:0:0:
256,192,61281,1,0,0:0:0:0:
256,192,61594,1,8,0:0:0:0:
256,192,62844,1,8,0:0:0:0:
256,192,63469,1,8,0:0:0:0:
256,192,63781,1,0,0:0:0:0:
256,192,64094,5,12,0:0:0:0:
256,192,64719,1,0,0:0:0:0:
256,192,65344,1,8,0:0:0:0:
256,192,65656,1,0,0:0:0:0:
256,192,65969,1,8,0:0:0:0:
256,192,66594,1,0,0:0:0:0:
256,192,67219,1,8,0:0:0:0:
256,192,67844,1,8,0:0:0:0:
256,192,68469,1,8,0:0:0:0:
256,192,68781,1,8,0:0:0:0:
256,192,69094,1,0,0:0:0:0:
256,192,69719,1,0,0:0:0:0:
256,192,70344,1,8,0:0:0:0:
256,192,70969,1,0,0:0:0:0:
256,192,71594,1,8,0:0:0:0:
256,192,72844,1,8,0:0:0:0:
256,192,73469,1,0,0:0:0:0:
256,192,73781,1,0,0:0:0:0:
256,192,74094,5,12,0:0:0:0:
256,192,74719,1,0,0:0:0:0:
256,192,75344,1,8,0:0:0:0:
256,192,75656,1,0,0:0:0:0:
256,192,75969,1,0,0:0:0:0:
256,192,76594,1,8,0:0:0:0:
256,192,77219,1,0,0:0:0:0:
256,192,77844,1,8,0:0:0:0:
256,192,78469,1,0,0:0:0:0:
256,192,78781,1,8,0:0:0:0:
256,192,79094,1,8,0:0:0:0:
256,192,80344,1,8,0:0:0:0:
256,192,80969,1,8,0:0:0:0:
256,192,81281,1,8,0:0:0:0:
256,192,81594,5,4,0:0:0:0:
256,192,82687,1,8,0:0:0:0:
256,192,83469,1,8,0:0:0:0:
256,192,83781,1,8,0:0:0:0:
256,192,84094,1,0,0:0:0:0:
256,192,85187,1,8,0:0:0:0:
256,192,85969,1,8,0:0:0:0:
256,192,86281,1,8,0:0:0:0:
256,192,86594,1,0,0:0:0:0:
256,192,87687,1,8,0:0:0:0:
256,192,88469,1,8,0:0:0:0:
256,192,89094,1,0,0:0:0:0:
256,192,89875,1,8,0:0:0:0:
256,192,90187,5,12,0:0:0:0:
256,192,90344,12,0,98156,0:0:0:0:
