osu file format v14

[General]
AudioFilename: audio.mp3
AudioLeadIn: 0
PreviewTime: 60059
Countdown: 0
SampleSet: Soft
StackLeniency: 0.5
Mode: 0
LetterboxInBreaks: 0
WidescreenStoryboard: 1

[Editor]
Bookmarks: 9976,19976,25133,27633,30133,40133,50133,57633,100133,102633,110133,136070,139195,140133,160133,170133,180133,195133,200133,205133,207633,209820,210133,212633,220133,222633,227633,230133,231383,232008,247570,256340
DistanceSpacing: 1.9
BeatDivisor: 4
GridSize: 4
TimelineZoom: 2.5

[Metadata]
Title:Flower
TitleUnicode:Flower
Artist:THE ORAL CIGARETTES
ArtistUnicode:THE ORAL CIGARETTES
Creator:fritz_divine
Version:Collab Expert
Source:
Tags:Rock Black Memory DivineEnigma Monarch Agatsu Stixy Collab Before It's Too Late japanese
BeatmapID:1962416
BeatmapSetID:878327

[Difficulty]
HPDrainRate:5.2
CircleSize:4
OverallDifficulty:9.2
ApproachRate:9.3
SliderMultiplier:2
SliderTickRate:1

[Events]
//Background and Video events
0,0,"lol..jpg",0,0
//Break Periods
//Storyboard Layer 0 (Background)
//Storyboard Layer 1 (Fail)
//Storyboard Layer 2 (Pass)
//Storyboard Layer 3 (Foreground)
//Storyboard Layer 4 (Overlay)
//Storyboard Sound Samples

[TimingPoints]
138,312.5,4,2,1,100,1,0
138,-100,4,2,1,70,0,0
7325,-142.857142857143,4,2,2,70,0,0
7559,-142.857142857143,4,2,2,5,0,0
7638,-100,4,2,1,70,0,0
8966,-100,4,2,1,5,0,0
9044,-100,4,2,1,70,0,0
9981,-100,4,2,1,72,0,0
25372,-100,4,2,1,5,0,0
25450,-100,4,2,3,72,0,0
30138,-125,4,2,1,60,0,0
50294,-125,4,2,1,40,0,0
50450,-125,4,2,1,60,0,0
51856,-125,4,2,1,40,0,0
52013,-125,4,2,1,60,0,0
52794,-125,4,2,1,40,0,0
52950,-125,4,2,1,60,0,0
54356,-125,4,2,1,40,0,0
54513,-125,4,2,1,60,0,0
55294,-125,4,2,1,40,0,0
55450,-125,4,2,1,60,0,0
56856,-125,4,2,1,40,0,0
57013,-125,4,2,1,60,0,0
57325,-125,4,2,2,60,0,0
57638,-125,4,2,1,60,0,0
59200,-100,4,2,1,60,0,0
60138,-90.9090909090909,4,2,1,80,0,1
65919,-90.9090909090909,4,2,1,80,0,1
68966,-90.9090909090909,4,2,1,5,0,1
69044,-90.9090909090909,4,2,1,80,0,1
69825,-100,4,2,1,80,0,0
70138,-90.9090909090909,4,2,1,80,0,1
75372,-90.9090909090909,4,2,1,5,0,1
75450,-90.9090909090909,4,2,1,80,0,1
79200,-90.9090909090909,4,2,1,80,0,1
79434,-90.9090909090909,4,2,1,5,0,1
79513,-90.9090909090909,4,2,1,80,0,1
79825,-100,4,2,1,80,0,0
80138,-83.3333333333333,4,2,1,80,0,1
80450,-83.3333333333333,4,2,1,90,0,1
84825,-100,4,2,1,80,0,0
85059,-100,4,2,1,80,0,0
85138,-100,4,2,1,80,0,1
87559,-100,4,2,1,80,0,1
87638,-100,4,2,1,80,0,1
89124,-100,4,2,1,80,0,1
89200,-100,4,2,1,80,0,1
90138,-125,4,2,1,60,0,0
100138,-166.666666666667,4,2,1,40,0,0
102013,-166.666666666667,4,2,1,60,0,0
102638,-125,4,2,1,60,0,0
109825,-100,4,2,1,60,0,0
110059,-100,4,2,1,7,0,0
110138,-100,4,2,3,60,0,0
110294,-100,4,2,3,5,0,0
110450,-100,4,2,3,60,0,0
110919,-100,4,2,3,5,0,0
111075,-100,4,2,3,60,0,0
111544,-100,4,2,3,5,0,0
111700,-100,4,2,3,60,0,0
112169,-100,4,2,3,5,0,0
112325,-100,4,2,3,60,0,0
112794,-100,4,2,3,5,0,0
112950,-100,4,2,3,60,0,0
113888,-100,4,2,1,60,0,0
115138,-90.9090909090909,4,2,1,80,0,1
124825,-100,4,2,1,80,0,0
125138,-90.9090909090909,4,2,1,80,0,1
135138,-100,4,2,3,70,0,0
135294,-100,4,2,3,70,0,0
135372,-100,4,2,3,5,0,0
135450,-100,4,2,3,70,0,0
135919,-100,4,2,3,70,0,0
135997,-100,4,2,3,5,0,0
136075,-100,4,2,3,70,0,0
136544,-100,4,2,3,70,0,0
136622,-100,4,2,3,5,0,0
136700,-100,4,2,3,70,0,0
137169,-100,4,2,3,70,0,0
137247,-100,4,2,3,5,0,0
137325,-100,4,2,1,70,0,0
140138,-142.857142857143,4,2,1,50,0,0
142638,314.547837483617,4,2,1,50,1,0
142638,-142.857142857143,4,2,1,50,0,0
143896,352.941176470588,4,2,1,50,1,0
143896,-142.857142857143,4,2,1,50,0,0
144214,329.67032967033,4,2,1,50,1,0
144543,282.352941176471,4,2,1,50,1,0
144825,312.5,4,2,1,50,1,0
145138,315.457413249211,4,2,1,50,1,0
145138,-142.857142857143,4,2,1,50,0,0
146715,324.324324324324,4,2,1,50,1,0
147039,310.880829015544,4,2,1,50,1,0
147660,301.507537688442,4,2,1,50,1,0
147660,-142.857142857143,4,2,1,50,0,0
148263,312.5,4,2,1,50,1,0
148263,-142.857142857143,4,2,1,50,0,0
149200,329.67032967033,4,2,1,50,1,0
149529,296.296296296296,4,2,1,50,1,0
149825,298.507462686567,4,2,1,50,1,0
150123,379.746835443038,4,2,1,50,1,0
150312,307.692307692308,4,2,1,50,1,0
150312,-142.857142857143,4,2,1,50,0,0
151081,-144.927536231884,4,2,1,50,0,0
151388,324.324324324324,4,2,1,50,1,0
151712,329.67032967033,4,2,1,50,1,0
152041,298.507462686567,4,2,1,50,1,0
152638,297.029702970297,4,2,1,50,1,0
152638,-142.857142857143,4,2,1,50,0,0
153232,343.839541547278,4,2,1,50,1,0
153232,-142.857142857143,4,2,1,50,0,0
153575,312.5,4,2,1,50,1,0
153575,-142.857142857143,4,2,1,50,0,0
153888,312.5,4,2,1,50,1,0
153888,-142.857142857143,4,2,1,50,0,0
154200,329.67032967033,4,2,1,50,1,0
155138,312.5,4,2,1,50,1,0
155138,-142.857142857143,4,2,1,50,0,0
156700,337.078651685393,4,2,1,50,1,0
157037,289.156626506024,4,2,1,50,1,0
157615,302.267002518892,4,2,1,50,1,0
157615,-142.857142857143,4,2,1,50,0,0
157917,372.670807453416,4,2,1,50,1,0
158103,340.909090909091,4,2,1,50,1,0
158273,322.58064516129,4,2,1,50,1,0
158595,340.909090909091,4,2,2,50,1,0
158595,-142.857142857143,4,2,2,50,0,0
158808,-142.857142857143,4,2,2,5,0,0
158888,312.5,4,2,1,50,1,0
158888,-142.857142857143,4,2,1,50,0,0
160138,-125,4,2,1,50,0,0
162325,-500,4,2,2,50,0,0
162638,-125,4,2,1,50,0,0
167325,-500,4,2,2,50,0,0
167638,-125,4,2,1,50,0,0
169200,-500,4,2,2,50,0,0
169513,-125,4,2,1,50,0,0
172325,-500,4,2,2,50,0,0
172638,-125,4,2,1,50,0,0
177325,-500,4,2,2,50,0,0
177638,-125,4,2,1,50,0,0
177738,-125,4,2,2,50,0,0
177794,-125,4,2,1,5,0,0
177950,-125,4,2,1,60,0,0
178106,-125,4,2,1,5,0,0
178263,-125,4,2,1,70,0,0
178419,-125,4,2,1,5,0,0
178575,-125,4,2,1,80,0,0
178731,-125,4,2,1,5,0,0
178888,-100,4,2,1,65,0,0
180138,-111.111111111111,4,2,1,65,0,0
195138,-111.111111111111,4,2,1,70,0,0
200138,-125,4,2,1,60,0,0
207638,-100,4,2,1,60,0,0
208888,-100,4,2,1,75,0,0
209513,-100,4,2,1,90,0,0
209825,-90.9090909090909,4,2,1,60,0,0
209925,-111.111111111111,4,2,1,60,0,0
216700,-111.111111111111,4,2,2,60,0,0
217013,-111.111111111111,4,2,1,60,0,0
227950,-111.111111111111,4,2,3,60,0,0
230138,-111.111111111111,4,2,1,60,0,0
232013,-111.111111111111,4,2,1,60,0,0
232638,-100,4,2,1,75,0,1
242633,322.58064516129,4,2,1,50,1,0
242633,-166.666666666667,4,2,1,50,0,0
243600,352.941176470588,4,2,1,50,1,0
243600,-166.666666666667,4,2,1,50,0,0
243952,315.789473684211,4,2,1,50,1,0
243952,-166.666666666667,4,2,1,50,0,0
244899,333.333333333333,4,2,1,50,1,0
244899,-166.666666666667,4,2,1,50,0,0
245232,315.789473684211,4,2,1,50,1,0
245232,-166.666666666667,4,2,1,50,0,0
245863,338.983050847458,4,2,1,50,1,0
245863,-166.666666666667,4,2,1,50,0,0
247218,352.941176470588,4,2,1,50,1,0
247218,-166.666666666667,4,2,1,50,0,0
248629,349.854227405248,4,2,1,50,1,0
248629,-166.666666666667,4,2,1,50,0,0
248978,363.636363636364,4,2,1,50,1,0
248978,-166.666666666667,4,2,1,50,0,0
249341,-200,4,2,1,50,0,0
250092,394.736842105263,4,2,1,50,1,0
250092,-200,4,2,1,50,0,0
250486,352.941176470588,4,2,1,50,1,0
250486,-250,4,2,1,50,0,0
250662,428.571428571429,4,2,1,50,1,0
250662,-250,4,2,1,50,0,0
251090,-161.290322580645,4,2,1,50,0,0
252054,-166.666666666667,4,2,1,50,0,0
256340,-166.666666666667,4,2,1,11,0,0

[Colours]
Combo1 : 179,206,253
Combo2 : 201,95,95
Combo3 : 197,175,205
Combo4 : 197,162,20
Combo5 : 78,80,146

[HitObjects]
43,331,138,5,6,3:2:0:0:
43,331,294,1,2,3:2:0:0:
101,186,450,1,10,0:2:0:0:
182,326,606,2,0,L|308:312,1,100,6|0,3:2|0:0,0:0:0:0:
450,215,919,1,2,3:2:0:0:
450,215,1075,2,0,L|324:201,1,100,10|0,0:2|0:0,0:0:0:0:
253,193,1388,5,0,3:0:0:0:
310,52,1544,1,0,3:0:0:0:
356,209,1700,1,8,0:2:0:0:
356,209,1856,1,8,0:2:0:0:
233,102,2013,5,0,3:0:0:0:
389,111,2169,1,0,3:0:0:0:
253,193,2325,1,8,0:2:0:0:
257,197,2638,5,6,3:2:0:0:
257,197,2794,1,2,3:2:0:0:
176,54,2950,1,10,0:2:0:0:
116,195,3106,2,0,L|2:183,1,100,6|0,3:2|0:0,0:0:0:0:
165,301,3419,1,2,3:2:0:0:
165,301,3575,2,0,L|279:287,1,100,10|0,0:2|0:0,0:0:0:0:
367,272,3888,5,0,3:0:0:0:
310,131,4044,1,0,3:0:0:0:
264,288,4200,1,8,0:2:0:0:
264,288,4356,1,8,0:2:0:0:
387,181,4513,5,0,3:0:0:0:
231,190,4669,1,0,3:0:0:0:
367,272,4825,1,8,0:2:0:0:
370,275,5138,5,6,3:2:0:0:
370,275,5294,1,2,3:2:0:0:
280,131,5450,1,10,0:2:0:0:
233,286,5606,2,0,L|117:279,1,100,6|0,3:2|0:0,0:0:0:0:
44,169,5919,1,2,3:2:0:0:
44,169,6075,2,0,L|159:154,1,100,10|0,0:2|0:0,0:0:0:0:
247,141,6388,5,0,3:0:0:0:
170,3,6544,1,0,3:0:0:0:
144,157,6700,1,8,0:2:0:0:
144,157,6856,1,8,0:2:0:0:
293,82,7013,5,8,0:2:0:0:
319,112,7091,1,8,0:2:0:0:
324,152,7169,1,8,0:2:0:0:
306,188,7247,1,8,0:2:0:0:
277,209,7325,2,0,L|158:217,1,104.999996795654,4|0,3:2|0:0,0:0:0:0:
97,219,7638,5,0,3:0:0:0:
132,382,7794,1,10,0:2:0:0:
132,382,7950,1,10,0:2:0:0:
257,120,8106,5,0,3:0:0:0:
165,300,8263,1,10,0:2:0:0:
165,300,8419,1,10,0:2:0:0:
176,22,8575,5,0,3:0:0:0:
256,219,8731,2,0,L|409:200,1,150,14|0,0:2|0:0,0:0:0:0:
404,200,9044,1,2,3:2:0:0:
257,120,9200,2,0,L|256:223,1,100,10|0,0:2|0:0,0:0:0:0:
316,62,9513,5,8,0:2:0:0:
281,32,9591,1,8,0:2:0:0:
236,30,9669,1,10,0:2:0:0:
198,53,9747,1,8,0:2:0:0:
163,82,9825,1,10,0:2:0:0:
118,84,9903,1,8,0:2:0:0:
80,61,9981,6,0,L|92:267,1,200,6|0,3:2|3:0,0:0:0:0:
185,374,10450,6,0,L|297:359,1,100,14|0,0:2|3:0,0:0:0:0:
215,97,10763,5,8,0:2:0:0:
231,291,10919,1,0,3:0:0:0:
378,177,11075,1,10,0:2:0:0:
184,209,11231,6,0,P|136:292|184:373,1,200,6|0,3:2|3:0,0:0:0:0:
329,305,11700,2,0,L|228:290,1,100,8|0,0:2|3:0,0:0:0:0:
289,31,12013,5,8,0:2:0:0:
280,212,12169,1,2,3:2:0:0:
140,116,12325,1,10,0:2:0:0:
321,128,12481,6,0,P|375:211|312:299,1,200,6|0,3:2|3:0,0:0:0:0:
180,218,12950,2,0,L|289:211,1,100,14|0,0:2|3:0,0:0:0:0:
253,41,13263,5,8,0:0:0:0:
117,159,13419,1,0,3:0:0:0:
283,214,13575,1,10,0:2:0:0:
62,73,13731,6,0,P|14:153|59:242,1,200,6|0,3:2|3:0,0:0:0:0:
216,151,14200,2,0,L|110:159,1,100,14|0,0:2|3:0,0:0:0:0:
209,360,14513,5,8,0:2:0:0:
222,151,14669,1,2,3:2:0:0:
372,297,14825,1,10,0:2:0:0:
362,103,14981,6,0,B|382:137|382:137|372:305,1,200,6|0,3:2|3:0,0:0:0:0:
166,154,15450,2,0,L|270:148,1,100,14|0,0:2|3:0,0:0:0:0:
200,5,15763,5,8,0:2:0:0:
265,153,15919,1,0,3:0:0:0:
355,12,16075,1,10,0:2:0:0:
166,167,16231,6,0,L|162:377,1,200,6|0,3:2|3:0,0:0:0:0:
381,256,16700,2,0,L|282:247,1,100,14|0,0:2|3:0,0:0:0:0:
279,349,17013,5,8,0:2:0:0:
376,171,17169,1,0,3:0:0:0:
445,363,17325,1,10,0:2:0:0:
282,247,17481,6,0,P|236:176|296:80,1,200,6|0,3:2|3:0,0:0:0:0:
441,159,17950,2,0,L|338:166,1,100,14|0,0:2|3:0,0:0:0:0:
406,260,18263,5,8,0:2:0:0:
387,75,18419,1,0,3:0:0:0:
254,198,18575,1,10,0:2:0:0:
441,159,18731,6,0,P|486:60|440:-9,1,200,6|0,3:2|3:0,0:0:0:0:
287,84,19200,2,0,L|386:74,1,100,10|0,0:2|3:0,0:0:0:0:
148,13,19513,5,8,0:3:0:0:
148,13,19591,1,8,0:3:0:0:
148,13,19669,2,0,L|142:81,1,50,10|0,2:3|0:0,0:0:0:0:
231,203,19825,2,0,L|227:146,1,50,10|0,0:2|0:0,0:0:0:0:
382,73,19981,6,0,P|434:144|383:235,1,200,6|0,3:2|3:0,0:0:0:0:
227,153,20450,2,0,P|273:136|326:150,1,100,14|0,0:2|3:0,0:0:0:0:
390,361,20763,5,8,0:2:0:0:
279,226,20919,1,0,3:0:0:0:
233,384,21075,1,10,0:2:0:0:
394,229,21231,6,0,B|416:159|416:159|392:23,1,200,6|0,3:2|3:0,0:0:0:0:
227,153,21700,2,0,L|326:150,1,100,8|0,0:2|3:0,0:0:0:0:
259,43,22013,5,8,0:2:0:0:
280,231,22169,1,2,3:2:0:0:
423,112,22325,1,10,0:2:0:0:
227,153,22481,6,0,P|187:234|246:320,1,200,6|0,3:2|3:0,0:0:0:0:
380,231,22950,2,0,L|280:232,1,100,14|0,0:2|3:0,0:0:0:0:
117,245,23263,5,8,0:2:0:0:
183,81,23419,1,0,3:0:0:0:
280,232,23575,1,10,0:2:0:0:
94,53,23731,6,0,P|176:-14|254:22,1,200,6|0,3:2|3:0,0:0:0:0:
205,171,24122,1,0,3:0:0:0:
205,171,24200,2,0,P|178:126|185:74,1,100,14|0,0:2|0:0,0:0:0:0:
252,20,24513,5,8,0:2:0:0:
256,64,24591,1,8,0:2:0:0:
235,104,24669,1,8,0:2:0:0:
195,125,24747,1,8,0:2:0:0:
151,120,24825,1,10,0:2:0:0:
107,123,24903,1,8,0:2:0:0:
66,144,24981,1,8,0:2:0:0:
45,184,25059,1,8,0:2:0:0:
51,229,25138,6,0,B|126:202|140:257|209:220,1,150,4|0,3:2|0:0,0:0:0:0:
197,225,25450,5,0,3:2:0:0:
339,136,25606,1,2,3:2:0:0:
185,57,25763,1,0,3:2:0:0:
400,229,25919,5,0,3:0:0:0:
396,57,26075,1,2,3:2:0:0:
240,134,26232,1,0,3:0:0:0:
435,85,26388,5,2,3:2:0:0:
346,244,26544,1,0,3:0:0:0:
258,80,26701,1,0,3:0:0:0:
453,289,26856,5,2,3:2:0:0:
263,298,27012,1,0,3:0:0:0:
353,142,27169,1,0,3:0:0:0:
315,375,27325,5,2,3:2:0:0:
179,281,27481,1,0,3:0:0:0:
353,142,27638,5,14,0:2:0:0:
396,352,27794,1,0,3:0:0:0:
396,352,27950,1,0,3:0:0:0:
430,60,28106,5,14,0:2:0:0:
387,270,28262,1,0,3:0:0:0:
387,270,28418,1,0,3:0:0:0:
311,3,28575,5,14,0:2:0:0:
423,193,28731,1,0,0:0:0:0:
512,8,28888,1,6,3:2:0:0:
512,8,28966,1,0,3:0:0:0:
512,8,29044,1,0,3:0:0:0:
260,127,29200,6,0,P|245:166|268:234,1,100,10|2,0:2|0:2,0:0:0:0:
485,153,29513,5,8,0:0:0:0:
458,127,29591,1,8,0:0:0:0:
422,117,29669,1,8,0:0:0:0:
386,127,29747,1,8,0:0:0:0:
360,154,29825,2,0,P|363:176|360:213,3,50,10|8|8|8,0:2|0:0|0:0|0:0,0:0:0:0:
132,186,30138,6,0,B|170:169|170:169|291:180,1,160,6|8,3:2|0:0,0:0:0:0:
295,318,30606,2,0,P|258:237|298:171,1,160,2|0,3:2|3:0,0:0:0:0:
444,250,31075,2,0,L|364:246,1,80,10|0,0:2|0:0,0:0:0:0:
342,93,31388,6,0,B|364:125|364:125|364:252,1,160,2|8,3:2|0:0,0:0:0:0:
255,153,31856,2,0,L|176:165,1,80,2|0,3:2|0:0,0:0:0:0:
119,338,32169,1,0,3:0:0:0:
258,232,32325,2,0,L|254:143,1,80,10|0,0:2|0:0,0:0:0:0:
71,227,32638,5,2,3:2:0:0:
71,227,32794,1,0,3:0:0:0:
136,128,32950,1,8,0:2:0:0:
179,244,33106,2,0,L|345:231,1,160,2|0,3:2|3:0,0:0:0:0:
411,110,33575,2,0,L|424:206,1,80,10|0,0:2|0:0,0:0:0:0:
440,337,33888,6,0,P|363:300|303:343,1,160,2|8,3:2|0:0,0:0:0:0:
173,336,34356,2,0,P|250:373|310:330,1,160,2|0,3:2|3:0,0:0:0:0:
249,203,34825,2,0,L|242:290,1,80,10|0,0:2|0:0,0:0:0:0:
106,215,35138,6,0,L|114:135,1,80,2|0,3:2|3:0,0:0:0:0:
13,347,35450,1,8,0:0:0:0:
13,347,35606,2,0,B|186:334,1,160,2|0,3:2|3:0,0:0:0:0:
321,274,36075,2,0,B|239:281,1,80,8|0,0:0|0:0,0:0:0:0:
187,193,36388,5,0,3:0:0:0:
242,281,36544,1,0,3:0:0:0:
303,154,36700,1,8,0:0:0:0:
133,118,36856,2,0,L|146:282,1,160,0|0,3:0|3:0,0:0:0:0:
237,90,37325,2,0,L|322:106,1,80,10|0,0:2|0:0,0:0:0:0:
462,224,37638,6,0,P|392:185|320:219,1,160,2|8,3:2|0:0,0:0:0:0:
222,333,38106,2,0,P|155:371|83:342,1,160,2|0,3:2|3:0,0:0:0:0:
139,206,38575,2,0,L|153:296,1,80,10|0,0:2|0:0,0:0:0:0:
66,102,38888,5,2,3:2:0:0:
66,102,39044,1,0,3:0:0:0:
139,206,39200,1,8,0:0:0:0:
189,48,39356,2,0,B|262:52|262:52|277:60|277:60|351:64,1,160,2|0,3:2|3:0,0:0:0:0:
298,209,39825,5,10,0:2:0:0:
321,183,39903,1,8,0:2:0:0:
353,174,39981,1,8,0:0:0:0:
386,183,40059,1,8,0:0:0:0:
415,236,40138,6,0,B|337:215|339:274|245:239,1,160,6|8,3:2|0:0,0:0:0:0:
492,162,40606,2,0,P|523:246|484:319,1,160,2|0,3:2|3:0,0:0:0:0:
336,232,41075,2,0,P|289:223|253:233,1,80,10|0,0:2|0:0,0:0:0:0:
95,290,41388,6,0,B|94:127,1,160,2|8,3:2|0:0,0:0:0:0:
21,55,41856,2,0,P|90:89|169:53,1,160,2|0,3:2|3:0,0:0:0:0:
318,0,42325,2,0,L|327:80,1,80,10|0,0:2|0:0,0:0:0:0:
268,210,42638,5,2,3:2:0:0:
268,210,42794,1,0,3:0:0:0:
326,79,42950,1,8,0:0:0:0:
392,213,43106,2,0,B|493:196|493:196|433:168,1,160,2|0,3:2|3:0,0:0:0:0:
399,32,43575,2,0,L|394:118,1,80,10|0,0:2|0:0,0:0:0:0:
258,220,43888,6,0,P|294:186|393:214,1,160,2|8,3:2|0:2,0:0:0:0:
412,360,44356,2,0,B|383:327|383:327|392:198,1,160,2|0,3:2|3:0,0:0:0:0:
470,292,44825,1,10,0:2:0:0:
390,211,44981,1,0,0:2:0:0:
299,362,45138,6,0,L|204:351,1,80,2|0,3:2|3:0,0:0:0:0:
97,338,45450,1,8,0:0:0:0:
219,192,45606,2,0,L|219:355,1,160,2|0,3:2|3:0,0:0:0:0:
86,202,46075,2,0,L|2:190,1,80,8|0,0:2|0:0,0:0:0:0:
25,358,46388,5,0,3:0:0:0:
25,358,46544,1,0,3:0:0:0:
86,202,46700,1,8,0:0:0:0:
164,349,46856,2,0,B|255:311|235:388|344:339,1,160,0|0,3:0|3:0,0:0:0:0:
294,192,47325,2,0,P|279:234|295:278,1,80,10|0,0:2|0:0,0:0:0:0:
512,232,47638,6,0,B|471:210|471:210|352:232,1,160,2|8,3:2|0:0,0:0:0:0:
158,206,48106,2,0,P|233:163|299:199,1,160,2|0,3:2|3:0,0:0:0:0:
396,333,48575,2,0,L|318:348,1,80,10|0,0:2|0:0,0:0:0:0:
377,187,48888,5,2,3:2:0:0:
455,272,49044,1,0,3:0:0:0:
512,105,49200,1,8,0:0:0:0:
454,190,49356,1,2,0:2:0:0:
376,49,49513,5,10,0:2:0:0:
352,31,49591,1,8,0:2:0:0:
323,23,49669,1,8,0:2:0:0:
293,28,49747,1,8,0:2:0:0:
268,44,49825,1,10,0:2:0:0:
246,62,49903,1,8,0:2:0:0:
215,69,49981,1,8,0:2:0:0:
185,64,50059,1,8,0:2:0:0:
160,48,50138,6,0,L|154:153,1,80,6|2,3:2|3:2,0:0:0:0:
63,258,50450,1,10,0:2:0:0:
63,258,50606,2,0,L|57:153,1,80,6|0,3:2|0:0,0:0:0:0:
55,68,50919,1,2,3:2:0:0:
148,203,51075,2,0,L|231:197,1,80,10|0,0:2|0:0,0:0:0:0:
388,275,51388,5,2,3:2:0:0:
327,225,51544,1,2,3:2:0:0:
244,359,51700,1,10,0:2:0:0:
318,305,51856,1,10,0:2:0:0:
136,231,52013,5,2,3:2:0:0:
192,287,52169,1,0,3:0:0:0:
293,122,52325,1,10,0:2:0:0:
213,209,52481,1,0,3:0:0:0:
332,67,52638,6,0,B|433:68,1,80,6|2,3:2|3:2,0:0:0:0:
398,235,52950,1,10,0:0:0:0:
398,235,53106,2,0,B|356:142,1,80,6|0,3:2|0:0,0:0:0:0:
512,94,53419,1,2,3:2:0:0:
512,94,53575,2,0,B|450:172,1,80,10|2,2:2|0:2,0:0:0:0:
258,90,53888,5,2,3:2:0:0:
178,155,54044,1,2,3:2:0:0:
335,247,54200,1,10,0:2:0:0:
256,168,54356,1,10,0:2:0:0:
177,309,54513,5,2,3:2:0:0:
257,247,54669,1,0,3:0:0:0:
339,384,54825,1,10,0:2:0:0:
257,328,54981,1,0,3:0:0:0:
90,360,55138,6,0,L|84:279,1,80,6|2,3:2|3:2,0:0:0:0:
172,132,55450,1,10,0:2:0:0:
172,132,55606,2,0,L|166:213,1,80,6|0,3:2|0:0,0:0:0:0:
161,328,55919,5,2,3:2:0:0:
245,215,56075,1,10,0:2:0:0:
302,346,56231,1,2,0:2:0:0:
282,193,56388,5,2,3:2:0:0:
166,211,56544,1,2,3:2:0:0:
86,112,56700,1,10,0:2:0:0:
202,130,56856,1,10,0:2:0:0:
302,38,57013,1,2,3:2:0:0:
186,56,57169,1,0,3:0:0:0:
376,0,57325,6,0,P|386:59|333:116,1,120,14|0,0:2|0:0,0:0:0:0:
353,106,57638,5,14,0:2:0:0:
186,56,57794,1,0,3:0:0:0:
318,225,57950,5,12,0:0:0:0:
173,47,58106,1,0,3:0:0:0:
226,293,58263,5,12,0:0:0:0:
168,32,58419,1,0,3:0:0:0:
84,297,58575,5,12,0:0:0:0:
169,20,58731,1,2,3:2:0:0:
8,312,58888,5,14,0:3:0:0:
25,293,58966,1,8,0:3:0:0:
50,286,59044,1,8,0:3:0:0:
75,293,59122,1,8,0:3:0:0:
94,311,59200,2,0,P|139:321|194:307,1,100,12|0,0:2|0:0,0:0:0:0:
225,147,59513,5,10,0:2:0:0:
253,113,59591,1,8,0:0:0:0:
292,101,59669,1,8,0:0:0:0:
331,111,59747,1,8,0:0:0:0:
360,142,59825,1,8,0:0:0:0:
388,173,59903,1,8,0:0:0:0:
427,185,59981,1,8,0:0:0:0:
466,176,60059,1,8,0:0:0:0:
496,151,60138,6,0,L|496:271,1,110.000003356934,6|0,3:2|3:0,0:0:0:0:
434,95,60450,1,10,0:2:0:0:
386,273,60606,2,0,L|498:260,1,110.000003356934,2|0,3:2|0:0,0:0:0:0:
410,183,60919,1,2,3:2:0:0:
362,364,61075,1,8,0:0:0:0:
291,112,61231,6,0,P|201:67|113:136,1,220.000006713867,2|0,3:2|3:0,0:0:0:0:
216,298,61700,1,8,0:2:0:0:
209,161,61856,2,0,L|199:42,1,110.000003356934,2|0,0:2|3:0,0:0:0:0:
111,217,62169,1,2,3:2:0:0:
291,112,62325,1,8,0:0:0:0:
279,311,62481,6,0,P|379:278|447:358,1,220.000006713867,2|0,0:2|3:0,0:0:0:0:
353,370,62950,1,10,0:2:0:0:
359,156,63106,2,0,L|361:31,1,110.000003356934,2|0,3:2|0:0,0:0:0:0:
306,251,63419,1,2,3:2:0:0:
454,126,63575,1,8,0:0:0:0:
236,107,63731,6,0,B|140:116|140:116|119:133|119:133|20:142,1,220.000006713867,2|0,3:2|3:0,0:0:0:0:
165,211,64200,1,10,0:2:0:0:
196,33,64356,2,0,L|312:22,1,110.000003356934,2|0,0:2|3:0,0:0:0:0:
309,216,64669,5,2,3:2:0:0:
138,119,64825,1,8,0:0:0:0:
305,22,64981,1,2,0:2:0:0:
173,274,65138,6,0,P|154:327|169:382,1,110.000003356934,6|0,3:2|3:0,0:0:0:0:
220,159,65450,1,10,0:2:0:0:
246,330,65606,2,0,L|422:315,1,165.000005035401,2|0,3:2|0:0,0:0:0:0:
484,365,65919,2,0,P|501:309|466:251,1,110.000003356934,2|8,3:2|0:0,0:0:0:0:
302,15,66231,6,0,B|320:242,1,220.000006713867,6|0,3:2|3:0,0:0:0:0:
410,315,66700,1,10,0:2:0:0:
246,330,66856,2,0,L|127:343,1,110.000003356934,2|0,0:2|3:0,0:0:0:0:
146,199,67169,1,2,3:2:0:0:
60,378,67325,1,8,0:0:0:0:
74,154,67481,6,0,P|171:122|228:208,1,220.000006713867,6|0,3:2|3:0,0:0:0:0:
273,355,67950,1,10,0:2:0:0:
332,173,68106,2,0,L|460:205,1,110.000003356934,2|0,0:2|3:0,0:0:0:0:
273,355,68419,2,0,L|144:339,1,110.000003356934,2|8,3:2|0:0,0:0:0:0:
195,136,68731,6,0,P|249:191|207:293,1,165.000005035401,2|0,3:2|0:0,0:0:0:0:
220,284,69044,1,0,3:0:0:0:
125,112,69200,2,0,L|0:138,1,110.000003356934,12|0,0:2|0:0,0:0:0:0:
65,40,69513,5,10,0:2:0:0:
94,11,69591,1,8,0:2:0:0:
134,2,69669,1,8,0:2:0:0:
173,13,69747,1,8,0:2:0:0:
201,42,69825,1,8,0:2:0:0:
230,70,69903,1,8,0:2:0:0:
270,79,69981,1,8,0:2:0:0:
309,68,70059,1,8,0:2:0:0:
337,39,70138,6,0,P|311:90|330:156,1,110.000003356934,6|0,3:2|3:0,0:0:0:0:
404,266,70450,1,10,0:2:0:0:
507,98,70606,2,0,P|454:84|402:101,1,110.000003356934,2|0,3:2|0:0,0:0:0:0:
404,266,70919,2,0,P|463:283|521:260,1,110.000003356934,2|8,3:2|0:0,0:0:0:0:
309,358,71231,6,0,B|280:299|280:299|314:145,1,220.000006713867,2|0,3:2|3:0,0:0:0:0:
341,13,71700,1,10,0:2:0:0:
206,171,71856,2,0,L|328:146,1,110.000003356934,2|0,0:2|3:2,0:2:0:0:
204,353,72169,2,0,L|91:305,1,110.000003356934,2|8,3:2|0:2,0:2:0:0:
114,101,72481,6,0,B|80:161|80:161|103:310,1,220.000006713867,2|0,0:2|3:0,0:0:0:0:
206,171,72950,1,10,0:2:0:0:
307,357,73106,2,0,P|247:370|188:339,1,110.000003356934,2|0,3:2|0:0,0:0:0:0:
206,171,73419,2,0,P|257:155|318:181,1,110.000003356934,2|8,3:2|0:0,0:0:0:0:
450,307,73731,6,0,B|492:350|492:350|468:169,1,220.000006713867,2|0,3:2|3:0,0:0:0:0:
359,39,74200,1,10,0:0:0:0:
344,271,74356,2,0,L|218:264,1,110.000003356934,2|0,0:2|3:0,0:0:0:0:
359,39,74669,2,0,L|472:47,1,110.000003356934,2|8,3:2|0:0,0:0:0:0:
204,169,74981,1,2,0:2:0:0:
451,146,75138,6,0,B|364:177|377:118|289:150,1,165.000005035401,6|0,3:2|0:0,0:0:0:0:
281,167,75450,1,10,0:2:0:0:
338,345,75606,2,0,L|347:235,1,110.000003356934,2|0,3:2|0:0,0:0:0:0:
362,84,75919,1,2,3:2:0:0:
424,267,76075,1,8,0:0:0:0:
269,83,76231,6,0,B|181:83|181:83|162:99|162:99|54:99,1,220.000006713867,6|0,3:2|3:0,0:0:0:0:
208,172,76700,1,10,0:2:0:0:
86,3,76856,2,0,P|56:34|60:108,1,110.000003356934,2|0,0:2|3:0,0:0:0:0:
203,274,77169,2,0,P|221:236|204:167,1,110.000003356934,2|8,3:2|0:0,0:0:0:0:
339,37,77481,6,0,P|321:141|400:222,1,220.000006713867,6|0,3:2|3:0,0:0:0:0:
421,113,77950,1,10,0:2:0:0:
230,86,78106,2,0,L|121:98,1,110.000003356934,2|0,0:2|3:0,0:0:0:0:
223,184,78419,1,2,3:2:0:0:
339,37,78575,1,10,0:2:0:0:
430,222,78731,6,0,L|441:111,1,110.000003356934,2|0,3:2|0:0,0:0:0:0:
453,12,79044,1,0,3:0:0:0:
318,126,79200,2,0,P|238:139|175:91,1,165.000005035401,12|0,0:2|0:0,0:0:0:0:
258,56,79513,5,10,0:2:0:0:
264,83,79591,1,8,0:2:0:0:
262,111,79669,1,8,0:2:0:0:
252,136,79747,1,8,0:2:0:0:
234,157,79825,1,10,0:2:0:0:
211,172,79903,1,8,0:2:0:0:
185,179,79981,1,8,0:2:0:0:
158,179,80059,1,8,0:2:0:0:
132,170,80138,6,0,P|93:121|111:46,1,119.999996337891,6|0,3:2|3:0,0:0:0:0:
109,348,80450,5,8,0:2:0:0:
177,94,80606,1,2,3:2:0:0:
220,324,80763,5,8,0:2:0:0:
289,71,80919,1,0,3:0:0:0:
460,293,81075,5,10,0:2:0:0:
204,234,81231,1,0,3:0:0:0:
435,70,81388,5,8,0:2:0:0:
366,323,81544,1,2,3:2:0:0:
295,27,81700,5,8,0:2:0:0:
400,226,81856,1,0,3:0:0:0:
167,64,82013,5,10,0:2:0:0:
357,129,82169,1,0,3:0:0:0:
109,198,82325,5,10,0:2:0:0:
262,111,82481,1,0,3:0:0:0:
287,369,82638,6,0,L|152:330,1,119.999996337891,14|0,0:2|3:0,0:0:0:0:
19,152,82950,5,8,0:2:0:0:
4,370,83106,1,0,3:0:0:0:
117,63,83263,5,10,0:2:0:0:
108,280,83419,1,0,3:0:0:0:
332,206,83575,5,10,0:2:0:0:
146,145,83731,1,0,3:0:0:0:
388,276,83888,6,0,P|420:211|404:153,1,119.999996337891,14|0,0:2|3:2,0:0:0:0:
283,0,84200,5,8,0:2:0:0:
316,203,84356,1,2,3:2:0:0:
470,77,84513,6,0,P|406:55|344:79,1,119.999996337891,8|0,0:2|3:0,0:0:0:0:
409,290,84825,2,0,P|441:225|426:180,1,100,10|0,0:2|0:0,0:0:0:0:
132,238,85138,5,14,0:2:0:0:
279,137,85294,1,0,3:0:0:0:
291,315,85450,1,0,3:0:0:0:
171,136,85606,5,14,0:2:0:0:
348,223,85762,1,0,3:0:0:0:
184,332,85918,1,0,3:0:0:0:
290,118,86075,5,14,0:0:0:0:
110,240,86231,1,0,3:0:0:0:
308,332,86387,1,0,3:0:0:0:
158,117,86544,5,14,0:2:0:0:
174,355,86700,1,0,3:0:0:0:
370,220,86856,1,0,3:0:0:0:
174,355,87013,5,8,0:3:0:0:
139,356,87091,1,8,0:3:0:0:
106,359,87169,1,8,0:3:0:0:
72,362,87247,1,8,0:3:0:0:
38,364,87325,2,0,L|24:202,1,150,6|0,3:2|0:0,0:0:0:0:
22,199,87638,5,6,3:2:0:0:
22,199,87950,5,0,3:0:0:0:
228,97,88106,1,0,3:0:0:0:
109,328,88263,1,0,3:0:0:0:
87,64,88419,1,0,3:0:0:0:
264,258,88575,1,0,3:0:0:0:
14,203,88731,1,0,3:0:0:0:
232,67,88888,6,0,L|382:81,1,150,6|0,3:2|0:0,0:0:0:0:
409,86,89200,2,0,L|403:164,3,50,8|8|8|8,0:2|0:2|0:2|0:2,0:0:0:0:
384,164,89513,6,4,L|381:221,1,50,8|8,0:3|0:3,0:0:0:0:
452,275,89669,2,4,L|454:217,1,50,8|8,0:3|0:3,0:0:0:0:
364,291,89825,5,6,0:3:0:0:
329,306,89903,1,4,0:3:0:0:
292,308,89981,1,4,0:3:0:0:
256,297,90059,1,4,0:3:0:0:
227,275,90138,6,0,B|145:242|153:313|59:275,1,160,6|8,3:2|0:0,0:0:0:0:
281,202,90606,2,0,P|320:271|279:350,1,160,2|0,3:2|3:0,0:0:0:0:
147,278,91075,2,0,L|226:274,1,80,10|0,0:2|0:0,0:0:0:0:
423,269,91388,6,0,L|408:94,1,160,2|8,3:2|0:0,0:0:0:0:
317,0,91856,2,0,L|310:91,1,80,2|0,3:2|0:0,0:0:0:0:
301,195,92169,1,0,3:0:0:0:
220,51,92325,2,0,L|136:65,1,80,10|0,0:2|0:0,0:0:0:0:
11,149,92638,5,2,3:2:0:0:
49,46,92794,1,0,3:0:0:0:
125,173,92950,1,8,0:0:0:0:
125,173,93106,2,0,P|200:165|296:172,1,160,2|0,3:2|3:0,0:0:0:0:
399,267,93575,2,0,P|358:263|298:268,1,80,10|0,0:2|0:0,0:0:0:0:
112,333,93888,6,0,P|169:371|248:336,1,160,2|8,3:2|0:0,0:0:0:0:
284,170,94356,2,0,P|341:132|420:167,1,160,2|0,3:2|3:0,0:0:0:0:
439,320,94825,1,10,0:2:0:0:
354,208,94981,1,0,0:0:0:0:
288,347,95138,6,0,L|194:335,1,80,2|0,3:2|3:0,0:0:0:0:
51,321,95450,1,8,0:0:0:0:
125,168,95606,2,0,L|129:327,1,160,2|0,3:2|3:0,0:0:0:0:
220,192,96075,2,0,L|312:212,1,80,8|0,0:0|0:0,0:0:0:0:
484,323,96388,5,0,3:0:0:0:
417,203,96544,1,0,3:0:0:0:
369,347,96700,1,8,0:0:0:0:
509,197,96856,2,0,B|500:86|500:86|465:141,1,160,0|0,3:0|3:0,0:0:0:0:
365,254,97325,2,0,L|273:245,1,80,10|0,0:2|0:0,0:0:0:0:
223,40,97638,6,0,P|258:87|225:177,1,160,2|8,3:2|0:0,0:0:0:0:
23,116,98106,2,0,B|119:83|93:139|182:108,1,160,2|0,3:2|3:0,0:0:0:0:
71,204,98575,2,0,L|67:293,1,80,10|0,0:2|0:0,0:0:0:0:
70,369,98888,5,2,3:2:0:0:
70,369,99044,1,0,3:0:0:0:
136,251,99200,1,8,0:0:0:0:
191,369,99356,2,0,L|368:354,1,160,2|0,3:2|3:0,0:0:0:0:
358,184,99825,2,0,P|344:227|363:278,1,80,10|0,0:2|0:0,0:0:0:0:
498,107,100138,6,0,P|445:80|387:92,1,119.999996337891,6|0,0:2|0:0,0:0:0:0:
278,168,100606,2,0,P|220:180|167:153,1,119.999996337891,2|0,0:2|0:0,0:0:0:0:
237,25,101075,2,0,L|232:98,1,59.9999981689454,2|0,0:2|0:0,0:0:0:0:
222,301,101388,6,0,P|277:251|378:303,1,179.999994506836,2|2,0:2|0:2,0:0:0:0:
299,330,102013,5,8,0:0:0:0:
113,327,102169,1,0,3:0:0:0:
231,115,102325,5,10,0:2:0:0:
222,301,102481,1,0,3:0:0:0:
43,214,102638,6,0,P|56:149|140:110,1,160,6|8,3:2|0:0,0:0:0:0:
292,197,103106,2,0,B|117:196,1,160,2|0,3:2|3:0,0:0:0:0:
291,60,103575,2,0,L|376:69,1,80,10|0,0:2|0:0,0:0:0:0:
492,201,103888,5,2,3:2:0:0:
492,201,104044,1,0,3:0:0:0:
452,77,104200,1,8,0:0:0:0:
382,221,104356,2,0,B|217:204,1,160,2|0,3:2|3:0,0:0:0:0:
34,180,104825,2,0,L|41:263,1,80,10|0,0:2|0:0,0:0:0:0:
56,362,105138,5,2,3:2:0:0:
56,362,105294,1,0,3:0:0:0:
114,190,105450,1,8,0:2:0:0:
200,343,105606,2,0,L|364:329,1,160,2|2,3:2|3:0,0:0:0:0:
436,212,106075,2,0,L|340:205,1,80,8|0,0:0|0:0,0:0:0:0:
206,58,106388,5,2,3:2:0:0:
268,194,106544,1,2,3:2:0:0:
356,35,106700,1,10,0:2:0:0:
356,35,106856,2,0,B|463:48|463:48|413:76,1,160,2|0,3:2|3:0,0:0:0:0:
356,206,107325,2,0,L|354:113,1,80,8|0,0:0|0:0,0:0:0:0:
481,180,107638,5,2,3:2:0:0:
421,66,107794,1,2,3:2:0:0:
356,206,107950,1,10,0:2:0:0:
356,206,108106,2,0,B|194:197,1,160,2|0,3:2|3:0,0:0:0:0:
54,292,108575,2,0,L|137:284,1,80,8|0,0:0|0:0,0:0:0:0:
252,302,108888,5,2,3:2:0:0:
195,122,109044,1,0,3:0:0:0:
187,359,109200,1,8,0:0:0:0:
252,203,109356,1,0,3:0:0:0:
406,345,109513,5,10,0:2:0:0:
429,326,109591,1,8,0:0:0:0:
458,319,109669,1,8,0:0:0:0:
487,323,109747,1,8,0:0:0:0:
512,340,109825,2,0,L|500:190,1,150,0|0,3:0|0:0,0:0:0:0:
304,187,110138,6,0,B|355:204|355:204|405:180,1,100,14|0,0:2|0:0,0:0:0:0:
500,190,110450,1,0,3:0:0:0:
449,58,110606,1,0,3:0:0:0:
304,175,110763,6,0,B|355:192|355:192|405:168,1,100,14|0,0:2|0:0,0:0:0:0:
498,174,111075,1,0,3:0:0:0:
447,42,111231,1,0,3:0:0:0:
304,166,111388,6,0,B|355:183|355:183|405:159,1,100,14|0,0:2|0:0,0:0:0:0:
495,162,111700,1,0,3:0:0:0:
444,30,111856,1,0,3:0:0:0:
304,156,112013,6,0,B|355:173|355:173|405:149,1,100,14|0,0:2|0:0,0:0:0:0:
490,148,112325,1,0,3:0:0:0:
439,14,112481,1,0,3:0:0:0:
304,156,112638,6,0,B|266:141|266:141|143:155,1,150,14|0,0:2|0:0,0:0:0:0:
157,153,112950,5,0,3:0:0:0:
245,328,113106,1,0,3:0:0:0:
328,79,113263,5,2,3:2:0:0:
204,243,113419,1,0,3:0:0:0:
211,0,113575,5,0,3:0:0:0:
248,158,113731,1,0,3:0:0:0:
98,244,113888,5,10,0:3:0:0:
121,224,113966,1,8,0:3:0:0:
151,216,114044,1,8,0:3:0:0:
180,223,114122,1,8,0:3:0:0:
204,243,114200,2,0,P|248:256|306:232,1,100,12|0,0:2|0:0,0:0:0:0:
389,44,114513,5,10,0:2:0:0:
435,46,114591,1,8,0:2:0:0:
462,80,114669,1,8,0:2:0:0:
464,125,114747,1,8,0:2:0:0:
441,161,114825,1,8,0:2:0:0:
397,174,114903,1,8,0:2:0:0:
351,163,114981,1,8,0:2:0:0:
304,156,115059,1,8,0:2:0:0:
260,169,115138,6,0,L|248:293,1,110.000003356934,6|0,3:2|3:0,0:0:0:0:
76,132,115450,1,10,0:2:0:0:
102,347,115606,2,0,L|91:237,1,110.000003356934,2|0,3:2|0:0,0:0:0:0:
57,17,115919,1,2,3:2:0:0:
169,171,116075,1,8,0:0:0:0:
361,62,116231,6,0,B|263:57|263:57|243:68|243:68|129:62,1,220.000006713867,2|0,3:2|3:0,0:0:0:0:
305,177,116700,1,10,0:2:0:0:
114,256,116856,2,0,P|126:203|170:170,1,110.000003356934,2|0,0:2|3:0,0:0:0:0:
264,345,117169,2,0,P|212:361|161:339,1,110.000003356934,2|8,3:2|0:0,0:0:0:0:
305,177,117481,6,0,B|363:157|420:181|405:207|463:235|518:210,1,220.000006713867,2|0,0:2|3:0,0:0:0:0:
342,284,117950,1,10,0:2:0:0:
482,118,118106,2,0,L|499:10,1,110.000003356934,2|0,3:2|0:0,0:0:0:0:
288,68,118419,2,0,L|305:177,1,110.000003356934,2|8,3:2|0:0,0:0:0:0:
449,366,118731,6,0,P|374:324|252:387,1,220.000006713867,2|0,3:2|3:0,0:0:0:0:
145,170,119200,1,10,0:2:0:0:
120,372,119356,2,0,L|138:241,1,110.000003356934,2|0,0:2|3:0,0:0:0:0:
266,104,119669,1,2,3:2:0:0:
45,200,119825,1,8,0:0:0:0:
269,276,119981,1,2,0:2:0:0:
130,61,120138,6,0,L|146:171,1,110.000003356934,6|0,3:2|3:0,0:0:0:0:
175,380,120450,1,10,0:2:0:0:
343,227,120606,2,0,P|296:194|235:191,1,110.000003356934,2|0,3:2|0:0,0:0:0:0:
41,335,120919,1,2,3:2:0:0:
269,276,121075,1,8,0:0:0:0:
15,125,121231,6,0,B|-5:177|-5:177|42:339,1,220.000006713867,6|0,3:2|3:0,0:0:0:0:
291,169,121700,1,10,0:2:0:0:
147,18,121856,2,0,L|132:127,1,110.000003356934,2|0,0:2|3:2,0:0:0:0:
194,232,122169,1,2,3:2:0:0:
296,65,122325,1,8,0:0:0:0:
229,320,122481,6,0,B|168:341|120:315|129:288|71:264|4:290,1,220.000006713867,6|0,3:2|3:0,0:0:0:0:
209,144,122950,1,10,0:2:0:0:
5,62,123106,2,0,P|-6:112|12:175,1,110.000003356934,2|0,0:2|3:0,0:0:0:0:
194,50,123419,2,0,P|156:15|92:0,1,110.000003356934,2|8,3:2|0:0,0:0:0:0:
96,248,123731,2,0,L|212:241,1,110.000003356934,2|0,3:2|0:0,0:0:0:0:
359,125,124044,1,0,3:0:0:0:
335,331,124200,2,0,L|349:217,1,110.000003356934,12|0,0:2|0:0,0:0:0:0:
359,23,124513,5,8,0:0:0:0:
404,14,124591,1,8,0:0:0:0:
449,37,124669,1,8,0:0:0:0:
468,79,124747,1,8,0:0:0:0:
460,120,124825,1,8,0:0:0:0:
422,148,124903,1,8,0:0:0:0:
401,186,124981,1,8,0:0:0:0:
401,231,125059,1,8,0:0:0:0:
425,272,125138,6,0,L|446:161,1,110.000003356934,6|0,3:2|3:0,0:0:0:0:
246,247,125450,1,10,0:2:0:0:
292,53,125606,2,0,L|312:161,1,110.000003356934,2|0,3:2|0:0,0:0:0:0:
110,257,125919,2,0,P|119:201|156:158,1,110.000003356934,2|8,3:2|0:0,0:0:0:0:
271,340,126231,6,0,B|214:311|161:336|176:367|109:389|54:360,1,220.000006713867,2|0,3:2|3:0,0:0:0:0:
244,224,126700,1,10,0:2:0:0:
87,149,126856,2,0,L|112:266,1,110.000003356934,2|0,0:2|3:0,0:0:0:0:
267,107,127169,2,0,L|289:0,1,110.000003356934,2|8,3:2|0:0,0:0:0:0:
509,253,127481,6,0,P|462:181|327:197,1,220.000006713867,2|0,0:2|3:0,0:0:0:0:
459,358,127950,1,10,0:2:0:0:
263,303,128106,2,0,L|389:282,1,110.000003356934,2|0,3:2|0:0,0:0:0:0:
191,220,128419,2,0,L|65:199,1,110.000003356934,2|8,3:2|0:0,0:0:0:0:
259,0,128731,6,0,P|311:38|266:186,1,220.000006713867,2|0,3:2|3:3,0:0:0:0:
84,316,129200,1,8,0:0:0:0:
191,220,129356,2,0,L|167:340,1,110.000003356934,2|0,0:2|3:0,0:0:0:0:
141,103,129669,1,2,3:2:0:0:
292,277,129825,1,8,0:0:0:0:
65,236,129981,1,2,0:2:0:0:
287,175,130138,6,0,B|387:172|387:172|404:182|404:182|506:177,1,220.000006713867,6|10,3:2|0:2,0:0:0:0:
315,64,130606,2,0,L|192:49,1,110.000003356934,2|0,3:2|0:0,0:0:0:0:
9,166,130919,1,2,3:2:0:0:
107,24,131075,1,8,0:0:0:0:
131,248,131231,6,0,L|120:117,1,110.000003356934,6|0,3:2|0:0,0:0:0:0:
222,334,131544,1,0,3:0:0:0:
20,272,131700,1,10,0:2:0:0:
234,233,131856,2,0,L|348:216,1,110.000003356934,2|0,0:2|3:0,0:0:0:0:
512,145,132169,2,0,L|398:128,1,110.000003356934,2|8,3:2|0:0,0:0:0:0:
241,24,132481,6,0,B|270:77|270:77|233:236,1,220.000006713867,6|0,3:2|3:0,0:0:0:0:
36,296,132950,1,10,0:2:0:0:
107,122,133106,2,0,L|132:270,1,110.000003356934,2|0,0:2|3:0,0:0:0:0:
163,24,133419,1,0,3:0:0:0:
0,158,133575,1,10,0:2:0:0:
220,116,133731,6,0,P|324:109|455:118,1,220.000006713867,2|0,3:2|3:0,0:0:0:0:
234,239,134200,2,0,L|118:229,1,110.000003356934,12|0,0:2|0:0,0:0:0:0:
296,355,134513,5,8,0:3:0:0:
339,366,134591,1,8,0:3:0:0:
387,357,134669,1,8,0:3:0:0:
427,323,134747,1,8,0:3:0:0:
434,274,134825,2,0,L|413:162,1,110.000003356934,2|0,3:0|0:0,0:0:0:0:
279,49,135138,6,0,L|270:161,1,100,14|0,0:2|0:0,0:0:0:0:
264,241,135450,1,0,3:0:0:0:
414,166,135606,1,0,3:0:0:0:
255,52,135763,6,0,L|265:162,1,100,14|0,0:2|0:0,0:0:0:0:
273,243,136075,1,0,3:0:0:0:
404,148,136231,1,0,3:0:0:0:
233,52,136388,6,0,L|259:162,1,100,14|0,0:2|0:0,0:0:0:0:
283,245,136700,1,0,3:0:0:0:
391,132,136856,1,0,3:0:0:0:
211,58,137013,6,0,L|251:165,1,100,14|0,0:2|0:0,0:0:0:0:
292,246,137325,1,8,0:0:0:0:
292,246,137638,6,0,B|200:210|200:286|87:251,1,200,6|0,3:2|0:0,0:0:0:0:
246,322,138106,1,8,0:3:0:0:
246,322,138263,2,0,P|299:336|354:312,1,100,2|0,0:2|0:0,0:0:0:0:
387,150,138575,2,0,P|363:197|386:257,1,100,0|0,3:0|0:0,0:0:0:0:
499,350,138888,5,2,3:0:0:0:
497,265,139044,1,0,3:0:0:0:
496,180,139200,1,6,3:2:0:0:
496,180,139513,5,10,2:3:0:0:
428,57,139669,1,8,0:3:0:0:
368,181,139825,1,4,0:3:0:0:
368,181,139981,1,4,0:3:0:0:
254,63,140138,6,0,P|189:37|122:79,1,139.999995727539,6|0,3:2|0:0,0:0:0:0:
195,193,140606,1,0,3:0:0:0:
195,193,140763,2,0,L|196:123,1,69.9999978637696,10|0,0:2|0:0,0:0:0:0:
115,264,141700,5,0,3:0:0:0:
276,264,142013,1,8,0:0:0:0:
314,88,142638,6,0,L|465:68,1,139.999995727539,0|0,3:0|0:0,0:0:0:0:
512,219,143109,1,0,3:0:0:0:
512,219,143267,2,0,L|420:236,1,69.9999978637696,8|0,0:0|0:0,0:0:0:0:
311,262,143581,5,2,0:2:0:0:
230,157,143896,2,0,P|178:141|132:162,1,93.3333304850261,2|0,0:2|0:0,0:0:0:0:
143,154,144214,1,0,3:0:0:0:
113,322,144543,1,8,0:0:0:0:
72,244,144825,1,2,0:2:0:0:
248,281,145138,5,4,3:2:0:0:
248,281,145295,2,0,L|395:268,1,139.999995727539,0|0,3:0|3:0,0:0:0:0:
382,125,145768,2,0,P|370:161|381:206,1,69.9999978637696,8|0,0:0|0:0,0:0:0:0:
503,98,146084,6,0,P|480:46|323:15,1,209.999993591309,2|0,0:2|0:0,0:0:0:0:
227,126,146715,5,0,3:0:0:0:
382,125,147039,1,8,0:0:0:0:
226,38,147660,6,0,L|227:198,1,139.999995727539,0|0,3:0|0:0,0:0:0:0:
131,68,148112,1,0,3:0:0:0:
131,68,148263,2,0,L|43:80,1,69.9999978637696,8|0,0:0|0:0,0:0:0:0:
42,240,148575,1,2,0:2:0:0:
226,177,148888,6,0,P|175:157|121:177,1,104.999996795654,2|0,0:2|0:0,0:0:0:0:
42,240,149200,5,8,0:3:0:0:
163,348,149529,5,4,0:3:0:0:
300,285,149825,5,0,3:0:0:0:
339,89,150123,5,4,3:2:0:0:
339,89,150312,2,0,P|400:64|470:92,1,139.999995727539,0|0,3:0|3:0,0:0:0:0:
406,225,150773,2,0,L|404:155,1,69.9999978637696,8|0,0:2|0:0,0:0:0:0:
490,271,151081,6,0,P|411:321|319:262,1,209.999993591309,2|0,0:2|0:0,0:0:0:0:
246,158,151712,5,0,3:0:0:0:
144,303,152041,1,8,0:0:0:0:
56,117,152638,6,0,L|61:268,1,139.999995727539,0|0,3:2|0:0,0:0:0:0:
176,152,153083,1,0,3:0:0:0:
176,152,153232,2,0,L|253:158,1,69.9999978637696,8|0,0:2|0:0,0:0:0:0:
380,231,153575,2,0,P|323:244|277:227,1,104.999996795654,2|0,0:2|0:0,0:0:0:0:
334,151,153888,2,0,P|391:138|437:155,1,104.999996795654,2|0,0:2|0:0,0:0:0:0:
473,235,154200,5,0,3:0:0:0:
284,77,154529,1,10,0:2:0:0:
284,77,154859,1,2,0:2:0:0:
259,333,155138,5,6,3:2:0:0:
259,333,155294,2,0,B|197:312|195:358|114:334,1,139.999995727539,0|0,3:0|3:0,0:0:0:0:
159,185,155763,2,0,L|160:262,1,69.9999978637696,10|0,0:2|0:0,0:0:0:0:
51,182,156075,5,2,0:2:0:0:
67,85,156231,1,2,0:2:0:0:
144,0,156544,5,2,0:2:0:0:
160,97,156700,1,2,3:2:0:0:
321,43,157037,5,10,0:2:0:0:
506,213,157615,6,0,P|453:183|376:208,1,139.999995727539,0|2,3:0|0:2,0:0:0:0:
330,322,158103,1,2,3:2:0:0:
271,212,158273,1,8,0:0:0:0:
271,212,158595,6,0,B|178:218,1,87.499997329712,6|0,0:2|0:0,0:0:0:0:
166,220,158888,1,8,0:3:0:0:
39,235,159044,1,8,0:3:0:0:
39,235,159356,1,8,0:3:0:0:
59,44,159513,5,4,0:3:0:0:
98,164,159669,1,4,0:3:0:0:
151,85,159825,5,0,3:0:0:0:
182,105,159981,1,0,3:0:0:0:
401,62,160138,6,0,P|426:163|361:206,1,160,4|0,3:2|3:0,0:0:0:0:
350,129,160606,1,0,3:0:0:0:
503,281,160763,2,0,B|417:244|433:313|341:272,1,160,8|4,0:0|0:3,0:0:0:0:
239,372,161231,2,0,P|264:340|268:297,2,80,10|4|4,0:3|0:3|0:3,0:0:0:0:
158,384,161700,5,0,3:0:0:0:
189,309,161856,1,0,3:0:0:0:
8,354,162013,1,8,0:0:0:0:
329,241,162325,6,0,L|360:243,1,30,6|0,2:2|2:0,0:0:0:0:
366,244,162638,6,0,P|383:194|371:149,1,80,2|0,3:2|3:0,0:0:0:0:
456,133,162950,2,0,P|421:93|376:81,1,80,0|0,3:2|3:0,0:0:0:0:
212,139,163263,1,8,0:2:0:0:
207,143,163575,2,0,L|215:239,1,80,6|8,0:3|0:3,0:0:0:0:
173,353,163888,6,0,P|155:315|161:268,2,80,6|4|0,0:3|0:3|3:0,0:0:0:0:
234,301,164356,1,0,3:0:0:0:
215,108,164513,1,10,0:2:0:0:
222,112,164825,2,0,P|283:122|317:117,1,80,2|0,3:2|3:0,0:0:0:0:
509,10,165138,6,0,P|423:15|395:107,1,160,6|0,3:2|3:2,0:0:0:0:
401,151,165606,1,0,3:0:0:0:
212,110,165763,1,8,0:2:0:0:
205,108,166075,1,4,0:3:0:0:
333,82,166231,2,0,L|325:-7,2,80,10|4|4,0:3|0:3|0:3,0:0:0:0:
381,156,166700,2,0,L|372:249,1,80,0|0,3:0|3:0,0:0:0:0:
360,384,167013,1,8,0:2:0:0:
452,120,167325,6,0,L|450:83,1,30,6|0,2:0|0:0,0:0:0:0:
448,83,167638,6,0,P|404:69|357:84,1,80,2|0,3:2|3:0,0:0:0:0:
333,0,167950,2,0,P|298:31|288:79,1,80,0|0,3:0|3:0,0:0:0:0:
338,248,168263,1,8,0:2:0:0:
340,255,168575,2,0,L|250:247,1,80,6|10,0:3|0:3,0:0:0:0:
167,223,168888,5,4,0:3:0:0:
192,315,169044,1,4,0:3:0:0:
86,166,169200,6,0,L|87:129,1,30,6|0,0:2|0:0,0:0:0:0:
84,131,169513,6,0,L|75:235,2,80,10|8|2,0:3|0:3|3:2,0:0:0:0:
52,39,169981,1,0,3:0:0:0:
169,181,170138,6,0,B|244:208|243:157|328:182,1,160,6|0,3:2|3:0,0:0:0:0:
391,243,170606,1,0,3:0:0:0:
361,52,170763,1,8,0:2:0:0:
366,55,171075,1,6,0:3:0:0:
329,141,171231,1,10,0:3:0:0:
422,124,171388,5,4,0:3:0:0:
322,145,171544,1,4,0:3:0:0:
359,59,171700,1,0,3:0:0:0:
429,126,171856,1,0,3:0:0:0:
245,66,172013,1,8,0:2:0:0:
408,242,172325,6,0,P|410:258|407:276,1,30,6|0,0:2|0:0,0:0:0:0:
406,280,172638,6,0,L|308:271,1,80,2|0,3:2|3:0,0:0:0:0:
251,351,172950,2,0,L|153:359,1,80,0|0,3:0|3:0,0:0:0:0:
6,257,173263,1,8,0:2:0:0:
12,254,173575,2,0,P|41:222|55:175,1,80,6|8,0:3|0:3,0:0:0:0:
146,181,173888,6,0,P|132:139|99:104,1,80,6|4,0:3|0:3,0:0:0:0:
155,30,174200,2,0,L|64:22,1,80,0|0,3:0|3:0,0:0:0:0:
267,39,174513,1,10,0:2:0:0:
263,44,174825,1,2,3:2:0:0:
332,124,174981,1,0,3:0:0:0:
330,130,175059,1,2,3:2:0:0:
329,138,175138,6,0,L|310:329,1,160,6|0,3:2|3:0,0:0:0:0:
380,364,175606,1,0,3:0:0:0:
331,129,175763,1,8,0:2:0:0:
332,122,176075,1,6,0:3:0:0:
254,186,176231,2,0,L|261:272,2,80,10|4|6,0:3|0:3|0:3,0:0:0:0:
186,121,176700,2,0,P|146:109|94:124,1,80,2|0,3:0|3:0,0:0:0:0:
12,286,177013,1,8,0:2:0:0:
298,66,177325,6,0,L|295:33,1,30,6|0,0:2|0:0,0:0:0:0:
295,29,177638,5,6,3:3:0:0:
365,100,177950,5,6,3:3:0:0:
187,183,178263,5,6,3:3:0:0:
485,289,178575,5,6,3:3:0:0:
121,325,178888,6,0,P|103:279|114:227,1,100,10|8,0:2|0:2,0:0:0:0:
250,67,179200,1,8,0:2:0:0:
198,269,179356,1,10,0:2:0:0:
0,110,179513,6,0,L|8:10,1,100,8|8,0:2|0:2,0:0:0:0:
197,279,179825,2,0,L|188:378,1,100,10|8,0:2|0:2,0:0:0:0:
250,67,180138,6,0,P|317:75|348:179,1,179.999994506836,6|0,3:2|3:0,0:0:0:0:
323,245,180606,1,0,0:0:0:0:
179,161,180763,2,0,L|277:153,1,89.9999972534181,10|0,0:2|0:0,0:0:0:0:
433,148,181075,2,0,L|420:245,1,89.9999972534181,2|0,3:2|0:0,0:0:0:0:
401,354,181388,5,2,3:2:0:0:
351,171,181544,1,8,0:0:0:0:
298,280,181700,2,0,B|206:259,1,89.9999972534181,0|0,3:0|0:0,0:0:0:0:
9,215,182013,2,0,P|-10:171|0:130,1,89.9999972534181,8|0,0:0|0:0,0:0:0:0:
91,262,182325,2,0,P|110:218|100:177,1,89.9999972534181,0|0,3:0|0:0,0:0:0:0:
0,359,182638,6,0,L|183:346,1,179.999994506836,2|0,3:2|3:0,0:0:0:0:
260,341,183106,1,0,0:0:0:0:
246,183,183263,2,0,P|217:216|215:278,1,89.9999972534181,8|0,0:0|0:0,0:0:0:0:
370,310,183575,2,0,P|346:272|306:252,1,89.9999972534181,0|0,3:0|0:0,0:0:0:0:
260,372,183888,5,2,3:2:0:0:
323,174,184044,1,8,0:2:0:0:
323,174,184200,2,0,L|347:87,1,89.9999972534181,0|0,3:0|0:0,0:0:0:0:
468,0,184513,2,0,L|495:141,1,134.999995880127,10|0,0:2|0:0,0:0:0:0:
493,132,184825,5,10,0:2:0:0:
409,197,184981,1,8,0:2:0:0:
387,5,185138,6,0,P|325:-3|256:83,1,179.999994506836,6|0,3:2|3:0,0:0:0:0:
346,87,185606,1,0,0:0:0:0:
181,7,185763,2,0,L|159:101,1,89.9999972534181,10|0,0:2|0:0,0:0:0:0:
127,218,186075,2,0,L|234:198,1,89.9999972534181,2|0,3:2|0:0,0:0:0:0:
254,122,186388,5,0,3:0:0:0:
46,184,186544,1,8,0:0:0:0:
46,184,186700,2,0,P|40:233|65:281,1,89.9999972534181,0|0,3:0|0:0,0:0:0:0:
201,267,187013,2,0,L|123:215,1,89.9999972534181,8|0,0:0|0:0,0:0:0:0:
60,368,187325,2,0,P|112:350|135:320,1,89.9999972534181,0|0,3:0|0:0,0:0:0:0:
147,141,187638,6,0,P|171:94|289:105,1,179.999994506836,2|0,3:2|3:0,0:0:0:0:
447,168,188106,1,0,0:0:0:0:
447,168,188263,2,0,L|343:161,1,89.9999972534181,10|0,0:2|0:0,0:0:0:0:
226,149,188575,2,0,L|281:76,1,89.9999972534181,0|0,3:0|0:0,0:0:0:0:
384,55,188888,5,2,3:2:0:0:
364,245,189044,1,10,0:2:0:0:
364,245,189200,2,0,P|346:198|365:150,1,89.9999972534181,0|0,3:0|0:0,0:0:0:0:
478,345,189513,2,0,P|496:298|447:229,1,134.999995880127,10|0,0:2|0:0,0:0:0:0:
420,298,189825,5,8,0:2:0:0:
465,157,189981,1,8,0:2:0:0:
411,326,190138,6,0,B|338:317|338:317|314:306|314:306|232:298,1,179.999994506836,6|0,3:2|3:0,0:0:0:0:
69,241,190606,1,0,0:0:0:0:
69,241,190763,2,0,P|113:233|159:253,1,89.9999972534181,10|0,0:2|0:0,0:0:0:0:
143,374,191075,2,0,P|98:381|52:361,1,89.9999972534181,0|0,3:0|0:0,0:0:0:0:
0,305,191388,5,0,3:0:0:0:
21,133,191544,1,8,0:0:0:0:
21,133,191700,2,0,L|135:122,1,89.9999972534181,0|0,3:0|0:0,0:0:0:0:
258,201,192013,2,0,L|150:228,1,89.9999972534181,8|0,0:0|0:0,0:0:0:0:
269,86,192325,2,0,L|383:75,1,89.9999972534181,0|0,3:0|0:0,0:0:0:0:
507,117,192638,6,0,P|457:115|412:234,1,179.999994506836,2|0,3:2|3:0,0:0:0:0:
508,338,193106,1,0,0:0:0:0:
508,338,193263,2,0,P|466:316|409:325,1,89.9999972534181,8|0,0:0|0:0,0:0:0:0:
262,316,193575,2,0,P|309:314|354:277,1,89.9999972534181,2|0,3:2|0:0,0:0:0:0:
404,217,193888,5,2,3:2:0:0:
191,228,194044,1,8,0:0:0:0:
191,228,194200,2,0,L|177:325,1,89.9999972534181,0|0,3:0|0:0,0:0:0:0:
81,121,194513,2,0,L|95:218,1,89.9999972534181,10|0,0:2|0:0,0:0:0:0:
208,74,194825,5,10,0:2:0:0:
225,45,194903,1,8,0:0:0:0:
254,28,194981,1,8,0:0:0:0:
288,27,195059,1,8,0:0:0:0:
318,40,195138,6,0,L|323:132,1,89.9999972534181,6|0,3:2|3:0,0:0:0:0:
333,303,195450,1,8,0:0:0:0:
434,189,195606,1,0,0:0:0:0:
434,189,195684,1,8,0:0:0:0:
434,189,195763,1,0,3:0:0:0:
453,341,195919,1,0,3:0:0:0:
330,206,196075,6,0,L|230:233,1,89.9999972534181,10|0,0:2|0:0,0:0:0:0:
230,313,196309,5,8,0:0:0:0:
230,313,196388,2,0,P|250:261|233:215,1,89.9999972534181,4|0,3:2|3:0,0:0:0:0:
168,93,196700,1,8,0:0:0:0:
155,258,196856,1,0,0:0:0:0:
155,258,196934,1,8,0:0:0:0:
155,258,197013,1,2,3:2:0:0:
264,143,197169,1,0,3:0:0:0:
93,169,197325,6,0,L|-14:184,1,89.9999972534181,8|0,0:0|0:0,0:0:0:0:
11,331,197638,5,4,3:2:0:0:
11,331,197794,1,0,3:0:0:0:
164,261,197950,2,0,L|265:280,1,89.9999972534181,8|0,0:0|0:0,0:0:0:0:
252,360,198184,5,8,0:0:0:0:
252,360,198263,2,0,P|239:303|252:277,1,89.9999972534181,0|0,3:0|3:0,0:0:0:0:
318,129,198575,2,0,P|331:186|318:212,1,89.9999972534181,8|0,0:0|0:0,0:0:0:0:
105,52,198888,5,0,3:0:0:0:
72,245,199044,1,0,3:0:0:0:
209,0,199200,5,0,3:0:0:0:
123,172,199356,1,0,3:0:0:0:
318,129,199513,5,8,0:0:0:0:
351,134,199591,1,8,0:0:0:0:
384,140,199669,1,8,0:0:0:0:
417,145,199747,1,8,0:0:0:0:
451,151,199825,2,0,L|459:105,3,44.999998626709,10|8|8|8,0:0|0:0|0:0|0:0,0:0:0:0:
318,129,200138,6,0,L|336:298,1,160,4|0,3:2|3:0,0:0:0:0:
452,353,200606,2,0,B|374:330|387:393|288:363,1,160,2|0,0:2|0:0,0:0:0:0:
184,233,201075,2,0,P|207:272|203:318,1,80,2|0,3:2|0:0,0:0:0:0:
50,366,201388,6,0,L|64:199,1,160,6|0,3:2|3:0,0:0:0:0:
4,91,201856,2,0,P|70:134|154:94,1,160,2|0,0:2|0:0,0:0:0:0:
315,71,202325,2,0,L|217:65,1,80,2|0,3:2|0:0,0:0:0:0:
396,149,202638,6,0,P|438:81|408:4,1,160,6|0,3:2|3:0,0:0:0:0:
296,210,203106,2,0,P|272:136|314:70,1,160,2|0,0:2|0:0,0:0:0:0:
384,347,203575,2,0,L|398:257,1,80,2|0,3:2|0:0,0:0:0:0:
297,69,203888,6,0,P|255:134|278:208,1,160,6|0,3:2|3:0,0:0:0:0:
370,352,204356,2,0,L|394:188,1,160,2|0,0:2|0:0,0:0:0:0:
284,326,204825,1,2,3:0:0:0:
270,338,204981,1,0,0:0:0:0:
175,190,205138,6,0,P|260:187|287:232,1,120,4|0,3:2|0:0,0:0:0:0:
282,224,205450,5,8,0:2:0:0:
97,283,205606,1,10,0:2:0:0:
81,24,205763,5,10,0:2:0:0:
175,190,205919,1,8,0:2:0:0:
235,2,206075,1,8,0:2:0:0:
168,210,206231,1,8,0:2:0:0:
483,185,206388,5,8,0:2:0:0:
246,107,206544,1,8,0:2:0:0:
393,308,206700,1,8,0:2:0:0:
393,61,206856,1,8,0:2:0:0:
251,285,207013,6,0,L|223:386,1,80,10|0,0:2|3:0,0:0:0:0:
345,134,207325,2,0,L|372:235,1,80,10|0,0:2|3:0,0:0:0:0:
165,66,207638,6,0,P|212:22|309:50,1,150,6|0,3:2|0:0,0:0:0:0:
310,48,207950,5,10,0:2:0:0:
341,74,208028,1,8,0:2:0:0:
383,82,208106,1,8,0:2:0:0:
423,68,208184,1,8,0:2:0:0:
448,37,208263,5,10,0:2:0:0:
419,61,208341,1,8,0:2:0:0:
406,95,208419,1,8,0:2:0:0:
409,132,208497,1,8,0:2:0:0:
428,163,208575,1,10,0:2:0:0:
447,194,208653,1,8,0:2:0:0:
450,232,208731,1,8,0:2:0:0:
437,266,208809,1,8,0:2:0:0:
408,290,208888,5,10,0:2:0:0:
361,305,208966,1,8,0:2:0:0:
315,287,209044,1,8,0:2:0:0:
291,245,209122,1,8,0:2:0:0:
299,196,209200,2,0,P|305:166|301:144,1,50,10|8,0:2|0:2,0:0:0:0:
189,137,209356,2,0,P|183:167|187:189,1,50,8|8,0:2|0:2,0:0:0:0:
268,0,209513,5,10,0:2:0:0:
209,7,209591,1,8,0:2:0:0:
152,17,209669,1,8,0:2:0:0:
93,26,209747,1,8,0:2:0:0:
34,34,209825,6,0,B|-5:79|-5:79|23:241,1,220.000006713867,6|0,3:2|3:0,0:0:0:0:
328,62,210294,5,8,0:2:0:0:
255,280,210450,1,8,0:2:0:0:
333,78,210763,5,8,0:2:0:0:
260,296,210919,1,8,0:2:0:0:
489,146,211231,6,0,L|310:166,1,179.999994506836,12|0,0:2|3:0,0:0:0:0:
483,343,211700,1,8,0:2:0:0:
483,343,212013,5,8,0:0:0:0:
461,317,212091,1,8,0:0:0:0:
431,303,212169,1,8,0:0:0:0:
398,306,212247,1,8,0:0:0:0:
369,323,212325,1,8,0:0:0:0:
340,340,212403,1,8,0:0:0:0:
307,343,212481,1,8,0:0:0:0:
276,329,212559,1,8,0:0:0:0:
255,303,212638,6,0,L|266:209,1,89.9999972534181,6|0,3:2|0:0,0:0:0:0:
184,92,212950,1,2,3:0:0:0:
184,92,213106,2,0,P|173:134|200:188,1,89.9999972534181,2|0,0:0|3:0,0:0:0:0:
332,170,213419,2,0,P|302:138|242:132,1,89.9999972534181,10|0,0:3|3:0,0:0:0:0:
193,258,213731,1,2,0:0:0:0:
193,258,213888,2,0,P|235:247|269:197,1,89.9999972534181,6|0,0:3|0:0,0:0:0:0:
250,43,214200,5,2,3:0:0:0:
184,92,214356,1,6,0:3:0:0:
257,128,214513,1,4,0:3:0:0:
174,15,214669,1,10,0:3:0:0:
187,177,214825,1,4,0:3:0:0:
187,177,214981,1,2,3:0:0:0:
327,71,215138,6,0,L|427:89,1,89.9999972534181,6|0,3:2|0:0,0:0:0:0:
512,204,215450,1,2,3:0:0:0:
512,204,215606,2,0,L|413:188,1,89.9999972534181,10|0,0:3|0:0,0:0:0:0:
302,267,215919,2,0,L|402:285,1,89.9999972534181,6|0,0:3|0:0,0:0:0:0:
481,303,216231,1,2,3:0:0:0:
315,168,216388,5,8,0:0:0:0:
276,364,216544,1,8,0:0:0:0:
423,189,216700,6,0,P|425:140|403:101,1,89.9999972534181,6|2,3:2|0:0,0:0:0:0:
259,107,217013,5,8,0:3:0:0:
237,184,217169,1,10,0:3:0:0:
319,172,217325,1,4,0:3:0:0:
319,172,217481,1,4,0:3:0:0:
52,51,217638,6,0,L|38:157,1,89.9999972534181,6|0,3:2|0:0,0:0:0:0:
154,128,217950,1,2,3:0:0:0:
154,128,218106,2,0,L|140:234,1,89.9999972534181,2|0,0:0|3:0,0:0:0:0:
32,228,218419,2,0,L|18:334,1,89.9999972534181,2|0,0:0|3:0,0:0:0:0:
219,292,218731,5,2,0:0:0:0:
219,292,218809,1,2,0:0:0:0:
219,292,218888,2,0,L|122:305,1,89.9999972534181,6|0,3:2|0:0,0:0:0:0:
317,362,219200,1,2,3:0:0:0:
317,362,219356,2,0,L|220:375,1,89.9999972534181,2|0,0:0|3:0,0:0:0:0:
390,269,219669,2,0,L|293:282,1,89.9999972534181,2|0,0:0|3:0,0:0:0:0:
474,377,219981,5,2,0:0:0:0:
474,377,220059,1,2,0:0:0:0:
474,377,220138,5,14,0:2:0:0:
474,173,220294,1,0,3:0:0:0:
300,280,220450,1,2,3:2:0:0:
510,280,220606,5,14,0:2:0:0:
413,100,220762,1,0,3:0:0:0:
310,276,220918,1,0,3:2:0:0:
499,183,221075,5,12,0:2:0:0:
328,68,221231,1,2,3:2:0:0:
321,272,221387,1,0,3:0:0:0:
435,98,221544,5,14,0:2:0:0:
228,91,221700,1,0,3:2:0:0:
322,260,221856,1,0,3:0:0:0:
298,31,222013,5,8,0:3:0:0:
265,7,222091,1,8,0:3:0:0:
229,0,222169,1,8,0:3:0:0:
191,8,222247,1,8,0:3:0:0:
161,29,222325,1,4,3:0:0:0:
135,47,222403,1,4,3:0:0:0:
103,53,222481,1,4,3:0:0:0:
74,47,222559,1,4,3:0:0:0:
48,27,222638,6,0,L|36:137,1,89.9999972534181,6|0,3:2|0:0,0:0:0:0:
118,232,222950,1,2,3:0:0:0:
118,232,223106,2,0,L|128:130,1,89.9999972534181,2|0,0:0|3:0,0:0:0:0:
66,296,223419,2,0,P|107:315|165:301,1,89.9999972534181,2|0,0:0|3:0,0:0:0:0:
258,225,223731,5,2,0:0:0:0:
258,225,223888,2,0,P|302:219|342:238,1,89.9999972534181,2|0,3:0|0:0,0:0:0:0:
470,149,224200,1,2,3:0:0:0:
470,149,224356,2,0,P|426:143|386:162,1,89.9999972534181,2|0,0:0|3:0,0:0:0:0:
254,85,224669,2,0,P|298:79|338:98,1,89.9999972534181,2|0,0:0|3:0,0:0:0:0:
121,120,224981,5,2,0:0:0:0:
121,120,225059,1,2,0:0:0:0:
121,120,225138,2,0,P|116:56|140:22,1,89.9999972534181,6|0,3:2|0:0,0:0:0:0:
260,169,225450,1,2,3:0:0:0:
260,169,225606,2,0,P|265:105|241:71,1,89.9999972534181,2|0,0:0|3:0,0:0:0:0:
117,213,225919,2,0,P|112:149|136:115,1,89.9999972534181,2|0,0:0|3:0,0:0:0:0:
232,291,226231,5,2,0:0:0:0:
232,291,226309,1,2,0:0:0:0:
232,291,226388,2,0,L|116:324,2,89.9999972534181,6|0|2,3:2|0:0|3:0,0:0:0:0:
352,166,226856,1,2,0:0:0:0:
352,166,227013,2,0,L|341:273,1,89.9999972534181,0|0,3:0|0:0,0:0:0:0:
451,281,227325,2,0,L|441:384,1,89.9999972534181,2|0,3:0|0:0,0:0:0:0:
425,108,227638,6,0,P|371:70|307:84,1,134.999995880127,6|0,3:2|0:0,0:0:0:0:
286,111,227950,5,0,3:0:0:0:
495,32,228106,1,0,3:0:0:0:
289,243,228263,5,0,3:0:0:0:
463,103,228419,1,0,3:0:0:0:
348,363,228575,5,0,3:0:0:0:
471,176,228731,1,0,3:0:0:0:
164,253,228888,5,2,3:2:0:0:
390,296,229044,1,0,3:0:0:0:
298,35,229200,5,2,3:2:0:0:
289,243,229356,1,0,3:0:0:0:
453,92,229513,6,0,L|341:111,1,89.9999972534181,2|0,3:2|3:0,0:0:0:0:
390,314,229825,2,0,L|478:298,1,89.9999972534181,2|0,3:2|3:0,0:0:0:0:
298,37,230138,6,0,P|266:93|296:174,1,134.999995880127,12|0,0:2|0:0,0:0:0:0:
319,209,230450,5,10,0:2:0:0:
295,183,230528,1,8,0:2:0:0:
264,172,230606,1,8,0:2:0:0:
231,174,230684,1,10,0:2:0:0:
202,192,230762,1,10,0:2:0:0:
173,208,230841,1,8,0:2:0:0:
140,211,230919,1,8,0:2:0:0:
108,198,230997,1,8,0:2:0:0:
85,175,231075,5,10,0:2:0:0:
69,133,231153,1,8,0:2:0:0:
76,89,231231,1,8,0:2:0:0:
104,54,231309,1,8,0:2:0:0:
145,37,231387,1,10,0:2:0:0:
192,38,231465,1,8,0:2:0:0:
233,67,231543,1,8,0:2:0:0:
255,112,231621,1,8,0:2:0:0:
250,161,231700,2,0,L|242:216,1,44.999998626709,10|8,0:2|0:2,0:0:0:0:
391,278,231856,2,0,L|342:240,1,44.999998626709,8|8,0:2|0:2,0:0:0:0:
233,341,232013,6,0,L|282:327,3,44.999998626709,10|8|10|8,0:2|0:2|0:2|0:2,0:0:0:0:
314,311,232325,5,10,0:3:0:0:
280,312,232403,1,8,0:3:0:0:
246,313,232481,1,8,0:3:0:0:
212,315,232559,1,8,0:3:0:0:
179,317,232638,6,0,B|35:327|35:327|85:287,1,200,6|8,3:2|0:0,0:0:0:0:
146,63,233106,2,0,P|198:144|125:236,1,200,2|0,3:2|3:0,0:0:0:0:
0,157,233575,2,0,L|99:146,1,100,10|0,0:2|0:0,0:0:0:0:
291,128,233888,6,0,L|307:226,1,100,2|0,3:2|3:0,0:0:0:0:
329,336,234200,1,8,0:0:0:0:
389,110,234356,2,0,L|290:127,1,100,2|0,3:2|0:0,0:0:0:0:
199,142,234669,1,0,3:0:0:0:
395,10,234825,2,0,L|388:119,1,100,10|0,0:2|0:0,0:0:0:0:
373,326,235138,6,0,P|424:248|512:279,1,200,2|8,3:2|0:0,0:0:0:0:
307,226,235606,2,0,B|226:232|226:232|206:243|206:243|82:253,1,200,2|0,3:2|3:0,0:0:0:0:
303,131,236075,2,0,P|321:178|306:225,1,100,10|0,0:2|0:0,0:0:0:0:
120,343,236388,6,0,P|102:296|209:201,1,200,2|8,3:2|0:0,0:0:0:0:
384,82,236856,2,0,P|400:129|290:220,1,200,2|0,3:2|3:0,0:0:0:0:
204,112,237325,2,0,L|309:132,1,100,10|0,0:2|0:0,0:0:0:0:
498,161,237638,6,0,B|418:144|418:144|396:149|396:149|274:124,1,200,6|8,3:2|0:0,0:0:0:0:
426,25,238106,2,0,P|509:67|497:160,1,200,2|0,3:2|3:0,0:0:0:0:
435,327,238575,2,0,L|421:227,1,100,8|0,0:0|0:0,0:0:0:0:
281,43,238888,5,2,3:2:0:0:
294,224,239044,1,2,3:2:0:0:
437,108,239200,2,0,L|325:137,1,100,10|0,0:2|0:0,0:0:0:0:
197,250,239513,2,0,L|310:219,1,100,2|0,0:2|3:0,0:0:0:0:
36,140,239825,5,14,0:2:0:0:
36,140,240138,5,10,0:2:0:0:
251,43,240294,1,0,3:0:0:0:
251,43,240450,1,0,3:0:0:0:
66,246,240606,5,10,0:2:0:0:
281,149,240762,1,0,3:0:0:0:
281,149,240918,1,0,3:0:0:0:
101,361,241075,5,10,0:2:0:0:
155,142,241232,1,0,3:0:0:0:
309,320,241388,1,0,3:0:0:0:
84,340,241544,5,10,0:2:0:0:
182,138,241701,1,0,3:0:0:0:
297,343,241857,1,0,3:0:0:0:
104,124,242013,5,8,0:0:0:0:
125,82,242091,1,8,0:0:0:0:
165,61,242169,1,8,0:0:0:0:
209,66,242247,1,8,0:0:0:0:
244,93,242325,1,10,0:2:0:0:
273,115,242403,1,8,0:0:0:0:
308,118,242481,1,8,0:0:0:0:
340,101,242559,1,8,0:0:0:0:
357,69,242633,6,0,L|388:257,1,179.999994506836,2|0,0:2|0:0,0:0:0:0:
400,330,243278,2,0,L|332:323,1,59.9999981689454,2|0,0:2|0:2,0:0:0:0:
275,369,243600,2,0,L|207:362,1,59.9999981689454,2|0,0:2|0:2,0:0:0:0:
114,235,243952,6,0,P|80:275|100:349,1,119.999996337891,2|0,0:2|0:2,0:0:0:0:
235,258,244425,2,0,P|248:314|215:362,1,119.999996337891,2|0,0:2|0:2,0:0:0:0:
114,235,244899,2,0,L|130:153,1,59.9999981689454,2|0,0:2|0:2,0:0:0:0:
271,81,245232,6,0,L|234:264,1,179.999994506836,2|0,0:2|0:2,0:0:0:0:
105,234,245863,2,0,L|121:152,1,59.9999981689454,2|0,0:2|0:2,0:0:0:0:
0,121,246201,2,0,L|39:170,1,59.9999981689454,2|0,0:2|0:2,0:0:0:0:
135,103,246540,6,0,B|140:72|140:72|-10:124,1,179.999994506836,2|0,0:2|0:2,0:0:0:0:
200,133,247218,2,0,L|216:51,1,59.9999981689454,2|0,0:2|0:2,0:0:0:0:
315,8,247570,2,0,L|303:66,1,59.9999981689454,2|0,0:2|0:2,0:0:0:0:
271,210,247923,6,0,P|303:182|414:245,1,179.999994506836,2|0,0:2|0:2,0:0:0:0:
327,314,248629,2,0,L|336:255,1,59.9999981689454,2|0,0:2|0:2,0:0:0:0:
423,140,248978,2,0,L|414:199,1,59.9999981689454,2|0,0:2|0:2,0:0:0:0:
273,179,249341,6,0,L|289:78,1,100,2|2,0:2|0:2,0:0:0:0:
434,39,250092,2,0,L|421:148,1,100,2|0,0:2|0:0,0:0:0:0:
411,212,250662,1,2,0:2:0:0:
292,80,250876,6,0,L|295:60,3,13.3333333333333,2|2|0|2,0:2|0:2|0:0|0:2,0:0:0:0:
256,192,251197,12,2,256340,0:2:0:0:
