osu file format v14

[General]
AudioFilename: audio.mp3
AudioLeadIn: 0
PreviewTime: 178751
Countdown: 0
SampleSet: Soft
StackLeniency: 0.5
Mode: 0
LetterboxInBreaks: 0
WidescreenStoryboard: 1

[Editor]
Bookmarks: 243231
DistanceSpacing: 1.4
BeatDivisor: 4
GridSize: 16
TimelineZoom: 1.6

[Metadata]
Title:Flower
TitleUnicode:Flower
Artist:THE ORAL CIGARETTES
ArtistUnicode:THE ORAL CIGARETTES
Creator:Nevo
Version:Reflection
Source:
Tags:japanese rock jrock j-rock fuju wanpachi cycopton Froskya killian reflection remake remastered 2023 2024 toc koldnoodl cjstmdals gorou yogurtt
BeatmapID:4558862
BeatmapSetID:2095787

[Difficulty]
HPDrainRate:6
CircleSize:4
OverallDifficulty:9.2
ApproachRate:9.3
SliderMultiplier:1.7
SliderTickRate:1

[Events]
//Background and Video events
0,0,"BG.jpg",0,0
//Break Periods
//Storyboard Layer 0 (Background)
//Storyboard Layer 1 (Fail)
//Storyboard Layer 2 (Pass)
//Storyboard Layer 3 (Foreground)
//Storyboard Layer 4 (Overlay)
//Storyboard Sound Samples

[TimingPoints]
138,312.5,4,2,1,70,1,0
9981,-83.3333333333333,4,2,1,80,0,0
25138,-76.9230769230769,4,2,1,80,0,0
29200,-100,4,2,1,80,0,0
30138,-111.111111111111,4,2,1,60,0,0
50138,-100,4,2,1,65,0,0
51388,-111.111111111111,4,2,1,65,0,0
53106,-100,4,2,1,65,0,0
55606,-100,4,2,1,65,0,0
57638,-100,4,2,1,80,0,0
60138,-83.3333333333333,4,2,1,90,0,1
63106,-90.9090909090909,4,2,1,90,0,1
63731,-83.3333333333333,4,2,1,90,0,1
64356,-90.9090909090909,4,2,1,90,0,1
65138,-83.3333333333333,4,2,1,90,0,1
65606,-90.9090909090909,4,2,1,90,0,1
87638,-83.3333333333333,4,2,1,90,0,1
90138,-111.111111111111,4,2,1,60,0,0
100138,-133.333333333333,4,2,1,50,0,0
100216,-153.846153846153,4,2,1,50,0,0
101388,-133.333333333333,4,2,1,50,0,0
101466,-111.111111111111,4,2,1,50,0,0
102013,-111.111111111111,4,2,1,65,0,0
102638,-100,4,2,1,60,0,0
109825,-100,4,2,1,60,0,0
110138,-100,4,2,1,70,0,0
112638,-100,4,2,1,80,0,0
115138,-83.3333333333333,4,2,1,90,0,1
121231,-90.9090909090909,4,2,1,90,0,1
125138,-83.3333333333333,4,2,1,90,0,1
132481,-90.9090909090909,4,2,1,90,0,1
134825,-133.333333333333,4,2,1,90,0,0
135138,-83.3333333333333,4,2,1,90,0,1
137638,-100,4,2,1,70,0,0
140138,-153.846153846153,4,2,1,60,0,0
141075,-133.333333333333,4,2,1,60,0,0
142638,314.547837483617,4,2,1,60,1,0
142638,-133.333333333333,4,2,1,60,0,0
143581,-138.888888888889,4,2,1,60,0,0
143896,352.941176470588,4,2,1,60,1,0
143896,-133.333333333333,4,2,1,60,0,0
144214,329.67032967033,4,2,1,60,1,0
144214,-133.333333333333,4,2,1,60,0,0
144543,282.352941176471,4,2,1,60,1,0
144825,312.5,4,2,1,60,1,0
144825,-133.333333333333,4,2,1,60,0,0
145137,-133.333333333333,4,2,1,60,0,0
145138,315.457413249211,4,2,1,60,1,0
145138,-133.333333333333,4,2,1,60,0,0
146715,324.324324324324,4,2,1,60,1,0
146715,-133.333333333333,4,2,1,60,0,0
147039,310.880829015544,4,2,1,60,1,0
147039,-133.333333333333,4,2,1,60,0,0
147660,301.507537688442,4,2,1,60,1,0
147660,-133.333333333333,4,2,1,60,0,0
148263,312.5,4,2,1,60,1,0
148263,-133.333333333333,4,2,1,60,0,0
149200,329.67032967033,4,2,1,60,1,0
149200,-133.333333333333,4,2,1,60,0,0
149529,296.296296296296,4,2,1,60,1,0
149529,-133.333333333333,4,2,1,60,0,0
149825,298.507462686567,4,2,1,60,1,0
149825,-133.333333333333,4,2,1,60,0,0
150123,379.746835443038,4,2,1,60,1,0
150123,-133.333333333333,4,2,1,60,0,0
150312,307.692307692308,4,2,1,60,1,0
150312,-133.333333333333,4,2,1,60,0,0
151081,-135.135135135135,4,2,1,60,0,0
151388,324.324324324324,4,2,1,60,1,0
151388,-133.333333333333,4,2,1,60,0,0
151712,329.67032967033,4,2,1,60,1,0
151712,-133.333333333333,4,2,1,60,0,0
152041,298.507462686567,4,2,1,60,1,0
152041,-133.333333333333,4,2,1,60,0,0
152638,297.029702970297,4,2,1,60,1,0
152638,-133.333333333333,4,2,1,60,0,0
153232,343.839541547278,4,2,1,60,1,0
153232,-133.333333333333,4,2,1,60,0,0
153575,312.5,4,2,1,60,1,0
153575,-133.333333333333,4,2,1,60,0,0
153888,312.5,4,2,1,60,1,0
153888,-133.333333333333,4,2,1,60,0,0
154200,329.67032967033,4,2,1,60,1,0
154200,-133.333333333333,4,2,1,60,0,0
155138,312.5,4,2,1,60,1,0
155138,-133.333333333333,4,2,1,60,0,0
156700,337.078651685393,4,2,1,60,1,0
156700,-133.333333333333,4,2,1,60,0,0
157037,289.156626506024,4,2,1,60,1,0
157037,-133.333333333333,4,2,1,60,0,0
157615,302.267002518892,4,2,1,60,1,0
157615,-133.333333333333,4,2,1,60,0,0
157917,372.670807453416,4,2,1,60,1,0
157917,-133.333333333333,4,2,1,60,0,0
158103,340.909090909091,4,2,1,60,1,0
158103,-133.333333333333,4,2,1,60,0,0
158273,322.58064516129,4,2,1,60,1,0
158273,-133.333333333333,4,2,1,60,0,0
158595,340.909090909091,4,2,1,60,1,0
158595,-133.333333333333,4,2,1,60,0,0
158888,312.5,4,2,1,60,1,0
158888,-133.333333333333,4,2,1,60,0,0
177638,-133.333333333333,4,2,1,62,0,0
177950,-133.333333333333,4,2,1,64,0,0
178263,-133.333333333333,4,2,1,66,0,0
178575,-133.333333333333,4,2,1,68,0,0
178888,-133.333333333333,4,2,1,70,0,0
180138,-86.9565217391306,4,2,1,75,0,0
182013,-105.263157894737,4,2,1,75,0,0
182638,-86.9565217391306,4,2,1,75,0,0
189513,-105.263157894737,4,2,1,75,0,0
190138,-86.9565217391306,4,2,1,75,0,0
195138,-105.263157894737,4,2,1,80,0,0
200138,-117.64705882353,4,2,1,65,0,0
205138,-100,4,2,1,70,0,0
207638,-83.3333333333333,4,2,1,70,0,0
212638,-133.333333333333,4,2,1,60,0,0
218888,-111.111111111111,4,2,1,60,0,0
222638,-111.111111111111,4,2,1,65,0,0
223888,-125,4,2,1,65,0,0
227638,-100,4,2,1,70,0,0
230138,-90.9090909090909,4,2,1,80,0,1
232325,-100,4,2,1,80,0,0
232638,-100,4,2,1,80,0,1
242633,322.58064516129,4,2,1,60,1,0
242633,-133.333333333333,4,2,1,60,0,0
243600,352.941176470588,4,2,1,60,1,0
243600,-133.333333333333,4,2,1,60,0,0
243952,315.789473684211,4,2,1,60,1,0
243952,-153.846153846153,4,2,1,60,0,0
244899,333.333333333333,4,2,1,60,1,0
244899,-133.333333333333,4,2,1,60,0,0
245232,315.789473684211,4,2,1,60,1,0
245232,-142.857142857143,4,2,1,60,0,0
245863,338.983050847458,4,2,1,60,1,0
245863,-133.333333333333,4,2,1,60,0,0
247218,352.941176470588,4,2,1,60,1,0
247218,-133.333333333333,4,2,1,60,0,0
248629,349.854227405248,4,2,1,60,1,0
248629,-133.333333333333,4,2,1,60,0,0
248978,363.636363636364,4,2,1,60,1,0
248978,-133.333333333333,4,2,1,60,0,0
249341,-133.333333333333,4,2,1,60,0,0
250092,394.736842105263,4,2,1,60,1,0
250092,-133.333333333333,4,2,1,60,0,0
250486,352.941176470588,4,2,1,60,1,0
250486,-142.857142857143,4,2,1,60,0,0
250662,428.571428571429,4,2,1,40,1,0
250876,-100,4,2,1,30,0,0
250881,-133.333333333333,4,2,1,30,0,0
251732,-133.333333333333,4,2,1,40,0,0
251738,-133.333333333333,4,2,1,40,0,0
256345,-100,4,2,1,40,0,0
256447,-100,4,2,1,5,0,0
259233,-100,4,2,1,5,0,0

[Colours]
Combo1 : 163,86,86
Combo2 : 192,192,192
Combo3 : 0,128,192

[HitObjects]
369,256,138,5,6,3:2:0:0:
228,214,294,1,0,3:2:0:0:
431,168,450,1,8,0:2:0:0:
281,334,606,6,0,P|275:264|249:149,1,170,6|0,3:2|3:2,0:0:0:0:
366,30,1075,2,0,P|351:77|345:119,1,85,8|0,0:2|0:0,0:0:0:0:
172,80,1388,5,0,3:2:0:0:
252,44,1544,1,0,3:2:0:0:
141,164,1700,1,8,0:2:0:0:
74,29,1856,1,8,0:2:0:0:
99,252,2013,1,0,3:2:0:0:
219,207,2169,1,0,3:2:0:0:
17,223,2325,2,0,P|14:285|84:337,1,127.5,8|0,0:2|0:0,0:0:0:0:
56,330,2638,5,6,3:2:0:0:
294,256,2794,1,0,3:2:0:0:
126,156,2950,1,8,0:2:0:0:
190,374,3106,2,0,P|197:303|221:200,1,170,6|0,3:2|3:2,0:0:0:0:
178,39,3575,2,0,P|199:85|211:134,1,85,8|0,0:2|0:0,0:0:0:0:
385,182,3888,5,0,3:2:0:0:
299,161,4044,1,0,3:2:0:0:
424,103,4200,1,8,0:2:0:0:
465,247,4356,1,8,0:2:0:0:
471,15,4513,1,0,3:2:0:0:
338,52,4669,1,0,3:2:0:0:
501,152,4825,2,0,P|444:148|379:187,1,127.5,8|0,0:2|0:0,0:0:0:0:
384,181,5138,5,6,3:2:0:0:
305,372,5294,1,0,3:2:0:0:
227,154,5450,1,8,0:2:0:0:
183,322,5606,2,0,B|236:307|236:307|258:286|258:286|346:264,1,170,6|0,3:2|3:2,0:0:0:0:
160,226,6075,2,0,L|67:213,1,85,8|0,0:2|0:0,0:0:0:0:
87,59,6388,5,0,3:2:0:0:
132,129,6544,1,0,3:2:0:0:
265,1,6700,1,8,0:2:0:0:
243,188,6856,1,8,0:2:0:0:
487,60,7013,5,8,0:2:0:0:
445,67,7091,1,8,0:2:0:0:
403,73,7169,1,8,0:2:0:0:
361,80,7247,1,8,0:2:0:0:
322,105,7325,6,0,L|185:89,1,127.5,6|0,3:2|0:0,0:0:0:0:
195,90,7638,1,0,3:2:0:0:
406,175,7794,5,2,3:2:0:0:
162,197,7950,2,0,L|184:310,1,85,2|0,3:2|3:2,0:0:0:0:
413,163,8263,5,2,3:2:0:0:
83,255,8419,2,0,L|61:368,1,85,2|0,3:2|3:2,0:0:0:0:
443,321,8731,6,0,P|409:274|313:266,1,127.5,6|0,3:2|0:0,0:0:0:0:
344,256,9044,1,2,3:2:0:0:
202,364,9200,2,0,P|252:332|266:290,1,85,2|0,3:2|0:0,0:0:0:0:
56,45,9513,5,8,0:2:0:0:
45,85,9591,1,8,0:2:0:0:
51,127,9669,1,10,0:2:0:0:
74,162,9747,1,8,0:2:0:0:
110,185,9825,1,10,0:2:0:0:
153,191,9903,1,8,0:2:0:0:
192,179,9981,6,0,L|173:316,1,101.999996887207,6|0,3:2|0:0,0:0:0:0:
143,94,10294,1,0,3:2:0:0:
277,239,10450,2,0,P|346:238|406:175,1,152.999995330811,8|0,0:2|0:0,0:0:0:0:
403,181,10763,1,8,0:2:0:0:
283,45,10919,1,0,3:2:0:0:
474,9,11075,1,8,0:2:0:0:
309,157,11231,6,0,L|290:33,1,101.999996887207,6|0,3:2|0:0,0:0:0:0:
464,106,11544,1,0,3:2:0:0:
192,135,11700,1,8,0:2:0:0:
277,239,11856,1,0,3:2:0:0:
138,67,12013,1,8,0:2:0:0:
188,224,12169,1,2,3:2:0:0:
32,280,12325,1,10,0:2:0:0:
260,341,12481,6,0,P|192:317|128:316,1,101.999996887207,6|0,3:2|0:0,0:0:0:0:
344,384,12794,1,0,3:2:0:0:
445,279,12950,2,0,P|477:225|469:179,1,101.999996887207,10|0,0:2|3:2,0:0:0:0:
311,84,13263,1,8,0:2:0:0:
382,219,13419,1,0,3:2:0:0:
445,33,13575,1,10,0:2:0:0:
287,184,13731,6,0,P|230:216|136:113,1,203.999993774414,6|0,3:2|3:2,0:0:0:0:
382,219,14200,2,0,L|365:339,1,101.999996887207,10|0,0:2|3:2,0:0:0:0:
221,128,14513,1,8,0:2:0:0:
397,124,14669,1,2,3:2:0:0:
169,51,14825,1,10,0:2:0:0:
266,343,14981,6,0,P|292:236|305:134,1,203.999993774414,6|0,3:2|3:2,0:0:0:0:
50,211,15450,1,8,0:2:0:0:
190,259,15606,1,0,3:2:0:0:
5,344,15763,1,8,0:2:0:0:
44,112,15919,1,0,3:2:0:0:
96,292,16075,1,10,0:2:0:0:
169,51,16231,6,0,P|238:30|273:33,1,101.999996887207,6|0,3:2|0:0,0:0:0:0:
413,79,16544,1,0,3:2:0:0:
276,239,16700,1,10,0:2:0:0:
237,128,16856,1,0,3:2:0:0:
374,304,17013,1,8,0:2:0:0:
416,191,17169,1,0,3:2:0:0:
481,369,17325,1,10,0:2:0:0:
269,326,17481,6,0,P|206:313|78:378,1,203.999993774414,6|0,3:2|3:2,0:0:0:0:
13,247,17950,2,0,L|113:232,1,101.999996887207,10|0,0:2|3:2,0:0:0:0:
258,98,18263,1,8,0:2:0:0:
217,228,18419,1,0,3:2:0:0:
49,140,18575,1,10,0:2:0:0:
314,182,18731,6,0,P|355:121|304:10,1,203.999993774414,6|0,3:2|3:2,0:0:0:0:
65,54,19200,2,0,L|169:73,1,101.999996887207,14|0,0:2|0:0,0:0:0:0:
391,257,19513,1,2,3:3:0:0:
347,282,19591,1,2,3:3:0:0:
296,285,19669,1,2,3:3:0:0:
250,266,19747,1,2,3:3:0:0:
216,227,19825,1,10,0:2:0:0:
448,73,19981,6,0,L|437:185,1,101.999996887207,6|0,3:2|0:0,0:0:0:0:
412,347,20294,1,0,3:2:0:0:
314,182,20450,1,10,0:2:0:0:
490,250,20606,1,0,3:2:0:0:
270,366,20763,1,8,0:2:0:0:
333,105,20919,1,0,3:2:0:0:
339,305,21075,1,10,0:2:0:0:
127,188,21231,6,0,P|41:211|38:315,1,203.999993774414,6|0,3:2|3:2,0:0:0:0:
222,218,21700,1,8,0:2:0:0:
68,107,21856,1,0,3:2:0:0:
108,269,22013,1,8,0:2:0:0:
110,29,22169,1,2,3:2:0:0:
334,108,22325,1,8,0:2:0:0:
156,102,22481,6,0,L|266:83,1,101.999996887207,6|0,3:2|0:0,0:0:0:0:
404,55,22794,1,0,3:2:0:0:
454,227,22950,2,0,P|418:181|429:104,1,101.999996887207,10|0,0:2|3:2,0:0:0:0:
512,286,23263,1,8,0:2:0:0:
347,235,23419,1,0,3:2:0:0:
500,156,23575,1,10,0:2:0:0:
413,341,23731,6,0,P|353:281|239:322,1,203.999993774414,6|0,3:2|3:2,0:0:0:0:
254,316,24122,1,0,3:2:0:0:
254,316,24200,2,0,P|235:262|246:208,1,101.999996887207,8|0,0:2|0:0,0:0:0:0:
436,57,24513,1,8,0:2:0:0:
429,100,24591,1,8,0:2:0:0:
399,134,24669,1,8,0:2:0:0:
355,144,24747,1,8,0:2:0:0:
314,128,24825,1,10,0:2:0:0:
273,107,24903,1,8,0:2:0:0:
228,104,24981,1,8,0:2:0:0:
185,118,25059,1,8,0:2:0:0:
150,147,25138,6,0,L|130:259,1,110.499994941712,6|0,3:2|0:0,0:0:0:0:
61,99,25450,1,0,3:2:0:0:
234,212,25606,1,2,3:2:0:0:
7,269,25763,1,0,3:2:0:0:
248,220,25919,1,0,3:2:0:0:
0,173,26075,1,2,3:2:0:0:
52,362,26231,1,0,3:2:0:0:
219,124,26388,5,2,3:2:0:0:
189,302,26544,1,0,3:2:0:0:
135,83,26700,1,0,3:2:0:0:
333,164,26856,1,2,3:2:0:0:
108,205,27013,1,0,3:2:0:0:
375,254,27169,1,0,3:2:0:0:
141,377,27325,1,2,3:2:0:0:
196,210,27481,1,0,3:2:0:0:
456,363,27638,5,14,0:2:0:0:
202,309,27794,1,0,3:2:0:0:
493,200,27950,1,0,3:2:0:0:
204,117,28106,5,14,0:2:0:0:
341,334,28263,1,0,3:2:0:0:
409,47,28419,1,0,3:2:0:0:
196,210,28575,2,0,P|136:189|108:143,1,110.499994941712,14|0,3:2|0:0,0:0:0:0:
369,124,28888,5,0,3:2:0:0:
364,155,28966,1,0,3:2:0:0:
359,186,29044,1,0,3:2:0:0:
356,218,29122,1,0,3:2:0:0:
351,249,29200,2,0,L|335:370,1,85,14|0,0:2|0:0,0:0:0:0:
18,310,29513,5,8,0:2:0:0:
44,283,29591,1,8,0:2:0:0:
76,266,29669,1,8,0:2:0:0:
112,260,29747,1,8,0:2:0:0:
148,265,29825,5,10,0:2:0:0:
194,287,29903,1,8,0:2:0:0:
244,272,29981,1,8,0:2:0:0:
271,229,30059,1,8,0:2:0:0:
261,178,30138,6,0,L|247:73,1,76.4999976654053,2|0,3:2|3:2,0:0:0:0:
234,17,30450,1,8,0:2:0:0:
48,18,30606,2,0,P|95:75|184:73,1,152.999995330811,2|0,3:2|3:2,0:0:0:0:
321,17,31075,2,0,P|354:13|395:30,1,76.4999976654053,10|0,0:2|0:0,0:0:0:0:
415,146,31388,5,2,3:2:0:0:
344,104,31544,1,0,3:2:0:0:
466,81,31700,1,8,0:2:0:0:
493,210,31856,2,0,P|444:183|334:209,1,152.999995330811,2|0,3:2|3:2,0:0:0:0:
369,335,32325,2,0,P|400:297|411:253,1,76.4999976654053,10|0,0:2|0:0,0:0:0:0:
212,281,32638,6,0,L|299:268,1,76.4999976654053,2|0,3:2|3:2,0:0:0:0:
261,358,32950,1,8,0:2:0:0:
229,194,33106,2,0,L|66:173,1,152.999995330811,2|0,3:2|3:2,0:0:0:0:
18,44,33575,2,0,P|75:29|107:38,1,76.4999976654053,10|0,0:2|0:0,0:0:0:0:
213,81,33888,5,2,3:2:0:0:
128,107,34044,1,0,3:2:0:0:
175,0,34200,1,8,0:2:0:0:
283,127,34356,2,0,P|328:138|392:62,1,152.999995330811,2|0,3:2|3:2,0:0:0:0:
411,193,34825,2,0,L|397:279,1,76.4999976654053,10|0,0:2|0:0,0:0:0:0:
253,369,35138,6,0,P|226:327|230:282,1,76.4999976654053,2|0,3:2|3:2,0:0:0:0:
251,213,35450,1,8,0:2:0:0:
127,364,35606,2,0,P|124:307|165:218,1,152.999995330811,2|0,3:2|3:2,0:0:0:0:
331,138,36075,1,8,0:2:0:0:
331,138,36388,6,0,L|224:127,1,76.4999976654053,2|0,3:2|3:2,0:0:0:0:
151,119,36700,1,8,0:2:0:0:
364,33,36856,2,0,L|193:50,1,152.999995330811,2|0,3:2|3:2,0:0:0:0:
78,185,37325,1,10,0:2:0:0:
77,185,37638,6,0,P|79:222|96:256,1,76.4999976654053,2|0,3:2|3:2,0:0:0:0:
184,303,37950,1,8,0:2:0:0:
310,206,38106,2,0,P|255:187|160:198,1,152.999995330811,2|0,3:2|3:2,0:0:0:0:
62,91,38575,2,0,L|147:104,1,76.4999976654053,10|0,0:2|0:0,0:0:0:0:
350,104,38888,6,0,P|367:66|360:25,1,76.4999976654053,2|0,3:2|3:2,0:0:0:0:
258,103,39200,1,8,0:2:0:0:
422,155,39356,2,0,L|450:308,1,152.999995330811,2|0,3:2|3:2,0:0:0:0:
338,249,39825,1,10,0:2:0:0:
275,373,39981,5,8,0:2:0:0:
275,373,40059,1,8,0:2:0:0:
275,373,40138,1,2,3:2:0:0:
244,212,40294,1,0,3:2:0:0:
140,235,40450,1,8,0:2:0:0:
290,116,40606,2,0,P|338:174|338:249,1,152.999995330811,2|0,3:2|3:2,0:0:0:0:
177,139,41075,2,0,P|177:90|188:62,1,76.4999976654053,10|0,0:2|0:0,0:0:0:0:
314,15,41388,5,2,3:2:0:0:
290,116,41544,1,0,3:2:0:0:
104,30,41700,1,8,0:2:0:0:
35,91,41856,2,0,L|192:63,1,152.999995330811,2|0,3:2|3:2,0:0:0:0:
69,177,42325,2,0,L|35:268,1,76.4999976654053,10|0,0:2|0:0,0:0:0:0:
161,324,42638,5,2,3:2:0:0:
137,249,42794,1,0,3:2:0:0:
81,358,42950,1,8,0:2:0:0:
250,311,43106,2,0,P|307:305|399:357,1,152.999995330811,2|0,3:2|3:2,0:0:0:0:
338,221,43575,2,0,P|323:181|324:145,1,76.4999976654053,10|0,0:2|0:0,0:0:0:0:
358,9,43888,5,2,3:2:0:0:
291,65,44044,1,0,3:2:0:0:
476,100,44200,1,8,0:2:0:0:
445,21,44356,2,0,L|416:175,1,152.999995330811,2|0,3:2|3:2,0:0:0:0:
478,321,44825,2,0,L|464:245,1,76.4999976654053,10|0,0:2|0:0,0:0:0:0:
310,175,45138,6,0,P|324:234|347:262,1,76.4999976654053,2|0,3:2|3:2,0:0:0:0:
416,171,45450,1,8,0:2:0:0:
346,353,45606,2,0,P|279:333|230:264,1,152.999995330811,2|0,3:2|3:2,0:0:0:0:
258,86,46075,1,10,0:2:0:0:
258,86,46388,6,0,L|152:77,1,76.4999976654053,2|0,3:2|3:2,0:0:0:0:
212,174,46700,1,8,0:2:0:0:
336,18,46856,2,0,L|492:2,1,152.999995330811,2|0,3:2|3:2,0:0:0:0:
448,163,47325,1,10,0:2:0:0:
448,163,47638,6,0,P|420:112|424:78,1,76.4999976654053,2|0,3:2|3:2,0:0:0:0:
512,226,47950,1,8,0:2:0:0:
414,315,48106,2,0,P|323:281|263:297,1,152.999995330811,2|0,3:2|3:2,0:0:0:0:
123,366,48575,2,0,P|169:357|202:320,1,76.4999976654053,10|0,0:2|0:0,0:0:0:0:
197,159,48888,5,2,3:2:0:0:
120,282,49044,1,0,3:2:0:0:
34,184,49200,2,0,L|124:197,1,76.4999976654053,8|2,0:2|0:2,0:0:0:0:
262,260,49513,5,8,0:2:0:0:
280,257,49591,1,8,0:2:0:0:
299,254,49669,1,8,0:2:0:0:
318,251,49747,1,8,0:2:0:0:
339,259,49825,5,10,0:2:0:0:
371,239,49903,1,8,0:2:0:0:
390,206,49981,1,8,0:2:0:0:
390,168,50059,1,8,0:2:0:0:
371,135,50138,6,0,L|357:47,1,85,6|2,3:2|3:2,0:0:0:0:
485,79,50450,1,8,0:2:0:0:
250,113,50606,2,0,B|183:102|183:102|137:107|137:107|74:95,1,170,6|2,3:2|3:2,0:0:0:0:
154,287,51075,1,10,0:2:0:0:
154,287,51388,5,2,3:2:0:0:
181,184,51544,1,2,3:2:0:0:
241,289,51700,1,10,3:3:0:0:
77,245,51857,1,10,3:3:0:0:
265,205,52013,2,0,L|344:193,1,76.4999976654053,2|0,3:2|3:2,0:0:0:0:
97,160,52326,2,0,L|34:110,1,76.4999976654053,10|0,3:3|3:2,0:0:0:0:
282,24,52638,5,6,3:2:0:0:
141,75,52794,1,2,3:2:0:0:
69,12,52950,1,8,0:2:0:0:
286,120,53106,2,0,P|347:92|370:-3,1,170,6|2,3:2|3:2,0:0:0:0:
477,200,53575,1,10,0:2:0:0:
477,200,53888,5,2,3:2:0:0:
395,171,54044,1,2,3:2:0:0:
317,294,54200,1,10,3:3:0:0:
404,264,54356,1,10,3:3:0:0:
224,257,54513,2,0,P|216:304|225:341,1,85,2|0,3:2|3:2,0:0:0:0:
168,143,54825,2,0,P|129:170|109:203,1,85,10|0,3:3|3:2,0:0:0:0:
115,357,55138,5,6,3:2:0:0:
317,294,55294,1,2,3:2:0:0:
59,278,55450,1,8,0:2:0:0:
368,198,55606,2,0,L|346:375,1,170,6|2,3:2|3:2,0:0:0:0:
273,175,56075,2,0,L|258:79,1,85,10|2,0:2|0:2,0:0:0:0:
471,30,56388,5,2,3:2:0:0:
349,109,56544,1,2,3:2:0:0:
298,16,56700,1,10,3:3:0:0:
436,136,56856,1,10,3:3:0:0:
333,248,57013,2,0,P|272:269|231:259,1,85,2|0,3:2|3:2,0:0:0:0:
82,167,57325,2,0,L|175:179,1,85,14|0,0:2|0:0,0:0:0:0:
311,348,57638,5,14,0:2:0:0:
279,164,57794,1,0,3:2:0:0:
187,379,57950,1,14,0:2:0:0:
207,106,58106,1,0,3:2:0:0:
415,303,58263,5,14,0:2:0:0:
124,314,58419,1,0,3:2:0:0:
405,172,58575,1,14,0:2:0:0:
156,223,58731,1,0,3:2:0:0:
485,229,58888,5,0,3:2:0:0:
507,193,58966,1,0,3:2:0:0:
511,151,59044,1,0,3:2:0:0:
496,112,59122,1,0,3:2:0:0:
464,84,59200,2,0,L|365:69,1,85,14|0,0:2|0:0,0:0:0:0:
130,36,59513,5,14,0:2:0:0:
90,60,59591,1,8,0:2:0:0:
66,99,59669,1,8,0:2:0:0:
62,145,59747,1,8,0:2:0:0:
80,188,59825,1,14,0:2:0:0:
116,218,59903,1,8,0:2:0:0:
161,228,59981,1,8,0:2:0:0:
206,217,60059,1,8,0:2:0:0:
240,186,60138,6,0,P|300:162|353:169,1,101.999996887207,6|2,3:2|3:2,0:0:0:0:
211,332,60450,1,10,0:2:0:0:
403,289,60606,2,0,L|302:271,1,101.999996887207,2|0,3:2|0:0,0:0:0:0:
12,382,60919,2,0,L|112:364,1,101.999996887207,2|8,3:2|0:2,0:0:0:0:
347,65,61231,6,0,P|246:77|160:130,1,203.999993774414,2|0,3:2|3:2,0:0:0:0:
299,213,61700,1,10,0:2:0:0:
462,96,61856,2,0,P|464:45|443:0,1,101.999996887207,2|0,0:2|3:2,0:0:0:0:
465,225,62169,2,0,P|430:188|383:170,1,101.999996887207,2|8,3:2|0:2,0:0:0:0:
211,247,62481,6,0,P|288:312|376:271,1,203.999993774414,2|0,0:2|3:2,0:0:0:0:
216,115,62950,1,10,0:2:0:0:
75,288,63106,2,0,L|55:185,1,93.5000028533936,2|0,3:2|0:0,0:0:0:0:
24,66,63419,2,0,L|127:86,1,93.5000028533936,2|8,3:2|0:2,0:0:0:0:
320,139,63731,6,0,P|309:66|197:16,1,203.999993774414,2|0,3:2|3:2,0:0:0:0:
146,169,64200,1,10,0:2:0:0:
146,169,64356,2,0,P|189:152|218:104,1,93.5000028533936,2|0,0:2|3:2,0:0:0:0:
345,232,64669,2,0,P|298:234|252:203,1,93.5000028533936,2|8,3:2|0:2,0:0:0:0:
434,152,64981,1,2,0:2:0:0:
474,375,65138,6,0,L|455:264,1,101.999996887207,6|0,3:2|3:2,0:0:0:0:
320,139,65450,1,10,0:2:0:0:
470,42,65606,2,0,P|427:40|377:58,1,93.5000028533936,2|0,3:2|0:0,0:0:0:0:
193,11,65919,2,0,P|231:37|276:48,1,93.5000028533936,2|8,3:2|0:2,0:0:0:0:
129,103,66231,6,0,P|101:141|204:216,1,187.000005706787,2|0,3:2|3:2,0:0:0:0:
217,139,66700,1,10,0:2:0:0:
119,329,66856,2,0,L|211:315,1,93.5000028533936,2|0,0:2|3:2,0:0:0:0:
393,364,67169,2,0,L|300:350,1,93.5000028533936,2|8,3:2|0:2,0:0:0:0:
460,115,67481,6,0,B|453:171|415:193|415:193|374:216|366:276,1,187.000005706787,2|0,0:2|3:2,0:0:0:0:
463,276,67950,1,10,0:2:0:0:
364,113,68106,2,0,P|325:140|297:190,1,93.5000028533936,2|0,0:2|3:2,0:0:0:0:
271,286,68419,2,0,P|244:247|194:219,1,93.5000028533936,2|8,3:2|0:2,0:0:0:0:
0,110,68731,6,0,P|79:168|176:132,1,187.000005706787,2|0,3:2|3:2,0:0:0:0:
381,34,69200,1,8,0:2:0:0:
381,34,69513,5,10,0:2:0:0:
421,58,69591,1,8,0:2:0:0:
445,97,69669,1,8,0:2:0:0:
449,143,69747,1,8,0:2:0:0:
431,186,69825,1,10,0:2:0:0:
395,216,69903,1,8,0:2:0:0:
350,226,69981,1,8,0:2:0:0:
305,215,70059,1,8,0:2:0:0:
271,184,70138,6,0,L|255:82,1,93.5000028533936,6|2,3:2|3:2,0:0:0:0:
44,210,70450,1,10,0:2:0:0:
124,310,70606,2,0,P|169:301|213:260,1,93.5000028533936,2|0,3:2|0:0,0:0:0:0:
171,55,70919,2,0,P|126:64|82:105,1,93.5000028533936,2|8,3:2|0:2,0:0:0:0:
325,317,71231,6,0,L|354:133,1,187.000005706787,2|0,3:2|3:2,0:0:0:0:
208,179,71700,1,10,0:2:0:0:
437,40,71856,2,0,L|476:146,1,93.5000028533936,2|0,0:2|3:2,0:0:0:0:
253,104,72169,2,0,L|308:29,1,93.5000028533936,2|8,3:2|0:2,0:0:0:0:
432,310,72481,6,0,P|380:222|271:220,1,187.000005706787,2|0,0:2|3:2,0:0:0:0:
159,352,72950,1,10,0:2:0:0:
220,268,73106,2,0,L|128:255,1,93.5000028533936,2|0,3:2|0:0,0:0:0:0:
155,94,73419,2,0,L|62:107,1,93.5000028533936,2|8,3:2|0:2,0:0:0:0:
224,180,73731,6,0,P|249:88|292:6,1,187.000005706787,2|0,3:2|3:2,0:0:0:0:
434,74,74200,1,10,0:2:0:0:
362,225,74356,2,0,P|345:171|345:120,1,93.5000028533936,2|0,0:2|3:2,0:0:0:0:
508,211,74669,2,0,P|504:257|489:301,1,93.5000028533936,2|8,3:2|0:2,0:0:0:0:
426,374,74981,1,2,0:2:0:0:
159,324,75138,6,0,L|271:334,1,93.5000028533936,6|0,3:2|3:2,0:0:0:0:
224,180,75450,1,10,0:2:0:0:
55,267,75606,2,0,P|40:334|48:366,1,93.5000028533936,2|0,3:2|0:0,0:0:0:0:
135,220,75919,2,0,P|127:174|101:135,1,93.5000028533936,2|8,3:2|0:2,0:0:0:0:
11,11,76231,6,0,B|98:79|111:5|192:75,1,187.000005706787,2|0,3:2|3:2,0:0:0:0:
224,180,76700,1,10,0:2:0:0:
378,116,76856,2,0,L|277:98,1,93.5000028533936,2|0,0:2|3:2,0:0:0:0:
341,238,77169,2,0,L|442:220,1,93.5000028533936,2|8,3:2|0:2,0:0:0:0:
258,370,77481,6,0,P|251:282|157:280,1,187.000005706787,2|0,0:2|3:2,0:0:0:0:
96,364,77950,1,10,0:2:0:0:
15,240,78106,2,0,P|-2:191|5:132,1,93.5000028533936,2|0,0:2|3:2,0:0:0:0:
158,124,78419,2,0,P|124:156|105:198,1,93.5000028533936,2|8,3:2|0:2,0:0:0:0:
312,342,78731,6,0,P|247:269|244:161,1,187.000005706787,2|0,3:2|3:2,0:0:0:0:
510,60,79200,1,14,0:2:0:0:
510,60,79513,5,10,0:2:0:0:
480,88,79591,1,8,0:2:0:0:
442,101,79669,1,8,0:2:0:0:
401,96,79747,1,8,0:2:0:0:
366,74,79825,1,10,0:2:0:0:
331,53,79903,1,8,0:2:0:0:
291,48,79981,1,8,0:2:0:0:
251,60,80059,1,8,0:2:0:0:
223,90,80138,6,0,L|239:189,1,93.5000028533936,6|0,3:2|3:2,0:0:0:0:
158,23,80450,1,8,0:2:0:0:
135,147,80606,5,2,3:2:0:0:
50,18,80763,1,8,0:2:0:0:
71,200,80919,1,0,3:2:0:0:
293,152,81075,5,10,0:2:0:0:
48,114,81231,1,0,3:2:0:0:
277,269,81388,1,8,0:2:0:0:
55,285,81544,5,2,3:2:0:0:
348,219,81700,1,8,0:2:0:0:
71,200,81856,1,0,3:2:0:0:
290,359,82013,5,10,0:2:0:0:
206,146,82169,1,0,3:2:0:0:
180,384,82325,5,10,0:2:0:0:
272,93,82481,1,0,3:2:0:0:
133,312,82638,5,14,0:2:0:0:
405,329,82794,1,0,3:2:0:0:
245,216,82950,1,8,0:2:0:0:
448,194,83106,5,2,3:2:0:0:
288,361,83263,1,8,0:2:0:0:
206,146,83419,1,0,3:2:0:0:
483,281,83575,5,10,0:2:0:0:
223,306,83731,1,0,3:2:0:0:
455,92,83888,5,10,0:2:0:0:
405,329,84044,1,0,3:2:0:0:
298,63,84200,1,8,0:2:0:0:
288,361,84356,5,2,3:2:0:0:
415,201,84513,1,8,0:2:0:0:
158,228,84669,1,0,3:2:0:0:
373,98,84825,5,10,0:2:0:0:
323,264,84981,1,0,0:0:0:0:
153,39,85138,5,14,0:2:0:0:
241,220,85294,1,0,3:2:0:0:
320,28,85450,1,0,3:2:0:0:
250,305,85606,5,8,0:2:0:0:
167,131,85763,1,0,3:2:0:0:
85,352,85919,1,0,3:2:0:0:
318,143,86075,5,10,0:2:0:0:
64,205,86231,1,0,3:2:0:0:
350,245,86388,1,0,3:2:0:0:
9,284,86544,5,8,0:2:0:0:
261,206,86700,1,0,3:2:0:0:
28,118,86856,1,0,3:2:0:0:
298,19,87013,5,0,3:2:0:0:
293,41,87091,1,0,3:2:0:0:
288,64,87169,1,0,3:2:0:0:
283,87,87247,1,0,3:2:0:0:
277,112,87325,2,0,P|234:134|148:100,1,140.25000428009,14|0,0:2|0:0,0:0:0:0:
92,49,87638,5,6,3:2:0:0:
92,49,87950,5,0,3:2:0:0:
159,214,88106,1,0,3:2:0:0:
191,13,88263,1,0,3:2:0:0:
239,233,88419,1,0,3:2:0:0:
304,8,88575,1,0,3:2:0:0:
318,261,88731,1,0,3:2:0:0:
398,21,88888,6,0,L|416:124,1,101.999996887207,6|0,3:2|0:0,0:0:0:0:
402,273,89200,5,10,0:2:0:0:
390,314,89278,1,8,0:2:0:0:
357,343,89356,1,8,0:2:0:0:
315,351,89434,1,8,0:2:0:0:
274,336,89512,1,2,3:2:0:0:
244,305,89591,1,0,3:2:0:0:
202,293,89669,1,0,3:2:0:0:
160,304,89747,1,0,3:2:0:0:
121,322,89825,5,2,3:2:0:0:
80,310,89902,1,2,3:2:0:0:
51,277,89980,1,2,3:2:0:0:
43,235,90058,1,2,3:2:0:0:
57,187,90138,6,0,L|140:194,1,76.4999976654053,6|0,3:2|3:2,0:0:0:0:
228,208,90450,1,8,0:2:0:0:
263,83,90606,2,0,L|107:98,1,152.999995330811,2|0,3:2|3:2,0:0:0:0:
315,10,91075,2,0,P|351:51|351:92,1,76.4999976654053,10|0,0:2|0:0,0:0:0:0:
340,232,91388,6,0,L|319:134,1,76.4999976654053,2|0,3:2|3:2,0:0:0:0:
438,169,91700,1,8,0:2:0:0:
228,208,91856,2,0,L|205:359,1,152.999995330811,2|0,3:2|3:2,0:0:0:0:
59,306,92325,2,0,P|106:279|158:281,1,76.4999976654053,10|0,0:2|0:0,0:0:0:0:
125,110,92638,6,0,L|144:193,1,76.4999976654053,2|0,3:2|3:2,0:0:0:0:
212,69,92950,1,8,0:2:0:0:
49,25,93106,2,0,L|26:176,1,152.999995330811,2|0,3:2|3:2,0:0:0:0:
127,276,93575,2,0,P|179:273|208:253,1,76.4999976654053,10|0,0:2|0:0,0:0:0:0:
320,147,93888,6,0,L|245:163,1,76.4999976654053,2|0,3:2|3:2,0:0:0:0:
379,216,94200,1,8,0:2:0:0:
412,71,94356,2,0,L|250:53,1,152.999995330811,2|0,3:2|3:2,0:0:0:0:
470,141,94825,2,0,P|498:113|504:66,1,76.4999976654053,10|0,0:2|0:0,0:0:0:0:
468,225,95138,6,0,L|490:317,1,76.4999976654053,2|0,3:2|3:2,0:0:0:0:
379,216,95450,1,8,0:2:0:0:
434,379,95606,2,0,P|355:321|300:323,1,152.999995330811,2|0,3:2|3:2,0:0:0:0:
189,369,96075,1,8,0:2:0:0:
189,369,96388,6,0,L|172:285,1,76.4999976654053,2|0,3:2|3:2,0:0:0:0:
213,170,96700,1,8,0:2:0:0:
0,210,96856,2,0,P|95:236|138:196,1,152.999995330811,2|0,3:2|3:2,0:0:0:0:
221,80,97325,1,10,0:2:0:0:
221,80,97638,6,0,P|176:52|128:49,1,76.4999976654053,2|0,3:2|3:2,0:0:0:0:
53,43,97950,1,8,0:2:0:0:
151,134,98106,2,0,L|328:111,1,152.999995330811,2|0,3:2|3:2,0:0:0:0:
400,203,98575,2,0,L|313:193,1,76.4999976654053,10|0,0:2|0:0,0:0:0:0:
339,27,98888,6,0,P|378:64|387:93,1,76.4999976654053,2|0,3:2|3:2,0:0:0:0:
242,208,99200,1,8,0:2:0:0:
356,283,99356,2,0,B|400:303|439:285|439:285|474:264|517:284,1,152.999995330811,2|0,3:2|3:2,0:0:0:0:
271,374,99825,2,0,L|260:288,1,76.4999976654053,10|0,0:2|0:0,0:0:0:0:
64,189,100138,6,0,P|58:238|113:288,1,127.500004863739,6|0,3:2|0:0,0:0:0:0:
192,242,100606,2,0,P|230:219|296:216,1,110.499994941712,2|0,0:2|0:0,0:0:0:0:
167,109,101075,2,0,P|156:140|152:176,1,55.2499974708558,2|0,0:2|0:0,0:0:0:0:
372,59,101388,6,0,P|322:91|245:77,1,127.500004863739,2|0,0:2|0:0,0:0:0:0:
172,20,101856,1,2,0:2:0:0:
192,242,102013,5,8,0:2:0:0:
301,10,102169,1,0,3:2:0:0:
343,276,102325,2,0,L|325:151,1,114.749996498108,10|0,0:2|0:0,0:0:0:0:
427,281,102638,6,0,P|409:329|375:353,1,85,6|0,3:2|3:2,0:0:0:0:
257,268,102950,1,8,0:2:0:0:
291,373,103106,2,0,P|179:336|125:335,1,170,2|0,3:2|3:2,0:0:0:0:
21,276,103575,2,0,L|115:258,1,85,10|0,0:2|0:0,0:0:0:0:
139,150,103888,5,2,3:2:0:0:
50,187,104044,1,0,3:2:0:0:
170,70,104200,1,8,0:2:0:0:
0,15,104356,2,0,P|6:91|82:85,1,170,2|0,3:2|3:2,0:0:0:0:
255,216,104825,2,0,P|227:166|228:127,1,85,10|0,0:2|0:0,0:0:0:0:
356,68,105138,5,2,3:2:0:0:
312,149,105294,1,0,3:2:0:0:
277,26,105450,1,8,0:2:0:0:
436,107,105606,2,0,L|412:275,1,170,2|0,3:2|3:2,0:0:0:0:
346,367,106075,1,8,0:2:0:0:
346,367,106388,6,0,P|294:352|257:351,1,85,2|0,3:2|3:2,0:0:0:0:
147,371,106700,1,8,0:2:0:0:
349,251,106856,2,0,P|283:252|186:294,1,170,2|0,3:2|3:2,0:0:0:0:
51,189,107325,1,10,0:2:0:0:
51,189,107638,6,0,L|162:203,1,85,2|0,3:2|3:2,0:0:0:0:
241,212,107950,1,8,0:2:0:0:
104,102,108106,2,0,L|307:72,1,170,2|0,3:2|3:2,0:0:0:0:
495,76,108575,1,8,0:2:0:0:
495,76,108888,5,2,3:2:0:0:
367,21,109044,1,0,3:2:0:0:
503,205,109200,1,8,0:2:0:0:
503,205,109513,5,10,0:2:0:0:
471,201,109591,1,8,0:2:0:0:
440,197,109669,1,8,0:2:0:0:
408,193,109747,1,8,0:2:0:0:
377,190,109825,1,2,0:2:0:0:
294,165,110138,6,0,L|308:260,1,85,14|0,0:2|0:0,0:0:0:0:
331,359,110450,1,0,3:2:0:0:
331,359,110606,1,0,3:2:0:0:
202,142,110763,2,0,L|216:237,1,85,10|0,0:2|0:0,0:0:0:0:
235,338,111075,1,0,3:2:0:0:
235,338,111231,1,0,3:2:0:0:
115,96,111388,6,0,L|101:191,1,85,10|0,0:2|0:0,0:0:0:0:
78,290,111700,1,0,3:2:0:0:
78,290,111856,1,0,3:2:0:0:
38,51,112013,2,0,L|24:146,1,85,10|0,0:2|0:0,0:0:0:0:
5,247,112325,1,0,3:2:0:0:
5,247,112481,1,0,3:2:0:0:
194,52,112638,6,0,P|245:37|291:42,1,85,14|0,0:2|0:0,0:0:0:0:
440,174,112950,1,8,3:3:0:0:
248,126,113106,1,8,3:3:0:0:
424,63,113263,1,10,3:3:0:0:
381,259,113419,1,8,3:3:0:0:
276,38,113575,1,8,3:3:0:0:
508,111,113731,1,8,3:3:0:0:
293,213,113888,5,2,3:2:0:0:
260,224,113966,1,0,3:2:0:0:
225,222,114044,1,0,3:2:0:0:
194,206,114122,1,0,3:2:0:0:
171,180,114200,2,0,L|157:95,1,85,14|0,0:2|0:0,0:0:0:0:
1,361,114513,5,10,0:2:0:0:
40,376,114591,1,8,0:2:0:0:
82,374,114669,1,8,0:2:0:0:
119,355,114747,1,8,0:2:0:0:
146,322,114825,1,10,0:2:0:0:
185,306,114903,1,8,0:2:0:0:
227,308,114981,1,8,0:2:0:0:
264,327,115059,1,8,0:2:0:0:
291,360,115138,6,0,P|359:356|384:327,1,101.999996887207,6|2,3:2|3:2,0:0:0:0:
251,126,115450,1,10,0:2:0:0:
427,201,115606,2,0,L|287:222,1,101.999996887207,2|0,3:2|0:0,0:0:0:0:
76,31,115919,2,0,L|216:52,1,101.999996887207,2|8,3:2|0:2,0:0:0:0:
74,240,116231,6,0,P|32:196|139:166,1,203.999993774414,2|0,3:2|3:2,0:0:0:0:
172,308,116700,1,10,0:2:0:0:
55,349,116856,1,2,0:2:0:0:
174,216,117013,1,0,3:2:0:0:
260,375,117169,2,0,L|277:268,1,101.999996887207,2|8,3:2|0:2,0:0:0:0:
300,123,117481,1,2,0:2:0:0:
512,187,117638,6,0,B|464:225|413:206|413:206|359:185|315:207,1,203.999993774414,2|10,3:2|0:2,0:0:0:0:
187,31,118106,2,0,L|213:137,1,101.999996887207,2|0,3:2|0:0,0:0:0:0:
74,240,118419,2,0,L|173:215,1,101.999996887207,2|8,3:2|0:2,0:0:0:0:
353,319,118731,6,0,P|378:216|350:81,1,203.999993774414,2|0,3:2|3:2,0:0:0:0:
118,106,119200,1,10,0:2:0:0:
118,106,119356,2,0,P|203:132|227:122,1,101.999996887207,2|0,0:2|3:2,0:0:0:0:
396,40,119669,2,0,P|345:37|302:63,1,101.999996887207,2|8,3:2|0:2,0:0:0:0:
201,235,119981,1,2,0:2:0:0:
416,206,120138,5,6,3:2:0:0:
211,129,120294,1,2,3:2:0:0:
261,335,120450,1,10,0:2:0:0:
322,150,120606,2,0,L|287:263,1,101.999996887207,2|0,3:2|0:0,0:0:0:0:
82,69,120919,2,0,L|117:182,1,101.999996887207,2|8,3:2|0:2,0:0:0:0:
0,374,121231,6,0,P|24:309|141:300,1,187.000005706787,2|0,3:2|3:2,0:0:0:0:
234,339,121700,1,10,0:2:0:0:
291,247,121856,2,0,P|234:230|193:239,1,93.5000028533936,0|0,0:0|3:2,0:0:0:0:
344,382,122169,2,0,P|389:374|427:347,1,93.5000028533936,2|8,3:2|0:2,0:0:0:0:
390,132,122481,6,0,P|345:194|363:310,1,187.000005706787,2|0,0:2|3:2,0:0:0:0:
455,229,122950,1,10,0:2:0:0:
262,133,123106,2,0,L|161:153,1,93.5000028533936,2|0,0:2|3:2,0:0:0:0:
93,36,123419,2,0,L|194:56,1,93.5000028533936,2|8,3:2|0:2,0:0:0:0:
210,253,123731,6,0,L|22:209,1,187.000005706787,2|0,3:2|3:2,0:0:0:0:
219,344,124200,2,0,P|262:333|298:274,1,93.5000028533936,14|0,0:2|0:0,0:0:0:0:
300,60,124513,5,10,0:2:0:0:
268,93,124591,1,8,0:2:0:0:
257,138,124669,1,8,0:2:0:0:
271,182,124747,1,8,0:2:0:0:
306,213,124825,1,10,0:2:0:0:
351,222,124903,1,8,0:2:0:0:
395,206,124981,1,8,0:2:0:0:
424,171,125059,1,8,0:2:0:0:
432,125,125138,6,0,L|444:21,1,101.999996887207,6|2,3:2|3:2,0:0:0:0:
512,218,125450,1,10,0:2:0:0:
380,318,125606,2,0,P|333:316|286:289,1,101.999996887207,2|0,3:2|0:0,0:0:0:0:
86,226,125919,2,0,P|142:221|183:201,1,101.999996887207,2|8,3:2|0:2,0:0:0:0:
47,23,126231,6,0,P|34:81|160:97,1,203.999993774414,2|0,3:2|3:2,0:0:0:0:
210,23,126700,1,10,0:2:0:0:
383,116,126856,2,0,L|358:235,1,101.999996887207,2|0,0:2|3:2,0:0:0:0:
192,316,127169,2,0,L|311:291,1,101.999996887207,2|8,3:2|0:2,0:0:0:0:
459,259,127481,1,2,0:2:0:0:
171,227,127638,6,0,P|97:305|132:387,1,203.999993774414,2|10,3:2|0:2,0:0:0:0:
267,185,128106,2,0,P|234:137|178:128,1,101.999996887207,2|0,3:2|0:0,0:0:0:0:
73,63,128419,2,0,P|131:58|166:14,1,101.999996887207,2|8,3:2|0:2,0:0:0:0:
425,51,128731,6,0,P|387:108|379:244,1,203.999993774414,2|0,3:2|3:2,0:0:0:0:
406,382,129200,1,10,0:2:0:0:
258,374,129356,2,0,L|279:265,1,101.999996887207,2|0,0:2|3:2,0:0:0:0:
487,201,129669,2,0,L|508:310,1,101.999996887207,2|8,3:2|0:2,0:0:0:0:
292,186,129981,1,2,0:2:0:0:
471,105,130138,6,0,B|400:88|400:88|351:101|351:101|256:80,1,203.999993774414,6|10,3:2|0:2,0:0:0:0:
52,0,130606,1,2,3:2:0:0:
162,179,130763,1,0,0:0:0:0:
143,15,130919,1,2,3:2:0:0:
74,157,131075,1,8,0:2:0:0:
192,307,131231,6,0,P|254:216|351:213,1,203.999993774414,2|0,3:2|3:2,0:0:0:0:
435,160,131700,1,10,0:2:0:0:
388,340,131856,2,0,P|348:308|298:300,1,101.999996887207,2|0,0:2|3:2,0:0:0:0:
512,216,132169,2,0,P|472:247|422:255,1,101.999996887207,2|8,3:2|0:2,0:0:0:0:
360,34,132481,6,0,P|410:43|428:168,1,187.000005706787,2|0,3:2|3:2,0:0:0:0:
265,101,132950,1,10,0:2:0:0:
265,101,133106,2,0,L|368:120,1,93.5000028533936,2|0,0:2|3:2,0:0:0:0:
92,179,133419,2,0,L|-11:198,1,93.5000028533936,2|8,3:2|0:2,0:0:0:0:
170,231,133731,6,0,B|223:137|130:137|177:43,1,187.000005706787,2|0,3:2|3:2,0:0:0:0:
512,200,134200,1,14,0:2:0:0:
512,200,134513,5,10,0:2:0:0:
485,226,134591,1,8,0:2:0:0:
461,255,134669,1,8,0:2:0:0:
439,285,134747,1,8,0:2:0:0:
419,317,134825,1,6,3:2:0:0:
419,68,135138,6,0,P|387:129|358:213,1,152.999995330811,10|0,0:2|0:0,0:0:0:0:
359,207,135450,1,0,3:2:0:0:
497,39,135606,1,0,3:2:0:0:
275,66,135763,6,0,P|260:133|253:221,1,152.999995330811,10|0,0:2|0:0,0:0:0:0:
254,217,136075,1,0,3:2:0:0:
344,19,136231,1,0,3:2:0:0:
137,103,136388,6,0,P|140:171|157:259,1,152.999995330811,10|0,0:2|0:0,0:0:0:0:
155,253,136700,1,0,3:2:0:0:
190,39,136856,1,0,3:2:0:0:
12,173,137013,6,0,P|32:238|71:318,1,152.999995330811,10|0,0:2|0:0,0:0:0:0:
68,313,137325,1,8,0:2:0:0:
494,255,137638,6,0,P|431:192|347:217,1,170,14|0,0:2|0:0,0:0:0:0:
305,290,138106,2,0,L|325:107,1,170,8|0,3:3|0:0,0:0:0:0:
291,35,138575,2,0,L|305:124,1,85,8|0,3:2|3:2,0:0:0:0:
179,220,138888,5,2,3:2:0:0:
420,173,139044,1,0,3:2:0:0:
219,137,139200,1,6,3:2:0:0:
208,129,139513,5,0,3:2:0:0:
258,281,139669,1,0,3:2:0:0:
331,207,139825,1,0,3:2:0:0:
302,370,139981,1,0,3:2:0:0:
509,339,140138,6,0,P|445:288|365:297,1,165.749992412568,6|0,3:2|3:2,0:0:0:0:
470,260,140763,1,10,0:2:0:0:
108,135,141700,6,0,P|129:157|142:227,1,95.6250036478044,0|0,3:2|0:0,0:0:0:0:
143,219,142013,1,10,0:2:0:0:
27,332,142638,5,2,3:2:0:0:
27,332,142795,2,0,P|83:310|160:313,1,127.500004863739,2|2,0:2|3:2,0:0:0:0:
278,360,143267,1,10,0:2:0:0:
470,260,143581,6,0,P|497:200|470:73,1,191.250007295609,2|2,0:2|0:2,0:0:0:0:
405,28,144214,2,0,L|338:15,1,63.7500024318696,0|0,3:2|0:0,0:0:0:0:
235,55,144543,1,10,0:2:0:0:
392,172,145138,5,6,3:2:0:0:
392,172,145295,2,0,P|343:146|266:134,1,127.500004863739,2|0,3:2|3:2,0:0:0:0:
153,182,145768,1,10,0:2:0:0:
36,78,146084,6,0,P|48:123|55:284,1,191.250007295609,2|2,0:2|0:2,0:0:0:0:
111,350,146715,2,0,P|129:317|159:288,1,63.7500024318696,2|0,3:2|0:0,0:0:0:0:
238,234,147039,1,10,0:2:0:0:
422,290,147660,5,2,3:2:0:0:
388,363,147810,2,0,L|373:222,1,127.500004863739,2|0,0:2|3:2,0:0:0:0:
407,155,148263,2,0,P|371:147|332:159,1,63.7500024318696,10|0,0:2|0:0,0:0:0:0:
238,234,148575,6,0,L|277:35,1,191.250007295609,2|0,0:2|0:0,0:0:0:0:
199,8,149200,1,10,3:3:0:0:
362,142,149529,1,10,3:3:0:0:
238,234,149825,1,10,3:3:0:0:
292,325,150123,5,2,3:2:0:0:
292,325,150312,2,0,P|252:314|170:350,1,127.500004863739,2|0,3:2|3:2,0:0:0:0:
85,240,150773,2,0,P|125:243|151:259,1,63.7500024318696,10|0,0:2|0:0,0:0:0:0:
59,350,151081,6,0,L|33:151,1,191.250007295609,2|2,0:2|0:2,0:0:0:0:
129,71,151712,2,0,L|118:133,1,63.7500024318696,2|0,3:2|0:0,0:0:0:0:
57,22,152041,1,10,0:2:0:0:
238,234,152638,5,0,3:2:0:0:
238,234,152786,2,0,P|307:231|364:199,1,127.500004863739,2|0,0:2|3:2,0:0:0:0:
420,130,153232,2,0,P|375:121|347:97,1,63.7500024318696,10|0,0:2|0:0,0:0:0:0:
471,56,153575,6,0,L|454:268,1,191.250007295609,2|2,0:2|0:2,0:0:0:0:
396,355,154200,2,0,L|381:289,1,63.7500024318696,2|0,3:2|0:0,0:0:0:0:
310,384,154529,1,10,0:2:0:0:
64,225,155138,5,2,3:2:0:0:
64,225,155294,2,0,P|46:165|74:92,1,127.500004863739,2|0,3:2|3:2,0:0:0:0:
149,8,155763,2,0,L|137:76,1,63.7500024318696,10|0,0:2|0:0,0:0:0:0:
130,163,156075,2,0,P|209:137|322:129,1,191.250007295609,2|2,0:2|0:2,0:0:0:0:
423,216,156700,2,0,P|384:206|361:194,1,63.7500024318696,2|0,3:2|0:0,0:0:0:0:
250,37,157037,1,10,0:2:0:0:
125,303,157615,5,0,3:2:0:0:
125,303,157917,2,0,L|99:376,1,63.7500024318696,2|2,0:2|3:2,0:0:0:0:
71,227,158273,5,8,0:2:0:0:
71,227,158595,2,0,L|140:214,1,63.7500024318696,12|2,0:2|0:2,0:0:0:0:
248,89,158888,5,2,3:3:0:0:
162,93,159044,2,0,P|177:138|254:172,1,127.500004863739,2|2,3:3|3:3,0:0:0:0:
487,97,159513,5,2,3:3:0:0:
331,122,159669,1,2,3:3:0:0:
456,12,159825,1,2,3:3:0:0:
419,154,159981,1,2,3:3:0:0:
253,74,160138,5,6,3:2:0:0:
399,74,160294,1,0,0:2:0:0:
168,93,160450,1,0,3:2:0:0:
331,122,160606,1,0,3:2:0:0:
98,143,160763,1,10,0:2:0:0:
98,143,161075,5,0,3:2:0:0:
145,331,161231,1,0,3:2:0:0:
163,188,161388,1,0,3:2:0:0:
79,283,161544,1,0,3:2:0:0:
236,233,161700,1,0,3:2:0:0:
8,237,161856,1,0,3:2:0:0:
238,321,162013,1,10,0:2:0:0:
238,321,162325,6,0,L|354:305,1,95.6250036478044,6|0,0:2|0:0,0:0:0:0:
332,307,162638,5,2,3:2:0:0:
512,332,162794,1,0,3:2:0:0:
289,228,162950,1,0,3:2:0:0:
431,293,163106,1,0,3:2:0:0:
280,143,163263,1,10,0:2:0:0:
280,143,163575,5,0,3:2:0:0:
410,1,163731,1,0,3:2:0:0:
360,127,163888,1,0,3:2:0:0:
326,17,164044,1,0,3:2:0:0:
446,117,164200,1,0,3:2:0:0:
240,35,164356,1,0,3:2:0:0:
488,46,164513,1,10,0:2:0:0:
488,46,164825,5,0,3:2:0:0:
445,202,164981,1,0,3:2:0:0:
360,127,165138,1,6,3:2:0:0:
453,305,165294,1,0,3:2:0:0:
316,211,165450,1,0,3:2:0:0:
368,285,165606,1,0,3:2:0:0:
189,333,165763,1,10,0:2:0:0:
189,333,166075,5,0,3:2:0:0:
21,292,166231,1,0,3:2:0:0:
151,258,166388,1,0,3:2:0:0:
116,381,166544,1,0,3:2:0:0:
73,223,166700,1,0,3:2:0:0:
233,195,166856,1,0,3:2:0:0:
12,147,167013,1,10,0:2:0:0:
12,147,167325,6,0,L|118:127,1,95.6250036478044,6|0,0:2|0:0,0:0:0:0:
105,129,167638,5,2,3:2:0:0:
303,47,167794,1,0,3:2:0:0:
374,128,167950,1,0,3:2:0:0:
200,75,168106,1,0,3:2:0:0:
407,16,168263,1,10,0:2:0:0:
407,16,168575,5,0,3:2:0:0:
282,135,168731,1,0,3:2:0:0:
432,230,168888,1,0,3:2:0:0:
374,128,169044,1,0,3:2:0:0:
307,287,169200,2,0,L|184:272,1,95.6250036478044,6|0,3:2|0:0,0:0:0:0:
212,275,169513,5,0,3:2:0:0:
167,352,169669,1,0,3:2:0:0:
83,199,169825,1,0,3:2:0:0:
128,276,169981,1,0,3:2:0:0:
202,142,170138,5,6,3:2:0:0:
39,279,170294,1,0,3:2:0:0:
260,202,170450,1,0,3:2:0:0:
16,147,170606,1,0,3:2:0:0:
258,70,170763,1,10,0:2:0:0:
258,70,171075,5,0,3:2:0:0:
71,29,171231,1,0,3:2:0:0:
328,142,171388,1,0,3:2:0:0:
117,102,171544,1,0,3:2:0:0:
387,218,171700,1,0,3:2:0:0:
167,177,171856,1,0,3:2:0:0:
421,133,172013,1,10,0:2:0:0:
421,133,172325,6,0,P|435:93|417:37,1,95.6250036478044,6|0,0:2|0:0,0:0:0:0:
421,43,172638,5,2,3:2:0:0:
306,222,172794,1,0,3:2:0:0:
320,7,172950,1,0,3:2:0:0:
342,122,173106,1,0,3:2:0:0:
211,11,173263,1,10,0:2:0:0:
211,11,173575,5,0,3:2:0:0:
306,222,173731,1,0,3:2:0:0:
120,96,173888,1,0,3:2:0:0:
238,157,174044,1,0,3:2:0:0:
59,233,174200,1,0,3:2:0:0:
141,188,174356,1,0,3:2:0:0:
99,354,174513,1,10,0:2:0:0:
99,354,174825,5,0,3:2:0:0:
278,304,174981,1,0,3:2:0:0:
162,290,175138,1,6,3:2:0:0:
361,342,175294,1,0,3:2:0:0:
229,234,175450,1,0,3:2:0:0:
295,384,175606,1,0,3:2:0:0:
326,174,175763,1,10,0:2:0:0:
326,174,176075,5,0,3:2:0:0:
149,206,176231,1,0,3:2:0:0:
271,66,176388,1,0,3:2:0:0:
245,149,176544,1,2,3:2:0:0:
193,28,176700,1,2,3:2:0:0:
364,50,176856,1,2,3:2:0:0:
164,110,177013,1,10,0:2:0:0:
164,110,177325,6,0,P|114:98|66:95,1,95.6250036478044,6|0,0:2|0:0,0:0:0:0:
70,94,177638,5,8,3:3:0:0:
400,183,177950,1,8,3:3:0:0:
105,261,178263,1,8,3:3:0:0:
417,325,178575,1,8,3:3:0:0:
417,325,178888,5,10,0:2:0:0:
218,230,179044,1,8,0:2:0:0:
454,244,179200,1,8,0:2:0:0:
264,300,179356,1,10,0:2:0:0:
485,165,179513,1,10,0:2:0:0:
214,147,179669,1,8,0:2:0:0:
512,91,179825,1,10,0:2:0:0:
289,44,179981,5,8,0:2:0:0:
289,44,180059,1,8,0:0:0:0:
289,44,180138,2,0,L|307:206,1,146.62500279665,6|0,3:2|0:0,0:0:0:0:
381,51,180450,2,0,L|399:213,1,146.62500279665,0|0,3:2|0:0,0:0:0:0:
420,351,180763,1,8,0:2:0:0:
420,351,181075,2,0,L|314:334,1,97.7500018644333,0|0,3:2|0:0,0:0:0:0:
84,350,181388,5,0,3:2:0:0:
285,259,181544,1,8,0:2:0:0:
50,244,181700,1,0,3:2:0:0:
50,244,182013,6,0,P|29:203|37:138,1,80.7499978437424,8|0,0:2|0:0,0:0:0:0:
58,47,182325,2,0,P|90:82|136:98,1,80.7499978437424,0|0,3:2|0:0,0:0:0:0:
346,38,182638,6,0,P|270:36|202:59,1,146.62500279665,2|0,3:2|0:0,0:0:0:0:
406,153,182950,2,0,P|337:125|263:127,1,146.62500279665,0|0,3:2|0:0,0:0:0:0:
121,183,183263,1,8,0:2:0:0:
121,183,183575,2,0,P|143:227|197:263,1,97.7500018644333,0|0,3:2|0:0,0:0:0:0:
378,280,183888,5,2,3:2:0:0:
194,341,184044,1,8,0:2:0:0:
455,350,184200,2,0,P|481:302|470:219,1,97.7500018644333,0|0,3:2|0:0,0:0:0:0:
386,110,184513,2,0,P|390:158|414:200,1,97.7500018644333,10|0,0:2|0:0,0:0:0:0:
492,57,184825,2,0,L|484:105,2,48.8750009322167,8|8|8,0:2|0:2|0:2,0:0:0:0:
301,203,185138,6,0,L|279:48,1,146.62500279665,6|0,3:2|0:0,0:0:0:0:
207,240,185450,2,0,L|185:85,1,146.62500279665,0|0,3:2|0:0,0:0:0:0:
107,276,185763,1,8,0:2:0:0:
107,276,186075,2,0,L|87:375,1,97.7500018644333,0|0,3:2|0:0,0:0:0:0:
38,214,186388,5,0,3:2:0:0:
184,323,186544,1,8,0:2:0:0:
301,203,186700,2,0,P|348:191|397:190,1,97.7500018644333,0|0,3:2|0:0,0:0:0:0:
463,345,187013,1,8,0:2:0:0:
463,345,187325,2,0,L|481:228,1,97.7500018644333,0|0,3:2|0:0,0:0:0:0:
498,65,187638,6,0,P|451:101|353:90,1,146.62500279665,6|0,3:2|0:0,0:0:0:0:
327,0,187950,2,0,P|290:46|193:61,1,146.62500279665,0|0,3:2|0:0,0:0:0:0:
68,0,188263,1,8,0:2:0:0:
68,0,188575,2,0,P|45:39|45:92,1,97.7500018644333,0|0,3:2|0:0,0:0:0:0:
236,150,188888,5,2,3:2:0:0:
126,59,189044,1,8,0:2:0:0:
51,246,189200,1,0,3:2:0:0:
51,246,189513,2,0,L|152:236,1,80.7499978437424,8|0,0:2|0:0,0:0:0:0:
397,248,189825,5,8,0:2:0:0:
148,158,189981,1,8,0:2:0:0:
220,295,190138,6,0,L|239:119,1,146.62500279665,6|0,3:2|0:0,0:0:0:0:
305,316,190450,2,0,L|324:140,1,146.62500279665,0|0,3:2|0:0,0:0:0:0:
338,16,190763,1,8,0:2:0:0:
338,16,191075,2,0,P|395:15|440:40,1,97.7500018644333,0|0,3:2|0:0,0:0:0:0:
512,158,191388,5,0,3:2:0:0:
368,97,191544,1,8,0:2:0:0:
409,286,191700,2,0,L|419:185,1,97.7500018644333,0|0,3:2|0:0,0:0:0:0:
242,62,192013,1,8,0:2:0:0:
242,62,192325,2,0,P|194:68|160:102,1,97.7500018644333,0|0,3:2|0:0,0:0:0:0:
56,207,192638,6,0,P|135:204|208:253,1,146.62500279665,6|0,3:2|0:0,0:0:0:0:
207,359,192950,2,0,P|260:301|347:284,1,146.62500279665,0|0,3:2|0:0,0:0:0:0:
467,357,193263,1,8,0:2:0:0:
467,357,193575,2,0,P|489:304|480:261,1,97.7500018644333,0|0,3:2|0:0,0:0:0:0:
309,113,193888,5,2,3:2:0:0:
400,234,194044,1,8,0:2:0:0:
503,68,194200,2,0,L|403:56,1,97.7500018644333,0|0,3:2|0:0,0:0:0:0:
195,27,194513,1,8,0:2:0:0:
195,27,194825,5,8,0:2:0:0:
170,50,194903,1,8,0:2:0:0:
158,82,194981,1,8,0:2:0:0:
158,116,195059,1,8,0:2:0:0:
173,147,195138,5,6,3:2:0:0:
300,192,195294,1,0,3:2:0:0:
219,309,195450,2,0,L|202:197,1,80.7499978437424,10|0,0:2|0:0,0:0:0:0:
206,229,195684,5,8,0:2:0:0:
206,229,195763,1,0,3:2:0:0:
33,314,195919,1,0,3:2:0:0:
118,369,196075,2,0,L|130:289,1,80.7499978437424,10|0,0:2|0:0,0:0:0:0:
130,289,196309,5,0,3:0:0:0:
130,289,196388,1,6,3:2:0:0:
374,335,196544,1,0,3:2:0:0:
300,192,196700,2,0,L|312:271,1,80.7499978437424,10|0,0:2|0:0,0:0:0:0:
312,271,196934,5,0,3:0:0:0:
312,271,197013,1,2,3:2:0:0:
62,222,197169,1,0,3:2:0:0:
159,104,197325,2,0,L|146:183,1,80.7499978437424,10|0,0:2|0:0,0:0:0:0:
146,183,197559,5,0,3:0:0:0:
146,183,197638,1,6,3:2:0:0:
405,121,197794,1,0,3:2:0:0:
236,64,197950,2,0,P|288:92|326:91,1,80.7499978437424,10|0,0:2|0:0,0:0:0:0:
308,93,198184,5,0,3:0:0:0:
308,93,198263,1,0,3:2:0:0:
60,32,198419,1,0,3:2:0:0:
159,104,198575,2,0,P|119:110|86:133,1,80.7499978437424,10|0,0:2|0:0,0:0:0:0:
86,133,198809,5,0,3:0:0:0:
86,133,198888,1,8,0:2:0:0:
159,338,199044,1,8,0:2:0:0:
282,164,199200,1,8,0:2:0:0:
20,256,199356,1,8,0:2:0:0:
305,352,199513,1,10,0:2:0:0:
340,349,199591,1,8,0:2:0:0:
375,337,199669,1,8,0:2:0:0:
405,315,199747,1,8,0:2:0:0:
428,286,199825,1,10,0:2:0:0:
443,252,199903,1,8,0:2:0:0:
446,216,199981,1,8,0:2:0:0:
441,179,200059,1,8,0:2:0:0:
425,146,200138,6,0,L|260:166,1,144.500002756119,6|0,3:2|3:2,0:0:0:0:
327,62,200606,2,0,L|183:44,1,144.500002756119,2|0,0:2|0:0,0:0:0:0:
113,151,201075,2,0,L|194:138,1,72.2500013780594,2|0,3:2|0:0,0:0:0:0:
182,384,201388,6,0,P|131:310|134:241,1,144.500002756119,6|0,3:2|3:2,0:0:0:0:
282,164,201856,2,0,P|236:219|229:290,1,144.500002756119,2|0,0:2|0:0,0:0:0:0:
357,339,202325,2,0,P|332:295|327:262,1,72.2500013780594,2|0,3:2|0:0,0:0:0:0:
396,55,202638,6,0,L|365:202,1,144.500002756119,6|0,3:2|3:2,0:0:0:0:
252,22,203106,2,0,L|283:169,1,144.500002756119,2|0,0:2|0:0,0:0:0:0:
137,2,203575,2,0,L|120:82,1,72.2500013780594,2|0,3:2|0:0,0:0:0:0:
39,233,203888,6,0,P|75:176|159:168,1,144.500002756119,6|0,3:2|3:2,0:0:0:0:
234,320,204356,2,0,P|164:309|126:250,1,144.500002756119,2|0,0:2|0:0,0:0:0:0:
265,159,204825,2,0,P|241:210|213:227,1,72.2500013780594,2|0,3:2|0:0,0:0:0:0:
35,83,205138,6,0,L|127:70,1,85,6|0,3:2|0:0,0:0:0:0:
408,156,205450,1,0,3:2:0:0:
175,143,205606,1,0,3:2:0:0:
474,98,205763,1,0,3:2:0:0:
229,218,205919,1,0,3:2:0:0:
469,275,206075,1,0,3:2:0:0:
186,293,206231,1,0,3:2:0:0:
484,192,206388,5,0,3:2:0:0:
246,352,206544,1,0,3:2:0:0:
208,65,206700,1,0,3:2:0:0:
417,353,206856,1,0,3:2:0:0:
132,218,207013,5,10,0:2:0:0:
441,114,207169,1,8,0:2:0:0:
114,226,207325,5,10,0:2:0:0:
469,275,207481,1,8,0:2:0:0:
96,237,207638,6,0,P|56:186|60:136,1,101.999996887207,6|0,3:2|0:0,0:0:0:0:
244,2,207950,1,10,0:2:0:0:
290,15,208028,1,8,0:2:0:0:
319,56,208106,1,8,0:2:0:0:
318,105,208184,1,8,0:2:0:0:
288,143,208263,1,10,0:2:0:0:
243,164,208341,1,8,0:2:0:0:
211,203,208419,1,8,0:2:0:0:
199,251,208497,1,8,0:2:0:0:
211,299,208575,1,10,0:2:0:0:
244,338,208653,1,8,0:2:0:0:
289,357,208731,1,8,0:2:0:0:
339,355,208809,1,8,0:2:0:0:
383,331,208888,5,10,0:2:0:0:
337,309,208966,1,8,0:2:0:0:
287,307,209044,1,8,0:2:0:0:
240,324,209122,1,8,0:2:0:0:
203,357,209200,1,10,0:2:0:0:
158,378,209278,1,8,0:2:0:0:
107,380,209356,1,8,0:2:0:0:
60,363,209434,1,8,0:2:0:0:
24,330,209513,5,10,0:2:0:0:
83,328,209591,1,10,0:2:0:0:
134,296,209669,1,10,0:2:0:0:
164,245,209747,1,10,0:2:0:0:
164,185,209825,2,0,L|138:33,1,152.999995330811,6|0,3:2|0:0,0:0:0:0:
138,34,210138,6,0,L|113:86,1,50.9999984436036,0|0,3:2|0:0,0:0:0:0:
62,215,210294,5,8,3:2:0:0:
403,141,210450,1,8,3:3:0:0:
413,156,210763,5,8,3:3:0:0:
21,75,210919,1,8,3:3:0:0:
16,92,211231,6,0,P|77:72|172:62,1,152.999995330811,14|0,0:2|0:0,0:0:0:0:
240,84,211544,5,8,3:3:0:0:
143,337,211700,1,8,0:2:0:0:
137,351,212013,5,10,0:2:0:0:
177,343,212091,1,8,0:2:0:0:
217,336,212169,1,8,0:2:0:0:
257,329,212247,1,8,0:2:0:0:
300,339,212325,5,10,0:2:0:0:
346,319,212403,1,8,0:2:0:0:
375,278,212481,1,8,0:2:0:0:
376,228,212559,1,8,0:2:0:0:
350,185,212638,6,0,L|341:104,1,63.7500024318696,6|2,3:2|0:2,0:0:0:0:
244,27,212950,1,2,3:2:0:0:
244,27,213106,2,0,L|226:101,1,63.7500024318696,2|0,0:2|3:2,0:0:0:0:
117,159,213419,2,0,L|95:25,1,127.500004863739,2|0,3:2|0:0,0:0:0:0:
208,173,213888,6,0,P|148:193|111:249,1,127.500004863739,0|2,3:2|3:2,0:0:0:0:
83,338,214356,1,0,3:2:0:0:
208,259,214513,5,2,3:2:0:0:
172,335,214669,1,2,3:2:0:0:
292,255,214825,1,0,3:2:0:0:
256,332,214981,1,2,3:2:0:0:
243,177,215138,6,0,P|300:159|331:167,1,63.7500024318696,6|0,3:2|0:0,0:0:0:0:
452,226,215450,1,2,3:2:0:0:
452,226,215606,2,0,L|473:149,1,63.7500024318696,2|0,3:2|3:2,0:0:0:0:
353,16,215919,2,0,L|387:147,1,127.500004863739,2|2,3:2|3:2,0:0:0:0:
459,34,216388,5,8,0:2:0:0:
275,84,216544,1,8,0:2:0:0:
135,13,216700,2,0,L|197:26,1,63.7500024318696,6|2,3:2|0:2,0:0:0:0:
44,132,217013,5,0,3:2:0:0:
150,106,217169,1,2,3:2:0:0:
215,218,217325,1,0,3:2:0:0:
111,187,217481,1,0,3:2:0:0:
127,384,217638,6,0,P|151:343|132:257,1,127.500004863739,6|2,3:2|3:2,0:0:0:0:
65,318,218106,1,2,0:2:0:0:
192,321,218263,2,0,L|272:303,1,63.7500024318696,0|2,3:2|0:2,0:0:0:0:
385,366,218575,2,0,L|305:348,1,63.7500024318696,0|2,3:2|0:2,0:0:0:0:
428,251,218888,6,0,P|409:301|455:387,1,152.999995330811,6|0,3:2|3:2,0:0:0:0:
494,305,219356,1,2,0:2:0:0:
335,254,219513,1,0,3:2:0:0:
482,179,219669,2,0,P|498:143|493:100,2,76.4999976654053,2|0|0,0:2|3:2|0:0,0:0:0:0:
245,266,220138,5,14,0:2:0:0:
225,50,220294,1,0,3:2:0:0:
406,131,220450,1,0,3:2:0:0:
184,325,220606,5,10,0:2:0:0:
154,105,220763,1,0,3:2:0:0:
350,205,220919,1,0,3:2:0:0:
115,378,221075,5,10,0:2:0:0:
417,262,221231,1,0,3:2:0:0:
138,206,221388,1,0,3:2:0:0:
458,345,221544,5,10,0:2:0:0:
162,288,221700,1,0,3:2:0:0:
486,181,221856,1,0,3:2:0:0:
161,81,222013,5,8,3:3:0:0:
148,116,222091,1,8,3:3:0:0:
152,154,222169,1,8,3:3:0:0:
171,187,222247,1,8,3:3:0:0:
203,207,222325,1,4,3:3:0:0:
235,227,222403,1,4,3:3:0:0:
254,260,222481,1,4,3:3:0:0:
258,298,222559,1,4,3:3:0:0:
245,333,222638,6,0,P|204:369|158:376,1,76.4999976654053,6|0,3:2|0:0,0:0:0:0:
90,268,222950,2,0,P|127:286|169:286,1,76.4999976654053,0|2,3:2|0:2,0:0:0:0:
333,200,223263,2,0,P|387:203|424:231,1,76.4999976654053,0|2,3:2|0:2,0:0:0:0:
390,350,223575,2,0,P|376:310|346:280,1,76.4999976654053,0|2,3:2|0:2,0:0:0:0:
142,193,223888,6,0,L|-10:162,1,136,2|2,3:2|3:2,0:0:0:0:
57,90,224356,2,0,L|131:105,1,68,2|0,0:2|3:2,0:0:0:0:
90,268,224669,2,0,L|23:254,1,68,2|0,0:2|3:2,0:0:0:0:
8,166,224981,1,2,0:2:0:0:
151,338,225138,6,0,P|203:331|257:262,1,136,6|2,3:2|3:2,0:0:0:0:
356,224,225606,2,0,P|318:206|291:161,1,68,2|0,0:2|3:2,0:0:0:0:
225,122,225919,2,0,P|263:104|290:59,1,68,2|0,0:2|3:2,0:0:0:0:
207,41,226231,1,2,0:2:0:0:
391,2,226388,6,0,L|374:144,1,136,6|0,3:2|3:2,0:0:0:0:
512,216,226856,2,0,L|495:80,1,136,2|0,0:2|0:0,0:0:0:0:
416,219,227325,2,0,L|398:325,1,102,2|0,3:2|0:0,0:0:0:0:
398,319,227638,6,0,P|358:293|282:284,1,85,6|0,3:2|0:0,0:0:0:0:
197,353,227950,5,8,3:3:0:0:
327,369,228106,1,8,3:3:0:0:
150,280,228263,5,8,3:3:0:0:
322,283,228419,1,8,3:3:0:0:
86,219,228575,5,8,3:3:0:0:
341,197,228731,1,8,3:3:0:0:
10,178,228888,5,10,3:3:0:0:
387,125,229044,1,8,3:3:0:0:
25,285,229200,5,10,2:2:0:0:
329,61,229356,1,8,2:2:0:0:
91,348,229513,5,10,2:2:0:0:
255,19,229669,1,8,2:2:0:0:
180,371,229825,5,10,2:2:0:0:
174,0,229981,1,8,2:2:0:0:
280,373,230138,6,0,P|308:332|301:277,1,93.5000028533936,6|0,3:2|0:0,0:0:0:0:
143,79,230450,5,10,0:2:0:0:
96,84,230528,1,8,0:2:0:0:
61,114,230606,1,8,0:2:0:0:
44,157,230684,1,8,0:2:0:0:
52,202,230762,1,10,0:2:0:0:
82,238,230840,1,8,0:2:0:0:
125,253,230918,1,8,0:2:0:0:
171,244,230996,1,8,0:2:0:0:
206,214,231075,1,10,0:2:0:0:
245,190,231153,1,8,0:2:0:0:
292,186,231231,1,8,0:2:0:0:
335,202,231309,1,10,0:2:0:0:
369,235,231388,5,10,0:2:0:0:
327,257,231466,1,10,0:2:0:0:
280,264,231544,1,10,0:2:0:0:
236,248,231622,1,10,0:2:0:0:
206,214,231700,1,10,0:2:0:0:
186,172,231778,1,10,0:2:0:0:
189,128,231856,1,10,0:2:0:0:
213,88,231934,1,10,0:2:0:0:
251,60,232013,1,10,0:2:0:0:
294,52,232091,1,10,0:2:0:0:
339,64,232169,1,10,0:2:0:0:
373,95,232247,1,10,0:2:0:0:
391,140,232325,5,10,3:3:0:0:
441,136,232403,1,10,3:3:0:0:
482,107,232481,1,10,3:3:0:0:
503,61,232559,1,10,3:3:0:0:
498,12,232638,6,0,L|413:23,1,85,6|0,3:2|0:0,0:0:0:0:
277,169,232950,1,8,0:2:0:0:
203,77,233106,2,0,L|391:97,1,170,2|0,3:2|3:2,0:0:0:0:
133,2,233575,2,0,P|104:41|101:82,1,85,10|0,0:2|0:0,0:0:0:0:
166,249,233888,6,0,L|183:163,1,85,2|0,3:2|3:2,0:0:0:0:
277,169,234200,1,8,0:2:0:0:
219,329,234356,2,0,P|188:346|76:287,1,170,2|0,3:2|3:2,0:0:0:0:
258,251,234825,2,0,L|344:268,1,85,10|0,0:2|0:0,0:0:0:0:
512,258,235138,5,2,3:2:0:0:
492,355,235294,1,0,0:0:0:0:
350,180,235450,1,8,0:2:0:0:
403,376,235606,2,0,L|436:207,1,170,2|0,3:2|3:2,0:0:0:0:
334,96,236075,2,0,L|353:201,1,85,10|0,0:2|0:0,0:0:0:0:
426,91,236388,5,2,3:2:0:0:
253,67,236544,1,0,3:2:0:0:
451,0,236700,1,8,0:2:0:0:
242,164,236856,2,0,P|173:124|163:31,1,170,2|0,3:2|3:2,0:0:0:0:
53,135,237325,2,0,P|64:175|90:208,1,85,10|0,0:2|0:0,0:0:0:0:
94,358,237638,6,0,B|141:324|184:339|184:339|227:354|277:323,1,170,6|8,3:2|0:2,0:0:0:0:
265,239,238106,2,0,B|322:248|342:289|342:289|361:330|419:343,1,170,2|0,3:2|3:2,0:0:0:0:
507,238,238575,2,0,P|464:235|416:251,1,85,8|0,0:2|0:0,0:0:0:0:
333,102,238888,6,0,L|417:128,1,85,2|0,3:2|3:2,0:0:0:0:
255,153,239200,1,10,0:2:0:0:
223,44,239356,1,0,3:2:0:0:
178,209,239513,2,0,L|94:235,1,85,2|0,0:2|3:2,0:0:0:0:
18,112,239825,2,0,L|99:137,1,85,14|0,0:2|0:0,0:0:0:0:
187,308,240138,5,10,3:2:0:0:
255,153,240294,1,0,3:2:0:0:
343,342,240450,1,0,3:2:0:0:
96,354,240606,5,10,0:2:0:0:
192,216,240763,1,0,3:2:0:0:
268,384,240919,1,0,3:2:0:0:
97,263,241075,5,10,0:2:0:0:
323,216,241231,1,0,3:2:0:0:
102,181,241388,1,0,3:2:0:0:
339,131,241544,5,10,0:2:0:0:
192,216,241700,1,0,3:2:0:0:
423,259,241856,1,0,3:2:0:0:
154,324,242013,5,10,0:2:0:0:
119,299,242091,1,8,0:2:0:0:
97,263,242169,1,8,0:2:0:0:
91,222,242247,1,8,0:2:0:0:
102,181,242325,1,10,0:2:0:0:
129,148,242403,1,8,0:2:0:0:
166,129,242481,1,8,0:2:0:0:
209,126,242559,1,8,0:2:0:0:
248,141,242633,6,0,L|276:337,1,191.250007295609,2|0,0:2|0:0,0:0:0:0:
367,307,243278,2,0,L|358:381,1,63.7500024318696,2|0,0:2|0:0,0:0:0:0:
412,217,243600,6,0,P|368:221|346:212,1,63.7500024318696,2|2,0:2|0:2,0:0:0:0:
475,148,243952,2,0,P|493:171|499:264,1,110.499994941712,2|2,0:2|0:2,0:0:0:0:
391,140,244425,2,0,L|378:22,1,110.499994941712,2|0,0:2|0:0,0:0:0:0:
236,81,244899,6,0,L|300:93,1,63.7500024318696,2|2,0:2|0:2,0:0:0:0:
68,200,245232,2,0,L|269:174,1,178.499994552612,2|0,0:2|0:0,0:0:0:0:
326,210,245863,2,0,P|312:238|288:258,1,63.7500024318696,2|0,0:2|0:0,0:0:0:0:
268,342,246201,2,0,P|300:345|330:335,1,63.7500024318696,2|2,0:2|0:2,0:0:0:0:
461,241,246540,6,0,B|477:201|477:201|476:176|476:176|519:116|493:52,1,191.250007295609,2|0,0:2|0:0,0:0:0:0:
385,39,247218,6,0,P|390:71|401:100,1,63.7500024318696,2|0,0:2|0:0,0:0:0:0:
285,134,247570,2,0,P|294:106|301:72,1,63.7500024318696,2|2,0:2|0:2,0:0:0:0:
190,98,247923,2,0,P|205:162|232:298,1,191.250007295609,2|0,0:2|0:0,0:0:0:0:
175,352,248629,6,0,P|146:340|105:335,1,63.7500024318696,2|0,0:2|0:0,0:0:0:0:
48,286,248978,2,0,P|30:324|33:354,1,63.7500024318696,2|2,0:2|0:2,0:0:0:0:
133,251,249341,2,0,P|109:217|22:199,1,127.500004863739,2|2,0:2|0:2,0:0:0:0:
29,197,250092,6,0,L|15:123,1,63.7500024318696,2|0,0:2|0:0,0:0:0:0:
113,59,250486,2,0,L|98:143,1,59.4999981842042,2|2,0:2|0:2,0:0:0:0:
168,185,250876,1,2,0:2:0:0:
168,185,250983,1,2,0:2:0:0:
168,185,251090,2,0,P|238:134|339:174,1,191.250007295609,2|2,0:2|0:2,0:0:0:0:
256,192,251840,12,0,256447,0:0:0:0:
