osu file format v14

[General]
AudioFilename: audio.mp3
AudioLeadIn: 0
PreviewTime: 178751
Countdown: 0
SampleSet: Soft
StackLeniency: 0.6
Mode: 0
LetterboxInBreaks: 0
WidescreenStoryboard: 1

[Editor]
Bookmarks: 30138,60138,90138,115138,140138,180138,200138,232638,242633
DistanceSpacing: 0.5
BeatDivisor: 2
GridSize: 4
TimelineZoom: 7.399995

[Metadata]
Title:Flower
TitleUnicode:Flower
Artist:THE ORAL CIGARETTES
ArtistUnicode:THE ORAL CIGARETTES
Creator:Nevo
Version:Collab Extra
Source:
Tags:japanese rock jrock j-rock fuju wanpachi cycopton Froskya killian reflection remake remastered 2023 2024 toc koldnoodl cjstmdals gorou yogurtt
BeatmapID:4558870
BeatmapSetID:2095787

[Difficulty]
HPDrainRate:6
CircleSize:4
OverallDifficulty:8.5
ApproachRate:9
SliderMultiplier:1.62
SliderTickRate:1

[Events]
//Background and Video events
0,0,"BG.jpg",0,0
//Break Periods
2,100338,101413
//Storyboard Layer 0 (Background)
//Storyboard Layer 1 (Fail)
//Storyboard Layer 2 (Pass)
//Storyboard Layer 3 (Foreground)
//Storyboard Layer 4 (Overlay)
//Storyboard Sound Samples

[TimingPoints]
138,312.5,4,2,1,70,1,0
9981,-100,4,2,1,80,0,0
25138,-100,4,2,1,80,0,0
29200,-100,4,2,1,80,0,0
30138,-100,4,2,1,60,0,0
50138,-100,4,2,1,65,0,0
51388,-100,4,2,1,65,0,0
53106,-100,4,2,1,65,0,0
55606,-100,4,2,1,65,0,0
57638,-100,4,2,1,80,0,0
60138,-83.3333333333333,4,2,1,90,0,1
90138,-100,4,2,1,60,0,0
100138,-133.333333333333,4,2,1,50,0,0
100216,-100,4,2,1,50,0,0
101388,-100,4,2,1,50,0,0
101466,-90.9090909090909,4,2,1,50,0,0
102013,-90.9090909090909,4,2,1,65,0,0
102638,-100,4,2,1,60,0,0
109825,-100,4,2,1,60,0,0
110138,-100,4,2,1,70,0,0
112638,-100,4,2,1,80,0,0
114200,-75.000001875,4,2,1,80,0,0
115138,-83.3333333333333,4,2,1,90,0,1
134825,-83.3333333333333,4,2,1,90,0,0
135138,-100,4,2,1,90,0,1
137638,-100,4,2,1,70,0,0
140138,-133.333333333333,4,2,1,60,0,0
141075,-133.333333333333,4,2,1,60,0,0
142638,314.547837483617,4,2,1,60,1,0
142638,-133.333333333333,4,2,1,60,0,0
143581,-133.333333333333,4,2,1,60,0,0
143896,352.941176470588,4,2,1,60,1,0
143896,-133.333333333333,4,2,1,60,0,0
144214,329.67032967033,4,2,1,60,1,0
144214,-133.333333333333,4,2,1,60,0,0
144543,282.352941176471,4,2,1,60,1,0
144543,-142.857142857143,4,2,1,60,0,0
144825,312.5,4,2,1,60,1,0
144825,-133.333333333333,4,2,1,60,0,0
145137,-133.333333333333,4,2,1,60,0,0
145138,315.457413249211,4,2,1,60,1,0
145138,-133.333333333333,4,2,1,60,0,0
146715,324.324324324324,4,2,1,60,1,0
146715,-133.333333333333,4,2,1,60,0,0
147039,310.880829015544,4,2,1,60,1,0
147039,-133.333333333333,4,2,1,60,0,0
147660,301.507537688442,4,2,1,60,1,0
147660,-133.333333333333,4,2,1,60,0,0
148263,312.5,4,2,1,60,1,0
148263,-133.333333333333,4,2,1,60,0,0
149200,329.67032967033,4,2,1,60,1,0
149200,-133.333333333333,4,2,1,60,0,0
149529,296.296296296296,4,2,1,60,1,0
149529,-133.333333333333,4,2,1,60,0,0
149825,298.507462686567,4,2,1,60,1,0
149825,-133.333333333333,4,2,1,60,0,0
150123,379.746835443038,4,2,1,60,1,0
150123,-133.333333333333,4,2,1,60,0,0
150312,307.692307692308,4,2,1,60,1,0
150312,-133.333333333333,4,2,1,60,0,0
151081,-133.333333333333,4,2,1,60,0,0
151388,324.324324324324,4,2,1,60,1,0
151388,-133.333333333333,4,2,1,60,0,0
151712,329.67032967033,4,2,1,60,1,0
151712,-133.333333333333,4,2,1,60,0,0
152041,298.507462686567,4,2,1,60,1,0
152041,-133.333333333333,4,2,1,60,0,0
152638,297.029702970297,4,2,1,60,1,0
152638,-133.333333333333,4,2,1,60,0,0
153232,343.839541547278,4,2,1,60,1,0
153232,-133.333333333333,4,2,1,60,0,0
153575,312.5,4,2,1,60,1,0
153575,-133.333333333333,4,2,1,60,0,0
153888,312.5,4,2,1,60,1,0
153888,-133.333333333333,4,2,1,60,0,0
154200,329.67032967033,4,2,1,60,1,0
154200,-133.333333333333,4,2,1,60,0,0
155138,312.5,4,2,1,60,1,0
155138,-133.333333333333,4,2,1,60,0,0
156700,337.078651685393,4,2,1,60,1,0
156700,-133.333333333333,4,2,1,60,0,0
157037,289.156626506024,4,2,1,60,1,0
157037,-133.333333333333,4,2,1,60,0,0
157615,302.267002518892,4,2,1,60,1,0
157615,-133.333333333333,4,2,1,60,0,0
157917,372.670807453416,4,2,1,60,1,0
157917,-133.333333333333,4,2,1,60,0,0
158103,340.909090909091,4,2,1,60,1,0
158103,-133.333333333333,4,2,1,60,0,0
158273,322.58064516129,4,2,1,60,1,0
158273,-133.333333333333,4,2,1,60,0,0
158595,340.909090909091,4,2,1,60,1,0
158595,-133.333333333333,4,2,1,60,0,0
158850,-133.333333333333,4,2,1,5,0,0
158888,312.5,4,2,1,60,1,0
158888,-133.333333333333,4,2,1,60,0,0
160138,-133.333333333333,4,2,1,60,0,0
177638,-133.333333333333,4,2,1,62,0,0
177950,-133.333333333333,4,2,1,64,0,0
178263,-133.333333333333,4,2,1,66,0,0
178575,-133.333333333333,4,2,1,68,0,0
178888,-133.333333333333,4,2,1,70,0,0
180138,-100,4,2,1,75,0,0
182013,-100,4,2,1,75,0,0
182638,-100,4,2,1,75,0,0
189513,-100,4,2,1,75,0,0
190138,-100,4,2,1,75,0,0
195138,-100,4,2,1,80,0,0
200138,-100,4,2,1,65,0,0
205138,-100,4,2,1,70,0,0
207638,-100,4,2,1,70,0,0
209825,-71.4285714285714,4,2,1,70,0,0
210450,-90.9090909090909,4,2,1,70,0,0
212638,-100,4,2,1,60,0,0
218888,-100,4,2,1,60,0,0
222638,-100,4,2,1,65,0,0
223888,-100,4,2,1,65,0,0
227638,-100,4,2,1,70,0,0
230138,-100,4,2,1,80,0,1
232325,-100,4,2,1,80,0,0
232638,-100,4,2,1,80,0,1
242633,322.58064516129,4,2,1,60,1,0
242633,-100,4,2,1,60,0,0
243600,352.941176470588,4,2,1,60,1,0
243600,-133.333333333333,4,2,1,60,0,0
243776,-125.786163522013,4,2,1,60,0,0
243952,315.789473684211,4,2,1,60,1,0
243952,-133.333333333333,4,2,1,60,0,0
244899,333.333333333333,4,2,1,60,1,0
244899,-133.333333333333,4,2,1,60,0,0
245232,315.789473684211,4,2,1,60,1,0
245232,-133.333333333333,4,2,1,60,0,0
245863,338.983050847458,4,2,1,60,1,0
245863,-133.333333333333,4,2,1,60,0,0
247218,352.941176470588,4,2,1,60,1,0
247218,-133.333333333333,4,2,1,60,0,0
248629,349.854227405248,4,2,1,60,1,0
248629,-133.333333333333,4,2,1,60,0,0
248978,363.636363636364,4,2,1,60,1,0
248978,-133.333333333333,4,2,1,60,0,0
249341,-133.333333333333,4,2,1,60,0,0
250092,394.736842105263,4,2,1,60,1,0
250092,-133.333333333333,4,2,1,60,0,0
250486,352.941176470588,4,2,1,60,1,0
250486,-133.333333333333,4,2,1,60,0,0
250662,428.571428571429,4,2,1,40,1,0
250876,-100,4,2,1,30,0,0
250881,-133.333333333333,4,2,1,30,0,0
251733,-133.333333333333,4,2,1,40,0,0
251738,-133.333333333333,4,2,1,40,0,0
256345,-133.333333333333,4,2,1,40,0,0
259233,-133.333333333333,4,2,1,5,0,0

[Colours]
Combo1 : 163,86,86
Combo2 : 192,192,192
Combo3 : 0,128,192

[HitObjects]
26,105,138,5,6,3:2:0:0:
172,170,294,1,0,3:2:0:0:
237,24,450,1,8,0:2:0:0:
114,107,606,6,0,P|130:186|147:265,1,162,6|0,3:2|3:2,0:0:0:0:
44,366,1075,2,0,P|51:312|75:276,1,81,8|0,0:2|0:0,0:0:0:0:
231,239,1388,5,0,3:2:0:0:
231,239,1544,1,0,3:2:0:0:
368,318,1700,1,8,0:2:0:0:
368,318,1856,1,8,0:2:0:0:
219,326,2013,1,0,3:2:0:0:
219,326,2169,1,0,3:2:0:0:
326,236,2325,1,8,0:2:0:0:
340,224,2638,5,6,3:2:0:0:
295,372,2794,1,0,3:2:0:0:
434,242,2950,1,8,0:2:0:0:
255,178,3106,6,0,B|223:187|191:185|191:185|163:201|163:201|130:197|95:205,1,162,6|0,3:2|3:2,0:0:0:0:
53,62,3575,2,0,P|94:66|139:89,1,81,8|0,0:2|0:0,0:0:0:0:
186,232,3888,5,0,3:2:0:0:
186,232,4044,1,0,3:2:0:0:
57,281,4200,1,8,0:2:0:0:
57,281,4356,1,8,0:2:0:0:
86,192,4513,1,0,3:2:0:0:
86,192,4669,1,0,3:2:0:0:
142,315,4825,1,8,0:2:0:0:
133,328,5138,5,6,3:2:0:0:
9,217,5294,1,0,3:2:0:0:
155,152,5450,1,8,0:2:0:0:
60,384,5606,6,0,P|137:347|232:368,1,162,6|0,3:2|3:2,0:0:0:0:
351,214,6075,2,0,P|302:224|250:235,1,81,8|0,0:2|0:0,0:0:0:0:
188,254,6388,5,0,3:2:0:0:
188,254,6544,1,0,3:2:0:0:
341,334,6700,1,8,0:2:0:0:
341,334,6856,1,8,0:2:0:0:
281,191,7013,6,0,P|275:211|270:241,1,40.5,8|8,0:2|0:2,0:0:0:0:
458,285,7169,2,0,P|478:279|506:268,1,40.5,8|8,0:2|0:2,0:0:0:0:
331,348,7325,2,0,B|278:342|278:342|226:361|226:361|173:354,1,162,6|0,3:2|3:2,0:0:0:0:
423,365,7794,5,2,3:2:0:0:
494,186,7950,2,0,P|455:172|416:162,1,81,2|0,3:2|3:2,0:0:0:0:
225,221,8263,1,2,3:2:0:0:
325,54,8419,2,0,P|337:118|344:152,1,81,2|0,3:2|3:2,0:0:0:0:
165,272,8731,6,0,B|112:313|45:287|45:287|87:255,1,162,6|2,3:2|3:2,0:0:0:0:
259,150,9200,1,2,3:2:0:0:
125,204,9356,1,0,0:0:0:0:
318,254,9513,2,0,L|310:214,1,40.5,8|8,0:2|0:2,0:0:0:0:
205,54,9669,2,0,L|197:93,1,40.5,10|8,0:2|0:2,0:0:0:0:
340,133,9825,2,0,P|359:129|381:119,1,40.5,10|8,0:2|0:2,0:0:0:0:
491,17,9981,6,0,B|496:73|463:137|463:137|506:101,1,162,6|0,3:2|3:2,0:0:0:0:
301,56,10450,2,0,P|258:43|214:41,1,81,8|0,0:2|3:2,0:0:0:0:
86,86,10763,1,8,0:2:0:0:
146,218,10919,2,0,P|186:214|224:202,1,81,0|8,3:2|0:2,0:0:0:0:
390,58,11231,6,0,P|371:152|353:235,1,162,6|0,3:2|3:2,0:0:0:0:
207,299,11700,1,8,0:2:0:0:
357,216,11856,1,0,3:2:0:0:
446,360,12013,1,8,0:2:0:0:
308,320,12169,1,2,3:2:0:0:
306,310,12247,1,0,3:0:0:0:
303,300,12325,1,10,0:2:0:0:
512,284,12481,6,0,P|471:280|433:268,1,81,6|0,3:2|0:0,0:0:0:0:
344,200,12794,1,0,3:2:0:0:
204,280,12950,2,0,P|191:241|188:201,1,81,10|0,0:2|3:2,0:0:0:0:
316,69,13263,1,8,0:2:0:0:
136,86,13419,2,0,P|180:94|242:106,1,81,0|10,3:2|0:2,0:0:0:0:
0,216,13731,6,0,B|36:219|36:219|70:200|70:200|114:213|153:188,1,162,6|0,3:2|3:2,0:0:0:0:
372,241,14200,2,0,P|334:226|294:223,1,81,10|0,0:2|3:2,0:0:0:0:
165,370,14513,1,8,0:2:0:0:
169,361,14591,1,0,3:0:0:0:
174,352,14669,2,0,L|192:305,1,40.5,2|0,3:2|3:0,0:0:0:0:
263,173,14825,2,0,L|281:220,1,40.5,10|0,0:2|0:0,0:0:0:0:
446,307,14981,6,0,B|499:255|483:187|483:187|449:214,1,162,6|0,3:2|3:2,0:0:0:0:
318,113,15450,2,0,P|366:101|412:77,1,81,8|0,0:2|3:2,0:0:0:0:
237,2,15763,1,8,0:2:0:0:
153,155,15919,2,0,P|190:171|229:180,1,81,0|10,3:2|0:2,0:0:0:0:
512,266,16231,6,0,B|482:275|452:267|452:267|419:285|419:285|388:277|349:285,1,162,6|0,3:2|3:2,0:0:0:0:
129,368,16700,2,0,P|179:351|223:335,1,81,10|0,0:2|3:2,0:0:0:0:
15,231,17013,2,0,P|65:248|109:264,1,81,8|0,0:2|3:2,0:0:0:0:
324,193,17325,1,10,0:2:0:0:
233,357,17481,6,0,B|222:306|222:306|240:254|240:254|227:201,1,162,6|0,3:2|3:2,0:0:0:0:
412,102,17950,2,0,P|371:94|330:77,1,81,10|0,0:2|3:2,0:0:0:0:
90,161,18263,2,0,P|127:146|167:138,1,81,8|0,0:2|3:2,0:0:0:0:
224,37,18575,1,10,0:2:0:0:
342,205,18731,6,0,P|363:306|380:385,1,162,6|0,3:2|3:2,0:0:0:0:
392,274,19200,1,14,0:2:0:0:
375,363,19356,1,0,0:0:0:0:
512,218,19513,1,2,3:3:0:0:
500,212,19591,1,2,3:3:0:0:
488,207,19669,2,0,P|470:209|439:222,1,40.5,2|2,3:3|3:3,0:0:0:0:
271,295,19825,2,0,P|290:301|310:304,1,40.5,10|0,0:2|0:0,0:0:0:0:
54,276,19981,6,0,B|91:281|118:260|118:260|181:276|218:229,1,162,6|0,3:2|3:2,0:0:0:0:
399,143,20450,2,0,P|360:129|320:124,1,81,10|0,0:2|3:2,0:0:0:0:
128,77,20763,2,0,P|138:116|150:154,1,81,8|0,0:2|3:2,0:0:0:0:
245,20,21075,1,10,0:2:0:0:
62,191,21231,6,0,P|141:192|204:242,1,162,6|0,3:2|3:2,0:0:0:0:
421,319,21700,2,0,P|381:335|325:340,1,81,8|0,0:2|3:2,0:0:0:0:
204,242,22013,1,8,0:2:0:0:
353,163,22169,1,2,3:2:0:0:
362,165,22247,1,0,3:0:0:0:
372,169,22325,1,8,0:2:0:0:
161,319,22481,6,0,P|199:330|239:340,1,81,6|0,3:2|0:0,0:0:0:0:
104,168,22794,1,0,3:2:0:0:
259,151,22950,2,0,P|273:114|280:72,1,81,10|0,0:2|3:2,0:0:0:0:
114,37,23263,1,8,0:2:0:0:
22,155,23419,2,0,P|29:194|43:232,1,81,0|10,3:2|0:2,0:0:0:0:
357,254,23731,6,0,B|319:259|319:259|285:242|285:242|235:262|180:218,1,162,6|0,3:2|3:2,0:0:0:0:
431,159,24200,2,0,P|391:151|353:137,1,81,8|0,0:2|0:0,0:0:0:0:
274,287,24513,5,8,0:2:0:0:
275,297,24591,1,8,0:2:0:0:
277,307,24669,2,0,B|288:382,1,40.5,8|8,0:2|0:2,0:0:0:0:
420,245,24825,2,0,B|349:217,1,40.5,10|8,0:2|0:2,0:0:0:0:
268,130,24981,2,0,B|236:155,1,40.5,8|8,0:2|0:2,0:0:0:0:
144,243,25138,5,6,3:2:0:0:
133,255,25450,5,0,3:2:0:0:
122,125,25606,1,2,3:2:0:0:
122,267,25763,5,0,3:2:0:0:
301,206,25919,1,0,3:2:0:0:
111,279,26075,5,2,3:2:0:0:
66,61,26231,1,0,3:2:0:0:
100,291,26387,5,2,3:2:0:0:
232,123,26544,1,0,3:2:0:0:
400,255,26700,1,0,3:2:0:0:
195,217,26856,1,2,3:2:0:0:
339,102,27013,5,0,3:2:0:0:
255,302,27169,1,0,3:2:0:0:
436,148,27325,1,2,3:2:0:0:
269,17,27481,1,0,3:2:0:0:
133,140,27638,6,0,P|88:152|-3:74,1,162,14|0,0:2|3:2,0:0:0:0:
142,319,28106,2,0,P|179:304|219:297,1,81,14|0,0:2|3:2,0:0:0:0:
359,375,28419,1,0,3:2:0:0:
499,255,28575,2,0,P|459:248|421:233,1,81,14|0,3:2|0:0,0:0:0:0:
195,217,28888,5,0,3:2:0:0:
339,102,29044,1,0,3:2:0:0:
0,138,29200,2,0,B|36:136|64:119|64:119|121:120|167:152,1,162,14|8,0:2|0:2,0:0:0:0:
195,217,29591,1,8,0:2:0:0:
199,231,29669,2,0,P|194:262|179:292,1,40.5,8|8,0:2|0:2,0:0:0:0:
62,357,29825,2,0,P|56:337|53:317,1,40.5,10|8,0:2|0:2,0:0:0:0:
284,270,29981,5,8,0:2:0:0:
298,264,30059,1,8,0:2:0:0:
312,259,30138,2,0,B|427:282|427:282|368:302,1,162,2|8,3:2|0:2,0:0:0:0:
213,348,30606,2,0,P|199:302|187:257,1,81,2|0,3:2|0:0,0:0:0:0:
249,159,30919,1,0,3:2:0:0:
115,81,31075,2,0,P|99:118|86:156,1,81,10|0,0:2|0:0,0:0:0:0:
22,309,31388,6,0,B|126:275|126:275|176:295,1,162,2|8,3:2|0:2,0:0:0:0:
293,384,31856,2,0,P|313:336|327:299,1,81,2|0,3:2|0:0,0:0:0:0:
364,171,32169,1,0,3:2:0:0:
252,240,32325,1,10,0:2:0:0:
416,347,32481,1,0,0:0:0:0:
190,295,32638,6,0,P|172:230|245:155,1,162,2|8,3:2|0:2,0:0:0:0:
414,203,33106,2,0,B|388:209|367:227|367:227|311:222|311:222|283:242|251:246,1,162,2|0,3:2|3:2,0:0:0:0:
157,87,33575,2,0,P|194:110|230:137,1,81,10|0,0:2|0:0,0:0:0:0:
395,312,33888,6,0,P|413:266|424:215,1,81,2|0,3:2|3:2,0:0:0:0:
384,121,34200,1,8,0:2:0:0:
272,205,34356,1,2,3:2:0:0:
389,111,34513,1,0,0:0:0:0:
316,287,34669,1,0,3:2:0:0:
316,287,34747,1,0,3:0:0:0:
316,287,34825,2,0,P|275:267|225:264,1,81,10|0,0:2|0:0,0:0:0:0:
150,332,35138,6,0,P|193:283|172:184,1,162,2|8,3:2|0:2,0:0:0:0:
107,107,35606,1,2,3:2:0:0:
26,269,35763,2,0,P|67:255|125:244,1,81,0|0,0:0|3:2,0:0:0:0:
264,295,36075,1,8,0:2:0:0:
176,179,36231,1,0,0:0:0:0:
350,114,36388,5,2,3:2:0:0:
252,213,36544,1,0,3:2:0:0:
199,62,36700,1,8,0:2:0:0:
380,202,36856,2,0,P|428:158|412:46,1,162,2|0,3:2|3:2,0:0:0:0:
266,194,37325,2,0,L|293:297,1,81,10|0,0:2|0:0,0:0:0:0:
392,361,37638,6,0,L|412:282,1,81,2|0,3:2|3:2,0:0:0:0:
353,120,37950,1,8,0:2:0:0:
489,212,38106,1,2,3:2:0:0:
322,290,38263,2,0,B|289:309|289:309|248:303|248:303|215:335|168:333,1,162,0|10,0:0|0:2,0:0:0:0:
80,223,38731,1,0,0:0:0:0:
191,241,38888,6,0,P|234:218|271:192,1,81,2|0,3:2|3:2,0:0:0:0:
124,151,39200,1,8,0:2:0:0:
48,326,39356,1,2,3:2:0:0:
48,326,39669,6,0,P|71:264|83:226,1,81,0|10,3:2|0:2,0:0:0:0:
26,94,39981,2,0,L|84:73,1,40.5,8|8,0:2|0:2,0:0:0:0:
206,34,40138,2,0,P|248:80|237:177,1,162,2|8,3:2|0:2,0:0:0:0:
160,238,40606,2,0,P|113:227|71:217,1,81,2|0,3:2|0:0,0:0:0:0:
171,128,40919,1,0,3:2:0:0:
248,280,41075,1,10,0:2:0:0:
70,207,41231,1,0,0:0:0:0:
178,340,41388,6,0,P|241:325|344:288,1,162,2|8,3:2|0:2,0:0:0:0:
429,334,41856,2,0,P|447:283|458:239,1,81,2|0,3:2|0:0,0:0:0:0:
403,138,42169,1,0,3:2:0:0:
254,228,42325,1,10,0:2:0:0:
422,150,42481,1,0,0:0:0:0:
339,26,42638,6,0,B|300:119|300:119|336:181,1,162,2|8,3:2|0:2,0:0:0:0:
400,247,43106,2,0,P|359:208|245:214,1,162,2|0,3:2|3:2,0:0:0:0:
139,135,43575,2,0,P|191:117|228:100,1,81,10|0,0:2|0:0,0:0:0:0:
180,313,43888,6,0,B|139:292|139:292|93:303|93:303|10:266,1,162,2|8,3:2|0:2,0:0:0:0:
184,225,44356,1,2,3:2:0:0:
267,364,44513,1,0,0:0:0:0:
110,276,44669,1,0,3:2:0:0:
245,153,44825,1,10,0:2:0:0:
180,313,44981,1,0,0:0:0:0:
341,373,45138,6,0,P|359:326|374:280,1,81,2|0,3:2|3:2,0:0:0:0:
334,153,45450,1,8,0:2:0:0:
502,217,45606,2,0,P|464:262|347:257,1,162,2|0,3:2|3:2,0:0:0:0:
240,130,46075,2,0,P|296:148|334:159,1,81,10|0,0:2|0:0,0:0:0:0:
469,89,46388,5,2,3:2:0:0:
404,206,46544,1,0,3:2:0:0:
475,78,46700,1,8,0:2:0:0:
292,50,46856,2,0,P|304:99|315:144,1,81,2|0,3:2|0:0,0:0:0:0:
178,303,47169,2,0,P|187:263|197:224,1,81,0|10,3:2|0:2,0:0:0:0:
153,97,47481,1,0,0:0:0:0:
288,273,47638,6,0,P|360:268|425:203,1,162,2|8,3:2|0:2,0:0:0:0:
140,207,48106,2,0,B|88:213|67:251|67:251|122:256,1,121.5,2|0,3:2|0:0,0:0:0:0:
208,256,48419,2,0,P|223:219|232:168,1,81,0|10,3:2|0:2,0:0:0:0:
184,36,48731,1,0,0:0:0:0:
323,179,48888,5,2,3:2:0:0:
153,119,49044,1,0,3:2:0:0:
212,264,49200,1,8,0:2:0:0:
398,206,49356,1,2,0:2:0:0:
285,54,49513,2,0,L|271:112,1,40.5,8|8,0:2|0:2,0:0:0:0:
291,254,49669,2,0,L|307:200,1,40.5,8|8,0:2|0:2,0:0:0:0:
181,130,49825,2,0,L|127:150,1,40.5,10|8,0:2|0:2,0:0:0:0:
114,277,49981,2,0,L|179:250,1,40.5,8|8,0:2|0:2,0:0:0:0:
360,132,50138,5,6,3:2:0:0:
169,245,50294,1,2,3:2:0:0:
277,89,50450,1,8,0:2:0:0:
294,349,50606,2,0,P|280:297|252:186,1,162,6|2,3:2|3:2,0:0:0:0:
431,79,51075,2,0,P|441:158|369:226,1,162,10|2,0:2|3:2,0:0:0:0:
391,217,51544,1,2,3:2:0:0:
263,170,51700,1,10,3:3:0:0:
351,296,51856,1,10,3:3:0:0:
179,237,52013,2,0,P|162:190|153:138,1,81,2|0,3:2|3:2,0:0:0:0:
274,283,52325,2,0,P|264:322|250:360,1,81,10|0,3:3|3:2,0:0:0:0:
82,171,52638,5,6,3:2:0:0:
258,191,52794,1,2,3:2:0:0:
102,69,52950,1,8,0:2:0:0:
33,254,53106,2,0,P|126:260|172:187,1,162,6|2,3:2|3:2,0:0:0:0:
194,79,53575,1,10,0:2:0:0:
276,258,53731,5,0,0:0:0:0:
276,258,53809,1,0,0:0:0:0:
276,258,53888,2,0,P|264:219|248:181,1,81,2|2,3:2|3:2,0:0:0:0:
165,91,54200,1,10,3:3:0:0:
321,115,54356,1,10,3:3:0:0:
179,243,54513,2,0,P|132:229|80:209,1,81,2|0,3:2|3:2,0:0:0:0:
282,185,54825,1,10,3:3:0:0:
191,353,54981,1,0,3:2:0:0:
355,250,55138,6,0,P|373:188|398:85,1,162,6|8,3:2|0:2,0:0:0:0:
158,17,55606,2,0,P|146:72|195:147,1,121.5,6|0,3:2|0:0,0:0:0:0:
184,155,55919,2,0,P|225:140|277:120,1,81,2|10,3:2|0:2,0:0:0:0:
339,22,56231,1,2,0:2:0:0:
438,210,56388,6,0,P|395:198|337:182,1,81,2|2,3:2|3:2,0:0:0:0:
217,253,56700,1,10,3:3:0:0:
217,253,56856,1,10,3:3:0:0:
274,138,57013,1,2,3:2:0:0:
274,138,57169,1,0,3:2:0:0:
360,291,57325,1,14,0:2:0:0:
146,201,57481,1,0,0:0:0:0:
386,66,57638,6,0,P|371:125|354:179,1,81,14|0,0:2|3:2,0:0:0:0:
266,355,57950,2,0,P|254:316|245:276,1,81,14|0,0:2|3:2,0:0:0:0:
463,235,58263,2,0,P|413:257|371:272,1,81,14|0,0:2|3:2,0:0:0:0:
108,211,58575,1,14,0:2:0:0:
254,365,58731,1,0,3:2:0:0:
234,78,58888,1,0,3:2:0:0:
212,99,58966,1,0,3:2:0:0:
199,126,59044,1,0,3:2:0:0:
196,156,59122,1,0,3:2:0:0:
203,186,59200,2,0,P|246:217|271:235,1,81,14|0,0:2|0:0,0:0:0:0:
506,188,59513,6,0,L|453:172,1,40.5,14|8,0:2|0:2,0:0:0:0:
380,87,59669,2,0,L|365:147,1,40.5,8|8,0:2|0:2,0:0:0:0:
395,299,59825,2,0,L|409:244,1,40.5,14|8,0:2|0:2,0:0:0:0:
281,91,59981,2,0,L|215:111,1,40.5,8|8,0:2|0:2,0:0:0:0:
209,268,60138,6,0,P|258:265|304:250,1,97.1999970336915,6|2,3:2|3:2,0:0:0:0:
137,161,60450,1,10,0:2:0:0:
162,369,60606,2,0,P|180:294|161:177,1,194.399994067383,2|2,3:2|3:2,0:0:0:0:
74,96,61075,1,8,0:2:0:0:
0,264,61231,5,2,3:2:0:0:
0,264,61309,1,0,3:0:0:0:
0,264,61388,2,0,P|52:261|121:252,1,97.1999970336915,0|0,3:0|3:2,0:0:0:0:
258,377,61700,2,0,P|209:371|161:368,1,97.1999970336915,10|2,0:2|0:2,0:0:0:0:
209,268,62013,1,0,3:2:0:0:
374,364,62169,1,2,3:2:0:0:
430,249,62325,1,8,0:2:0:0:
244,356,62481,1,2,0:2:0:0:
430,249,62638,6,0,P|381:254|326:127,1,194.399994067383,0|10,3:2|0:2,0:0:0:0:
380,76,63106,2,0,P|395:131|390:206,1,97.1999970336915,2|0,3:2|0:0,0:0:0:0:
249,242,63419,2,0,P|234:187|239:112,1,97.1999970336915,2|8,3:2|0:2,0:0:0:0:
281,64,63731,1,2,3:2:0:0:
281,64,64044,5,0,3:2:0:0:
146,153,64200,1,10,0:2:0:0:
233,147,64356,1,2,0:2:0:0:
73,205,64512,1,0,3:2:0:0:
101,47,64669,1,2,3:2:0:0:
169,293,64825,2,0,P|169:220|144:149,1,145.799995550537,8|0,0:2|0:0,0:0:0:0:
137,172,65138,6,0,P|120:235|178:385,1,194.399994067383,6|10,3:2|0:2,0:0:0:0:
350,298,65606,2,0,P|302:294|239:286,1,97.1999970336915,2|0,3:2|0:0,0:0:0:0:
56,366,65919,2,0,P|104:359|152:356,1,97.1999970336915,2|8,3:2|0:2,0:0:0:0:
310,213,66231,2,0,P|327:150|269:0,1,194.399994067383,2|0,3:2|3:2,0:0:0:0:
145,152,66700,5,10,0:2:0:0:
145,152,66778,1,0,3:0:0:0:
145,152,66856,2,0,P|192:148|256:140,1,97.1999970336915,2|0,0:2|3:2,0:0:0:0:
416,204,67169,1,2,3:2:0:0:
311,109,67325,1,8,0:2:0:0:
361,275,67481,6,0,P|367:323|370:371,1,97.1999970336915,2|0,0:2|0:0,0:0:0:0:
334,92,67794,1,0,3:2:0:0:
334,92,67950,2,0,P|327:140|324:188,1,97.1999970336915,10|2,0:2|0:2,0:0:0:0:
442,101,68263,1,0,3:2:0:0:
287,2,68419,1,2,3:2:0:0:
309,207,68575,1,8,0:2:0:0:
354,75,68731,1,2,3:2:0:0:
197,200,68888,5,0,0:0:0:0:
367,285,69044,1,0,3:2:0:0:
461,131,69200,1,8,0:2:0:0:
291,224,69356,1,0,0:0:0:0:
512,342,69513,5,10,0:2:0:0:
478,324,69591,1,8,0:2:0:0:
441,317,69669,1,8,0:2:0:0:
402,321,69747,1,8,0:2:0:0:
367,336,69825,1,10,0:2:0:0:
333,354,69903,1,8,0:2:0:0:
295,361,69981,1,8,0:2:0:0:
257,357,70059,1,8,0:2:0:0:
222,341,70138,6,0,P|211:297|214:217,1,97.1999970336915,6|2,3:2|3:2,0:0:0:0:
277,119,70450,1,10,0:2:0:0:
142,179,70606,2,0,P|229:207|290:139,1,194.399994067383,2|2,3:2|3:2,0:0:0:0:
164,61,71075,1,8,0:2:0:0:
46,146,71231,5,2,3:2:0:0:
46,146,71309,1,0,3:0:0:0:
46,146,71388,2,0,P|46:194|58:241,1,97.1999970336915,0|0,0:0|3:2,0:0:0:0:
206,358,71700,1,10,0:2:0:0:
148,218,71856,1,2,0:2:0:0:
0,314,72013,1,0,3:2:0:0:
148,218,72169,1,2,3:2:0:0:
46,146,72325,1,8,0:2:0:0:
156,95,72481,5,2,0:2:0:0:
156,95,72559,1,0,3:0:0:0:
156,95,72638,2,0,P|155:46|143:0,1,97.1999970336915,0|0,3:2|3:2,0:0:0:0:
69,222,72950,1,10,0:2:0:0:
222,164,73106,2,0,P|167:128|36:153,1,194.399994067383,2|2,3:2|3:2,0:0:0:0:
197,261,73575,1,8,0:2:0:0:
197,261,73653,1,0,3:0:0:0:
197,261,73731,2,0,P|245:260|292:248,1,97.1999970336915,2|0,3:2|0:0,0:0:0:0:
355,163,74044,5,0,3:2:0:0:
355,329,74200,1,10,0:2:0:0:
498,246,74356,1,2,0:2:0:0:
220,140,74513,5,0,3:2:0:0:
405,34,74669,1,2,3:2:0:0:
405,247,74825,1,8,0:2:0:0:
343,133,74981,5,2,0:2:0:0:
442,380,75138,2,0,B|409:281|456:283|413:169,1,194.399994067383,6|10,3:2|0:2,0:0:0:0:
326,303,75606,2,0,P|267:326|181:298,1,145.799995550537,2|0,3:2|0:0,0:0:0:0:
186,332,75919,2,0,P|136:289|-1:320,1,194.399994067383,2|2,3:2|3:2,0:0:0:0:
191,228,76388,5,0,0:0:0:0:
63,178,76544,2,0,P|53:119|76:57,1,97.1999970336915,0|10,3:2|0:2,0:0:0:0:
322,125,76856,2,0,B|287:138|287:138|257:122|257:122|201:155|130:128,1,194.399994067383,2|2,0:2|3:2,0:0:0:0:
138,130,77325,1,8,0:2:0:0:
288,250,77481,6,0,P|338:207|475:238,1,194.399994067383,2|0,0:2|3:2,0:0:0:0:
394,382,77950,2,0,P|377:327|388:272,1,97.1999970336915,10|2,0:2|0:2,0:0:0:0:
351,109,78263,1,0,3:2:0:0:
381,288,78419,1,2,3:2:0:0:
351,109,78575,1,8,0:2:0:0:
461,330,78731,6,0,P|360:316|221:305,1,194.399994067383,2|0,3:2|3:2,0:0:0:0:
221,213,79200,2,0,P|271:220|341:225,1,97.1999970336915,14|0,0:2|0:0,0:0:0:0:
192,329,79513,1,10,0:2:0:0:
154,299,79591,1,8,0:2:0:0:
106,295,79669,1,8,0:2:0:0:
64,318,79747,1,8,0:2:0:0:
43,361,79825,2,0,L|31:292,1,48.5999985168458,10|8,0:2|0:2,0:0:0:0:
0,240,79981,2,0,L|12:171,1,48.5999985168458,8|8,0:2|0:2,0:0:0:0:
87,80,80138,5,6,3:2:0:0:
141,219,80294,1,0,3:2:0:0:
167,23,80450,1,8,0:2:0:0:
141,219,80606,1,2,3:2:0:0:
260,175,80763,5,8,0:2:0:0:
57,274,80919,1,0,3:2:0:0:
194,311,81075,2,0,P|171:250|196:115,1,194.399994067383,10|8,0:2|0:2,0:0:0:0:
323,236,81544,5,2,3:2:0:0:
438,193,81700,1,8,0:2:0:0:
395,78,81856,1,0,3:2:0:0:
374,339,82013,5,10,0:2:0:0:
219,281,82169,1,0,3:2:0:0:
277,126,82325,1,10,0:2:0:0:
277,126,82403,1,0,3:0:0:0:
277,126,82481,1,0,3:2:0:0:
468,260,82638,5,14,0:2:0:0:
406,318,82794,1,0,3:2:0:0:
311,246,82950,1,8,0:2:0:0:
348,384,83106,1,2,3:2:0:0:
226,263,83263,1,8,0:2:0:0:
93,337,83419,1,0,3:2:0:0:
8,197,83575,1,10,0:2:0:0:
8,197,83653,1,0,3:0:0:0:
8,197,83731,1,0,3:2:0:0:
211,280,83888,5,10,0:2:0:0:
10,322,84044,1,0,3:2:0:0:
205,201,84200,1,8,0:2:0:0:
0,189,84356,1,2,3:2:0:0:
221,114,84513,1,8,0:2:0:0:
26,49,84669,1,0,3:2:0:0:
121,174,84825,1,10,0:2:0:0:
121,174,84903,1,0,3:0:0:0:
121,174,84981,1,0,3:0:0:0:
245,99,85138,6,0,P|238:53|231:-8,1,97.1999970336915,14|0,0:2|3:2,0:0:0:0:
205,201,85450,1,0,3:2:0:0:
99,85,85606,2,0,P|53:78|-8:71,1,97.1999970336915,8|0,0:2|3:2,0:0:0:0:
128,192,85919,1,0,3:2:0:0:
128,192,85997,1,0,3:0:0:0:
128,192,86075,2,0,P|176:186|224:179,1,97.1999970336915,10|0,0:2|3:2,0:0:0:0:
315,93,86388,5,0,3:2:0:0:
255,277,86544,1,8,0:2:0:0:
325,181,86700,2,0,P|331:235|337:277,1,97.1999970336915,0|0,3:2|3:2,0:0:0:0:
501,335,87013,1,0,3:2:0:0:
501,335,87091,1,0,3:2:0:0:
501,335,87169,1,0,3:2:0:0:
501,335,87247,1,0,3:2:0:0:
501,335,87325,2,0,B|459:311|409:324|409:324|365:375|290:349,1,194.399994067383,14|6,0:2|3:2,0:0:0:0:
320,356,87950,5,0,3:2:0:0:
337,277,88106,1,0,3:2:0:0:
258,301,88263,1,0,3:2:0:0:
164,76,88419,1,0,3:2:0:0:
374,202,88575,1,0,3:2:0:0:
129,223,88731,1,0,3:2:0:0:
314,61,88888,1,6,3:2:0:0:
314,61,89200,6,0,L|305:122,3,48.5999985168458,10|8|8|8,0:2|0:2|0:2|0:2,0:0:0:0:
269,173,89513,2,0,L|278:234,3,48.5999985168458,2|0|0|0,3:2|3:2|3:2|3:2,0:0:0:0:
332,284,89825,1,2,3:2:0:0:
355,279,89903,1,2,3:2:0:0:
378,275,89981,1,2,3:2:0:0:
401,272,90059,1,2,3:2:0:0:
430,271,90138,6,0,P|444:216|412:108,1,162,6|8,3:2|0:2,0:0:0:0:
200,128,90606,2,0,P|190:164|211:236,1,81,2|0,3:2|0:0,0:0:0:0:
318,245,90919,1,0,3:2:0:0:
315,60,91075,2,0,L|296:156,1,81,10|0,0:2|0:0,0:0:0:0:
178,222,91388,6,0,B|120:234|120:234|69:218|69:218|-3:233,1,162,2|8,3:2|0:2,0:0:0:0:
70,84,91856,2,0,P|119:95|153:117,2,81,2|0|0,3:2|0:0|3:2,0:0:0:0:
262,136,92325,2,0,L|401:110,1,121.5,10|0,0:2|0:0,0:0:0:0:
409,33,92638,6,0,B|405:73|405:73|428:109|428:109|417:152|450:194,1,162,2|8,3:2|0:2,0:0:0:0:
487,317,93106,2,0,P|510:260|511:227,1,81,2|0,3:2|0:0,0:0:0:0:
355,199,93419,1,0,3:2:0:0:
294,327,93575,2,0,L|406:302,1,81,10|0,0:2|0:0,0:0:0:0:
119,204,93888,6,0,B|146:220|184:214|184:214|219:253|270:238,1,162,2|8,3:2|0:2,0:0:0:0:
391,115,94356,1,2,3:2:0:0:
320,61,94513,2,0,P|263:57|200:95,1,121.5
127,115,94825,2,0,P|111:82|98:32,1,81,10|0,0:2|0:0,0:0:0:0:
303,208,95138,6,0,P|291:259|266:374,1,162,2|8,3:2|0:2,0:0:0:0:
107,321,95606,2,0,P|176:267|250:279,1,162,2|0,3:2|3:2,0:0:0:0:
387,319,96075,1,8,0:2:0:0:
387,319,96231,1,0,0:0:0:0:
386,136,96388,6,0,P|394:175|403:215,1,81,2|0,3:2|3:2,0:0:0:0:
448,55,96700,1,8,0:2:0:0:
290,186,96856,2,0,B|252:184|230:174|230:174|194:180|194:180|157:165|118:169,1,162,2|0,3:2|3:2,0:0:0:0:
60,340,97325,2,0,P|116:327|150:302,1,81,10|0,0:2|0:0,0:0:0:0:
228,128,97638,6,0,B|178:172|197:250|197:250|230:212,1,162,2|8,3:2|0:2,0:0:0:0:
476,332,98106,2,0,P|427:295|369:281,1,121.5,2|0,3:2|0:0,0:0:0:0:
277,292,98419,2,0,P|295:256|302:216,1,81,0|10,3:2|0:2,0:0:0:0:
332,48,98731,1,0,0:0:0:0:
472,128,98888,6,0,B|422:138|422:138|371:123|371:123|314:134,1,162,2|8,3:2|0:2,0:0:0:0:
196,272,99356,2,0,P|156:265|120:246,1,81,2|0,3:2|0:0,0:0:0:0:
1,174,99669,1,0,3:2:0:0:
62,25,99825,2,0,P|78:117|87:178,1,121.5,10|0,0:2|0:0,0:0:0:0:
86,168,100138,1,6,3:2:0:0:
426,216,102013,6,0,L|373:202,1,44.5500013595581,8|0,0:2|0:0,0:0:0:0:
241,96,102169,1,0,3:2:0:0:
329,287,102325,2,0,P|334:228|290:156,1,133.650004078674,10|0,0:2|0:0,0:0:0:0:
206,173,102638,6,0,B|149:187|97:154|97:154|24:184,1,162,6|8,3:2|0:2,0:0:0:0:
196,337,103106,2,0,P|211:284|211:237,1,81,2|0,3:2|0:0,0:0:0:0:
134,129,103419,1,0,3:2:0:0:
293,208,103575,2,0,L|374:196,1,81,10|0,0:2|0:0,0:0:0:0:
511,78,103888,5,2,3:2:0:0:
325,123,104044,1,0,3:2:0:0:
487,184,104200,1,8,0:2:0:0:
442,0,104356,2,0,B|411:50|416:116|416:116|385:66,1,162,2|0,3:2|3:2,0:0:0:0:
195,45,104825,2,0,P|249:50|300:75,1,81,10|0,0:2|0:0,0:0:0:0:
131,214,105138,6,0,P|31:234|-15:244,1,121.5,2|0,3:2|0:0,0:0:0:0:
0,241,105450,1,8,0:2:0:0:
118,127,105606,2,0,B|155:129|180:138|180:138|220:131|220:131|252:146|308:140,1,162,2|0,3:2|3:2,0:0:0:0:
372,280,106075,2,0,P|350:242|345:190,1,81,8|0,0:2|0:0,0:0:0:0:
484,48,106388,6,0,P|506:86|511:138,1,81,2|0,3:2|3:2,0:0:0:0:
432,164,106700,1,8,0:2:0:0:
296,36,106856,2,0,B|179:21|179:21|229:61,1,162,2|0,3:2|3:2,0:0:0:0:
360,108,107325,1,10,0:2:0:0:
360,108,107638,6,0,P|315:117|258:146,1,81,2|0,3:2|3:2,0:0:0:0:
203,214,107950,1,8,0:2:0:0:
60,276,108106,2,0,P|97:291|137:298,2,81,2|0|0,3:2|0:0|3:2,0:0:0:0:
113,102,108575,1,8,0:2:0:0:
113,102,108888,5,2,3:2:0:0:
113,208,109044,1,0,3:2:0:0:
45,37,109200,2,0,P|29:74|22:114,1,81,8|0,0:2|0:0,0:0:0:0:
210,155,109513,1,10,0:2:0:0:
229,151,109591,1,8,0:2:0:0:
249,147,109669,1,8,0:2:0:0:
269,144,109747,1,8,0:2:0:0:
289,140,109825,2,0,B|335:159|384:139|384:139|361:163,1,121.5,2|0,0:2|0:0,0:0:0:0:
456,93,110138,6,0,P|428:181|449:232,1,121.5,14|0,0:2|0:0,0:0:0:0:
498,251,110450,1,0,3:2:0:0:
498,251,110606,1,0,3:2:0:0:
364,384,110763,6,0,P|336:295|290:266,1,121.5,10|0,0:2|0:0,0:0:0:0:
238,278,111075,1,0,3:2:0:0:
238,278,111231,1,0,3:2:0:0:
149,151,111388,6,0,P|56:149|14:184,1,121.5,10|0,0:2|0:0,0:0:0:0:
9,238,111700,1,0,3:2:0:0:
9,238,111856,1,0,3:2:0:0:
234,141,112013,6,0,P|308:196|363:192,1,121.5,10|0,0:2|0:0,0:0:0:0:
398,152,112325,1,0,3:2:0:0:
398,152,112481,1,0,3:2:0:0:
512,384,112638,6,0,L|474:229,1,121.5,14|0,0:2|0:0,0:0:0:0:
414,234,112950,5,8,3:3:0:0:
414,234,113106,1,8,3:3:0:0:
354,316,113263,1,10,3:3:0:0:
398,152,113419,1,8,3:3:0:0:
193,267,113575,1,8,3:3:0:0:
307,81,113731,1,8,3:3:0:0:
325,291,113888,6,0,P|317:265|315:226,1,40.5,2|0,3:2|3:2,0:0:0:0:
188,52,114044,2,0,P|184:71|178:91,1,40.5,0|0,3:2|3:2,0:0:0:0:
71,187,114200,6,0,B|112:191|112:191|143:174|143:174|189:190|231:162,1,162,14|0,0:2|0:0,0:0:0:0:
184,275,114513,5,10,0:2:0:0:
173,284,114591,1,8,0:2:0:0:
163,292,114669,2,0,L|87:278,1,54,8|8,0:2|0:2,0:0:0:0:
246,132,114825,2,0,L|271:204,1,54,10|8,0:2|0:2,0:0:0:0:
60,147,114981,2,0,L|110:88,1,54,8|8,0:2|0:2,0:0:0:0:
235,15,115138,5,6,3:2:0:0:
163,177,115294,1,2,3:2:0:0:
163,177,115372,1,0,3:0:0:0:
163,177,115450,1,10,0:2:0:0:
422,141,115606,2,0,B|329:109|329:109|281:129,1,145.799995550537,2|0,3:2|0:0,0:0:0:0:
264,134,115919,2,0,P|252:181|242:228,1,97.1999970336915,2|8,3:2|0:2,0:0:0:0:
309,359,116231,1,2,3:2:0:0:
332,198,116388,1,0,0:0:0:0:
147,240,116544,1,0,3:2:0:0:
339,211,116700,1,10,0:2:0:0:
134,331,116856,6,0,P|67:290|85:179,1,194.399994067383,2|2,0:2|3:2,0:0:0:0:
262,102,117325,1,8,0:2:0:0:
344,286,117481,1,2,0:2:0:0:
135,228,117638,6,0,P|193:211|234:202,1,97.1999970336915,2|2,3:2|3:2,0:0:0:0:
380,204,117950,1,10,0:2:0:0:
239,289,118106,1,2,3:2:0:0:
179,107,118263,1,0,0:0:0:0:
386,178,118419,1,2,3:2:0:0:
228,203,118575,1,8,0:2:0:0:
442,284,118731,6,0,P|392:260|338:242,1,97.1999970336915,2|0,3:2|0:0,0:0:0:0:
153,327,119044,2,0,P|207:306|249:284,1,97.1999970336915,0|10,3:2|0:2,0:0:0:0:
330,91,119356,2,0,P|296:138|270:193,1,97.1999970336915,2|0,0:2|3:2,0:0:0:0:
321,341,119669,1,2,3:2:0:0:
199,203,119825,1,8,0:2:0:0:
427,122,119981,1,2,0:2:0:0:
241,288,120138,6,0,B|194:288|194:288|152:260|152:260|82:267|46:217,1,194.399994067383,6|10,3:2|0:2,0:0:0:0:
296,207,120606,2,0,P|322:248|313:349,1,145.799995550537,2|0,3:2|0:0,0:0:0:0:
302,357,120919,2,0,P|349:371|402:386,1,97.1999970336915,2|8,3:2|0:2,0:0:0:0:
500,214,121231,1,2,3:2:0:0:
500,214,121309,1,0,3:0:0:0:
500,214,121388,2,0,P|431:234|377:252,1,97.1999970336915,0|0,0:0|3:2,0:0:0:0:
239,147,121700,1,10,0:2:0:0:
313,266,121856,1,0,0:0:0:0:
405,139,122013,1,0,3:2:0:0:
352,348,122169,1,2,3:2:0:0:
252,172,122325,1,8,0:2:0:0:
103,241,122481,6,0,B|231:292|231:292|294:266,1,194.399994067383,2|0,0:2|3:2,0:0:0:0:
405,144,122950,1,10,0:2:0:0:
231,195,123106,2,0,P|194:134|179:101,1,97.1999970336915,2|0,0:2|3:2,0:0:0:0:
370,277,123419,2,0,P|354:338|333:390,1,97.1999970336915,2|8,3:2|0:2,0:0:0:0:
293,105,123731,1,2,3:2:0:0:
476,261,123888,1,0,0:0:0:0:
320,192,124044,1,0,3:2:0:0:
222,334,124200,2,0,P|141:342|90:261,1,145.799995550537,14|0,0:2|0:0,0:0:0:0:
37,251,124513,6,0,P|51:219|62:183,1,48.5999985168458,10|8,0:2|0:2,0:0:0:0:
175,66,124669,2,0,P|161:106|155:139,1,48.5999985168458,8|8,0:2|0:2,0:0:0:0:
173,272,124825,2,0,P|217:256|241:251,1,48.5999985168458,10|8,0:2|0:2,0:0:0:0:
287,113,124981,2,0,P|332:131|354:138,1,48.5999985168458,8|8,0:2|0:2,0:0:0:0:
473,201,125138,6,0,P|413:223|368:239,1,97.1999970336915,6|2,3:2|3:2,0:0:0:0:
214,165,125450,1,10,0:2:0:0:
443,36,125606,2,0,P|427:95|407:161,1,97.1999970336915,2|0,3:2|0:0,0:0:0:0:
330,319,125919,1,2,3:2:0:0:
316,125,126075,1,8,0:2:0:0:
176,242,126231,1,2,3:2:0:0:
457,273,126388,6,0,P|416:220|324:241,1,145.799995550537
328,243,126700,2,0,P|279:231|232:219,1,97.1999970336915,10|2,0:2|0:2,0:0:0:0:
88,124,127013,1,0,3:2:0:0:
220,228,127169,1,2,3:2:0:0:
30,273,127325,1,8,0:2:0:0:
210,99,127481,6,0,P|196:179|166:318,1,194.399994067383,2|2,0:2|3:2,0:0:0:0:
48,152,127950,1,10,0:2:0:0:
43,357,128106,2,0,P|68:303|95:255,1,97.1999970336915,2|0,3:2|0:0,0:0:0:0:
252,342,128419,2,0,P|308:325|363:306,1,97.1999970336915,2|8,3:2|0:2,0:0:0:0:
463,175,128731,6,0,P|389:106|281:152,1,194.399994067383,2|0,3:2|3:2,0:0:0:0:
261,297,129200,1,10,0:2:0:0:
205,94,129356,1,2,0:2:0:0:
364,184,129513,1,0,3:2:0:0:
213,221,129669,1,2,3:2:0:0:
408,318,129825,1,8,0:2:0:0:
151,270,129981,6,0,P|202:254|261:237,1,97.1999970336915,2|6,0:2|3:2,0:0:0:0:
463,258,130294,1,2,3:2:0:0:
319,157,130450,1,10,0:2:0:0:
233,345,130606,1,2,3:2:0:0:
233,345,130684,1,0,3:0:0:0:
233,345,130763,1,0,0:0:0:0:
345,248,130919,1,2,3:2:0:0:
179,129,131075,1,8,0:2:0:0:
324,342,131231,6,0,P|395:326|431:229,1,145.799995550537,2|0,3:2|0:0,0:0:0:0:
446,245,131544,2,0,P|428:201|399:137,1,97.1999970336915,0|10,3:2|0:2,0:0:0:0:
213,62,131856,2,0,P|230:111|243:169,1,97.1999970336915,2|0,0:2|3:2,0:0:0:0:
72,341,132169,2,0,P|93:276|115:233,1,97.1999970336915,2|8,3:2|0:2,0:0:0:0:
357,271,132481,6,0,P|313:326|183:301,1,194.399994067383,2|0,3:2|3:2,0:0:0:0:
73,170,132950,1,10,0:2:0:0:
293,155,133106,2,0,P|280:219|264:267,1,97.1999970336915,2|0,0:2|3:2,0:0:0:0:
120,73,133419,1,2,3:2:0:0:
183,217,133575,1,8,0:2:0:0:
388,148,133731,1,2,3:2:0:0:
222,307,133888,6,0,P|153:314|94:251,1,145.799995550537
60,152,134200,6,0,P|107:167|177:188,1,97.1999970336915,14|0,0:2|0:0,0:0:0:0:
446,144,134513,1,10,0:2:0:0:
398,136,134591,1,8,0:2:0:0:
353,153,134669,1,8,0:2:0:0:
321,189,134747,1,8,0:2:0:0:
311,236,134825,1,6,3:2:0:0:
311,236,135138,6,0,P|290:175|272:107,1,121.5,10|0,0:2|0:0,0:0:0:0:
194,120,135450,2,0,P|173:179|161:210,1,81,0|0,3:2|3:2,0:0:0:0:
307,347,135763,6,0,P|261:306|181:316,1,121.5,10|0,0:2|0:0,0:0:0:0:
117,301,136075,2,0,P|134:365|147:401,1,81,0|0,3:2|3:2,0:0:0:0:
166,196,136388,6,0,P|125:138|137:62,1,121.5,10|0,0:2|0:0,0:0:0:0:
219,25,136700,2,0,P|280:48|318:64,1,81,0|0,3:2|3:2,0:0:0:0:
418,267,137013,6,0,P|419:194|357:151,1,121.5,10|0,0:2|0:0,0:0:0:0:
292,183,137325,2,0,P|242:211|202:238,1,81,8|0,0:2|0:0,0:0:0:0:
43,309,137638,6,0,P|105:299|190:365,1,162,14|0,0:2|0:0,0:0:0:0:
371,193,138106,2,0,P|339:237|232:246,1,162,8|0,3:3|0:0,0:0:0:0:
134,158,138575,1,8,3:2:0:0:
192,343,138731,1,0,3:2:0:0:
192,343,138809,1,0,3:0:0:0:
192,343,138888,2,0,P|211:301|231:245,1,81,2|0,3:2|3:2,0:0:0:0:
279,62,139200,1,6,3:2:0:0:
279,62,139513,5,0,3:2:0:0:
165,121,139669,1,0,3:2:0:0:
353,162,139825,1,0,3:2:0:0:
111,233,139981,1,0,3:2:0:0:
381,293,140138,6,0,B|441:264|512:284|512:284|470:245,1,182.250006952286,6|0,3:2|3:2,0:0:0:0:
298,241,140763,1,10,0:2:0:0:
298,241,141075,2,0,P|224:265|139:182,1,182.250006952286,2|0,0:2|0:0,0:0:0:0:
62,217,141700,2,0,P|72:171|73:128,1,60.7500023174287,0|0,3:2|0:0,0:0:0:0:
42,18,142013,2,0,B|96:60|163:43|163:43|113:-2,1,182.250006952286,10|0,0:2|0:0,0:0:0:0:
153,125,142638,5,2,3:2:0:0:
153,125,143109,1,2,3:2:0:0:
262,122,143267,2,0,P|280:80|281:-8,2,121.500004634857,10|2|0,0:2|0:2|0:0,0:0:0:0:
245,137,144214,2,0,L|262:205,1,60.7500023174287,0|0,3:2|0:0,0:0:0:0:
158,313,144543,2,0,B|213:292|213:292|264:299|264:299|335:271,1,176.175005376434,10|0,0:2|0:0,0:0:0:0:
503,330,145138,5,6,3:2:0:0:
426,296,145295,2,0,B|395:257|408:210|408:210|435:188,1,121.500004634857,2|0,3:2|3:2,0:0:0:0:
477,100,145768,1,10,0:2:0:0:
477,100,146084,2,0,P|397:117|339:126,2,121.500004634857,2|0|2,0:2|0:0|3:2,0:0:0:0:
264,209,147039,1,10,0:2:0:0:
264,209,147660,6,0,P|276:142|236:84,1,121.500004634857,2|0,3:2|0:0,0:0:0:0:
171,83,148112,1,0,3:2:0:0:
86,173,148263,2,0,P|74:240|114:298,2,121.500004634857,10|2|2,0:2|0:2|0:2,0:0:0:0:
102,156,149200,2,0,P|152:165|179:167,1,60.7500023174287,10|0,3:3|0:0,0:0:0:0:
174,314,149529,2,0,P|215:285|236:267,1,60.7500023174287,10|0,3:3|0:0,0:0:0:0:
341,260,149825,2,0,P|350:209|352:183,1,60.7500023174287,10|0,3:3|0:0,0:0:0:0:
509,38,150123,5,2,3:2:0:0:
446,101,150312,2,0,B|403:93|358:115|358:115|322:100,1,121.500004634857,2|0,3:2|3:2,0:0:0:0:
244,156,150773,2,0,P|237:89|266:19,2,121.500004634857,10|2|0,0:2|0:2|0:0,0:0:0:0:
392,212,151712,2,0,P|440:201|470:189,1,60.7500023174287,2|0,3:2|0:0,0:0:0:0:
274,282,152041,2,0,B|214:286|214:286|164:309|164:309|133:296|76:292,1,182.250006952286,10|0,0:2|0:0,0:0:0:0:
59,374,152638,5,0,3:2:0:0:
59,374,153083,1,0,3:2:0:0:
21,261,153232,2,0,P|34:206|71:146,1,121.500004634857,10|2,0:2|0:2,0:0:0:0:
264,57,153888,2,0,L|159:76,1,91.125003476143,2|0,0:2|0:0,0:0:0:0:
72,100,154200,2,0,P|110:127|149:140,1,60.7500023174287,2|0,3:2|0:0,0:0:0:0:
221,252,154529,2,0,B|255:221|263:172|263:172|240:139,1,121.500004634857,10|2,0:2|0:2,0:0:0:0:
46,298,155138,5,2,3:2:0:0:
110,351,155294,2,0,P|181:342|238:338,1,121.500004634857,2|0,3:2|3:2,0:0:0:0:
452,281,155763,1,10,0:2:0:0:
342,318,156075,2,0,P|292:315|203:211,1,182.250006952286,2|2,0:2|0:2,0:0:0:0:
120,232,156700,2,0,P|126:193|144:159,1,60.7500023174287,2|0,3:2|0:0,0:0:0:0:
276,116,157037,1,10,0:2:0:0:
276,116,157615,6,0,P|298:172|304:232,1,121.500004634857,0|2,3:2|0:2,0:0:0:0:
214,274,158103,1,2,3:2:0:0:
352,333,158273,1,8,0:2:0:0:
352,333,158595,2,0,B|371:302|403:286|403:286|438:294,1,91.125003476143,12|0,0:2|0:0,0:0:0:0:
491,327,158888,5,2,3:3:0:0:
439,207,159044,2,0,P|379:204|319:152,1,121.500004634857,2|2,3:3|3:3,0:0:0:0:
186,218,159513,1,2,3:3:0:0:
156,133,159669,1,2,3:3:0:0:
216,70,159825,1,2,3:3:0:0:
235,74,159981,1,2,3:3:0:0:
252,78,160138,6,0,B|187:67|134:106|134:106|66:90,1,182.250006952286,6|0,3:2|3:2,0:0:0:0:
8,158,160763,2,0,P|38:215|28:279,1,121.500004634857,10|0,0:2|3:2,0:0:0:0:
114,345,161231,2,0,P|108:285|125:251,1,91.125003476143,0|0,3:2|0:0,0:0:0:0:
178,211,161544,5,0,3:2:0:0:
255,204,161700,1,0,3:2:0:0:
321,247,161856,1,0,3:2:0:0:
392,273,162013,2,0,L|479:272,1,60.7500023174287,10|0,0:2|0:0,0:0:0:0:
500,96,162325,6,0,B|431:117|431:117|448:99,1,91.125003476143,6|0,0:2|0:0,0:0:0:0:
482,180,162638,6,0,B|493:151|493:151|427:74|338:129,1,182.250006952286,2|0,3:2|3:2,0:0:0:0:
163,140,163263,2,0,P|203:157|235:157,1,60.7500023174287,10|0,0:2|0:0,0:0:0:0:
280,97,163575,1,0,3:2:0:0:
280,97,163731,1,0,3:2:0:0:
67,59,163888,6,0,P|126:49|180:22,1,121.500004634857,0|0,3:2|3:2,0:0:0:0:
163,140,164356,1,0,3:2:0:0:
258,121,164513,2,0,L|248:205,1,60.7500023174287,10|0,0:2|0:0,0:0:0:0:
77,220,164825,2,0,L|69:159,1,60.7500023174287,0|0,3:2|3:2,0:0:0:0:
57,243,165059,5,0,3:0:0:0:
57,243,165138,2,0,B|95:275|143:277|143:277|186:252,1,121.500004634857,6|0,3:2|3:2,0:0:0:0:
242,208,165606,1,0,3:2:0:0:
333,216,165763,2,0,P|338:271|322:345,1,121.500004634857,10|0,0:2|3:2,0:0:0:0:
429,248,166231,6,0,L|439:172,1,60.7500023174287,0|0,3:2|3:2,0:0:0:0:
323,284,166544,2,0,L|315:344,2,60.7500023174287,0|0|0,3:2|3:2|3:2,0:0:0:0:
135,346,167013,1,10,0:2:0:0:
135,346,167325,2,0,B|123:328|123:328|162:338|192:315,1,91.125003476143,6|0,0:2|0:0,0:0:0:0:
243,258,167638,5,2,3:2:0:0:
236,179,167794,1,0,3:2:0:0:
174,132,167950,1,0,3:2:0:0:
156,138,168106,1,0,3:2:0:0:
141,143,168263,2,0,L|71:132,1,60.7500023174287,10|0,0:2|0:0,0:0:0:0:
371,143,168575,2,0,L|441:132,1,60.7500023174287,0|0,3:2|3:2,0:0:0:0:
496,282,168888,5,0,3:2:0:0:
506,206,169044,1,0,3:2:0:0:
332,266,169200,2,0,B|359:224|411:221|411:221|450:248,1,121.500004634857,6|0,3:2|3:2,0:0:0:0:
315,293,169669,5,0,3:2:0:0:
250,195,169825,1,0,3:2:0:0:
314,87,169981,1,0,3:2:0:0:
498,88,170138,5,6,3:2:0:0:
405,126,170294,2,0,P|341:124|279:108,1,121.500004634857,0|0,3:2|3:2,0:0:0:0:
159,186,170763,2,0,L|135:57,1,121.500004634857,10|0,0:2|3:2,0:0:0:0:
70,144,171231,2,0,L|46:273,1,121.500004634857,0|0,3:2|3:2,0:0:0:0:
181,335,171700,1,0,3:2:0:0:
181,335,171856,1,0,3:2:0:0:
134,267,172013,1,10,0:2:0:0:
378,267,172325,6,0,B|306:283|306:283|329:292,1,91.125003476143,6|0,0:2|0:0,0:0:0:0:
444,212,172638,6,0,B|394:278|410:348|410:348|443:325,1,182.250006952286,2|0,3:2|3:2,0:0:0:0:
469,193,173263,2,0,P|414:189|376:165,1,91.125003476143,10|0,0:2|0:0,0:0:0:0:
331,111,173575,2,0,P|327:73|339:29,1,60.7500023174287,0|0,3:2|3:2,0:0:0:0:
108,106,173888,6,0,B|246:86|246:86|204:127,1,182.250006952286,0|0,3:2|3:2,0:0:0:0:
41,165,174513,1,10,0:2:0:0:
41,165,174825,2,0,P|75:180|108:212,1,60.7500023174287,0|0,3:2|3:2,0:0:0:0:
135,266,175059,5,0,3:0:0:0:
135,266,175138,2,0,L|125:196,1,60.7500023174287,6|0,3:2|3:2,0:0:0:0:
247,301,175450,1,0,3:2:0:0:
247,301,175606,1,0,3:2:0:0:
206,157,175763,2,0,L|223:277,1,121.500004634857,10|0,0:2|3:2,0:0:0:0:
315,157,176231,1,0,3:2:0:0:
304,241,176388,2,0,L|295:180,1,60.7500023174287,0|2,3:2|3:2,0:0:0:0:
358,302,176700,5,2,3:2:0:0:
439,318,176856,1,2,3:2:0:0:
512,274,177013,1,10,0:2:0:0:
276,319,177325,2,0,B|244:304|206:309|206:309|219:337,1,91.125003476143,6|0,0:2|0:0,0:0:0:0:
246,342,177638,5,8,3:3:0:0:
360,278,177950,1,8,3:3:0:0:
134,230,178263,1,8,3:3:0:0:
466,125,178575,1,8,3:3:0:0:
2,83,178888,5,10,0:2:0:0:
172,138,179044,1,8,0:2:0:0:
75,151,179200,1,8,0:2:0:0:
243,16,179356,1,10,0:2:0:0:
275,228,179513,5,10,0:2:0:0:
285,256,179591,1,8,2:2:0:0:
279,285,179669,1,8,0:2:0:0:
259,308,179747,1,8,2:2:0:0:
231,317,179825,1,10,0:2:0:0:
202,311,179903,1,8,2:2:0:0:
179,291,179981,1,8,0:2:0:0:
170,262,180059,1,8,2:2:0:0:
177,233,180138,6,0,P|196:175|168:108,1,121.5,6|0,3:2|0:0,0:0:0:0:
96,62,180450,2,0,P|141:45|192:27,1,81,0|0,3:2|0:0,0:0:0:0:
400,130,180763,2,0,B|366:139|366:139|345:118|345:118|288:123|254:81,1,162,8|0,0:2|3:2,0:0:0:0:
440,48,181231,1,0,0:0:0:0:
465,221,181388,2,0,P|453:267|428:309,2,81,0|8|0,3:2|0:2|3:2,0:0:0:0:
388,117,181856,5,0,0:0:0:0:
233,266,182013,2,0,P|303:249|380:229,1,121.5,8|0,0:2|0:0,0:0:0:0:
291,166,182325,2,0,P|251:150|179:134,1,81,0|0,3:2|0:0,0:0:0:0:
67,317,182638,6,0,P|118:278|89:174,2,162,2|0|8,3:2|3:2|0:2,0:0:0:0:
68,317,183575,1,0,3:2:0:0:
206,240,183731,1,0,0:0:0:0:
66,63,183888,5,2,3:2:0:0:
107,188,184044,1,8,0:2:0:0:
299,118,184200,1,0,3:2:0:0:
299,118,184513,2,0,L|269:266,1,121.5,10|0,0:2|0:0,0:0:0:0:
326,334,184825,2,0,P|351:298|373:257,1,81,8|8,0:2|0:2,0:0:0:0:
181,54,185138,6,0,P|212:114|318:101,1,162,6|0,3:2|3:2,0:0:0:0:
388,34,185606,1,0,0:0:0:0:
480,245,185763,2,0,L|353:221,1,121.5,8|0,0:2|0:0,0:0:0:0:
336,239,186075,6,0,P|323:193|314:136,1,81,0|0,3:2|0:0,0:0:0:0:
340,24,186388,1,0,3:2:0:0:
421,151,186544,1,8,0:2:0:0:
230,112,186700,1,0,3:2:0:0:
230,112,187013,6,0,P|195:158|215:243,1,121.5,8|0,0:2|0:0,0:0:0:0:
273,263,187325,2,0,L|362:227,1,81,0|0,3:2|0:0,0:0:0:0:
187,351,187638,6,0,B|137:338|137:338|65:346|65:346|19:331,2,162,6|0|8,3:2|3:2|0:2,0:0:0:0:
278,237,188419,1,0,0:0:0:0:
189,123,188575,2,0,P|127:132|105:197,1,121.5,0|0,3:2|0:0,0:0:0:0:
92,265,188888,6,0,P|141:253|191:242,1,81,2|8,3:2|0:2,0:0:0:0:
392,278,189200,1,0,3:2:0:0:
392,278,189513,5,8,0:2:0:0:
319,205,189669,1,0,0:0:0:0:
207,308,189825,1,8,0:2:0:0:
264,118,189981,1,8,0:2:0:0:
83,47,190138,6,0,P|63:114|161:171,2,162,6|0|8,3:2|3:2|0:2,0:0:0:0:
203,104,190919,1,0,0:0:0:0:
140,267,191075,2,0,P|78:257|27:197,1,121.5,0|0,3:2|0:0,0:0:0:0:
204,202,191388,2,0,P|223:261|237:306,1,81,0|8,3:2|0:2,0:0:0:0:
401,128,191700,2,0,P|382:183|358:262,1,121.5,0|0,3:2|0:0,0:0:0:0:
382,337,192013,2,0,P|442:314|484:296,1,81,8|0,0:2|0:0,0:0:0:0:
286,153,192325,1,0,3:2:0:0:
286,153,192638,6,0,B|244:163|244:163|216:143|216:143|156:146|118:102,1,162,6|0,3:2|3:2,0:0:0:0:
288,61,193106,1,0,0:0:0:0:
355,246,193263,2,0,P|387:196|364:115,1,121.5,8|0,0:2|0:0,0:0:0:0:
300,182,193575,2,0,P|273:236|276:284,1,81,0|0,3:2|0:0,0:0:0:0:
335,354,193888,5,2,3:2:0:0:
196,246,194044,1,8,0:2:0:0:
381,129,194200,1,0,3:2:0:0:
381,129,194513,5,8,0:2:0:0:
276,282,194669,1,0,0:0:0:0:
235,17,194825,1,8,0:2:0:0:
268,39,194903,1,8,0:2:0:0:
289,73,194981,1,8,0:2:0:0:
293,113,195059,1,8,0:2:0:0:
280,151,195138,6,0,P|229:176|191:187,1,81,6|0,3:2|3:2,0:0:0:0:
76,140,195450,1,10,0:2:0:0:
49,283,195606,1,8,0:0:0:0:
49,283,195684,1,8,0:2:0:0:
49,283,195763,2,0,P|96:293|137:306,1,81,0|0,3:2|3:2,0:0:0:0:
273,368,196075,2,0,P|251:311|241:278,1,81,10|0,0:2|0:0,0:0:0:0:
408,119,196388,6,0,P|422:180|356:272,1,162,6|10,3:2|0:2,0:0:0:0:
193,162,196856,1,0,0:0:0:0:
360,29,197013,1,2,3:2:0:0:
332,179,197169,1,0,3:2:0:0:
176,157,197325,1,10,0:2:0:0:
301,315,197481,1,0,0:0:0:0:
54,266,197638,6,0,B|100:250|100:250|165:265|165:265|235:241,1,162,6|10,3:2|0:2,0:0:0:0:
352,130,198106,1,0,0:0:0:0:
156,164,198263,2,0,P|85:146|52:134,1,81,0|0,3:2|3:2,0:0:0:0:
269,50,198575,1,10,0:2:0:0:
265,320,198731,5,0,3:0:0:0:
265,320,198809,1,0,3:0:0:0:
265,320,198888,1,8,0:2:0:0:
200,160,199044,1,8,0:2:0:0:
356,228,199200,1,8,0:2:0:0:
148,277,199356,1,8,0:2:0:0:
319,88,199513,2,0,L|299:140,1,40.5,10|8,0:2|0:2,0:0:0:0:
250,287,199669,2,0,L|231:231,1,40.5,8|8,0:2|0:2,0:0:0:0:
202,59,199825,2,0,L|147:83,1,40.5,10|8,0:2|0:2,0:0:0:0:
66,202,199981,2,0,L|113:186,1,40.5,8|8,0:2|0:2,0:0:0:0:
200,160,200138,5,6,3:2:0:0:
200,160,200450,1,0,3:2:0:0:
200,160,200763,1,0,3:2:0:0:
126,299,200919,1,0,0:0:0:0:
89,103,201075,1,2,3:2:0:0:
227,188,201231,1,0,0:0:0:0:
0,204,201388,6,0,B|115:184|115:184|74:231,1,162,6|0,3:2|3:2,0:0:0:0:
257,292,201856,1,2,0:2:0:0:
278,287,202013,1,0,3:2:0:0:
160,255,202169,1,0,0:0:0:0:
283,375,202325,1,2,3:2:0:0:
418,248,202481,5,0,3:0:0:0:
418,248,202559,1,0,3:0:0:0:
418,248,202638,2,0,B|456:195|437:135|437:135|398:176,1,162,6|0,3:2|3:2,0:0:0:0:
363,327,203106,2,0,P|401:340|441:345,1,81,2|0,0:2|3:2,0:0:0:0:
330,207,203419,1,0,0:0:0:0:
174,165,203575,2,0,P|133:170|95:183,1,81,2|0,3:2|0:0,0:0:0:0:
11,205,203809,5,0,0:0:0:0:
11,205,203888,2,0,B|77:210|115:258|115:258|159:246,1,162,6|0,3:2|3:2,0:0:0:0:
154,247,204356,1,2,0:2:0:0:
25,293,204513,1,0,3:2:0:0:
206,177,204669,1,0,0:0:0:0:
115,23,204825,2,0,L|92:212,1,162,2|6,3:2|3:2,0:0:0:0:
95,183,205450,5,0,3:2:0:0:
73,101,205606,1,0,3:2:0:0:
275,80,205763,1,0,3:2:0:0:
250,243,205919,1,0,3:2:0:0:
161,128,206075,1,0,3:2:0:0:
320,167,206231,1,0,3:2:0:0:
155,267,206388,5,0,3:2:0:0:
136,270,206544,1,0,3:2:0:0:
356,316,206700,1,0,3:2:0:0:
375,319,206856,1,0,3:2:0:0:
162,353,207013,5,10,0:2:0:0:
305,183,207169,1,8,0:2:0:0:
263,339,207325,5,10,0:2:0:0:
190,121,207481,1,8,0:2:0:0:
0,202,207638,6,0,B|33:222|33:222|77:220|120:191,1,121.5,6|0,3:2|0:0,0:0:0:0:
111,196,207950,2,0,L|160:222,1,40.5,10|8,0:2|0:2,0:0:0:0:
253,350,208106,2,0,L|250:294,1,40.5,8|8,0:2|0:2,0:0:0:0:
280,171,208263,2,0,L|315:150,1,40.5,10|8,0:2|0:2,0:0:0:0:
459,163,208419,6,0,L|494:181,1,40.5,8|8,0:2|0:2,0:0:0:0:
426,307,208575,2,0,L|390:288,1,40.5,10|8,0:2|0:2,0:0:0:0:
224,236,208731,2,0,L|188:254,1,40.5,8|8,0:2|0:2,0:0:0:0:
57,334,208888,5,10,0:2:0:0:
57,334,208966,1,8,0:2:0:0:
57,334,209044,2,0,P|80:345|124:346,1,40.5,8|8,0:2|0:2,0:0:0:0:
317,247,209200,5,10,0:2:0:0:
317,247,209278,1,8,0:2:0:0:
317,247,209356,2,0,P|315:221|293:182,1,40.5,8|8,0:2|0:2,0:0:0:0:
111,65,209513,5,10,0:2:0:0:
111,65,209591,1,10,0:2:0:0:
111,65,209669,2,0,P|89:79|67:117,1,40.5,10|10,0:2|0:2,0:0:0:0:
175,290,209825,6,0,B|221:143|221:143|172:198,1,226.799993078613,6|0,3:2|3:2,0:0:0:0:
175,290,210294,5,8,3:2:0:0:
398,207,210450,2,0,B|445:223|445:223|484:214,1,89.1000027191163,8|0,3:3|3:3,0:0:0:0:
218,19,210763,5,8,3:3:0:0:
266,211,210919,2,0,L|245:125,1,89.1000027191163,8|0,3:3|3:3,0:0:0:0:
453,58,211231,6,0,B|406:68|369:37|369:37|326:50,1,133.650004078674,14|0,0:2|0:0,0:0:0:0:
327,50,211544,1,8,3:3:0:0:
139,95,211700,1,8,0:2:0:0:
357,162,211856,1,0,0:0:0:0:
97,263,212013,5,10,0:2:0:0:
97,263,212091,1,8,0:2:0:0:
97,263,212169,1,8,0:2:0:0:
97,263,212247,1,8,0:2:0:0:
97,263,212325,5,10,0:2:0:0:
41,245,212403,1,8,0:2:0:0:
41,187,212481,1,8,0:2:0:0:
97,169,212559,1,8,0:2:0:0:
131,216,212638,5,6,3:2:0:0:
176,283,212950,1,2,3:2:0:0:
255,301,213263,1,0,3:2:0:0:
328,267,213419,1,2,3:2:0:0:
358,191,213575,1,0,3:2:0:0:
329,115,213888,6,0,B|307:53|347:-2|347:-2|359:52,1,162,0|2,3:2|3:2,0:0:0:0:
487,124,214356,2,0,P|447:114|408:96,1,81,0|2,3:2|3:2,0:0:0:0:
196,202,214669,2,0,P|232:185|272:175,1,81,2|0,3:2|3:2,0:0:0:0:
432,272,214981,5,2,3:2:0:0:
421,279,215059,1,0,3:0:0:0:
411,286,215138,2,0,B|373:309|373:309|303:306|249:252,1,162,6|2,3:2|3:2,0:0:0:0:
30,213,215606,2,0,P|75:217|119:236,1,81,2|0,3:2|3:2,0:0:0:0:
200,366,215919,2,0,L|173:269,1,81,2|0,3:2|3:2,0:0:0:0:
178,65,216231,1,2,3:2:0:0:
82,111,216388,5,8,0:2:0:0:
88,129,216544,1,8,0:2:0:0:
265,266,216700,2,0,L|335:246,1,40.5,6|0,3:2|0:0,0:0:0:0:
353,187,216856,2,0,B|345:133|345:133|309:245,1,162,2|2,0:2|3:2,0:0:0:0:
242,185,217325,1,0,3:2:0:0:
393,271,217481,2,0,P|414:256|428:233,1,40.5,0|0,3:2|0:0,0:0:0:0:
184,240,217638,6,0,B|153:252|121:246|121:246|90:264|90:264|59:259|28:270,1,162,6|2,3:2|3:2,0:0:0:0:
248,345,218106,2,0,P|260:295|266:250,1,81,2|0,0:2|3:2,0:0:0:0:
127,85,218419,2,0,P|133:124|143:164,1,81,2|0,0:2|3:2,0:0:0:0:
104,349,218731,2,0,L|154:325,1,40.5,2|0,0:2|0:0,0:0:0:0:
348,230,218888,6,0,B|377:203|377:203|332:156|252:183,1,162,6|0,3:2|3:2,0:0:0:0:
22,267,219356,2,0,P|61:260|108:241,1,81,2|0,0:2|3:2,0:0:0:0:
264,265,219669,1,2,0:2:0:0:
190,99,219825,2,0,P|175:136|168:176,1,81,0|0,3:2|0:0,0:0:0:0:
337,323,220138,5,14,0:2:0:0:
460,214,220294,2,0,L|368:201,1,81,0|0,3:2|3:2,0:0:0:0:
79,345,220606,2,0,B|134:358|183:320|183:320|244:359,1,162,10|0,0:2|3:2,0:0:0:0:
422,384,221075,2,0,P|428:329|444:282,1,81,10|0,0:2|3:2,0:0:0:0:
340,130,221388,5,0,3:2:0:0:
268,237,221544,1,10,0:2:0:0:
248,242,221622,1,0,3:0:0:0:
228,242,221700,1,0,3:2:0:0:
209,236,221778,1,0,3:0:0:0:
192,224,221856,1,0,3:2:0:0:
180,208,221934,1,0,3:0:0:0:
173,189,222013,2,0,L|193:125,1,40.5,8|8,3:3|3:3,0:0:0:0:
109,5,222169,2,0,L|96:43,1,40.5,8|8,3:3|3:3,0:0:0:0:
23,166,222325,2,0,L|61:153,1,40.5,4|4,3:3|3:3,0:0:0:0:
198,47,222481,2,0,L|236:59,1,40.5,4|4,3:3|3:3,0:0:0:0:
347,179,222638,5,6,3:2:0:0:
367,175,222794,1,0,0:0:0:0:
453,37,222950,1,0,3:2:0:0:
294,0,223106,2,0,B|261:58|279:128|279:128|310:100,1,162,2|2,0:2|0:2,0:0:0:0:
512,143,223575,2,0,P|481:128|419:118,1,81,0|2,3:2|0:2,0:0:0:0:
265,211,223888,6,0,B|152:192|152:192|192:224,1,162,2|2,3:2|3:2,0:0:0:0:
367,338,224356,2,0,B|380:302|380:302|372:246,1,81,2|0,0:2|3:2,0:0:0:0:
247,101,224669,2,0,B|240:143|240:143|253:179,1,81,2|0,0:2|3:2,0:0:0:0:
55,300,224981,5,2,0:2:0:0:
66,307,225059,1,0,3:0:0:0:
78,315,225138,2,0,B|169:287|139:343|245:310,1,162,6|2,3:2|3:2,0:0:0:0:
143,143,225606,2,0,P|100:159|60:165,1,81,2|0,0:2|3:2,0:0:0:0:
286,187,225919,2,0,P|323:172|363:165,1,81,2|0,0:2|3:2,0:0:0:0:
190,224,226231,5,2,0:2:0:0:
411,90,226388,2,0,P|389:227|383:266,1,162,6|0,3:2|3:2,0:0:0:0:
326,353,226856,5,2,0:2:0:0:
386,248,227013,1,0,3:2:0:0:
243,319,227169,5,0,0:0:0:0:
471,289,227325,1,2,3:2:0:0:
367,132,227481,6,0,P|372:166|374:176,1,40.5,2|0,0:2|0:0,0:0:0:0:
410,354,227638,1,6,3:2:0:0:
410,354,227950,5,8,3:3:0:0:
466,202,228106,1,8,3:3:0:0:
285,271,228263,1,8,3:3:0:0:
393,274,228419,5,8,3:3:0:0:
449,122,228575,1,8,3:3:0:0:
268,191,228732,1,8,3:3:0:0:
195,41,228888,5,10,3:3:0:0:
355,207,229044,1,8,3:3:0:0:
104,213,229200,5,10,2:2:0:0:
312,114,229356,1,8,2:2:0:0:
239,352,229513,5,10,2:2:0:0:
210,126,229669,1,8,2:2:0:0:
412,266,229825,5,10,2:2:0:0:
189,226,229981,1,8,2:2:0:0:
383,75,230138,6,0,P|398:111|402:157,1,81,6|0,3:2|0:0,0:0:0:0:
336,216,230450,1,10,0:2:0:0:
153,315,230606,1,8,0:2:0:0:
153,315,230684,1,8,0:2:0:0:
153,315,230763,1,10,0:2:0:0:
127,283,230841,1,8,0:2:0:0:
93,262,230919,1,8,0:2:0:0:
53,256,230997,1,8,0:2:0:0:
14,264,231075,1,10,0:2:0:0:
45,238,231153,1,8,0:2:0:0:
66,204,231231,1,8,0:2:0:0:
72,164,231309,1,10,0:2:0:0:
64,125,231388,6,0,L|41:70,1,40.5,10|10,0:2|0:2,0:0:0:0:
211,26,231544,2,0,L|226:63,1,40.5,10|10,0:2|0:2,0:0:0:0:
158,195,231700,2,0,L|173:157,1,40.5,10|10,0:2|0:2,0:0:0:0:
327,100,231856,2,0,L|364:115,1,40.5,10|10,0:2|0:2,0:0:0:0:
440,227,232013,5,10,0:2:0:0:
433,232,232091,1,10,0:2:0:0:
426,237,232169,1,10,0:2:0:0:
419,242,232247,1,10,0:2:0:0:
412,247,232325,1,10,3:3:0:0:
386,215,232403,1,10,3:3:0:0:
352,194,232481,1,10,3:3:0:0:
312,188,232559,1,10,3:3:0:0:
273,196,232638,6,0,P|229:248|131:223,1,162,6|8,3:2|0:2,0:0:0:0:
60,147,233106,1,2,3:2:0:0:
216,95,233263,2,0,P|202:152|190:199,1,81,0|0,0:0|3:2,0:0:0:0:
139,363,233575,2,0,P|192:348|234:336,1,81,10|0,0:2|0:0,0:0:0:0:
366,217,233888,5,2,3:2:0:0:
255,264,234044,1,0,3:2:0:0:
410,320,234200,1,8,0:2:0:0:
422,142,234356,1,2,3:2:0:0:
422,142,234434,1,0,3:0:0:0:
422,142,234513,1,0,0:0:0:0:
346,232,234669,1,0,3:2:0:0:
419,58,234825,1,10,0:2:0:0:
501,203,234981,1,0,0:0:0:0:
314,113,235138,6,0,B|231:88|246:153|155:122,1,162,2|8,3:2|0:2,0:0:0:0:
40,248,235606,2,0,P|82:229|148:213,1,81,2|0,3:2|0:0,0:0:0:0:
253,246,235919,1,0,3:2:0:0:
92,52,236075,2,0,P|69:113|58:152,1,81,10|0,0:2|0:0,0:0:0:0:
176,314,236388,5,2,3:2:0:0:
95,217,236544,1,0,3:2:0:0:
21,354,236700,1,8,0:2:0:0:
217,234,236856,2,0,P|256:268|237:383,1,162,2|0,3:2|3:2,0:0:0:0:
136,180,237325,2,0,P|179:159|224:137,1,81,10|0,0:2|0:0,0:0:0:0:
421,251,237638,6,0,P|382:239|343:228,1,81,6|0,3:2|0:0,0:0:0:0:
217,235,237950,1,8,0:2:0:0:
480,191,238106,2,0,P|509:246|455:336,1,162,2|0,3:2|3:2,0:0:0:0:
366,146,238575,1,8,0:2:0:0:
366,146,238888,6,0,P|389:89|405:50,1,81,2|0,3:2|3:2,0:0:0:0:
226,96,239200,1,10,0:2:0:0:
330,278,239356,2,0,P|375:264|413:250,1,81,0|2,3:2|0:2,0:0:0:0:
254,204,239669,1,0,3:2:0:0:
102,328,239825,1,14,0:2:0:0:
207,125,239981,1,0,0:0:0:0:
209,359,240138,6,0,B|159:258|159:258|177:197,1,162,10|0,3:2|3:2,0:0:0:0:
440,106,240606,2,0,P|411:157|293:168,1,162,10|0,0:2|3:2,0:0:0:0:
60,63,241075,2,0,P|121:82|162:93,1,81,10|0,0:2|3:2,0:0:0:0:
344,65,241388,5,0,3:2:0:0:
198,153,241544,1,10,0:2:0:0:
360,282,241700,1,0,3:2:0:0:
119,198,241856,1,0,3:2:0:0:
380,167,242013,2,0,L|364:214,1,40.5,10|8,0:2|0:2,0:0:0:0:
273,355,242169,2,0,L|254:300,1,40.5,8|8,0:2|0:2,0:0:0:0:
226,117,242325,2,0,L|208:172,1,40.5,10|8,0:2|0:2,0:0:0:0:
123,367,242481,2,0,L|103:307,1,40.5,8|8,0:2|0:2,0:0:0:0:
38,110,242633,5,2,0:2:0:0:
474,274,243278,1,2,0:2:0:0:
382,383,243600,1,2,0:2:0:0:
294,352,243776,6,0,P|278:298|293:227,1,121.500004634857,2|2,0:2|0:2,0:0:0:0:
385,229,244267,2,0,L|371:297,1,60.7500023174287,2|2,0:2|0:2,0:0:0:0:
199,252,244583,2,0,L|186:192,1,60.7500023174287,2|0,0:2|0:0,0:0:0:0:
285,41,244899,6,0,P|287:86|272:129,1,91.125003476143,2|0,0:2|0:0,0:0:0:0:
208,172,245232,2,0,B|72:149|72:149|104:191,1,182.250006952286,2|0,0:2|0:0,0:0:0:0:
65,300,245863,1,2,0:2:0:0:
65,300,246201,6,0,B|173:287,1,91.125003476143,2|0,0:2|0:0,0:0:0:0:
167,276,246540,2,0,B|188:253|188:253|242:249|293:291|287:342,1,182.250006952286,2|2,0:2|0:0,0:0:0:0:
366,294,247218,2,0,P|370:331|384:370,1,60.7500023174287,2|0,0:2|0:0,0:0:0:0:
448,302,247570,2,0,P|456:272|458:242,1,60.7500023174287,2|2,0:2|0:2,0:0:0:0:
454,226,247835,1,2,0:0:0:0:
450,214,247923,6,0,P|376:202|309:189,1,121.500004634857,2|0,0:2|0:0,0:0:0:0:
93,98,248629,2,0,P|167:86|234:73,1,121.500004634857,2|2,0:2|0:2,0:0:0:0:
362,9,249159,1,2,0:2:0:0:
304,69,249341,5,2,0:2:0:0:
304,69,249705,2,0,B|283:111|283:111|299:170,1,91.125003476143,2|0,0:2|0:0,0:0:0:0:
344,214,250092,2,0,B|288:186|288:186|231:201,1,121.500004634857,2|2,0:2|0:2,0:0:0:0:
156,227,250662,1,2,0:2:0:0:
84,203,250876,5,2,0:2:0:0:
84,203,250983,1,2,0:2:0:0:
84,203,251090,2,0,B|153:191|145:225|246:203,1,151.875005793572,2|0,0:2|0:0,0:0:0:0:
256,192,251733,12,0,256340,0:0:0:0:
