osu file format v14

[General]
AudioFilename: audio.mp3
AudioLeadIn: 0
PreviewTime: 212638
Countdown: 1
SampleSet: Normal
StackLeniency: 0.7
Mode: 2
LetterboxInBreaks: 0
WidescreenStoryboard: 0

[Editor]
DistanceSpacing: 2.5
BeatDivisor: 4
GridSize: 16
TimelineZoom: 2.599999

[Metadata]
Title:Flower
TitleUnicode:Flower
Artist:THE ORAL CIGARETTES
ArtistUnicode:THE ORAL CIGARETTES
Creator:Breath
Version:Abloom
Source:
Tags:Black Memory Before It's Too Late japanese male vocals vocalist jrock j-rock rock Sotarks
BeatmapID:4441632
BeatmapSetID:2115140

[Difficulty]
HPDrainRate:6
CircleSize:4
OverallDifficulty:9.4
ApproachRate:9.4
SliderMultiplier:1.8
SliderTickRate:2

[Events]
//Background and Video events
0,0,"bg.jpg",0,0
//Break Periods
//Storyboard Layer 0 (Background)
//Storyboard Layer 1 (Fail)
//Storyboard Layer 2 (Pass)
//Storyboard Layer 3 (Foreground)
//Storyboard Layer 4 (Overlay)
//Storyboard Sound Samples

[TimingPoints]
138,312.5,4,1,22,72,1,0
606,-108.695652173913,4,1,22,72,0,0
1388,-121.951219512195,4,1,22,62,0,0
2638,-108.695652173913,4,1,22,72,0,0
3888,-121.951219512195,4,1,22,62,0,0
5138,-108.695652173913,4,1,22,72,0,0
6388,-121.951219512195,4,1,22,62,0,0
7638,-121.951219512195,4,1,22,72,0,0
7950,-108.695652173913,4,1,22,72,0,0
8731,-100,4,1,22,82,0,0
9200,-100,4,1,22,72,0,0
9981,-100,4,1,22,82,0,0
10450,-98.0392156862745,4,1,22,82,0,0
12481,-100,4,1,22,82,0,0
12950,-98.0392156862745,4,1,22,82,0,0
23731,-100,4,1,22,82,0,0
24200,-98.0392156862745,4,1,22,82,0,0
30138,-121.951219512195,4,1,22,62,0,0
30606,-98.0392156862745,4,1,22,62,0,0
31388,-100,4,1,22,82,0,0
31856,-98.0392156862745,4,1,22,62,0,0
34356,-100,4,1,22,62,0,0
34825,-98.0392156862745,4,1,22,62,0,0
38106,-100,4,1,22,62,0,0
38575,-98.0392156862745,4,1,22,62,0,0
38888,-100,4,1,22,82,0,0
39825,-100,4,1,22,62,0,0
40138,-98.0392156862745,4,1,22,62,0,0
41856,-100,4,1,22,82,0,0
42325,-98.0392156862745,4,1,22,62,0,0
43106,-100,4,1,22,62,0,0
43575,-98.0392156862745,4,1,22,62,0,0
45138,-100,4,1,22,82,0,0
45606,-98.0392156862745,4,1,22,62,0,0
48106,-100,4,1,22,82,0,0
48575,-98.0392156862745,4,1,22,62,0,0
50138,-98.0392156862745,4,1,22,72,0,0
50606,-100,4,1,22,82,0,0
51544,-100,4,1,22,72,0,0
52013,-98.0392156862745,4,1,22,72,0,0
56075,-100,4,1,22,82,0,0
56544,-100,4,1,22,72,0,0
57013,-98.0392156862745,4,1,22,72,0,0
59200,-98.0392156862745,4,1,22,82,0,0
60138,-98.0392156862745,4,1,22,82,0,1
60606,-100,4,1,22,82,0,1
61700,-98.0392156862745,4,1,22,82,0,1
66231,-100,4,1,22,82,0,1
66700,-98.0392156862745,4,1,22,82,0,1
75138,-100,4,1,22,82,0,1
75606,-98.0392156862745,4,1,22,82,0,1
76231,-100,4,1,22,82,0,1
76700,-98.0392156862745,4,1,22,82,0,1
90138,-98.0392156862745,4,1,22,62,0,0
90606,-100,4,1,22,82,0,0
91075,-98.0392156862745,4,1,22,62,0,0
93888,-100,4,1,22,82,0,0
94825,-98.0392156862745,4,1,22,62,0,0
95606,-100,4,1,22,62,0,0
96075,-98.0392156862745,4,1,22,62,0,0
97638,-100,4,1,22,82,0,0
98575,-98.0392156862745,4,1,22,62,0,0
100138,-98.0392156862745,4,1,22,52,0,0
102638,-100,4,1,22,82,0,0
103106,-98.0392156862745,4,1,22,62,0,0
105606,-100,4,1,22,62,0,0
106075,-98.0392156862745,4,1,22,62,0,0
106388,-100,4,1,22,82,0,0
106856,-100,4,1,22,62,0,0
107638,-100,4,1,22,82,0,0
108106,-100,4,1,22,62,0,0
108888,-98.0392156862745,4,1,22,62,0,0
110138,-98.0392156862745,4,1,22,72,0,0
115138,-98.0392156862745,4,1,22,82,0,1
115606,-100,4,1,22,82,0,1
116231,-98.0392156862745,4,1,22,82,0,1
118731,-100,4,1,22,82,0,1
119356,-98.0392156862745,4,1,22,82,0,1
127638,-100,4,1,22,82,0,1
128106,-98.0392156862745,4,1,22,82,0,1
135138,-100,4,1,22,82,0,0
135606,-100,4,1,22,72,0,0
135763,-98.0392156862745,4,1,22,72,0,0
137638,-100,4,1,22,82,0,0
138106,-100,4,1,22,72,0,0
138263,-98.0392156862745,4,1,22,72,0,0
140138,-98.0392156862745,4,1,22,62,0,0
142638,314.547837483617,4,1,22,52,1,0
142638,-98.0392156862745,4,1,22,52,0,0
143896,352.941176470588,4,1,22,82,1,0
143896,-98.0392156862745,4,1,22,82,0,0
144204,352.941176470588,4,1,22,82,1,0
144204,-98.0392156862745,4,1,22,82,0,0
144543,282.352941176471,4,1,22,62,1,0
144543,-98.0392156862745,4,1,22,62,0,0
144825,312.5,4,1,22,62,1,0
144825,-98.0392156862745,4,1,22,62,0,0
145138,315.457413249211,4,1,22,62,1,0
145138,-98.0392156862745,4,1,22,62,0,0
146084,-100,4,1,22,82,0,0
146715,324.324324324324,4,1,22,62,1,0
147039,310.880829015544,4,1,22,62,1,0
147660,301.507537688442,4,1,22,62,1,0
148263,312.5,4,1,22,62,1,0
148888,-100,4,1,22,82,0,0
149200,329.67032967033,4,1,22,82,1,0
149529,296.296296296296,4,1,22,62,1,0
149825,298.507462686567,4,1,22,62,1,0
150123,379.746835443038,4,1,22,62,1,0
150312,307.692307692308,4,1,22,62,1,0
150312,-98.0392156862745,4,1,22,62,0,0
151712,329.67032967033,4,1,22,62,1,0
151712,-98.0392156862745,4,1,22,62,0,0
152041,298.507462686567,4,1,22,62,1,0
152041,-98.0392156862745,4,1,22,62,0,0
152638,297.029702970297,4,1,22,62,1,0
152638,-98.0392156862745,4,1,22,62,0,0
153232,343.839541547278,4,1,22,62,1,0
153232,-98.0392156862745,4,1,22,62,0,0
153575,312.5,4,1,22,62,1,0
153575,-98.0392156862745,4,1,22,62,0,0
153887,-100,4,1,22,82,0,0
153888,312.5,4,1,22,82,1,0
154200,329.67032967033,4,1,22,82,1,0
154529,-100,4,1,22,62,0,0
155138,312.5,4,1,22,62,1,0
155294,-98.0392156862745,4,1,22,62,0,0
156700,337.078651685393,4,1,22,62,1,0
156700,-98.0392156862745,4,1,22,62,0,0
157037,289.156626506024,4,1,22,62,1,0
157037,-98.0392156862745,4,1,22,62,0,0
157615,302.267002518892,4,1,22,62,1,0
157615,-98.0392156862745,4,1,22,62,0,0
157917,372.670807453416,4,1,22,82,1,0
158595,340.909090909091,4,1,22,72,1,0
158888,312.5,4,1,22,82,1,0
159356,-100,4,1,22,72,0,0
160138,-98.0392156862745,4,1,22,72,0,0
164513,-100,4,1,22,82,0,0
164981,-100,4,1,22,72,0,0
165138,-98.0392156862745,4,1,22,72,0,0
173575,-100,4,1,22,82,0,0
174044,-100,4,1,22,72,0,0
174513,-98.0392156862745,4,1,22,72,0,0
177325,-100,4,1,22,82,0,0
180138,-98.0392156862745,4,1,22,82,0,1
200138,-98.0392156862745,4,1,22,62,0,0
201388,-100,4,1,22,82,0,0
201856,-100,4,1,22,62,0,0
202013,-98.0392156862745,4,1,22,62,0,0
203263,-100,4,1,22,62,0,0
203575,-98.0392156862745,4,1,22,62,0,0
207638,-98.0392156862745,4,1,22,82,0,0
209825,-100,4,1,22,82,0,0
212638,-98.0392156862745,4,1,22,62,0,0
216700,-98.0392156862745,4,1,22,82,0,0
217013,-98.0392156862745,4,1,22,62,0,0
220138,-98.0392156862745,4,1,22,82,0,0
222638,-98.0392156862745,4,1,22,62,0,0
223888,-100,4,1,22,82,0,0
224356,-98.0392156862745,4,1,22,62,0,0
230138,-100,4,1,22,82,0,0
233106,-98.0392156862745,4,1,22,82,0,0
233888,-100,4,1,22,82,0,0
234825,-98.0392156862745,4,1,22,82,0,0
235138,-100,4,1,22,82,0,0
236075,-98.0392156862745,4,1,22,82,0,0
237638,-100,4,1,22,82,0,0
238106,-98.0392156862745,4,1,22,82,0,0
242633,322.58064516129,4,1,22,52,1,0
242633,-98.0392156862745,4,1,22,52,0,0
243116,-100,4,1,22,82,0,0
243600,352.941176470588,4,1,22,52,1,0
243600,-98.0392156862745,4,1,22,52,0,0
243952,315.789473684211,4,1,22,52,1,0
243952,-98.0392156862745,4,1,22,52,0,0
244899,333.333333333333,4,1,22,52,1,0
244899,-98.0392156862745,4,1,22,52,0,0
245232,315.789473684211,4,1,22,52,1,0
245232,-98.0392156862745,4,1,22,52,0,0
245863,338.983050847458,4,1,22,52,1,0
245863,-98.0392156862745,4,1,22,52,0,0
247218,352.941176470588,4,1,22,52,1,0
247218,-98.0392156862745,4,1,22,52,0,0
248453,-100,4,1,22,82,0,0
248978,363.636363636364,4,1,22,52,1,0
248978,-98.0392156862745,4,1,22,52,0,0
250092,394.736842105263,4,1,22,82,1,0
250486,352.941176470588,4,1,22,82,1,0
250662,428.571428571429,4,1,22,52,1,0
250662,-98.0392156862745,4,1,22,52,0,0

[Colours]
Combo1 : 56,32,76
Combo2 : 35,54,113
Combo3 : 199,153,154
Combo4 : 7,124,207
Combo5 : 38,174,232

[HitObjects]
422,224,138,6,0,L|326:224,1,90,6|0,3:2|3:0,1:0:0:0:
421,224,450,1,10,1:2:0:0:
195,192,606,2,0,L|371:192,1,165.599994440918,6|0,3:2|3:0,1:0:0:0:
132,272,1075,2,0,L|21:272,1,82.7999972204591,10|0,1:2|1:0,1:0:0:0:
268,208,1388,6,0,L|348:208,1,73.8000011260987,0|0,3:0|3:0,1:0:0:0:
104,217,1700,1,8,1:2:0:0:
26,217,1856,1,8,1:2:0:0:
240,144,2013,2,0,L|320:144,1,73.8000011260987,0|0,3:0|3:0,1:0:0:0:
90,217,2325,1,8,1:2:0:0:
275,240,2638,6,0,L|179:240,1,82.7999972204591,6|0,3:2|3:0,1:0:0:0:
273,224,2950,1,10,1:2:0:0:
40,192,3106,2,0,L|216:192,1,165.599994440918,6|0,3:2|3:0,1:0:0:0:
461,272,3575,2,0,L|350:272,1,82.7999972204591,10|0,1:2|1:0,1:0:0:0:
147,208,3888,6,0,L|227:208,1,73.8000011260987,0|0,3:0|3:0,1:0:0:0:
443,219,4200,1,8,1:2:0:0:
369,218,4356,1,8,1:2:0:0:
114,144,4513,2,0,L|194:144,1,73.8000011260987,0|0,3:0|3:0,1:0:0:0:
402,217,4825,1,8,1:2:0:0:
126,240,5138,6,0,L|209:240,1,82.7999972204591,6|0,3:2|3:0,1:0:0:0:
127,224,5450,1,10,1:2:0:0:
342,192,5606,2,0,L|166:192,1,165.599994440918,6|0,3:2|3:0,1:0:0:0:
395,272,6075,2,0,L|506:272,1,82.7999972204591,10|0,1:2|1:0,1:0:0:0:
238,208,6388,6,0,L|158:208,1,73.8000011260987,0|0,3:0|3:0,1:0:0:0:
379,217,6700,1,8,1:2:0:0:
460,217,6856,1,8,1:2:0:0:
240,96,7013,1,8,1:2:0:0:
184,80,7091,1,8,1:2:0:0:
49,80,7169,1,8,1:2:0:0:
106,144,7247,1,8,1:2:0:0:
256,144,7325,1,4,3:2:0:0:
459,80,7638,5,0,3:0:0:0:
348,64,7794,1,10,1:2:0:0:
124,176,7950,2,0,L|220:176,1,82.7999972204591,10|0,1:2|3:0,1:0:0:0:
439,272,8263,1,10,1:2:0:0:
128,144,8419,2,0,L|128:48,1,82.7999972204591,10|0,1:2|1:2,1:0:0:0:
350,128,8731,6,0,P|414:192|350:240,1,180,14|0,1:2|3:0,1:0:0:0:
107,128,9200,1,10,1:2:0:0:
289,288,9513,1,8,1:2:0:0:
346,288,9590,1,8,1:2:0:0:
209,288,9669,1,10,1:2:0:0:
152,288,9747,1,8,1:2:0:0:
332,288,9825,1,10,1:2:0:0:
398,288,9903,1,8,1:2:0:0:
210,128,9981,6,0,P|146:192|210:240,1,180,6|0,3:2|3:0,1:0:0:0:
424,208,10450,2,0,L|328:208,1,91.8000005603027,14|0,1:2|3:0,1:0:0:0:
102,176,10763,1,8,1:2:0:0:
211,160,10919,1,0,3:0:0:0:
102,160,11075,1,10,1:2:0:0:
320,256,11231,6,0,L|544:256,1,183.600001120605,6|0,3:2|3:0,1:0:0:0:
253,144,11700,1,8,1:2:0:0:
144,144,11856,1,0,3:0:0:0:
239,144,12013,1,8,1:2:0:0:
135,144,12169,1,2,3:2:0:0:
391,160,12325,1,10,1:2:0:0:
155,128,12481,6,0,P|91:192|155:240,1,180,6|0,3:2|3:0,1:0:0:0:
364,64,12950,2,0,L|268:64,1,91.8000005603027,14|0,1:2|3:0,1:0:0:0:
55,96,13263,1,8,1:2:0:0:
157,80,13419,1,0,3:0:0:0:
42,112,13575,1,10,1:2:0:0:
266,224,13731,6,0,L|42:224,1,183.600001120605,6|0,3:2|3:0,1:0:0:0:
310,160,14200,2,0,L|422:160,1,91.8000005603027,14|0,1:2|3:0,1:0:0:0:
180,256,14513,1,8,1:2:0:0:
289,224,14669,1,2,3:3:0:0:
164,224,14825,1,10,1:2:0:0:
383,112,14981,6,0,L|191:112,1,183.600001120605,6|0,3:2|3:0,1:0:0:0:
416,176,15450,2,0,L|512:176,1,91.8000005603027,14|0,1:2|3:0,1:0:0:0:
288,80,15763,1,8,1:2:0:0:
396,80,15919,1,0,3:0:0:0:
287,64,16075,1,10,1:2:0:0:
65,208,16231,6,0,L|257:208,1,183.600001120605,6|0,3:2|3:0,1:0:0:0:
478,160,16700,2,0,L|366:160,1,91.8000005603027,14|0,1:2|3:0,1:0:0:0:
124,64,17013,1,8,1:2:0:0:
222,48,17169,1,0,3:0:0:0:
117,48,17325,1,10,1:2:0:0:
348,160,17481,6,0,L|156:160,1,183.600001120605,6|0,3:2|3:0,1:0:0:0:
381,208,17950,2,0,L|253:208,1,91.8000005603027,14|0,1:2|3:0,1:0:0:0:
504,128,18263,1,8,1:2:0:0:
400,112,18419,1,0,3:0:0:0:
498,144,18575,1,10,1:2:0:0:
246,192,18731,6,0,L|22:192,1,183.600001120605,6|0,3:2|3:0,1:0:0:0:
299,112,19200,1,8,1:2:0:0:
209,112,19356,1,0,1:0:0:0:
426,32,19513,1,8,1:3:0:0:
478,32,19591,1,8,1:3:0:0:
424,32,19669,1,10,2:3:0:0:
93,32,19825,1,10,1:2:0:0:
311,240,19981,6,0,L|503:240,1,183.600001120605,6|0,3:2|3:0,1:0:0:0:
153,192,20450,2,0,L|249:192,1,91.8000005603027,14|0,1:2|1:0,1:0:0:0:
360,32,20763,1,8,1:2:0:0:
249,32,20919,1,0,3:0:0:0:
22,176,21075,1,10,1:2:0:0:
238,240,21231,6,0,L|430:240,1,183.600001120605,6|0,3:2|3:0,1:0:0:0:
196,144,21700,1,8,1:2:0:0:
305,144,21856,1,0,3:0:0:0:
189,144,22013,1,8,1:2:0:0:
303,144,22169,1,2,3:2:0:0:
75,160,22325,1,10,1:2:0:0:
295,144,22481,6,0,L|103:144,1,183.600001120605,6|0,3:2|3:0,1:0:0:0:
329,176,22950,2,0,L|425:176,1,91.8000005603027,14|0,1:2|3:0,1:0:0:0:
116,144,23263,1,8,1:2:0:0:
220,192,23419,1,0,3:0:0:0:
107,176,23575,1,10,1:2:0:0:
330,128,23731,6,0,P|394:192|330:240,1,180,6|0,3:2|3:0,1:0:0:0:
111,144,24200,2,0,L|239:144,1,91.8000005603027,14|0,1:2|1:0,1:0:0:0:
432,128,24513,1,8,1:2:0:0:
375,128,24591,1,8,1:2:0:0:
318,112,24669,1,8,1:2:0:0:
375,112,24747,1,8,1:2:0:0:
433,80,24825,1,10,1:3:0:0:
376,80,24903,1,8,1:3:0:0:
224,128,24981,1,4,1:3:0:0:
281,128,25059,1,4,1:3:0:0:
420,192,25138,6,0,L|308:192,1,91.8000005603027,6|0,3:2|1:0,1:0:0:0:
86,256,25450,1,4,3:3:0:0:
199,256,25606,1,2,3:2:0:0:
84,256,25763,1,4,3:3:0:0:
336,256,25919,1,0,3:0:0:0:
436,256,26075,1,6,3:3:0:0:
214,256,26231,1,0,3:0:0:0:
432,256,26388,5,6,3:3:0:0:
324,256,26544,1,4,3:3:0:0:
430,256,26700,1,4,3:3:0:0:
208,256,26856,1,6,3:3:0:0:
103,256,27013,1,4,3:3:0:0:
321,256,27169,1,4,3:3:0:0:
77,240,27325,1,6,3:3:0:0:
185,144,27481,1,4,3:3:0:0:
410,160,27638,6,0,L|506:160,1,91.8000005603027,14|0,1:2|1:0,1:0:0:0:
212,128,27950,1,0,3:0:0:0:
425,160,28106,2,0,L|313:160,1,91.8000005603027,14|0,1:2|1:0,1:0:0:0:
94,128,28419,1,0,3:0:0:0:
323,208,28575,2,0,L|435:208,1,91.8000005603027,14|0,1:2|1:0,1:0:0:0:
187,256,28888,6,0,L|91:256,1,91.8000005603027,6|0,3:2|3:0,1:0:0:0:
334,112,29200,1,8,1:2:0:0:
95,128,29356,1,2,1:2:0:0:
403,160,29513,1,8,1:2:0:0:
346,128,29591,1,8,1:2:0:0:
206,160,29669,1,8,1:2:0:0:
149,96,29747,1,8,1:2:0:0:
292,144,29825,1,10,1:3:0:0:
348,144,29903,1,8,1:3:0:0:
155,144,29981,1,4,1:3:0:0:
98,128,30059,1,4,1:3:0:0:
296,240,30138,6,0,L|392:240,1,73.8000011260987,6|0,3:2|1:0,1:0:0:0:
442,144,30450,1,8,1:2:0:0:
217,192,30606,2,0,L|27:192,1,183.600001120605,2|0,3:2|3:0,1:0:0:0:
168,288,31075,2,0,L|264:288,1,91.8000005603027,10|0,1:2|1:0,1:0:0:0:
401,128,31388,6,0,P|465:192|401:240,1,180,2|8,3:2|1:2,1:0:0:0:
184,256,31856,2,0,L|-22:256,1,183.600001120605,2|0,3:2|3:0,1:0:0:0:
220,208,32325,2,0,L|316:208,1,91.8000005603027,10|0,1:2|1:0,1:0:0:0:
221,96,32638,6,0,L|413:96,1,183.600001120605,2|8,3:2|1:2,1:0:0:0:
185,176,33106,2,0,L|-37:176,1,183.600001120605,2|0,3:2|3:0,1:0:0:0:
144,192,33575,2,0,L|240:192,1,91.8000005603027,10|0,1:2|1:0,1:0:0:0:
491,256,33888,6,0,L|267:256,1,183.600001120605,2|8,3:2|1:2,1:0:0:0:
92,208,34356,2,0,L|92:22,1,180.432,2|0,3:2|3:0,1:0:0:0:
0,288,34825,2,0,L|96:288,1,91.8000005603027,10|0,1:2|1:0,1:0:0:0:
307,128,35138,6,0,L|499:128,1,183.600001120605,2|8,3:2|1:2,1:0:0:0:
210,160,35606,2,0,L|2:160,1,183.600001120605,2|0,3:2|3:0,1:0:0:0:
171,192,36075,1,8,1:2:0:0:
234,192,36231,1,0,1:0:0:0:
171,192,36388,5,0,3:0:0:0:
318,192,36544,1,0,1:0:0:0:
372,192,36700,1,8,1:2:0:0:
314,192,36856,1,0,3:0:0:0:
156,160,37013,1,0,1:0:0:0:
102,160,37169,1,0,3:0:0:0:
321,160,37325,6,0,L|529:160,1,183.600001120605,10|2,1:2|3:2,1:0:0:0:
255,288,37794,2,0,L|159:288,1,91.8000005603027,0|8,3:0|1:2,1:0:0:0:
252,224,38106,2,0,L|252:45,1,180,2|0,3:2|3:0,1:0:0:0:
382,224,38575,2,0,L|478:224,1,91.8000005603027,10|0,1:2|1:0,1:0:0:0:
183,128,38888,6,0,P|119:192|183:240,1,180,2|8,3:2|1:2,1:0:0:0:
395,128,39356,2,0,P|459:192|395:240,1,180,2|0,3:2|3:0,1:0:0:0:
185,192,39825,1,10,1:2:0:0:
80,192,39981,1,8,1:2:0:0:
30,192,40059,1,8,1:2:0:0:
196,160,40138,6,0,L|388:160,1,183.600001120605,6|8,3:2|1:2,1:0:0:0:
145,192,40606,2,0,L|353:192,1,183.600001120605,2|0,3:2|3:0,1:0:0:0:
460,208,41075,2,0,L|332:208,1,91.8000005603027,10|0,1:2|1:0,1:0:0:0:
217,128,41388,6,0,L|409:128,1,183.600001120605,2|8,3:2|1:2,1:0:0:0:
96,128,41856,2,0,P|32:192|96:240,1,180,2|0,3:2|3:0,1:0:0:0:
297,128,42325,2,0,L|409:128,1,91.8000005603027,10|0,1:2|1:0,1:0:0:0:
262,192,42638,6,0,L|470:192,1,183.600001120605,2|8,3:2|1:2,1:0:0:0:
310,192,43106,2,0,L|310:10,1,180,2|0,3:2|3:0,1:0:0:0:
91,96,43575,2,0,L|-19:96,1,91.8000005603027,10|0,1:2|1:0,1:0:0:0:
215,208,43888,6,0,L|407:208,1,183.600001120605,2|8,3:2|1:2,1:0:0:0:
183,208,44356,2,0,L|-40:208,1,183.600001120605,2|0,3:2|3:0,1:0:0:0:
230,208,44825,2,0,L|342:208,1,91.8000005603027,10|0,1:2|1:0,1:0:0:0:
208,128,45138,6,0,P|144:192|208:240,1,180,2|8,3:2|1:2,1:0:0:0:
442,224,45606,2,0,L|250:224,1,183.600001120605,2|0,3:2|3:0,1:0:0:0:
111,144,46075,1,8,1:2:0:0:
249,144,46388,5,0,3:0:0:0:
316,144,46544,1,0,3:0:0:0:
241,144,46700,1,8,1:2:0:0:
117,96,46856,1,0,3:0:0:0:
62,96,47013,1,0,1:0:0:0:
138,96,47169,1,0,3:0:0:0:
53,208,47325,2,0,L|165:208,1,91.8000005603027,10|0,1:2|1:0,1:0:0:0:
363,128,47638,6,0,L|171:128,1,183.600001120605,2|8,3:2|1:2,1:0:0:0:
402,128,48106,2,0,P|466:192|402:240,1,180,2|0,3:2|3:0,1:0:0:0:
127,144,48575,2,0,L|31:144,1,91.8000005603027,10|0,1:2|1:0,1:0:0:0:
258,144,48888,6,0,L|354:144,1,91.8000005603027,2|0,3:2|3:0,1:0:0:0:
112,80,49200,2,0,L|224:80,1,91.8000005603027,8|2,1:2|1:2,1:0:0:0:
444,112,49513,1,8,1:2:0:0:
499,112,49591,1,8,1:2:0:0:
441,112,49669,1,8,1:2:0:0:
386,112,49747,1,8,1:2:0:0:
218,112,49825,1,10,1:3:0:0:
161,112,49903,1,8,1:3:0:0:
304,112,49981,1,4,1:3:0:0:
360,112,50059,1,4,1:3:0:0:
105,176,50138,5,6,3:2:0:0:
205,160,50294,1,2,3:2:0:0:
104,160,50450,1,10,1:2:0:0:
379,128,50606,2,0,P|443:192|379:240,1,180,6|0,3:2|3:0,1:0:0:0:
168,128,51075,6,0,P|104:192|168:240,1,180,10|2,1:2|3:2,1:0:0:0:
373,144,51544,1,0,3:0:0:0:
147,144,51700,1,10,1:2:0:0:
60,128,51856,1,8,1:2:0:0:
281,192,52013,2,0,L|393:192,1,91.8000005603027,2|0,3:2|3:0,1:0:0:0:
286,192,52325,2,0,L|382:192,1,91.8000005603027,10|0,1:2|3:0,1:0:0:0:
161,144,52638,5,6,3:2:0:0:
267,128,52794,1,2,3:2:0:0:
162,128,52950,1,10,1:2:0:0:
419,176,53106,2,0,L|211:176,1,183.600001120605,6|0,3:2|3:0,1:0:0:0:
16,128,53575,6,0,L|208:128,1,183.600001120605,10|2,2:2|3:2,1:0:0:0:
457,160,54044,1,0,3:0:0:0:
222,160,54200,1,10,1:2:0:0:
143,144,54356,1,8,1:2:0:0:
365,256,54513,2,0,L|461:256,1,91.8000005603027,2|0,3:2|3:0,1:0:0:0:
230,192,54825,2,0,L|134:192,1,91.8000005603027,10|0,1:2|3:0,1:0:0:0:
372,176,55138,5,6,3:2:0:0:
266,176,55294,1,2,3:2:0:0:
369,144,55450,1,10,1:2:0:0:
128,208,55606,2,0,L|336:208,1,183.600001120605,6|0,3:2|3:0,1:0:0:0:
87,128,56075,6,0,P|23:192|87:240,1,180,10|2,1:2|3:2,1:0:0:0:
341,192,56544,1,0,3:0:0:0:
128,192,56700,1,10,1:2:0:0:
44,192,56856,1,8,1:2:0:0:
259,208,57013,2,0,L|355:208,1,91.8000005603027,2|0,3:2|3:0,1:0:0:0:
127,176,57325,2,0,L|31:176,1,91.8000005603027,14|0,1:2|1:0,1:0:0:0:
250,144,57638,5,14,1:2:0:0:
345,144,57794,1,0,3:0:0:0:
128,144,57950,1,12,1:2:0:0:
352,128,58106,1,0,3:0:0:0:
136,112,58263,1,12,1:2:0:0:
44,112,58419,1,0,3:0:0:0:
308,112,58575,1,12,1:2:0:0:
60,96,58731,1,0,3:0:0:0:
278,176,58888,5,14,1:3:0:0:
334,160,58966,1,8,1:3:0:0:
392,160,59044,1,8,1:3:0:0:
447,144,59122,1,8,1:3:0:0:
245,208,59200,2,0,L|149:208,1,91.8000005603027,12|0,1:2|1:0,1:0:0:0:
368,128,59513,5,10,1:2:0:0:
425,112,59591,1,8,1:2:0:0:
370,112,59669,1,8,1:2:0:0:
229,112,59747,1,8,1:2:0:0:
90,112,59825,1,8,1:2:0:0:
33,112,59903,1,8,1:2:0:0:
174,112,59981,1,8,1:2:0:0:
228,112,60059,1,8,1:2:0:0:
368,176,60138,6,0,L|496:176,1,91.8000005603027,6|2,3:2|3:3,1:0:0:0:
182,192,60450,1,10,1:2:0:0:
82,128,60606,2,0,P|18:192|82:240,1,180,2|2,3:2|3:2,1:0:0:0:
295,144,61075,1,8,1:2:0:0:
398,128,61231,6,0,P|462:192|398:240,1,180,2|0,3:2|3:0,1:0:0:0:
77,144,61700,2,0,L|173:144,1,91.8000005603027,10|2,1:2|1:2,1:0:0:0:
90,165,62013,1,0,3:0:0:0:
305,192,62169,2,0,L|209:192,1,91.8000005603027,2|8,3:2|1:2,1:0:0:0:
460,108,62481,1,2,3:2:0:0:
224,208,62638,6,0,L|32:208,1,183.600001120605,0|10,3:0|1:2,1:0:0:0:
266,160,63106,2,0,L|394:160,1,91.8000005603027,2|0,3:2|1:0,1:0:0:0:
139,224,63419,2,0,L|43:224,1,91.8000005603027,2|8,3:2|1:2,1:0:0:0:
287,160,63731,6,0,L|479:160,1,183.600001120605,2|0,3:2|3:0,1:0:0:0:
160,96,64200,2,0,L|256:96,1,91.8000005603027,10|2,1:2|1:2,1:0:0:0:
161,128,64513,2,0,L|289:128,1,91.8000005603027,0|2,3:0|3:2,1:0:0:0:
479,128,64825,2,0,L|351:128,1,91.8000005603027,8|0,1:2|1:0,1:0:0:0:
87,256,65138,6,0,L|199:256,1,91.8000005603027,6|0,3:2|3:0,1:0:0:0:
411,128,65450,1,10,1:2:0:0:
179,208,65606,2,0,L|386:208,1,183.600001120605,2|2,3:2|3:2,1:0:0:0:
147,160,66075,1,8,1:2:0:0:
377,128,66231,6,0,P|441:192|377:240,1,180,6|0,3:2|3:0,1:0:0:0:
152,224,66700,2,0,L|41:224,1,91.8000005603027,10|2,1:2|1:2,1:0:0:0:
280,192,67013,2,0,L|392:192,1,91.8000005603027,0|2,3:0|3:2,1:0:0:0:
107,176,67325,1,8,1:2:0:0:
328,224,67481,6,0,L|536:224,1,183.600001120605,6|0,3:2|3:0,1:0:0:0:
264,160,67950,1,10,1:2:0:0:
164,224,68106,2,0,L|292:224,1,91.8000005603027,2|0,1:2|3:0,1:0:0:0:
474,208,68419,2,0,L|378:208,1,91.8000005603027,2|8,3:2|1:2,1:0:0:0:
159,224,68731,6,0,L|367:224,1,183.600001120605,2|0,3:2|3:0,1:0:0:0:
124,256,69200,2,0,L|-3:256,1,91.8000005603027,12|0,1:2|1:0,1:0:0:0:
333,192,69513,1,8,1:2:0:0:
388,176,69591,1,8,1:2:0:0:
447,160,69669,1,8,1:2:0:0:
396,144,69747,1,8,1:2:0:0:
249,144,69825,1,8,1:2:0:0:
192,144,69903,1,8,1:2:0:0:
343,128,69981,1,8,1:2:0:0:
397,128,70059,1,8,1:2:0:0:
209,176,70138,6,0,L|97:176,1,91.8000005603027,6|0,3:2|3:0,1:0:0:0:
216,176,70450,1,10,1:2:0:0:
118,208,70606,2,0,L|326:208,1,183.600001120605,2|2,3:2|3:2,1:0:0:0:
85,128,71075,1,8,1:2:0:0:
175,192,71231,6,0,L|383:192,1,183.600001120605,2|0,3:2|3:0,1:0:0:0:
110,160,71700,1,10,1:2:0:0:
202,144,71856,1,2,1:2:0:0:
109,192,72013,2,0,L|237:192,1,91.8000005603027,0|2,3:0|3:2,1:0:0:0:
425,208,72325,2,0,L|329:208,1,91.8000005603027,8|2,1:2|1:2,1:0:0:0:
116,192,72638,5,0,3:0:0:0:
208,192,72794,1,0,3:0:0:0:
122,160,72950,1,10,1:2:0:0:
335,224,73106,2,0,L|447:224,1,91.8000005603027,2|0,3:2|1:0,1:0:0:0:
191,224,73419,2,0,L|95:224,1,91.8000005603027,2|8,3:2|1:2,1:0:0:0:
328,192,73731,6,0,L|552:192,1,183.600001120605,2|0,3:2|3:0,1:0:0:0:
282,208,74200,1,10,1:2:0:0:
211,224,74356,2,0,L|339:224,1,91.8000005603027,2|0,1:2|3:0,1:0:0:0:
80,176,74669,1,2,3:2:0:0:
316,256,74825,2,0,L|412:256,1,91.8000005603027,8|2,1:2|1:2,1:0:0:0:
143,128,75138,6,0,P|79:192|143:240,1,180,4|10,3:2|1:2,1:0:0:0:
357,176,75606,2,0,L|261:176,1,91.8000005603027,2|0,3:2|1:0,1:0:0:0:
37,144,75919,2,0,L|133:144,1,91.8000005603027,2|8,3:2|1:2,1:0:0:0:
351,128,76231,6,0,P|415:192|351:240,1,180,6|0,3:2|3:0,1:0:0:0:
145,192,76700,2,0,L|49:192,1,91.8000005603027,10|2,1:2|1:2,1:0:0:0:
157,208,77013,2,0,L|61:208,1,91.8000005603027,0|2,3:0|3:2,1:0:0:0:
301,144,77325,1,8,1:2:0:0:
408,208,77481,6,0,L|200:208,1,183.600001120605,6|0,3:2|3:0,1:0:0:0:
345,112,77950,1,10,1:2:0:0:
230,240,78106,2,0,L|342:240,1,91.8000005603027,2|0,1:2|3:0,1:0:0:0:
103,224,78419,2,0,L|7:224,1,91.8000005603027,2|8,3:2|1:2,1:0:0:0:
236,192,78731,6,0,L|428:192,1,183.600001120605,2|0,3:2|3:0,1:0:0:0:
191,160,79200,1,12,1:2:0:0:
426,144,79356,1,0,1:0:0:0:
209,160,79513,1,10,1:2:0:0:
165,160,79591,1,8,1:2:0:0:
201,160,79669,1,8,1:2:0:0:
351,144,79747,1,8,1:2:0:0:
486,144,79825,1,10,1:2:0:0:
430,144,79903,1,8,1:2:0:0:
291,144,79981,1,8,1:2:0:0:
234,128,80059,1,8,1:2:0:0:
383,176,80138,6,0,L|494:176,1,91.8000005603027,6|0,3:2|3:0,1:0:0:0:
252,128,80450,2,0,L|348:128,1,91.8000005603027,8|2,1:2|3:2,1:0:0:0:
113,208,80763,2,0,L|1:208,1,91.8000005603027,8|0,1:2|3:0,1:0:0:0:
235,256,81075,2,0,L|347:256,1,91.8000005603027,10|0,1:2|3:0,1:0:0:0:
105,160,81388,6,0,L|297:160,1,183.600001120605,8|8,1:2|1:2,1:0:0:0:
66,96,81856,1,0,3:0:0:0:
292,64,82013,2,0,L|180:64,1,91.8000005603027,10|0,1:2|3:0,1:0:0:0:
420,224,82325,2,0,L|548:224,1,91.8000005603027,10|0,1:2|3:0,1:0:0:0:
263,144,82638,6,0,L|71:144,1,183.600001120605,14|8,1:2|1:2,1:0:0:0:
320,160,83106,1,2,3:3:0:0:
197,160,83263,1,8,1:2:0:0:
316,144,83419,1,0,3:0:0:0:
181,144,83575,1,10,1:2:0:0:
397,96,83731,1,0,3:0:0:0:
301,128,83888,6,0,L|429:128,1,91.8000005603027,10|0,1:2|1:0,1:0:0:0:
170,112,84200,2,0,L|74:112,1,91.8000005603027,8|2,1:2|3:2,1:0:0:0:
398,192,84513,2,0,L|510:192,1,91.8000005603027,8|0,1:2|3:0,1:0:0:0:
258,128,84825,2,0,L|386:128,1,91.8000005603027,10|0,1:2|1:0,1:0:0:0:
96,192,85138,5,14,1:2:0:0:
6,192,85294,1,0,3:0:0:0:
101,128,85450,1,0,3:0:0:0:
323,192,85606,1,12,1:2:0:0:
415,192,85763,1,0,1:0:0:0:
512,128,85919,1,0,3:0:0:0:
276,192,86075,1,14,1:2:0:0:
374,176,86231,1,0,3:0:0:0:
270,176,86388,5,0,3:0:0:0:
31,192,86544,1,12,1:2:0:0:
124,192,86700,1,0,1:0:0:0:
216,128,86856,1,0,3:0:0:0:
431,128,87013,1,8,1:3:0:0:
487,128,87091,1,8,1:3:0:0:
350,112,87169,1,8,1:3:0:0:
293,112,87247,1,8,1:3:0:0:
456,128,87325,2,0,L|328:128,1,91.8000005603027,4|0,3:2|1:0,1:0:0:0:
148,192,87638,5,6,3:2:0:0:
53,128,87794,1,0,1:0:0:0:
151,224,87950,1,4,3:3:0:0:
63,208,88106,1,0,3:0:0:0:
194,192,88263,1,4,3:3:0:0:
67,192,88419,1,0,3:0:0:0:
304,176,88575,1,4,3:3:0:0:
70,176,88731,1,0,3:0:0:0:
320,224,88888,6,0,L|496:224,1,137.700000840454,4|0,3:2|1:0,1:0:0:0:
288,176,89200,1,8,1:2:0:0:
232,160,89278,1,8,1:2:0:0:
71,160,89356,1,8,1:2:0:0:
15,144,89434,1,8,1:2:0:0:
71,128,89513,1,8,1:3:0:0:
220,128,89591,1,8,1:3:0:0:
370,128,89669,1,8,1:3:0:0:
427,128,89747,1,8,1:3:0:0:
287,128,89825,1,6,1:3:0:0:
231,128,89903,1,4,1:3:0:0:
376,112,89981,1,4,1:3:0:0:
432,112,90059,1,4,1:3:0:0:
296,128,90138,6,0,L|200:128,1,91.8000005603027,6|0,3:2|3:0,1:0:0:0:
113,176,90450,1,8,1:2:0:0:
401,128,90606,2,0,P|465:192|401:240,1,180,2|0,3:2|3:0,1:0:0:0:
194,128,91075,2,0,L|98:128,1,91.8000005603027,10|0,1:2|1:0,1:0:0:0:
328,144,91388,6,0,L|536:144,1,183.600001120605,2|8,3:2|1:2,1:0:0:0:
245,176,91856,2,0,L|53:176,1,183.600001120605,2|0,3:2|3:0,1:0:0:0:
184,208,92325,2,0,L|56:208,1,91.8000005603027,10|0,1:2|1:0,1:0:0:0:
328,128,92638,6,0,L|520:128,1,183.600001120605,2|8,3:2|1:2,1:0:0:0:
367,160,93106,2,0,L|159:160,1,183.600001120605,2|0,3:2|3:0,1:0:0:0:
406,128,93575,2,0,L|534:128,1,91.8000005603027,10|0,1:2|1:0,1:0:0:0:
242,128,93888,6,0,P|178:192|242:240,1,180,2|8,3:2|1:2,1:0:0:0:
447,128,94356,2,0,P|511:192|447:240,1,180,2|0,3:2|3:0,1:0:0:0:
237,224,94825,2,0,L|125:224,1,91.8000005603027,10|0,1:2|1:0,1:0:0:0:
286,128,95138,6,0,L|478:128,1,183.600001120605,2|8,3:2|1:2,1:0:0:0:
347,176,95606,2,0,L|347:356,1,180,2|0,3:2|3:0,1:0:0:0:
129,208,96075,2,0,L|17:208,1,91.8000005603027,8|0,1:2|1:0,1:0:0:0:
256,256,96388,6,0,L|368:256,1,91.8000005603027,0|0,3:0|3:0,1:0:0:0:
233,128,96700,1,8,1:2:0:0:
140,176,96856,2,0,L|332:176,1,183.600001120605,0|0,3:0|3:0,1:0:0:0:
465,224,97325,2,0,L|353:224,1,91.8000005603027,10|0,1:2|1:0,1:0:0:0:
151,128,97638,6,0,P|87:192|151:240,1,180,2|8,3:2|1:2,1:0:0:0:
359,128,98106,2,0,P|423:192|359:240,1,180,2|0,3:2|3:0,1:0:0:0:
112,96,98575,2,0,L|224:96,1,91.8000005603027,10|0,1:2|1:0,1:0:0:0:
345,176,98888,6,0,L|153:176,1,183.600001120605,2|8,3:2|1:2,1:0:0:0:
296,176,99356,2,0,L|488:176,1,183.600001120605,2|0,3:2|3:0,1:0:0:0:
387,128,99825,2,0,L|483:128,1,91.8000005603027,10|8,1:2|1:2,1:0:0:0:
188,384,100138,6,0,P|204:16|220:384,1,1101.60000672363,6|8,1:2|1:2,1:0:0:0:
343,224,102169,1,0,3:0:0:0:
441,112,102325,2,0,L|313:112,1,91.8000005603027,10|0,1:2|3:0,1:0:0:0:
129,128,102638,6,0,P|65:192|129:240,1,180,6|8,3:2|1:2,1:0:0:0:
379,176,103106,2,0,L|187:176,1,183.600001120605,2|0,3:2|3:0,1:0:0:0:
97,128,103575,2,0,L|209:128,1,91.8000005603027,10|0,1:2|1:0,1:0:0:0:
420,224,103888,6,0,L|228:224,1,183.600001120605,2|8,3:2|1:2,1:0:0:0:
366,176,104356,2,0,L|174:176,1,183.600001120605,2|0,3:2|3:0,1:0:0:0:
328,96,104825,2,0,L|424:96,1,91.8000005603027,10|0,1:2|1:0,1:0:0:0:
203,176,105138,6,0,L|11:176,1,183.600001120605,2|8,3:2|1:2,1:0:0:0:
168,176,105606,2,0,L|168:368,1,180,2|0,3:2|3:0,1:0:0:0:
296,96,106075,2,0,L|392:96,1,91.8000005603027,8|0,1:2|1:0,1:0:0:0:
243,128,106388,6,0,P|179:192|243:240,1,180,0|8,3:0|1:2,1:0:0:0:
342,96,106856,1,2,3:2:0:0:
409,96,107013,1,0,1:0:0:0:
392,96,107169,1,0,3:0:0:0:
323,144,107325,1,8,1:2:0:0:
238,144,107481,1,0,1:0:0:0:
86,128,107638,6,0,P|22:192|86:240,1,180,0|8,3:0|1:2,1:0:0:0:
158,144,108106,1,2,3:2:0:0:
250,144,108263,1,0,1:0:0:0:
178,144,108419,1,0,3:0:0:0:
99,144,108575,1,8,1:2:0:0:
186,144,108731,1,0,1:0:0:0:
345,192,108888,6,0,L|473:192,1,91.8000005603027,2|0,3:2|3:0,1:0:0:0:
103,144,109200,1,8,1:2:0:0:
222,144,109356,1,0,3:0:0:0:
112,96,109513,1,8,1:2:0:0:
169,144,109591,1,8,1:2:0:0:
314,144,109669,1,8,1:2:0:0:
369,144,109747,1,8,1:2:0:0:
151,128,109825,2,0,L|59:128,1,91.8000005603027,0|0,3:0|1:0,1:0:0:0:
274,176,110138,6,0,L|466:176,1,183.600001120605,14|0,1:2|3:0,1:0:0:0:
335,192,110606,1,0,3:0:0:0:
450,176,110763,2,0,L|258:176,1,183.600001120605,14|0,1:2|3:0,1:0:0:0:
380,160,111231,1,0,3:0:0:0:
151,176,111388,6,0,L|343:176,1,183.600001120605,14|0,1:2|3:0,1:0:0:0:
236,128,111856,1,0,3:0:0:0:
451,176,112013,2,0,L|259:176,1,183.600001120605,14|0,1:2|3:0,1:0:0:0:
51,144,112481,1,0,3:0:0:0:
151,224,112638,6,0,L|247:224,1,91.8000005603027,14|0,1:2|1:0,1:0:0:0:
22,144,112950,1,4,3:3:0:0:
121,144,113107,1,0,3:0:0:0:
389,224,113263,2,0,L|501:224,1,91.8000005603027,6|0,3:3|3:0,1:0:0:0:
378,160,113575,1,4,3:3:0:0:
472,160,113731,1,0,3:0:0:0:
209,192,113888,5,10,1:3:0:0:
153,192,113966,1,8,1:3:0:0:
341,192,114044,1,8,1:3:0:0:
398,192,114122,1,8,1:3:0:0:
456,192,114200,1,12,1:2:0:0:
333,192,114356,1,0,1:0:0:0:
56,112,114513,5,10,1:2:0:0:
0,112,114591,1,8,1:2:0:0:
55,112,114669,1,8,1:2:0:0:
197,144,114747,1,8,1:2:0:0:
332,96,114825,1,8,1:2:0:0:
388,96,114903,1,8,1:2:0:0:
252,80,114981,1,8,1:2:0:0:
198,80,115059,1,8,1:2:0:0:
346,176,115138,6,0,L|458:176,1,91.8000005603027,6|0,3:2|3:0,1:0:0:0:
206,144,115450,1,10,1:2:0:0:
419,128,115606,2,0,P|483:192|419:240,1,180,2|2,3:2|3:2,1:0:0:0:
213,144,116075,1,8,1:2:0:0:
426,176,116231,6,0,L|234:176,1,183.600001120605,2|0,3:2|3:0,1:0:0:0:
340,192,116700,1,10,1:2:0:0:
98,208,116856,2,0,L|2:208,1,91.8000005603027,2|0,1:2|3:0,1:0:0:0:
233,128,117169,1,2,3:2:0:0:
327,112,117325,1,8,1:2:0:0:
106,208,117481,6,0,L|298:208,1,183.600001120605,2|0,1:2|3:0,1:0:0:0:
214,64,117950,1,10,1:2:0:0:
0,160,118106,2,0,L|128:160,1,91.8000005603027,2|0,3:2|1:0,1:0:0:0:
307,192,118419,2,0,L|403:192,1,91.8000005603027,2|8,3:2|1:2,1:0:0:0:
152,128,118731,6,0,P|88:192|152:240,1,180,2|0,3:2|3:0,1:0:0:0:
355,112,119200,1,10,1:2:0:0:
268,144,119356,2,0,L|396:144,1,91.8000005603027,2|0,1:2|3:0,1:0:0:0:
114,96,119669,2,0,L|2:96,1,91.8000005603027,2|8,3:2|1:2,1:0:0:0:
293,128,119981,1,2,3:2:0:0:
192,176,120138,6,0,L|384:176,1,183.600001120605,4|10,3:2|1:2,1:0:0:0:
146,160,120606,2,0,L|50:160,1,91.8000005603027,2|0,3:2|1:0,1:0:0:0:
279,176,120919,2,0,L|407:176,1,91.8000005603027,2|8,3:2|1:2,1:0:0:0:
152,176,121231,6,0,L|344:176,1,183.600001120605,6|0,3:2|3:0,1:0:0:0:
118,192,121700,6,0,L|230:192,1,91.8000005603027,10|2,1:2|1:2,1:0:0:0:
107,80,122013,1,0,3:0:0:0:
336,96,122169,2,0,L|448:96,1,91.8000005603027,2|8,3:2|1:2,1:0:0:0:
191,176,122481,6,0,L|0:176,1,183.600001120605,6|0,3:2|3:0,1:0:0:0:
116,144,122950,1,10,1:2:0:0:
353,160,123106,2,0,L|241:160,1,91.8000005603027,2|0,1:2|3:0,1:0:0:0:
369,112,123419,2,0,L|273:112,1,91.8000005603027,2|8,3:2|1:2,1:0:0:0:
31,176,123731,6,0,L|223:176,1,183.600001120605,2|0,3:2|3:0,1:0:0:0:
429,192,124200,2,0,L|317:192,1,91.8000005603027,12|0,1:2|1:0,1:0:0:0:
120,144,124513,1,8,1:2:0:0:
64,128,124591,1,8,1:2:0:0:
219,128,124669,1,8,1:2:0:0:
275,128,124747,1,8,1:2:0:0:
128,128,124825,1,8,1:2:0:0:
71,128,124903,1,8,1:2:0:0:
216,128,124981,1,8,1:2:0:0:
273,128,125059,1,8,1:2:0:0:
126,192,125138,6,0,L|30:192,1,91.8000005603027,6|0,3:2|3:0,1:0:0:0:
269,176,125450,1,10,1:2:0:0:
183,176,125606,2,0,L|375:176,1,183.600001120605,2|2,3:2|3:2,1:0:0:0:
95,160,126075,1,8,1:2:0:0:
192,176,126231,6,0,L|384:176,1,183.600001120605,2|0,3:2|3:0,1:0:0:0:
258,160,126700,1,10,1:2:0:0:
364,176,126856,2,0,L|236:176,1,91.8000005603027,2|0,1:2|3:0,1:0:0:0:
32,112,127169,2,0,L|144:112,1,91.8000005603027,2|8,3:2|1:2,1:0:0:0:
347,176,127481,1,2,1:2:0:0:
120,128,127638,6,0,P|56:192|120:240,1,180,0|10,3:0|1:2,1:0:0:0:
342,160,128106,2,0,L|453:160,1,91.8000005603027,2|0,3:2|1:0,1:0:0:0:
214,160,128419,2,0,L|310:160,1,91.8000005603027,2|8,3:2|1:2,1:0:0:0:
217,176,128731,6,0,L|409:176,1,183.600001120605,2|0,3:2|3:0,1:0:0:0:
146,128,129200,1,10,1:2:0:0:
239,80,129356,2,0,L|143:80,1,91.8000005603027,2|0,1:2|3:0,1:0:0:0:
363,144,129669,2,0,L|491:144,1,91.8000005603027,2|8,3:2|1:2,1:0:0:0:
227,112,129981,1,2,1:2:0:0:
318,176,130138,6,0,L|126:176,1,183.600001120605,4|10,3:2|1:2,1:0:0:0:
365,128,130606,2,0,L|461:128,1,91.8000005603027,2|0,3:2|1:0,1:0:0:0:
219,192,130919,2,0,L|123:192,1,91.8000005603027,2|8,3:2|1:2,1:0:0:0:
357,176,131231,6,0,L|165:176,1,183.600001120605,6|0,3:2|3:0,1:0:0:0:
415,112,131700,1,10,1:2:0:0:
324,192,131856,2,0,L|436:192,1,91.8000005603027,2|0,1:2|3:0,1:0:0:0:
187,96,132169,1,2,3:2:0:0:
98,96,132325,1,8,1:2:0:0:
331,176,132481,6,0,L|139:176,1,183.600001120605,6|0,3:2|3:0,1:0:0:0:
240,128,132950,1,10,1:2:0:0:
147,224,133106,2,0,L|19:224,1,91.8000005603027,2|0,1:2|3:0,1:0:0:0:
301,288,133419,2,0,L|397:288,1,91.8000005603027,2|8,3:2|1:2,1:0:0:0:
139,112,133731,6,0,L|331:112,1,183.600001120605,2|0,3:2|3:0,1:0:0:0:
214,112,134200,1,12,1:2:0:0:
322,112,134356,1,0,1:0:0:0:
188,128,134513,1,8,1:3:0:0:
130,16,134591,1,8,1:3:0:0:
270,128,134669,1,8,1:3:0:0:
326,16,134747,1,8,1:3:0:0:
159,128,134825,1,4,3:2:0:0:
351,128,135138,6,0,P|415:192|351:240,1,180,14|0,1:2|3:0,1:0:0:0:
144,176,135606,1,0,3:0:0:0:
61,112,135763,2,0,L|253:112,1,183.600001120605,14|0,1:2|3:0,1:0:0:0:
100,192,136231,1,0,3:0:0:0:
183,112,136388,6,0,L|-8:112,1,183.600001120605,14|0,1:2|3:0,1:0:0:0:
234,48,136856,1,0,3:0:0:0:
144,224,137013,2,0,L|16:224,1,91.8000005603027,14|0,1:2|1:0,1:0:0:0:
324,128,137325,1,8,1:2:0:0:
221,128,137481,1,0,1:0:0:0:
328,128,137638,6,0,P|392:192|328:240,1,180,6|0,3:2|1:0,1:0:0:0:
103,160,138106,1,8,1:3:0:0:
201,112,138263,2,0,L|10:112,1,183.600001120605,6|4,1:3|1:3,1:0:0:0:
232,80,138888,5,2,3:2:0:0:
140,80,139044,1,0,3:0:0:0:
229,128,139200,1,4,3:2:0:0:
79,112,139513,2,0,L|271:112,1,183.600001120605,10|4,1:3|1:3,1:0:0:0:
156,144,139981,1,4,1:3:0:0:
393,112,140138,6,0,L|201:112,1,183.600001120605,6|0,3:2|1:0,1:0:0:0:
317,32,140606,1,0,3:0:0:0:
206,16,140763,1,8,1:2:0:0:
379,112,141075,6,0,L|-4:112,1,367.200002241211,0|4,1:0|3:3,1:0:0:0:
225,96,142013,1,8,1:2:0:0:
55,96,142638,5,0,3:0:0:0:
315,32,143109,1,0,3:0:0:0:
382,32,143267,1,8,1:2:0:0:
146,112,143581,1,0,1:0:0:0:
359,128,143896,5,0,1:0:0:0:
495,224,144204,1,0,1:0:0:0:
321,192,144543,1,8,1:2:0:0:
465,119,144825,1,0,1:0:0:0:
60,128,145137,5,4,3:2:0:0:
165,112,145295,2,0,L|357:112,1,183.600001120605,0|0,3:0|3:0,1:0:0:0:
250,160,145768,1,8,1:2:0:0:
80,128,146084,2,0,P|16:192|80:240,1,180,0|0,1:0|1:0,1:0:0:0:
257,160,146715,1,4,3:3:0:0:
88,160,147039,1,8,1:2:0:0:
280,128,147660,5,0,3:0:0:0:
98,192,148112,1,0,3:0:0:0:
30,160,148263,1,8,1:2:0:0:
230,64,148575,1,0,1:0:0:0:
90,128,148888,2,0,P|26:192|90:240,1,180,0|8,1:0|1:3,1:0:0:0:
263,112,149529,1,4,1:3:0:0:
421,112,149825,1,0,3:0:0:0:
59,112,150123,5,4,3:2:0:0:
180,112,150312,2,0,L|372:112,1,183.600001120605,0|0,3:0|3:0,1:0:0:0:
276,96,150773,1,8,1:2:0:0:
112,224,151081,2,0,L|400:224,1,275.400001680908,0|0,1:0|1:0,1:0:0:0:
298,177,151712,1,4,3:3:0:0:
139,176,152041,1,8,1:2:0:0:
348,176,152638,5,0,3:0:0:0:
166,160,153083,1,0,3:0:0:0:
102,96,153232,1,8,1:2:0:0:
322,64,153575,1,0,1:0:0:0:
148,128,153887,2,0,P|84:192|148:240,1,180,0|4,1:0|3:3,1:0:0:0:
332,160,154529,1,8,1:2:0:0:
486,225,154859,1,0,1:0:0:0:
132,192,155138,5,4,3:2:0:0:
41,112,155294,2,0,L|233:112,1,183.600001120605,0|0,3:0|3:0,1:0:0:0:
318,64,155763,1,8,1:2:0:0:
176,192,156075,1,0,1:0:0:0:
98,189,156231,1,0,1:0:0:0:
345,192,156700,1,4,3:3:0:0:
154,160,157037,1,8,1:2:0:0:
301,160,157615,5,0,3:0:0:0:
106,128,157917,2,0,P|42:192|106:240,1,180,0|0,1:0|1:0,1:0:0:0:
470,16,158595,1,4,1:2:0:0:
312,128,158888,2,0,P|248:192|312:240,1,180,8|0,1:3|1:0,1:0:0:0:
400,96,159356,1,8,1:3:0:0:
492,160,159513,1,4,1:3:0:0:
257,96,159669,1,4,1:3:0:0:
161,144,159825,1,0,3:0:0:0:
264,96,159981,1,0,3:0:0:0:
495,112,160138,6,0,L|303:112,1,183.600001120605,6|0,3:2|3:0,1:0:0:0:
220,160,160606,1,0,3:0:0:0:
134,32,160763,1,8,1:2:0:0:
512,32,161075,1,4,1:3:0:0:
431,16,161231,1,8,1:3:0:0:
178,80,161388,5,4,1:3:0:0:
89,128,161544,1,4,1:3:0:0:
175,112,161700,1,0,3:0:0:0:
95,112,161856,1,0,3:0:0:0:
0,128,162013,1,8,1:2:0:0:
417,64,162325,1,4,2:2:0:0:
251,208,162638,6,0,L|459:208,1,183.600001120605,2|0,3:2|3:0,1:0:0:0:
336,112,163106,1,0,3:0:0:0:
435,176,163263,1,8,1:2:0:0:
54,176,163575,1,6,1:3:0:0:
153,144,163731,1,8,1:3:0:0:
265,240,163888,6,0,L|377:240,1,91.8000005603027,4|4,1:3|1:3,1:0:0:0:
257,128,164200,1,0,3:0:0:0:
334,112,164356,1,0,3:0:0:0:
184,128,164513,2,0,P|120:192|184:240,1,180,10|0,1:2|3:0,1:0:0:0:
269,160,164981,1,0,3:0:0:0:
484,112,165138,6,0,L|292:112,1,183.600001120605,6|0,3:2|3:0,1:0:0:0:
191,160,165606,1,0,3:0:0:0:
99,160,165763,1,8,1:2:0:0:
337,208,166075,6,0,L|145:208,1,183.600001120605,4|4,1:3|1:3,1:0:0:0:
370,160,166544,1,4,1:3:0:0:
274,160,166700,1,0,3:0:0:0:
375,160,166856,1,0,3:0:0:0:
465,160,167013,1,8,1:2:0:0:
95,224,167325,1,4,2:2:0:0:
196,240,167481,1,0,1:0:0:0:
97,208,167638,6,0,L|209:208,1,91.8000005603027,2|0,3:2|3:0,1:0:0:0:
289,224,167950,1,0,3:0:0:0:
383,224,168106,1,0,3:0:0:0:
292,176,168263,1,8,1:2:0:0:
89,240,168575,2,0,L|217:240,1,91.8000005603027,6|8,1:3|1:3,1:0:0:0:
405,128,168888,5,4,1:3:0:0:
310,128,169044,1,4,1:3:0:0:
402,144,169200,1,4,1:2:0:0:
316,144,169356,1,0,1:0:0:0:
158,48,169513,2,0,L|270:48,1,91.8000005603027,10|8,1:3|1:3,1:0:0:0:
352,144,169825,1,0,3:0:0:0:
249,144,169981,1,0,3:0:0:0:
17,112,170138,5,6,3:2:0:0:
116,96,170294,1,0,3:0:0:0:
220,96,170450,1,0,3:0:0:0:
122,96,170606,1,0,3:0:0:0:
24,128,170763,1,8,1:2:0:0:
401,176,171075,1,4,1:3:0:0:
304,224,171231,6,0,L|96:224,1,183.600001120605,8|4,1:3|1:3,1:0:0:0:
226,80,171700,1,0,3:0:0:0:
128,80,171856,1,0,3:0:0:0:
31,176,172013,1,8,1:2:0:0:
409,80,172325,1,4,1:2:0:0:
501,176,172481,1,0,1:0:0:0:
405,112,172638,6,0,L|309:112,1,91.8000005603027,2|0,3:2|3:0,1:0:0:0:
217,96,172950,1,0,3:0:0:0:
127,160,173106,1,0,3:0:0:0:
228,176,173263,1,8,1:2:0:0:
93,128,173575,6,0,P|29:192|93:240,1,180,6|4,1:3|1:3,1:0:0:0:
316,80,174044,1,4,1:3:0:0:
234,80,174200,1,0,3:0:0:0:
140,176,174356,1,0,3:0:0:0:
262,144,174513,2,0,L|358:144,1,91.8000005603027,10|0,1:2|1:0,1:0:0:0:
252,80,174825,1,2,3:2:0:0:
152,48,174981,1,0,3:0:0:0:
390,176,175138,6,0,L|294:176,1,91.8000005603027,6|0,3:2|3:0,1:0:0:0:
203,128,175450,1,0,3:0:0:0:
106,160,175606,1,0,3:0:0:0:
30,160,175763,1,8,1:2:0:0:
412,144,176075,1,4,1:3:0:0:
503,80,176231,1,8,1:3:0:0:
410,144,176388,5,0,1:0:0:0:
159,80,176544,1,4,1:3:0:0:
65,80,176700,1,0,3:0:0:0:
162,80,176856,1,0,3:0:0:0:
259,128,177013,1,8,1:2:0:0:
437,128,177325,6,0,P|501:192|437:240,1,180,4|4,1:2|1:3,1:0:0:0:
203,128,177950,2,0,P|139:192|203:240,1,180,4|4,1:3|1:3,1:0:0:0:
349,128,178575,6,0,P|413:192|349:240,1,180,4|10,1:3|1:2,1:0:0:0:
116,224,179044,2,0,L|-7:224,1,90,8|8,1:2|1:2,1:0:0:0:
271,240,179356,2,0,L|365:240,2,90,10|8|8,1:2|1:2|1:2,1:0:0:0:
125,160,179747,1,8,1:2:0:0:
68,160,179825,1,10,1:2:0:0:
234,160,179903,1,8,1:2:0:0:
289,160,179981,1,8,1:2:0:0:
233,144,180059,1,8,1:2:0:0:
94,240,180138,6,0,L|-33:240,1,91.8000005603027,4|0,3:2|1:0,1:0:0:0:
216,128,180450,1,0,3:0:0:0:
408,96,180763,1,8,1:2:0:0:
280,96,181075,1,0,3:0:0:0:
372,176,181231,6,0,L|276:176,1,91.8000005603027,0|2,1:0|3:2,1:0:0:0:
157,112,181544,1,8,1:2:0:0:
60,112,181700,1,0,3:0:0:0:
226,64,182013,1,8,1:2:0:0:
383,64,182325,1,0,3:0:0:0:
208,112,182638,6,0,L|112:112,1,91.8000005603027,0|0,3:0|1:0,1:0:0:0:
17,144,182950,1,0,3:0:0:0:
263,144,183263,1,8,1:2:0:0:
113,112,183575,2,0,L|17:112,1,91.8000005603027,0|8,3:0|1:3,1:0:0:0:
149,112,183888,6,0,L|245:112,1,91.8000005603027,2|8,3:2|1:2,1:0:0:0:
141,80,184200,1,0,3:0:0:0:
329,128,184513,2,0,L|425:128,1,91.8000005603027,10|0,1:2|1:0,1:0:0:0:
333,32,184825,1,8,1:2:0:0:
241,16,184981,1,8,1:2:0:0:
25,192,185138,6,0,L|137:192,1,91.8000005603027,6|0,3:2|1:0,1:0:0:0:
336,208,185450,1,0,3:0:0:0:
192,192,185763,1,8,1:2:0:0:
356,128,186075,2,0,L|468:128,1,91.8000005603027,2|0,3:2|1:0,1:0:0:0:
337,112,186388,5,0,3:0:0:0:
240,96,186544,1,8,1:2:0:0:
342,96,186700,1,0,3:0:0:0:
158,112,187013,1,8,1:2:0:0:
341,64,187325,1,0,3:0:0:0:
160,80,187638,6,0,L|288:80,1,91.8000005603027,0|0,3:0|1:0,1:0:0:0:
151,160,187950,1,0,3:0:0:0:
326,160,188263,1,8,1:2:0:0:
192,144,188575,1,0,3:0:0:0:
288,112,188731,6,0,L|384:112,1,91.8000005603027,0|2,3:0|3:2,1:0:0:0:
292,112,189044,1,8,1:2:0:0:
194,96,189200,1,0,3:0:0:0:
305,176,189356,2,0,L|433:176,1,91.8000005603027,0|8,1:0|1:2,1:0:0:0:
192,80,189825,2,0,L|304:80,1,91.8000005603027,8|8,1:2|1:2,1:0:0:0:
504,176,190138,6,0,L|376:176,1,91.8000005603027,6|0,3:2|1:0,1:0:0:0:
306,160,190450,1,0,3:0:0:0:
81,160,190763,1,8,1:2:0:0:
226,128,191075,6,0,L|434:128,1,183.600001120605,2|0,3:2|3:0,1:0:0:0:
287,112,191544,1,8,1:2:0:0:
173,80,191700,1,0,3:0:0:0:
328,80,192013,1,8,1:2:0:0:
160,80,192325,1,0,3:0:0:0:
346,144,192638,6,0,L|442:144,1,91.8000005603027,0|0,3:0|1:0,1:0:0:0:
338,96,192950,1,0,3:0:0:0:
151,80,193263,1,8,1:2:0:0:
355,176,193575,2,0,L|467:176,1,91.8000005603027,0|4,3:0|1:3,1:0:0:0:
338,128,193888,5,2,3:2:0:0:
244,128,194044,1,8,1:2:0:0:
342,128,194200,1,0,3:0:0:0:
424,144,194356,2,0,L|328:144,1,91.8000005603027,0|8,1:0|1:2,1:0:0:0:
148,128,194825,1,8,1:2:0:0:
92,32,194903,1,8,1:2:0:0:
270,32,194981,1,8,1:2:0:0:
326,32,195059,1,8,1:2:0:0:
115,32,195138,5,6,3:2:0:0:
332,193,195294,2,0,L|424:193,1,91.8000005603027,0|8,3:0|1:2,1:0:0:0:
172,64,195763,1,0,3:0:0:0:
80,144,195919,1,0,3:0:0:0:
174,176,196075,1,8,1:2:0:0:
359,192,196388,5,4,3:2:0:0:
137,144,196700,1,8,1:2:0:0:
297,96,197013,2,0,L|489:96,1,183.600001120605,2|8,3:2|1:2,1:0:0:0:
254,96,197638,5,4,3:2:0:0:
340,144,197794,1,0,3:0:0:0:
246,128,197950,1,8,1:2:0:0:
472,96,198263,1,0,3:0:0:0:
391,144,198419,1,0,3:0:0:0:
478,112,198575,1,8,1:2:0:0:
194,160,198888,5,4,3:3:0:0:
101,160,199044,1,0,3:0:0:0:
200,160,199200,1,4,3:3:0:0:
310,160,199356,1,0,3:0:0:0:
221,112,199513,1,8,1:2:0:0:
164,96,199591,1,8,1:2:0:0:
12,96,199669,1,8,1:2:0:0:
67,96,199747,1,8,1:2:0:0:
214,96,199825,1,8,1:2:0:0:
266,96,199903,1,8,1:2:0:0:
128,80,199981,1,8,1:2:0:0:
71,80,200059,1,8,1:2:0:0:
215,176,200138,6,0,L|423:176,1,183.600001120605,6|0,3:2|3:0,1:0:0:0:
154,192,200606,1,2,1:2:0:0:
250,208,200763,2,0,L|362:208,1,91.8000005603027,0|0,3:0|1:0,1:0:0:0:
446,272,201075,2,0,L|334:272,1,91.8000005603027,2|0,3:2|1:0,1:0:0:0:
100,128,201388,6,0,P|36:192|100:240,1,180,6|0,3:2|3:0,1:0:0:0:
188,160,201856,1,2,1:2:0:0:
405,208,202013,2,0,L|515:208,1,91.8000005603027,0|0,3:0|1:0,1:0:0:0:
370,272,202325,2,0,L|258:272,1,91.8000005603027,2|0,3:2|1:0,1:0:0:0:
59,176,202638,6,0,L|267:176,1,183.600001120605,6|0,3:2|3:0,1:0:0:0:
167,160,203106,1,2,1:2:0:0:
382,208,203263,2,0,L|382:110,1,90,0|0,3:0|1:0,1:0:0:0:
290,272,203575,2,0,L|402:272,1,91.8000005603027,2|0,3:2|1:0,1:0:0:0:
134,176,203888,6,0,L|342:176,1,183.600001120605,6|0,3:2|3:0,1:0:0:0:
67,208,204356,2,0,L|179:208,1,91.8000005603027,2|2,1:2|3:3,1:0:0:0:
50,160,204669,1,0,1:0:0:0:
290,208,204825,2,0,L|402:208,1,91.8000005603027,2|0,3:3|1:0,1:0:0:0:
114,160,205138,5,6,3:2:0:0:
268,128,205450,1,8,1:2:0:0:
162,128,205606,1,8,1:2:0:0:
276,128,205763,1,8,1:2:0:0:
168,128,205919,1,8,1:2:0:0:
398,128,206075,1,8,1:2:0:0:
153,128,206231,1,8,1:2:0:0:
268,128,206388,5,8,1:2:0:0:
154,128,206544,1,8,1:2:0:0:
267,128,206700,1,8,1:2:0:0:
43,128,206856,1,8,1:2:0:0:
280,128,207013,1,10,1:2:0:0:
160,128,207169,1,8,3:3:0:0:
405,128,207325,1,10,1:2:0:0:
44,128,207481,1,4,3:3:0:0:
272,192,207638,6,0,L|480:192,1,183.600001120605,6|8,3:2|1:2,1:0:0:0:
398,128,208028,1,8,1:2:0:0:
256,128,208106,1,8,1:2:0:0:
200,128,208184,1,8,1:2:0:0:
259,160,208263,1,10,1:2:0:0:
315,144,208341,1,8,1:2:0:0:
165,144,208419,1,8,1:2:0:0:
108,144,208497,1,8,1:2:0:0:
337,144,208575,1,8,1:2:0:0:
392,224,208653,1,8,1:2:0:0:
336,224,208731,1,8,1:2:0:0:
198,208,208809,1,8,1:2:0:0:
57,208,208888,5,10,1:2:0:0:
0,240,208966,1,8,1:2:0:0:
158,240,209044,1,8,1:2:0:0:
213,240,209122,1,8,1:2:0:0:
62,224,209200,1,8,1:2:0:0:
65,224,209278,1,8,1:2:0:0:
212,224,209356,1,8,1:2:0:0:
268,144,209434,1,8,1:2:0:0:
421,128,209513,1,10,1:2:0:0:
475,176,209591,1,8,1:2:0:0:
417,160,209669,1,8,1:2:0:0:
270,160,209747,1,8,1:2:0:0:
128,128,209825,6,0,P|64:192|128:240,1,180,4|0,3:2|3:0,1:0:0:0:
341,176,210294,1,10,1:2:0:0:
88,176,210450,1,10,1:2:0:0:
170,160,210607,1,8,1:3:0:0:
390,176,210763,1,10,1:2:0:0:
293,160,210919,1,10,1:2:0:0:
391,160,211075,1,4,1:3:0:0:
165,160,211231,5,14,1:2:0:0:
402,160,211544,1,0,3:0:0:0:
488,176,211700,1,10,1:2:0:0:
114,176,212013,1,8,1:2:0:0:
58,176,212091,1,8,1:2:0:0:
203,176,212169,1,8,1:2:0:0:
258,176,212247,1,8,1:2:0:0:
394,160,212325,1,8,1:2:0:0:
452,176,212403,1,8,1:2:0:0:
314,176,212481,1,8,1:2:0:0:
257,176,212559,1,8,1:2:0:0:
414,336,212638,6,0,P|366:80|318:336,1,734.400004482422,6|4,3:2|1:3,1:0:0:0:
137,128,214200,5,0,3:0:0:0:
44,176,214356,2,0,L|156:176,1,91.8000005603027,4|4,1:3|1:3,1:0:0:0:
313,128,214669,1,8,1:3:0:0:
411,176,214825,2,0,L|299:176,1,91.8000005603027,4|0,1:3|3:0,1:0:0:0:
82,336,215138,6,0,P|130:80|178:336,1,734.400004482422,6|8,3:2|1:2,1:0:0:0:
278,144,216544,1,8,1:2:0:0:
162,176,216700,2,0,L|274:176,1,91.8000005603027,4|0,3:2|1:0,1:0:0:0:
473,176,217013,2,0,L|361:176,1,91.8000005603027,8|8,1:3|1:3,1:0:0:0:
142,176,217325,2,0,L|30:176,1,91.8000005603027,4|4,1:3|1:3,1:0:0:0:
272,336,217638,6,0,P|240:144|208:336,1,550.800003361816,6|0,3:2|1:0,1:0:0:0:
355,336,218888,6,0,P|387:144|419:336,1,550.800003361816,6|0,3:2|3:0,1:0:0:0:
225,176,220138,6,0,L|98:176,1,91.8000005603027,14|0,1:2|3:0,1:0:0:0:
355,192,220450,1,0,3:0:0:0:
123,192,220606,1,12,1:2:0:0:
219,176,220763,2,0,L|91:176,1,91.8000005603027,0|0,3:0|1:0,1:0:0:0:
369,192,221075,1,14,1:2:0:0:
290,176,221231,6,0,L|418:176,1,91.8000005603027,0|0,3:0|3:0,1:0:0:0:
144,192,221544,1,12,1:2:0:0:
239,176,221700,2,0,L|111:176,1,91.8000005603027,0|0,3:0|3:0,1:0:0:0:
372,128,222013,1,8,1:3:0:0:
429,128,222091,1,8,1:3:0:0:
372,128,222169,1,8,1:3:0:0:
230,112,222247,1,8,1:3:0:0:
87,144,222325,1,4,1:3:0:0:
144,144,222403,1,4,1:3:0:0:
282,128,222481,1,4,1:3:0:0:
339,128,222559,1,4,1:3:0:0:
196,64,222638,6,0,L|84:64,1,91.8000005603027,6|2,3:2|1:1,1:0:0:0:
319,176,222950,1,2,3:3:0:0:
420,64,223106,2,0,L|532:64,1,91.8000005603027,2|0,1:1|3:0,1:0:0:0:
278,64,223419,2,0,L|390:64,1,91.8000005603027,2|0,1:1|3:0,1:0:0:0:
280,256,223731,1,2,3:3:0:0:
65,128,223888,6,0,P|1:192|65:240,1,180,0|2,3:0|3:3,1:0:0:0:
267,64,224356,2,0,L|379:64,1,91.8000005603027,2|0,1:1|3:0,1:0:0:0:
106,64,224669,2,0,L|218:64,1,91.8000005603027,2|0,1:1|3:0,1:0:0:0:
110,208,224981,6,0,L|318:208,1,183.600001120605,2|0,3:3|1:0,1:0:0:0:
68,176,225450,1,2,3:3:0:0:
161,64,225606,2,0,L|49:64,1,91.8000005603027,2|0,1:1|3:0,1:0:0:0:
311,64,225919,2,0,L|423:64,1,91.8000005603027,2|0,1:1|3:0,1:0:0:0:
183,208,226231,6,0,L|-24:208,1,183.600001120605,2|0,1:1|1:0,1:0:0:0:
247,176,226700,1,2,3:3:0:0:
341,64,226856,2,0,L|229:64,1,91.8000005603027,2|0,1:1|3:0,1:0:0:0:
35,176,227169,1,0,1:0:0:0:
254,128,227325,1,2,3:3:0:0:
310,144,227403,1,0,3:0:0:0:
171,144,227481,1,0,3:0:0:0:
113,176,227559,1,0,3:0:0:0:
260,144,227638,5,6,3:2:0:0:
405,256,227950,1,4,3:3:0:0:
305,224,228106,1,0,3:0:0:0:
405,224,228263,1,4,3:3:0:0:
178,128,228419,1,0,3:0:0:0:
404,224,228575,1,4,3:3:0:0:
302,224,228731,1,0,3:0:0:0:
394,224,228888,5,4,3:3:0:0:
294,224,229044,1,4,3:3:0:0:
512,224,229200,1,6,3:3:0:0:
290,224,229356,1,4,3:3:0:0:
384,224,229513,1,6,3:3:0:0:
157,224,229669,1,4,3:3:0:0:
441,224,229825,1,6,3:3:0:0:
227,224,229981,1,4,3:3:0:0:
446,128,230138,6,0,P|510:192|446:240,1,180,14|8,1:2|1:2,1:0:0:0:
306,256,230528,1,8,1:2:0:0:
249,256,230606,1,8,1:2:0:0:
306,224,230684,1,8,1:2:0:0:
360,224,230763,1,8,1:2:0:0:
221,224,230841,1,8,1:2:0:0:
162,224,230919,1,8,1:2:0:0:
329,128,230997,1,8,1:2:0:0:
384,128,231075,1,8,1:2:0:0:
235,224,231153,1,8,1:2:0:0:
178,224,231231,1,8,1:2:0:0:
323,224,231309,1,8,1:2:0:0:
325,224,231388,5,8,1:2:0:0:
176,224,231466,1,8,1:2:0:0:
120,224,231544,1,8,1:2:0:0:
174,224,231622,1,8,1:2:0:0:
232,224,231700,1,8,1:2:0:0:
390,128,231778,1,8,1:2:0:0:
333,224,231856,1,8,1:2:0:0:
179,224,231934,1,8,1:2:0:0:
123,224,232013,1,8,1:2:0:0:
260,224,232091,1,8,1:2:0:0:
413,224,232169,1,8,1:2:0:0:
469,224,232247,1,8,1:2:0:0:
412,224,232325,1,10,1:3:0:0:
268,224,232403,1,8,1:3:0:0:
110,128,232481,1,8,1:3:0:0:
109,128,232559,1,8,1:3:0:0:
245,128,232638,6,0,P|309:192|245:240,1,180,6|8,3:2|1:2,1:0:0:0:
13,176,233106,2,0,L|220:176,1,183.600001120605,2|0,3:2|3:0,1:0:0:0:
419,80,233575,2,0,L|308:80,1,91.8000005603027,10|0,1:2|1:0,1:0:0:0:
101,128,233888,6,0,P|37:192|101:240,1,180,2|8,3:2|1:2,1:0:0:0:
316,128,234356,2,0,P|380:192|316:240,1,180,2|0,3:2|3:0,1:0:0:0:
110,80,234825,2,0,L|-1:80,1,91.8000005603027,10|0,1:2|1:0,1:0:0:0:
286,128,235138,6,0,P|350:192|286:240,1,180,2|8,3:2|1:2,1:0:0:0:
67,128,235606,2,0,P|3:192|67:240,1,180,2|8,3:2|3:3,1:0:0:0:
328,176,236075,2,0,L|440:176,1,91.8000005603027,10|0,1:2|1:0,1:0:0:0:
187,208,236388,6,0,L|-4:208,1,183.600001120605,2|8,3:2|1:2,1:0:0:0:
234,208,236856,2,0,L|42:208,1,183.600001120605,2|0,3:2|3:0,1:0:0:0:
269,80,237325,2,0,L|397:80,1,91.8000005603027,10|4,1:2|1:3,1:0:0:0:
93,128,237638,6,0,P|29:192|93:240,1,180,6|8,3:2|1:2,1:0:0:0:
294,208,238106,2,0,L|486:208,1,183.600001120605,2|0,3:2|3:0,1:0:0:0:
247,96,238575,1,8,1:2:0:0:
361,96,238731,1,8,1:3:0:0:
239,112,238888,5,0,3:0:0:0:
354,112,239044,1,0,1:0:0:0:
138,208,239200,2,0,L|10:208,1,91.8000005603027,10|0,1:2|1:0,1:0:0:0:
280,208,239513,2,0,L|408:208,1,91.8000005603027,2|0,1:2|3:0,1:0:0:0:
101,208,239825,2,0,L|229:208,1,91.8000005603027,14|0,1:2|1:0,1:0:0:0:
458,47,240138,6,0,L|362:47,2,91.8000005603027,10|0|0,1:2|3:0|3:0,1:0:0:0:
212,208,240606,2,0,L|404:208,1,183.600001120605,10|0,1:2|3:0,1:0:0:0:
175,144,241075,1,10,1:2:0:0:
269,144,241231,1,0,3:0:0:0:
49,144,241388,5,2,3:3:0:0:
293,208,241544,2,0,L|101:208,1,183.600001120605,8|0,1:2|1:0,1:0:0:0:
412,144,242013,1,8,1:2:0:0:
470,128,242091,1,8,1:2:0:0:
320,128,242169,1,8,1:2:0:0:
263,112,242247,1,8,1:2:0:0:
405,112,242325,1,8,1:2:0:0:
460,112,242403,1,8,1:2:0:0:
317,96,242481,1,8,1:2:0:0:
260,96,242559,1,8,1:2:0:0:
413,208,242633,6,0,L|221:208,1,183.600001120605,2|0,1:2|1:0,1:0:0:0:
79,128,243116,2,0,P|15:192|79:240,1,180,0|0,1:0|1:0,1:0:0:0:
199,144,243600,6,0,L|311:144,1,91.8000005603027,0|2,1:0|1:2,1:0:0:0:
138,176,243952,2,0,L|234:176,1,91.8000005603027,0|2,1:0|1:1,1:0:0:0:
131,144,244267,1,2,1:2:0:0:
285,208,244425,2,0,L|477:208,1,183.600001120605,0|0,1:0|1:0,1:0:0:0:
315,176,244899,6,0,L|219:176,1,91.8000005603027,0|2,1:0|1:1,1:0:0:0:
317,208,245232,2,0,L|125:208,1,183.600001120605,2|0,1:2|1:0,1:0:0:0:
47,240,245705,1,0,1:0:0:0:
145,176,245863,6,0,L|241:176,1,91.8000005603027,2|0,1:2|1:0,1:0:0:0:
141,176,246201,2,0,L|237:176,1,91.8000005603027,0|0,1:0|1:0,1:0:0:0:
367,208,246540,2,0,L|176:208,1,183.600001120605,2|0,1:2|1:0,1:0:0:0:
290,176,247049,2,0,L|386:176,1,91.8000005603027,0|2,1:0|1:2,1:0:0:0:
276,96,247394,5,0,1:0:0:0:
378,176,247570,2,0,L|282:176,1,91.8000005603027,0|2,1:0|1:2,1:0:0:0:
153,208,247923,2,0,L|345:208,1,183.600001120605,2|0,1:2|1:0,1:0:0:0:
211,128,248453,2,0,P|147:192|211:240,1,180,0|0,1:0|1:0,1:0:0:0:
328,176,248978,6,0,L|236:176,1,91.8000005603027,2|0,1:2|1:0,1:0:0:0:
103,176,249341,2,0,L|199:176,1,91.8000005603027,2|0,1:2|1:0,1:0:0:0:
78,128,249705,2,0,L|206:128,1,91.8000005603027,0|0,1:0|1:0,1:0:0:0:
323,128,250092,2,0,P|387:192|323:240,1,180,2|0,1:2|1:0,1:0:0:0:
188,128,250662,6,0,L|60:128,1,91.8000005603027,2|0,1:2|1:0,1:0:0:0:
256,192,251090,12,0,256340,1:0:0:0:
