osu file format v14

[General]
AudioFilename: audio.mp3
AudioLeadIn: 0
PreviewTime: 192973
Countdown: 0
SampleSet: Soft
StackLeniency: 0.7
Mode: 0
LetterboxInBreaks: 0
WidescreenStoryboard: 1

[Editor]
Bookmarks: 14228,30295,38328,54395,70462,102596,126697,158831,174898,192973,225107,259249
DistanceSpacing: 1.3
BeatDivisor: 4
GridSize: 8
TimelineZoom: 4.099998

[Metadata]
Title:Fantasy
TitleUnicode:Fantasy
Artist:THE ORAL CIGARETTES
ArtistUnicode:THE ORAL CIGARETTES
Creator:Agatsu
Version:Collab Insane
Source:
Tags:suck my world full version synderes frostwich fixxis black man japanese rock jrock j-rock
BeatmapID:2483040
BeatmapSetID:1181712

[Difficulty]
HPDrainRate:5
CircleSize:4.1
OverallDifficulty:8
ApproachRate:9
SliderMultiplier:1.65
SliderTickRate:1

[Events]
//Background and Video events
0,0,"66041517_p0.png",0,0
//Break Periods
2,175098,182331
//Storyboard Layer 0 (Background)
//Storyboard Layer 1 (Fail)
//Storyboard Layer 2 (Pass)
//Storyboard Layer 3 (Foreground)
//Storyboard Layer 4 (Overlay)
//Storyboard Sound Samples

[TimingPoints]
170,502.092050209205,4,2,1,30,1,0
8203,-100,4,2,1,40,0,0
8328,-66.6666666666667,4,2,1,40,0,0
13726,-200,4,2,1,60,0,0
14228,-50,4,2,1,70,0,0
30044,-100,4,2,1,70,0,0
30295,-66.6666666666667,4,2,1,60,0,0
33308,-133.333333333333,4,2,1,60,0,0
34312,-66.6666666666667,4,2,1,60,0,0
36069,-133.333333333333,4,2,1,60,0,0
36320,-66.6666666666667,4,2,1,60,0,0
37826,-25,4,2,1,60,0,0
37889,-25,4,2,1,5,0,0
38328,-66.6666666666667,4,2,1,50,0,0
54395,-68.9655172413793,4,2,1,50,0,0
62429,-66.6666666666667,4,2,1,50,0,0
66948,-66.6666666666667,4,2,1,60,0,0
70086,-58.8235294117647,4,2,1,60,0,0
70462,-55.5555555555556,4,2,1,70,0,0
102596,-76.9230769230769,4,2,1,40,0,0
103852,-100,4,2,1,40,0,0
104103,-66.6666666666667,4,2,1,45,0,0
104479,-58.8235294117647,4,2,1,45,0,0
104605,-58.8235294117647,4,2,1,50,0,0
105107,-66.6666666666667,4,2,1,50,0,0
107115,-80,4,2,1,50,0,0
107617,-66.6666666666667,4,2,1,50,0,0
108119,-58.8235294117647,4,2,1,50,0,0
108872,-66.6666666666667,4,2,1,50,0,0
110128,-57.1428571428571,4,2,1,50,0,0
110630,-66.6666666666667,4,2,1,50,0,0
120295,-133.333333333333,4,2,1,50,0,0
120546,-66.6666666666667,4,2,1,50,0,0
120672,-66.6666666666667,4,2,1,50,0,0
122680,-57.1428571428571,4,2,1,50,0,0
123182,-66.6666666666667,4,2,1,50,0,0
138747,-66.6666666666667,4,2,1,60,0,0
142764,-55.5555555555556,4,2,1,70,0,0
174898,-55.5555555555556,4,2,1,40,0,0
182931,-76.9230769230769,4,2,1,50,0,0
188956,-76.9230769230769,4,2,1,60,0,0
192220,-66.6666666666667,4,2,1,70,0,0
192973,-50,4,2,1,70,0,0
225107,-55.5555555555556,4,2,1,70,0,0
257241,-55.5555555555556,4,2,1,50,0,0
258245,-55.5555555555556,4,2,1,40,0,0
259249,-55.5555555555556,4,2,1,30,0,0
260253,-55.5555555555556,4,2,1,20,0,0
260504,-55.5555555555556,4,2,1,10,0,0
260755,-55.5555555555556,4,2,1,5,0,0

[Colours]
Combo1 : 255,157,111
Combo2 : 124,179,233
Combo3 : 193,129,218
Combo4 : 235,105,124

[HitObjects]
256,192,170,12,8,8203,0:0:0:0:
182,91,8328,5,0,0:0:0:0:
182,91,8454,2,0,P|246:95|331:106,2,123.750004720688,2|2|2,0:0|0:0|0:0,0:0:0:0:
7,232,9207,2,0,P|12:186|95:148,1,123.750004720688,2|0,0:0|0:0,0:0:0:0:
146,192,9584,2,0,P|141:227|136:282,1,61.875002360344,2|0,0:0|0:0,0:0:0:0:
314,371,10211,5,0,0:0:0:0:
462,284,10462,2,0,P|452:325|445:369,1,61.875002360344,2|0,0:0|0:0,0:0:0:0:
362,299,10713,2,0,P|373:250|398:181,1,123.750004720688,2|2,0:0|0:0,0:0:0:0:
206,68,11216,2,0,B|201:145|227:120|217:205,1,123.750004720688,2|0,0:0|0:0,0:0:0:0:
262,317,11592,2,0,P|209:302|124:289,1,123.750004720688,2|2,0:0|0:0,0:0:0:0:
42,384,11969,2,0,B|47:307|21:332|31:247,1,123.750004720688,2|0,0:0|0:0,0:0:0:0:
341,349,13726,5,8,0:0:0:0:
341,349,14228,6,0,P|334:252|320:170,1,165,4|2,3:2|0:0,0:0:0:0:
394,101,14605,1,0,0:0:0:0:
455,146,14730,2,0,B|461:187|461:187|450:242,1,82.5,10|0,0:0|0:0,0:0:0:0:
327,71,14981,2,0,B|231:43|252:87|164:50,1,165,2|2,0:0|3:2,0:0:0:0:
165,51,15358,2,0,P|213:42|273:31,1,82.5,0|2,0:0|0:0,0:0:0:0:
116,117,15609,5,2,0:0:0:0:
46,51,15734,2,0,P|34:127|15:239,1,165,8|0,0:0|0:0,0:0:0:0:
98,379,16111,2,0,B|109:340|109:340|106:298,1,82.5,2|0,0:0|3:0,0:0:0:0:
202,347,16362,5,0,0:0:0:0:
202,347,16487,2,0,P|243:355|293:369,1,82.5,2|2,0:0|0:0,0:0:0:0:
463,284,16739,2,0,P|422:292|372:306,1,82.5,10|0,0:0|0:0,0:0:0:0:
447,113,16990,2,0,P|457:152|465:193,1,82.5,2|0,0:0|0:0,0:0:0:0:
287,266,17241,2,0,B|319:174|271:208|308:75,1,165,2|0,3:2|0:0,0:0:0:0:
240,53,17617,1,0,0:0:0:0:
112,89,17743,5,8,0:0:0:0:
144,156,17868,2,0,P|188:165|257:185,1,82.5,2|2,0:0|0:0,0:0:0:0:
366,246,18119,5,2,0:0:0:0:
437,309,18245,2,0,P|446:230|397:126,2,165,0|2|10,3:0|0:0|0:0,0:0:0:0:
284,266,18998,2,0,L|171:285,1,82.5,2|0,0:0|0:0,0:0:0:0:
105,204,19249,6,0,B|70:280|70:280|100:379,1,165,2|0,3:2|0:0,0:0:0:0:
221,198,19626,1,2,0:0:0:0:
203,125,19751,2,0,P|196:83|184:12,1,82.5,8|2,0:0|0:0,0:0:0:0:
269,4,20002,5,2,0:0:0:0:
386,44,20128,1,2,3:2:0:0:
386,44,20379,5,0,3:0:0:0:
458,119,20504,2,0,P|460:75|469:18,1,82.5,2|0,0:0|0:0,0:0:0:0:
381,156,20755,2,0,P|311:164|252:232,1,165,10|2,0:0|0:0,0:0:0:0:
187,282,21132,1,0,0:0:0:0:
298,343,21257,6,0,B|365:351|365:351|392:367|392:367|458:376,1,165,2|0,3:2|0:0,0:0:0:0:
492,309,21634,1,2,0:0:0:0:
356,248,21759,1,8,0:0:0:0:
417,294,21885,2,0,B|460:188|405:242|448:126,1,165,2|0,0:0|0:0,0:0:0:0:
345,35,22262,6,0,P|274:42|231:134,2,165,4|2|10,3:2|0:0|0:0,0:0:0:0:
416,77,23015,1,2,0:0:0:0:
416,77,23140,1,0,0:0:0:0:
337,183,23266,6,0,P|254:199|159:233,1,165,2|0,3:2|0:0,0:0:0:0:
358,373,23642,2,0,B|368:331|368:331|352:280,1,82.5,2|8,0:0|0:0,0:0:0:0:
464,379,23893,2,0,B|475:273|511:331|512:202,1,165,2|2,0:0|0:0,0:0:0:0:
511,223,24270,6,0,P|474:215|402:198,1,82.5,0|0,3:0|0:0,0:0:0:0:
278,112,24521,1,2,0:0:0:0:
415,60,24646,1,2,0:0:0:0:
362,133,24772,2,0,P|344:71|344:34,1,82.5,10|0,0:0|0:0,0:0:0:0:
488,13,25023,2,0,P|506:75|506:112,1,82.5,2|0,0:0|0:0,0:0:0:0:
338,214,25274,2,0,B|244:220|280:175|151:181,1,165,2|0,3:2|0:0,0:0:0:0:
0,113,25651,2,0,L|109:91,1,82.5,0|8,0:0|0:0,0:0:0:0:
228,43,25902,5,2,0:0:0:0:
162,94,26027,2,0,B|148:56|148:56|150:7,1,82.5,2|2,0:0|0:0,0:0:0:0:
317,0,26278,6,0,P|327:69|344:174,2,165,0|2|10,3:0|0:0|0:0,0:0:0:0:
229,146,26906,1,0,0:0:0:0:
229,146,27031,2,0,P|187:156|136:169,1,82.5,2|0,0:0|0:0,0:0:0:0:
59,219,27282,6,0,P|51:301|70:381,1,165,2|0,3:2|0:0,0:0:0:0:
311,292,27659,1,2,0:0:0:0:
228,340,27785,2,0,P|233:285|220:233,1,82.5,8|2,0:0|0:0,0:0:0:0:
303,168,28036,5,2,0:0:0:0:
183,126,28161,1,2,3:2:0:0:
183,126,28412,1,0,3:0:0:0:
248,82,28538,6,0,B|253:41|253:41|238:-15,1,82.5,2|0,0:0|0:0,0:0:0:0:
337,66,28789,2,0,P|418:77|500:89,1,165,10|2,0:0|0:0,0:0:0:0:
496,162,29165,1,0,0:0:0:0:
331,209,29291,2,0,B|322:306|360:282|354:372,1,165,2|0,3:2|0:0,0:0:0:0:
406,246,29667,1,2,0:0:0:0:
274,339,29793,2,0,P|233:347|177:365,1,82.5,8|2,0:0|0:3,0:0:0:0:
433,353,30044,6,0,P|474:361|530:379,1,82.5,2|4,0:0|3:2,0:0:0:0:
267,316,30797,2,0,P|226:324|137:356,1,123.750004720688,2|2,3:2|0:0,0:0:0:0:
76,384,31174,1,0,0:0:0:0:
27,310,31299,6,0,B|58:243|17:253|52:190,2,123.750004720688,2|0|0,3:2|0:0|3:0,0:0:0:0:
154,152,32052,2,0,L|137:76,1,61.875002360344,0|0,0:0|0:0,0:0:0:0:
193,32,32303,6,0,P|254:36|317:96,1,123.750004720688,0|2,3:0|0:0,0:0:0:0:
370,111,32680,1,0,0:0:0:0:
453,150,32805,6,0,P|392:154|329:214,1,123.750004720688,2|2,3:2|0:0,0:0:0:0:
272,226,33182,1,0,0:0:0:0:
340,278,33308,6,0,P|367:284|408:294,1,61.875002360344,2|0,3:2|0:0,0:0:0:0:
460,351,33810,1,0,3:0:0:0:
460,351,34061,6,0,L|422:358,1,30.937501180172,0|0,0:0|0:0,0:0:0:0:
269,321,34312,2,0,B|165:310|186:379|72:373,1,185.625007081032,0|0,3:0|0:0,0:0:0:0:
36,323,34814,1,2,3:2:0:0:
237,229,35065,2,0,P|269:237|297:243,1,61.875002360344,2|0,0:0|0:0,0:0:0:0:
373,291,35316,2,0,P|386:243|383:156,1,123.750004720688,2|0,3:2|0:0,0:0:0:0:
441,113,35693,1,2,0:0:0:0:
493,168,35818,2,0,P|497:200|504:247,1,61.875002360344,0|0,3:0|0:0,0:0:0:0:
348,97,36069,1,2,0:0:0:0:
348,97,36320,6,0,P|286:91|205:80,1,123.750004720688,2|0,3:2|0:0,0:0:0:0:
153,117,36697,1,0,0:0:0:0:
153,117,36822,1,0,3:0:0:0:
0,41,37073,6,0,P|39:36|66:30,1,61.875002360344,0|0,0:0|0:0,0:0:0:0:
49,122,37324,2,0,B|41:206|19:165|19:256,1,123.750004720688,0|0,3:0|0:0,0:0:0:0:
64,302,37701,1,0,0:0:0:0:
209,351,37826,6,0,B|166:359|166:359|177:355|177:355|144:362,1,82.5,8|0,0:0|0:0,0:0:0:0:
150,360,38328,6,0,L|285:374,1,123.750004720688,4|0,3:2|0:0,0:0:0:0:
380,384,38705,1,0,0:0:0:0:
380,384,38831,2,0,B|371:310|401:344|384:248,1,123.750004720688,10|2,0:0|0:0,0:0:0:0:
509,49,39333,2,0,L|378:70,1,123.750004720688,2|2,3:2|0:0,0:0:0:0:
328,117,39709,2,0,P|295:110|252:102,1,61.875002360344,2|8,0:0|0:0,0:0:0:0:
187,49,39960,2,0,P|131:56|103:118,1,123.750004720688,2|0,0:0|0:0,0:0:0:0:
11,238,40337,6,0,P|72:227|153:215,1,123.750004720688,0|0,3:0|0:0,0:0:0:0:
314,360,40839,2,0,P|319:331|333:278,1,61.875002360344,10|0,0:0|0:0,0:0:0:0:
220,369,41090,1,2,0:0:0:0:
296,217,41341,2,0,B|293:144|316:175|307:81,1,123.750004720688,2|0,3:2|0:0,0:0:0:0:
366,42,41718,2,0,P|401:47|443:52,1,61.875002360344,2|8,0:0|0:0,0:0:0:0:
512,136,41969,2,0,P|459:151|441:227,1,123.750004720688,2|0,0:0|0:0,0:0:0:0:
506,281,42345,6,0,L|521:355,1,61.875002360344,0|0,3:0|0:0,0:0:0:0:
426,368,42596,1,0,0:0:0:0:
219,328,42847,2,0,P|278:322|362:304,1,123.750004720688,10|0,0:0|0:0,0:0:0:0:
250,228,43224,2,0,P|309:222|393:204,1,123.750004720688,2|0,0:0|0:0,0:0:0:0:
372,209,43600,1,0,0:0:0:0:
317,43,43852,6,0,P|266:62|249:138,1,123.750004720688,10|0,0:0|0:0,0:0:0:0:
250,228,44228,2,0,B|180:222|204:252|117:248,1,123.750004720688,2|0,0:0|0:0,0:0:0:0:
129,248,44605,1,0,0:0:0:0:
15,77,44856,6,0,P|23:157|26:224,1,123.750004720688,10|0,0:0|0:0,0:0:0:0:
119,125,45232,2,0,P|127:205|130:272,1,123.750004720688,2|0,0:0|0:0,0:0:0:0:
129,248,45609,1,0,0:0:0:0:
263,368,45860,6,0,P|268:333|279:279,1,61.875002360344,8|2,0:0|0:3,0:0:0:0:
173,344,46111,1,0,0:0:0:0:
304,214,46362,6,0,P|355:220|393:287,1,123.750004720688,4|0,3:2|0:0,0:0:0:0:
263,368,46864,1,10,0:0:0:0:
117,275,47115,1,2,0:0:0:0:
233,126,47366,2,0,P|299:135|368:143,1,123.750004720688,2|0,3:2|0:0,0:0:0:0:
400,214,47743,2,0,L|391:290,1,61.875002360344,2|8,0:0|0:0,0:0:0:0:
489,352,47994,2,0,B|486:277|514:310|501:209,1,123.750004720688,2|0,0:0|0:0,0:0:0:0:
478,122,48370,6,0,P|423:130|339:144,1,123.750004720688,0|0,3:0|0:0,0:0:0:0:
271,163,48747,1,0,0:0:0:0:
271,163,48872,1,10,0:0:0:0:
157,303,49123,1,2,0:0:0:0:
5,214,49375,2,0,B|10:137|30:173|33:77,1,123.750004720688,2|0,3:2|0:0,0:0:0:0:
113,143,49751,2,0,L|196:157,1,61.875002360344,2|8,0:0|0:0,0:0:0:0:
85,248,50002,2,0,P|42:248|3:322,1,123.750004720688,2|0,0:0|0:0,0:0:0:0:
148,364,50379,6,0,P|152:329|163:276,1,61.875002360344,0|0,3:0|0:0,0:0:0:0:
61,382,50630,1,2,0:0:0:0:
259,344,50881,2,0,L|397:363,1,123.750004720688,10|2,0:0|0:0,0:0:0:0:
186,220,51383,2,0,L|48:239,1,123.750004720688,0|0,3:2|0:0,0:0:0:0:
3,177,51759,1,2,0:0:0:0:
3,177,51885,2,0,P|12:122|90:97,1,123.750004720688,8|2,0:0|0:0,0:0:0:0:
263,20,52387,6,0,P|267:87|274:170,1,123.750004720688,0|0,3:0|0:0,0:0:0:0:
341,195,52764,1,0,0:0:0:0:
341,195,52889,2,0,L|406:204,1,61.875002360344,8|0,0:0|0:0,0:0:0:0:
301,331,53140,2,0,L|276:270,1,61.875002360344,0|0,0:0|0:0,0:0:0:0:
478,231,53391,6,0,P|438:235|401:313,1,123.750004720688,0|0,3:0|0:0,0:0:0:0:
498,381,53768,1,2,0:0:0:0:
498,381,53893,2,0,P|504:338|508:299,2,61.875002360344,8|2|2,0:0|0:3|0:0,0:0:0:0:
398,301,54395,6,0,P|341:311|263:329,2,119.625003650665,6|2|2,3:2|0:0|3:2,0:0:0:0:
486,200,55149,2,0,B|489:169|489:169|474:126,1,59.8125018253327,2|0,0:0|0:0,0:0:0:0:
412,89,55400,2,0,B|336:92|369:68|274:67,1,119.625003650665,2|0,3:2|0:0,0:0:0:0:
132,36,55776,2,0,P|165:29|216:19,1,59.8125018253327,2|0,0:0|3:0,0:0:0:0:
190,23,56153,5,2,0:0:0:0:
165,188,56404,2,0,P|125:144|67:137,1,119.625003650665,2|2,3:2|0:0,0:0:0:0:
3,179,56780,1,0,0:0:0:0:
54,242,56906,2,0,P|45:304|34:379,1,119.625003650665,2|0,3:2|0:0,0:0:0:0:
37,361,57282,1,2,0:0:0:0:
37,361,57408,1,0,3:0:0:0:
180,325,57659,5,2,0:0:0:0:
180,325,57785,2,0,P|222:330|324:342,1,119.625003650665
473,369,58161,2,0,P|454:371|393:378,1,59.8125018253327,2|0,0:0|0:0,0:0:0:0:
388,294,58412,2,0,B|410:224|374:249|405:155,2,119.625003650665,6|2|2,3:2|0:0|3:2,0:0:0:0:
477,90,59165,6,0,P|472:59|462:7,1,59.8125018253327,2|0,0:0|0:0,0:0:0:0:
385,69,59416,2,0,P|318:78|238:88,1,119.625003650665,2|0,3:2|0:0,0:0:0:0:
237,172,59793,2,0,B|267:175|267:175|304:166,1,59.8125018253327,2|0,0:0|3:0,0:0:0:0:
295,167,60170,5,2,0:0:0:0:
410,255,60421,2,0,P|421:306|439:395,1,119.625003650665,2|2,3:2|0:0,0:0:0:0:
331,327,60797,1,0,0:0:0:0:
263,359,60923,2,0,B|193:355|203:386|119:378,1,119.625003650665,2|0,3:2|0:0,0:0:0:0:
0,294,61425,1,0,3:0:0:0:
0,294,61676,6,0,L|85:278,1,59.8125018253327,0|0,0:0|0:0,0:0:0:0:
135,212,61927,2,0,P|140:158|152:74,1,119.625003650665,0|0,3:0|0:0,0:0:0:0:
148,93,62303,1,0,0:0:0:0:
79,14,62429,6,0,B|31:91|31:91|46:207,1,185.625007081032,6|2,3:2|0:0,0:0:0:0:
43,185,62931,1,0,3:0:0:0:
138,359,63182,2,0,L|152:293,1,61.875002360344,2|0,0:0|0:0,0:0:0:0:
223,337,63433,2,0,P|276:344|343:403,2,123.750004720688,2|0|0,3:2|0:0|3:0,0:0:0:0:
96,227,64186,2,0,L|156:214,1,61.875002360344,2|0,0:0|0:0,0:0:0:0:
227,251,64437,6,0,B|236:200|236:200|243:187|243:187|251:130,1,123.750004720688,2|0,3:2|0:0,0:0:0:0:
251,130,64814,1,2,0:0:0:0:
180,77,64939,2,0,L|46:102,1,123.750004720688,0|2,3:0|0:0,0:0:0:0:
25,171,65441,5,2,3:2:0:0:
183,195,65693,2,0,L|253:208,1,61.875002360344,0|2,0:0|0:0,0:0:0:0:
306,254,65944,2,0,B|306:326|333:297|337:377,1,123.750004720688,0|2,3:0|0:0,0:0:0:0:
413,382,66320,1,0,0:0:0:0:
512,325,66446,6,0,P|452:316|389:200,1,185.625007081032,0|0,3:0|0:0,0:0:0:0:
430,150,66948,1,2,3:2:0:0:
469,0,67199,6,0,B|479:33|479:33|475:76,1,61.875002360344,2|0,0:0|0:0,0:0:0:0:
395,46,67450,2,0,P|333:52|272:59,1,123.750004720688,2|0,3:2|0:0,0:0:0:0:
209,104,67826,1,2,0:0:0:0:
277,159,67952,2,0,P|280:189|283:220,1,61.875002360344,0|2,3:0|0:0,0:0:0:0:
370,310,68203,5,2,0:0:0:0:
370,310,68328,1,0,0:0:0:0:
370,310,68454,2,0,B|254:264|236:370|132:361,1,247.500009441376,2|2,0:3|0:0,0:0:0:0:
62,356,69207,2,0,P|69:326|76:295,1,61.875002360344,0|0,0:3|0:0,0:0:0:0:
128,238,69458,5,2,0:3:0:0:
128,238,69709,1,2,0:0:0:0:
42,95,69960,1,8,0:0:0:0:
157,151,70086,2,0,B|72:138|100:177|11:175,1,140.250002675056,8|4,0:3|0:3,0:0:0:0:
230,281,70462,6,0,L|253:113,1,148.49999546814,4|2,3:2|0:0,0:0:0:0:
335,40,70839,1,0,0:0:0:0:
335,40,70964,2,0,L|349:123,1,74.2499977340699,10|0,0:0|0:0,0:0:0:0:
499,190,71216,2,0,B|419:171|436:224|325:201,1,148.49999546814,2|2,0:0|3:2,0:0:0:0:
206,372,71718,5,2,0:0:0:0:
206,372,71843,2,0,B|203:336|203:336|213:289,1,74.2499977340699,2|8,0:0|0:0,0:0:0:0:
302,339,72094,2,0,P|347:344|399:353,1,74.2499977340699,2|0,0:0|0:0,0:0:0:0:
227,211,72345,6,0,P|159:217|53:232,1,148.49999546814,2|0,0:0|0:0,0:0:0:0:
158,122,72722,1,2,0:0:0:0:
220,76,72847,1,2,0:0:0:0:
294,99,72973,2,0,P|301:144|308:187,1,74.2499977340699,10|0,0:0|0:0,0:0:0:0:
486,228,73224,2,0,B|492:194|492:194|481:141,1,74.2499977340699,2|0,0:0|0:0,0:0:0:0:
394,199,73475,6,0,P|327:203|299:303,1,148.49999546814,2|0,3:2|0:0,0:0:0:0:
100,349,73977,1,8,0:0:0:0:
100,349,74103,2,0,P|59:354|8:362,2,74.2499977340699,2|2|2,0:0|0:0|0:0,0:0:0:0:
188,377,74479,6,0,B|207:306|207:306|169:224,1,148.49999546814,0|2,3:0|0:0,0:0:0:0:
43,96,74981,2,0,P|79:105|136:121,1,74.2499977340699,10|0,0:0|0:0,0:0:0:0:
298,123,75232,2,0,B|305:88|305:88|290:29,1,74.2499977340699,2|0,0:0|0:0,0:0:0:0:
208,94,75483,2,0,B|210:188|175:148|174:266,1,148.49999546814,2|0,3:2|0:0,0:0:0:0:
272,368,75860,2,0,P|276:335|288:262,1,74.2499977340699,2|8,0:0|0:0,0:0:0:0:
362,217,76111,1,2,0:0:0:0:
406,279,76236,1,2,0:0:0:0:
350,334,76362,6,0,B|274:315|284:362|188:342,1,148.49999546814,2|0,3:2|3:0,0:0:0:0:
103,384,76739,2,0,P|100:346|90:282,1,74.2499977340699,2|0,0:0|0:0,0:0:0:0:
0,182,76990,2,0,P|38:192|92:209,1,74.2499977340699,10|0,0:0|0:0,0:0:0:0:
153,132,77241,2,0,P|134:59|56:45,1,148.49999546814,2|2,0:0|3:2,0:0:0:0:
274,89,77743,5,0,0:0:0:0:
274,89,77868,2,0,P|314:86|380:75,1,74.2499977340699,2|8,0:0|0:0,0:0:0:0:
455,28,78119,2,0,P|439:96|420:191,1,148.49999546814,2|0,0:0|0:0,0:0:0:0:
422,327,78496,6,0,P|399:266|301:260,1,148.49999546814,4|2,3:2|0:0,0:0:0:0:
179,106,78998,2,0,B|174:71|174:71|185:16,1,74.2499977340699,10|0,0:0|0:0,0:0:0:0:
359,91,79249,2,0,B|366:130|366:130|355:185,1,74.2499977340699,2|0,0:0|0:0,0:0:0:0:
260,205,79500,6,0,L|276:28,1,148.49999546814,2|0,3:2|0:0,0:0:0:0:
179,106,79877,2,0,P|143:114|73:131,1,74.2499977340699,2|8,0:0|0:0,0:0:0:0:
36,181,80128,1,2,0:0:0:0:
163,336,80379,6,0,B|250:335|222:380|324:383,1,148.49999546814,2|0,0:0|0:0,0:0:0:0:
373,288,80755,1,2,0:0:0:0:
330,224,80881,1,2,0:0:0:0:
254,240,81006,2,0,B|244:277|244:277|250:337,1,74.2499977340699,10|0,0:0|0:0,0:0:0:0:
134,251,81257,2,0,P|94:256|53:263,1,74.2499977340699,2|0,0:0|0:0,0:0:0:0:
92,87,81508,6,0,P|166:103|186:179,1,148.49999546814,2|0,3:2|0:0,0:0:0:0:
379,74,82011,1,8,0:0:0:0:
379,74,82136,2,0,P|385:31|392:-16,2,74.2499977340699,2|2|2,0:0|0:0|0:0,0:0:0:0:
295,103,82513,6,0,B|379:101|354:134|446:136,1,148.49999546814,0|2,3:0|0:0,0:0:0:0:
487,358,83015,2,0,P|494:323|505:271,1,74.2499977340699,10|0,0:0|0:0,0:0:0:0:
333,335,83266,2,0,P|359:358|399:394,1,74.2499977340699,2|0,0:0|0:0,0:0:0:0:
454,205,83517,6,0,P|393:222|291:246,1,148.49999546814,2|0,3:2|0:0,0:0:0:0:
214,271,83893,2,0,B|209:234|209:234|220:188,1,74.2499977340699,2|8,0:0|0:0,0:0:0:0:
295,34,84144,1,2,0:0:0:0:
342,94,84270,1,2,0:0:0:0:
291,148,84395,6,0,B|215:137|228:177|135:163,1,148.49999546814,2|0,3:2|3:0,0:0:0:0:
69,142,84772,1,2,0:0:0:0:
19,357,85023,2,0,P|52:349|105:340,1,74.2499977340699,10|0,0:0|0:0,0:0:0:0:
193,277,85274,2,0,P|252:296|268:387,1,148.49999546814,2|2,0:0|3:2,0:0:0:0:
96,230,85776,5,0,0:0:0:0:
96,230,85902,2,0,B|92:146|125:169|109:71,1,148.49999546814,2|2,0:0|0:3,0:0:0:0:
178,20,86278,2,0,P|213:26|260:35,1,74.2499977340699,2|0,0:0|0:0,0:0:0:0:
383,109,86529,6,0,P|308:117|204:134,1,148.49999546814,6|0,3:2|0:0,0:0:0:0:
155,171,86906,1,0,0:0:0:0:
155,171,87031,1,10,0:0:0:0:
16,298,87282,2,0,P|54:302|121:311,1,74.2499977340699,0|0,0:0|0:0,0:0:0:0:
182,379,87534,2,0,P|195:308|271:286,1,148.49999546814,2|0,3:2|0:0,0:0:0:0:
352,311,87910,2,0,P|359:355|364:411,1,74.2499977340699,2|8,0:0|0:0,0:0:0:0:
451,336,88161,2,0,P|455:299|461:262,2,74.2499977340699,2|0|2,0:0|0:0|0:0,0:0:0:0:
344,223,88538,6,0,B|268:211|279:252|186:237,1,148.49999546814,0|2,3:0|0:0,0:0:0:0:
121,273,88914,1,0,0:0:0:0:
121,273,89040,1,10,0:0:0:0:
41,119,89291,1,2,0:0:0:0:
163,9,89542,6,0,P|149:77|135:173,1,148.49999546814,2|0,3:2|0:0,0:0:0:0:
209,312,89918,2,0,P|202:271|197:231,1,74.2499977340699,2|8,0:0|0:0,0:0:0:0:
269,178,90170,2,0,B|354:167|335:211|436:198,1,148.49999546814,2|0,0:0|0:0,0:0:0:0:
489,315,90546,6,0,P|497:235|509:143,1,148.49999546814,2|0,3:2|0:0,0:0:0:0:
502,84,90923,1,0,0:0:0:0:
502,84,91048,1,10,0:0:0:0:
332,169,91299,2,0,P|343:223|350:260,1,74.2499977340699,0|0,0:0|0:0,0:0:0:0:
272,305,91550,2,0,P|208:305|176:383,1,148.49999546814,2|0,3:2|0:0,0:0:0:0:
86,306,91927,2,0,P|51:301|1:295,1,74.2499977340699,2|8,0:0|0:0,0:0:0:0:
117,161,92178,2,0,P|130:193|149:240,2,74.2499977340699,0|2|0,0:0|0:0|0:0,0:0:0:0:
22,202,92554,6,0,B|29:109|-9:150|3:48,1,148.49999546814,0|2,3:2|0:0,0:0:0:0:
61,0,92931,1,0,0:0:0:0:
61,0,93057,1,10,0:0:0:0:
194,95,93308,1,2,0:0:0:0:
349,28,93559,2,0,P|410:30|454:106,1,148.49999546814,2|0,3:2|0:0,0:0:0:0:
492,183,93935,1,2,0:0:0:0:
492,183,94061,2,0,L|481:266,2,74.2499977340699,8|2|0,0:0|0:0|0:0,0:0:0:0:
318,225,94563,6,0,B|243:213|250:258|159:245,1,148.49999546814,6|0,3:2|0:0,0:0:0:0:
91,216,94939,1,0,0:0:0:0:
91,216,95065,1,10,0:0:0:0:
198,363,95316,2,0,P|235:357|278:350,1,74.2499977340699,0|0,0:0|0:0,0:0:0:0:
378,378,95567,2,0,P|385:312|398:213,1,148.49999546814,2|0,3:2|0:0,0:0:0:0:
412,145,95944,2,0,P|442:141|508:133,1,74.2499977340699,2|8,0:0|0:0,0:0:0:0:
428,49,96195,2,0,P|398:45|332:37,2,74.2499977340699,2|2|2,0:0|0:0|0:0,0:0:0:0:
315,128,96571,6,0,B|236:115|251:157|151:142,1,148.49999546814,0|2,3:0|0:0,0:0:0:0:
91,143,96948,1,0,0:0:0:0:
91,143,97073,1,10,0:0:0:0:
179,263,97324,1,0,0:0:0:0:
76,374,97575,2,0,P|92:295|107:214,1,148.49999546814,2|0,3:2|0:0,0:0:0:0:
288,246,97952,1,2,0:0:0:0:
345,298,98077,1,10,0:0:0:0:
317,368,98203,2,0,P|246:356|140:340,1,148.49999546814,2|0,0:0|0:0,0:0:0:0:
104,228,98580,6,0,P|123:158|204:139,1,148.49999546814,2|0,3:2|0:0,0:0:0:0:
481,46,99082,2,0,P|446:42|394:34,1,74.2499977340699,10|0,0:0|0:0,0:0:0:0:
357,145,99333,2,0,P|393:139|430:135,1,74.2499977340699,0|0,0:0|0:0,0:0:0:0:
495,237,99584,2,0,B|421:228|428:269|338:259,1,148.49999546814,2|0,3:2|0:0,0:0:0:0:
208,190,99960,2,0,P|201:227|192:284,1,74.2499977340699,2|8,0:0|0:0,0:0:0:0:
21,332,100211,2,0,B|16:296|16:296|26:257,2,74.2499977340699,0|2|2,0:0|0:0|0:0,0:0:0:0:
214,368,100588,6,0,P|181:304|95:301,1,148.49999546814,0|2,3:0|0:0,0:0:0:0:
97,381,100964,1,0,0:0:0:0:
97,381,101090,1,10,0:0:0:0:
285,300,101341,1,2,0:0:0:0:
137,149,101592,2,0,P|133:78|122:-10,1,148.49999546814,2|8,3:2|0:3,0:0:0:0:
217,46,101969,2,0,P|256:51|307:61,1,74.2499977340699,4|8,0:3|0:0,0:0:0:0:
470,127,102220,2,0,P|461:71|380:39,1,148.49999546814,0|0,3:3|0:0,0:0:0:0:
403,187,102596,5,2,0:3:0:0:
403,187,103098,1,2,0:0:0:0:
403,187,103600,1,2,0:0:0:0:
403,187,103852,2,0,L|414:241,1,41.25,2|0,0:3|0:0,0:0:0:0:
512,375,104103,6,0,P|451:360|435:299,1,123.750004720688,8|0,0:0|0:0,0:0:0:0:
316,369,104479,2,0,P|281:377|223:390,1,70.1250013375282,2|4,0:0|3:2,0:0:0:0:
186,343,104856,5,2,0:0:0:0:
140,204,105107,2,0,B|142:283|108:250|98:335,1,123.750004720688,10|2,0:0|0:0,0:0:0:0:
38,135,105483,1,0,0:0:0:0:
38,135,105609,2,0,P|91:127|176:108,2,123.750004720688,2|0|8,3:2|0:0|0:0,0:0:0:0:
255,68,106362,2,0,P|262:32|270:-14,1,61.875002360344
351,58,106613,6,0,P|422:73|472:170,1,185.625007081032,0|0,3:0|0:0,0:0:0:0:
397,167,107115,2,0,P|394:244|379:320,1,154.6875,10|2,0:0|0:0,0:0:0:0:
452,362,107617,6,0,B|462:332|462:332|461:280,1,61.875002360344,0|0,3:0|0:0,0:0:0:0:
307,278,107868,2,0,B|297:308|297:308|298:360,1,61.875002360344,2|0,0:0|0:0,0:0:0:0:
206,348,108119,2,0,B|125:334|139:377|51:373,1,140.250002675056,10|2,0:0|0:0,0:0:0:0:
70,373,108621,6,0,P|64:338|56:302,1,70.1250013375282,2|0,3:2|0:0,0:0:0:0:
131,238,108872,2,0,P|165:194|251:206,2,123.750004720688,2|10|2,0:0|0:0|0:0,0:0:0:0:
212,351,109500,1,0,0:0:0:0:
212,351,109626,6,0,P|217:316|222:267,1,61.875002360344,2|0,3:2|0:0,0:0:0:0:
297,326,109877,2,0,P|327:329|358:333,1,61.875002360344,2|0,0:0|0:0,0:0:0:0:
136,311,110128,6,0,B|51:295|68:337|-20:349,1,144.375001376867,10|2,0:0|0:0,0:0:0:0:
32,6,110630,6,0,P|46:62|66:141,1,123.750004720688,0|0,3:0|0:0,0:0:0:0:
26,246,111006,1,0,0:0:0:0:
26,246,111132,2,0,B|76:210|76:210|154:231,1,123.750004720688,10|0,0:0|0:0,0:0:0:0:
262,150,111634,6,0,B|253:73|219:111|217:19,1,123.750004720688,2|2,3:2|0:0,0:0:0:0:
307,46,112011,2,0,P|340:52|378:59,1,61.875002360344,2|8,0:0|0:0,0:0:0:0:
182,145,112262,2,0,P|120:156|50:169,1,123.750004720688,2|0,0:0|0:0,0:0:0:0:
0,121,112638,5,0,3:0:0:0:
248,228,112889,1,0,0:0:0:0:
175,373,113140,2,0,P|170:340|164:303,1,61.875002360344,10|0,0:0|0:0,0:0:0:0:
257,332,113391,2,0,B|326:324|302:304|385:300,1,123.750004720688,2|2,0:0|3:2,0:0:0:0:
500,381,113893,6,0,L|422:369,1,61.875002360344,0|2,0:0|0:0,0:0:0:0:
310,231,114144,1,8,0:0:0:0:
310,231,114270,2,0,B|296:171|296:171|326:116,1,123.750004720688,2|0,0:0|0:0,0:0:0:0:
237,30,114646,6,0,P|269:37|317:48,1,61.875002360344,0|0,3:0|0:0,0:0:0:0:
402,130,114898,1,0,0:0:0:0:
202,196,115149,6,0,B|142:207|142:207|131:217|131:217|80:231,1,123.750004720688,10|0,0:0|0:0,0:0:0:0:
13,290,115525,2,0,P|-6:250|23:176,1,123.750004720688,2|0,0:0|0:0,0:0:0:0:
127,303,115902,2,0,L|113:383,1,61.875002360344,0|0,0:0|0:0,0:0:0:0:
206,341,116153,6,0,B|282:337|251:321|331:319,1,123.750004720688,10|0,0:0|0:0,0:0:0:0:
410,351,116529,1,2,0:0:0:0:
410,351,116655,1,0,3:0:0:0:
281,221,116906,6,0,P|288:182|295:147,1,61.875002360344,0|0,0:0|0:0,0:0:0:0:
315,68,117157,1,10,0:0:0:0:
117,110,117408,6,0,B|100:86|100:86|104:53,1,61.875002360344,0|2,0:0|0:0,0:0:0:0:
146,200,117659,2,0,B|60:178|102:212|16:187,1,123.750004720688,0|0,3:0|0:0,0:0:0:0:
24,189,118036,1,0,0:0:0:0:
24,189,118161,2,0,P|37:267|42:313,1,123.750004720688,8|0,0:0|0:0,0:0:0:0:
105,363,118538,1,0,0:0:0:0:
105,363,118663,1,0,3:0:0:0:
280,240,118914,6,0,P|233:247|205:250,1,61.875002360344,0|0,0:0|0:0,0:0:0:0:
156,296,119165,2,0,P|138:250|156:169,1,123.750004720688,10|2,0:0|0:0,0:0:0:0:
33,8,119667,6,0,P|23:69|13:130,1,123.750004720688,2|0,3:2|0:0,0:0:0:0:
38,203,120044,1,2,0:0:0:0:
205,82,120295,2,0,L|293:95,1,61.875002360344
355,17,120672,6,0,P|365:78|375:139,1,123.750004720688,0|0,3:0|0:0,0:0:0:0:
507,191,121048,1,0,0:0:0:0:
507,191,121174,2,0,P|446:208|409:256,1,123.750004720688,10|2,0:0|0:0,0:0:0:0:
223,277,121676,6,0,P|281:292|320:339,1,123.750004720688,2|0,3:2|0:0,0:0:0:0:
124,379,122052,2,0,P|132:340|139:303,1,61.875002360344,2|8,0:0|0:0,0:0:0:0:
80,258,122303,2,0,P|65:186|52:119,1,123.750004720688,2|0,0:0|0:0,0:0:0:0:
136,82,122680,6,0,B|152:115|152:115|151:173,1,72.1875006884336,0|0,3:0|0:0,0:0:0:0:
31,30,122931,1,0,0:0:0:0:
31,30,123182,6,0,B|109:26|80:5|156:3,1,123.750004720688,10|2,0:0|0:0,0:0:0:0:
233,58,123559,1,0,0:0:0:0:
233,58,123684,2,0,P|226:117|216:203,1,123.750004720688,0|0,3:0|0:0,0:0:0:0:
142,114,124061,2,0,P|111:110|80:106,1,61.875002360344,2|8,0:0|0:0,0:0:0:0:
299,227,124437,6,0,P|329:223|360:219,1,61.875002360344,2|0,0:0|0:0,0:0:0:0:
411,286,124688,2,0,P|458:292|502:355,1,123.750004720688,0|0,3:0|0:0,0:0:0:0:
460,208,125065,5,0,0:0:0:0:
460,208,125190,2,0,P|463:177|468:146,1,61.875002360344,8|0,0:0|0:0,0:0:0:0:
289,111,125441,2,0,P|285:141|280:172,1,61.875002360344,0|0,0:0|0:0,0:0:0:0:
360,218,125693,6,0,B|389:155|355:165|394:78,1,123.750004720688,0|0,3:0|0:0,0:0:0:0:
318,21,126069,1,2,0:0:0:0:
318,21,126195,2,0,P|352:14|386:7,2,61.875002360344,8|2|2,0:0|0:3|0:0,0:0:0:0:
171,128,126697,6,0,P|182:58|193:-7,2,123.750004720688,6|2|2,3:2|0:0|3:2,0:0:0:0:
10,287,127450,2,0,B|8:257|8:257|18:222,1,61.875002360344,2|0,0:0|0:0,0:0:0:0:
121,274,127701,2,0,B|195:276|172:296|254:300,1,123.750004720688,2|0,3:2|0:0,0:0:0:0:
329,315,128077,1,2,0:0:0:0:
329,315,128203,1,0,3:0:0:0:
477,384,128454,2,0,P|484:348|495:302,1,61.875002360344,2|0,0:0|0:0,0:0:0:0:
505,200,128705,6,0,P|457:199|420:273,2,123.750004720688,2|2|2,3:2|0:0|3:2,0:0:0:0:
384,98,129458,2,0,P|350:103|294:106,1,61.875002360344,0|2,0:0|0:0,0:0:0:0:
248,204,129709,2,0,B|237:137|220:165|210:79,1,123.750004720688,0|0,3:0|0:0,0:0:0:0:
208,2,130086,1,0,0:0:0:0:
208,2,130211,1,0,3:0:0:0:
62,116,130462,2,0,P|53:151|41:189,1,61.875002360344,2|0,0:0|0:0,0:0:0:0:
124,305,130713,6,0,P|70:286|1:264,2,123.750004720688,2|2|2,3:2|0:0|3:2,0:0:0:0:
305,382,131467,2,0,B|314:352|314:352|306:317,1,61.875002360344,2|0,0:0|0:0,0:0:0:0:
202,246,131718,2,0,B|257:238|257:238|271:232|271:232|344:223,1,123.750004720688,2|0,3:2|0:0,0:0:0:0:
410,215,132094,1,2,0:0:0:0:
410,215,132220,1,0,3:0:0:0:
497,68,132471,2,0,P|489:38|481:-1,1,61.875002360344,2|0,0:0|0:0,0:0:0:0:
313,75,132722,6,0,P|375:77|419:137,2,123.750004720688,2|2|2,3:2|0:0|3:2,0:0:0:0:
193,189,133475,2,0,L|180:258,1,61.875002360344,0|2,0:0|0:0,0:0:0:0:
299,305,133726,2,0,B|314:245|314:245|286:183,1,123.750004720688,0|0,3:0|0:0,0:0:0:0:
236,113,134103,1,0,0:0:0:0:
236,113,134228,2,0,P|176:105|92:88,1,123.750004720688,0|0,3:0|0:0,0:0:0:0:
10,317,134730,6,0,P|47:263|113:268,1,123.750004720688,6|0,3:2|0:0,0:0:0:0:
185,384,135107,2,0,B|191:317|219:343|220:256,1,123.750004720688,2|0,0:0|0:0,0:0:0:0:
219,266,135483,1,2,0:0:0:0:
351,101,135734,6,0,P|359:162|368:223,1,123.750004720688,2|0,3:2|0:0,0:0:0:0:
420,338,136111,2,0,P|472:334|503:265,1,123.750004720688,2|0,0:0|0:0,0:0:0:0:
505,276,136487,1,2,0:0:0:0:
445,132,136739,6,0,B|340:119|379:177|245:161,1,185.625007081032,2|2,3:2|0:0,0:0:0:0:
265,162,137241,1,0,3:0:0:0:
144,286,137492,2,0,L|155:358,1,61.875002360344,2|0,0:0|0:0,0:0:0:0:
26,382,137743,6,0,B|39:302|10:337|28:237,1,123.750004720688,2|0,3:2|0:0,0:0:0:0:
57,180,138119,1,2,0:0:0:0:
57,180,138245,1,0,3:0:0:0:
204,10,138496,2,0,P|171:16|128:26,1,61.875002360344,2|0,0:0|0:0,0:0:0:0:
0,85,138747,6,0,P|57:92|136:108,1,123.750004720688,0|2,3:0|0:0,0:0:0:0:
272,219,139249,1,2,3:2:0:0:
439,138,139500,1,2,0:0:0:0:
349,27,139751,2,0,B|323:82|323:82|338:147,1,123.750004720688,2|0,3:2|0:0,0:0:0:0:
391,221,140128,2,0,L|461:235,1,61.875002360344,2|0,0:0|3:0,0:0:0:0:
334,296,140379,1,2,0:0:0:0:
334,296,140504,2,0,L|190:312,1,123.750004720688,2|2,0:0|0:3,0:0:0:0:
148,360,141508,6,0,P|114:354|76:348,1,61.875002360344,2|0,0:3|0:0,0:0:0:0:
14,327,141759,1,0,3:0:0:0:
14,327,142011,1,0,3:0:0:0:
131,227,142262,1,8,0:0:0:0:
55,124,142387,2,0,B|66:200|37:177|49:269,1,123.750004720688,0|4,0:0|0:3,0:0:0:0:
201,157,142764,6,0,P|260:149|377:140,1,148.49999546814,4|2,3:2|0:0,0:0:0:0:
489,306,143266,2,0,B|497:271|497:271|486:214,1,74.2499977340699,10|0,0:0|0:0,0:0:0:0:
393,273,143517,2,0,P|387:312|378:364,1,74.2499977340699,2|0,0:0|0:0,0:0:0:0:
295,252,143768,2,0,B|214:264|228:221|127:237,1,148.49999546814,2|2,3:2|0:0,0:0:0:0:
61,260,144144,2,0,P|55:178|52:160,1,74.2499977340699,2|8,0:0|0:0,0:0:0:0:
184,58,144395,2,0,P|226:68|265:74,1,74.2499977340699,2|0,0:0|0:0,0:0:0:0:
132,154,144646,6,0,P|85:145|64:46,1,148.49999546814,2|0,0:0|0:0,0:0:0:0:
221,153,145023,1,2,0:0:0:0:
261,220,145149,1,2,0:0:0:0:
210,276,145274,2,0,P|175:284|127:296,1,74.2499977340699,10|0,0:0|0:0,0:0:0:0:
40,327,145525,2,0,B|34:291|34:291|49:243,1,74.2499977340699,2|0,0:0|0:0,0:0:0:0:
200,366,145776,2,0,P|261:371|358:384,1,148.49999546814,2|0,3:2|0:0,0:0:0:0:
499,226,146278,1,8,0:0:0:0:
499,226,146404,2,0,P|494:180|491:138,2,74.2499977340699,2|2|2,0:0|0:0|0:0,0:0:0:0:
408,320,146780,6,0,P|397:266|313:240,1,148.49999546814,0|2,3:0|0:0,0:0:0:0:
101,288,147282,2,0,P|94:211|84:133,1,148.49999546814,10|2,0:0|0:0,0:0:0:0:
11,67,147659,1,0,0:0:0:0:
11,67,147785,2,0,B|71:59|71:59|88:51|88:51|162:41,1,148.49999546814,2|0,3:2|0:0,0:0:0:0:
250,79,148161,2,0,P|259:39|276:-13,1,74.2499977340699,2|8,0:0|0:0,0:0:0:0:
409,16,148412,1,2,0:0:0:0:
459,71,148538,1,2,0:0:0:0:
408,125,148663,6,0,P|356:133|323:222,1,148.49999546814,2|0,3:2|3:0,0:0:0:0:
397,268,149040,1,2,0:0:0:0:
218,363,149291,2,0,B|148:349|151:389|58:373,1,148.49999546814,10|2,0:0|0:0,0:0:0:0:
17,304,149667,1,0,0:0:0:0:
17,304,149793,2,0,P|31:229|48:140,1,148.49999546814,2|0,3:2|0:0,0:0:0:0:
132,100,150170,2,0,B|147:136|147:136|144:185,1,74.2499977340699,2|8,0:0|0:0,0:0:0:0:
7,37,150421,1,2,0:0:0:0:
7,37,150546,2,0,P|40:31|82:23,1,74.2499977340699,0|0,0:0|0:0,0:0:0:0:
260,0,150797,6,0,P|245:67|228:150,1,148.49999546814,4|2,3:2|0:0,0:0:0:0:
337,315,151299,2,0,P|376:324|421:337,1,74.2499977340699,10|0,0:0|0:0,0:0:0:0:
499,371,151550,2,0,B|505:336|505:336|490:283,1,74.2499977340699,2|0,0:0|0:0,0:0:0:0:
356,218,151801,2,0,P|419:199|441:115,1,148.49999546814,2|0,3:2|0:0,0:0:0:0:
492,33,152178,2,0,P|459:29|406:22,1,74.2499977340699,2|8,0:0|0:0,0:0:0:0:
316,8,152429,1,2,0:0:0:0:
105,124,152680,6,0,B|189:124|167:84|260:88,1,148.49999546814,2|0,0:0|0:0,0:0:0:0:
352,211,153057,1,2,0:0:0:0:
302,269,153182,1,2,0:0:0:0:
229,251,153308,2,0,P|236:211|244:163,1,74.2499977340699,10|0,0:0|0:0,0:0:0:0:
142,304,153559,2,0,P|148:340|154:377,1,74.2499977340699,2|0,0:0|0:0,0:0:0:0:
0,319,153810,2,0,P|9:252|94:229,1,148.49999546814,2|0,3:2|0:0,0:0:0:0:
210,57,154312,1,8,0:0:0:0:
210,57,154437,2,0,P|215:96|225:144,2,74.2499977340699,2|2|2,0:0|0:0|0:0,0:0:0:0:
110,147,154814,6,0,B|123:55|87:99|106:-21,1,148.49999546814,0|2,3:0|0:0,0:0:0:0:
298,83,155316,2,0,P|364:92|467:108,1,148.49999546814,10|2,0:0|0:0,0:0:0:0:
500,194,155693,1,0,0:0:0:0:
500,194,155818,2,0,P|432:202|408:285,1,148.49999546814,2|0,3:2|0:0,0:0:0:0:
486,381,156195,2,0,B|494:347|494:347|485:297,1,74.2499977340699,2|8,0:0|0:0,0:0:0:0:
322,243,156446,1,2,0:0:0:0:
248,260,156571,1,2,0:0:0:0:
175,279,156697,6,0,P|106:269|7:255,1,148.49999546814,2|0,3:2|3:0,0:0:0:0:
50,344,157073,1,2,0:0:0:0:
205,188,157324,2,0,B|212:153|212:153|200:106,1,74.2499977340699,10|0,0:0|0:0,0:0:0:0:
22,8,157575,2,0,B|12:45|12:45|19:80,1,74.2499977340699,2|0,0:0|0:0,0:0:0:0:
94,189,157826,2,0,B|91:102|123:135|116:30,1,148.49999546814,2|0,3:2|0:0,0:0:0:0:
205,188,158203,2,0,P|212:229|221:278,1,74.2499977340699,2|8,0:0|0:0,0:0:0:0:
350,152,158454,1,2,0:3:0:0:
350,152,158580,2,0,P|310:137|264:120,1,74.2499977340699,2|0,0:0|0:0,0:0:0:0:
304,295,158831,6,0,B|389:286|367:324|458:315,1,148.49999546814,6|0,3:2|0:0,0:0:0:0:
510,137,159207,1,0,0:0:0:0:
510,137,159333,2,0,P|457:139|427:227,1,148.49999546814,10|0,0:0|0:0,0:0:0:0:
209,381,159709,1,0,0:0:0:0:
209,381,159835,2,0,L|292:368,1,74.2499977340699,2|0,3:2|0:0,0:0:0:0:
220,258,160086,1,0,0:0:0:0:
155,219,160211,2,0,L|124:297,1,74.2499977340699,2|8,0:0|0:0,0:0:0:0:
322,253,160462,2,0,L|269:187,1,74.2499977340699,2|2,0:0|0:0,0:0:0:0:
204,147,160713,6,0,P|212:80|225:-23,1,148.49999546814,2|0,0:0|0:0,0:0:0:0:
121,63,161090,2,0,P|84:58|47:54,1,74.2499977340699,2|0,0:0|0:0,0:0:0:0:
307,124,161341,2,0,B|351:91|401:105|401:105|421:130|442:136,1,148.49999546814,10|2,0:0|0:0,0:0:0:0:
469,62,161718,1,0,0:0:0:0:
376,13,161843,6,0,P|328:21|213:38,1,148.49999546814,2|0,3:2|0:0,0:0:0:0:
97,154,162220,2,0,B|81:124|81:124|85:80,1,74.2499977340699,2|8,0:0|0:0,0:0:0:0:
189,165,162471,2,0,B|148:252|199:225|162:325,1,148.49999546814,2|0,0:0|0:0,0:0:0:0:
0,353,162847,6,0,P|26:286|96:267,2,148.49999546814,2|0|10,3:2|0:0|0:0,0:0:0:0:
216,380,163600,2,0,P|255:372|300:365,1,74.2499977340699,0|0,0:0|0:0,0:0:0:0:
348,303,163852,2,0,P|336:229|321:156,1,148.49999546814,2|0,3:2|0:0,0:0:0:0:
437,174,164228,1,2,0:0:0:0:
437,174,164354,2,0,B|449:207|449:207|447:261,1,74.2499977340699,8|0,0:0|0:0,0:0:0:0:
252,285,164605,1,2,0:0:0:0:
177,267,164730,2,0,P|142:273|81:288,1,74.2499977340699,0|0,0:0|3:2,0:0:0:0:
5,147,164981,5,0,0:0:0:0:
64,66,165107,2,0,B|63:147|108:124|120:233,2,148.49999546814,2|10|2,0:0|0:0|0:0,0:0:0:0:
214,104,165734,5,0,0:0:0:0:
214,104,165860,2,0,P|267:85|296:-3,1,148.49999546814,2|0,3:2|0:0,0:0:0:0:
373,0,166236,1,2,0:0:0:0:
497,123,166362,1,8,0:0:0:0:
504,51,166487,2,0,B|405:53|454:90|355:93,1,148.49999546814,2|0,0:0|0:0,0:0:0:0:
230,195,166864,6,0,P|238:155|260:32,1,148.49999546814,6|0,3:2|0:0,0:0:0:0:
53,272,167366,2,0,P|59:308|66:344,1,74.2499977340699,10|0,0:0|0:0,0:0:0:0:
180,306,167617,1,0,0:0:0:0:
248,278,167743,1,0,0:0:0:0:
306,322,167868,2,0,P|368:332|464:355,1,148.49999546814,2|0,3:2|0:0,0:0:0:0:
332,165,168245,2,0,B|316:202|316:202|319:254,1,74.2499977340699,2|8,0:0|0:0,0:0:0:0:
423,169,168496,6,0,P|419:129|410:60,1,74.2499977340699,2|2,0:0|0:0,0:0:0:0:
286,5,168747,2,0,P|322:21|386:48,1,74.2499977340699,2|0,0:0|3:0,0:0:0:0:
505,127,168998,1,0,0:0:0:0:
505,127,169123,2,0,P|495:200|487:274,2,148.49999546814,2|10|0,0:0|0:0|0:0,0:0:0:0:
425,4,169751,5,0,0:0:0:0:
354,34,169877,2,0,P|292:44|230:124,1,148.49999546814,2|0,3:2|0:0,0:0:0:0:
235,104,170253,1,2,0:0:0:0:
123,199,170379,1,10,0:0:0:0:
200,258,170504,2,0,B|209:221|209:221|203:175,1,74.2499977340699,2|0,0:0|0:0,0:0:0:0:
40,157,170755,2,0,B|31:194|31:194|37:240,1,74.2499977340699,0|2,0:0|3:2,0:0:0:0:
146,25,171132,5,0,0:0:0:0:
0,47,171383,2,0,P|72:36|170:22,1,148.49999546814,10|0,0:0|0:0,0:0:0:0:
399,111,171759,1,0,0:0:0:0:
399,111,171885,2,0,P|326:121|229:136,1,148.49999546814,2|0,3:2|0:0,0:0:0:0:
402,275,172262,2,0,P|404:232|387:180,1,74.2499977340699,2|8,0:0|0:0,0:0:0:0:
311,248,172513,2,0,B|226:246|252:286|147:278,1,148.49999546814,0|2,0:0|0:0,0:0:0:0:
167,279,172889,6,0,L|259:291,1,74.2499977340699,0|0,3:0|0:0,0:0:0:0:
81,222,173140,2,0,L|52:153,1,74.2499977340699,2|0,0:0|0:0,0:0:0:0:
74,325,173391,2,0,L|17:398,1,74.2499977340699,10|0,0:0|0:0,0:0:0:0:
173,184,173642,1,2,0:0:0:0:
173,184,173768,1,0,0:0:0:0:
223,124,173893,6,0,P|213:77|196:-4,1,111.374996601105,2|0,3:2|0:0,0:0:0:0:
199,15,174144,2,0,P|159:25|114:34,1,74.2499977340699,8|4,0:3|0:3,0:0:0:0:
386,64,174395,1,12,0:0:0:0:
305,95,174521,2,0,P|383:119|414:196,1,148.49999546814,4|0,3:2|0:0,0:0:0:0:
369,250,174898,5,2,0:0:0:0:
369,25,182931,6,0,P|433:18|490:14,1,107.249995090485,6|0,3:2|0:0,0:0:0:0:
306,114,183433,2,0,P|252:107|199:103,1,107.249995090485,2|0,3:2|0:0,0:0:0:0:
112,57,183810,2,0,P|107:91|101:132,1,53.6249975452424,2|0,0:0|3:0,0:0:0:0:
186,265,184186,1,2,0:0:0:0:
13,338,184437,2,0,P|17:299|21:272,2,53.6249975452424,2|0|0,3:2|0:0|0:0,0:0:0:0:
163,178,184939,6,0,B|226:169|209:192|280:183,1,107.249995090485,2|0,3:2|0:0,0:0:0:0:
353,195,185316,1,0,0:0:0:0:
353,195,185441,2,0,P|357:138|363:80,1,107.249995090485,2|0,3:2|0:0,0:0:0:0:
512,205,185944,2,0,P|467:215|441:286,1,107.249995090485,2|0,3:2|0:0,0:0:0:0:
430,352,186320,1,0,0:0:0:0:
430,352,186446,2,0,P|377:345|307:341,1,107.249995090485,2|0,3:2|0:0,0:0:0:0:
102,384,186948,6,0,P|128:341|188:338,1,107.249995090485,2|0,3:2|0:0,0:0:0:0:
328,245,187450,2,0,P|333:182|342:119,1,107.249995090485,2|0,3:2|0:0,0:0:0:0:
434,93,187826,2,0,P|430:127|428:162,1,53.6249975452424,2|0,0:0|3:0,0:0:0:0:
257,85,188203,2,0,B|197:76|212:100|141:94,1,107.249995090485,2|0,0:0|3:0,0:0:0:0:
79,138,188580,1,2,0:0:0:0:
79,138,188705,2,0,L|12:148,1,53.6249975452424,0|0,0:0|0:0,0:0:0:0:
136,300,188956,6,0,P|121:258|51:239,1,107.249995090485,2|0,3:2|0:0,0:0:0:0:
220,119,189458,1,2,3:2:0:0:
370,231,189709,1,2,0:0:0:0:
450,107,189960,2,0,P|401:115|330:127,1,107.249995090485,4|4,0:3|0:3,0:0:0:0:
278,193,190337,2,0,L|265:250,1,53.6249975452424,2|4,0:0|0:3,0:0:0:0:
172,304,190588,1,0,3:0:0:0:
172,304,190713,2,0,L|160:251,1,53.6249975452424,4|0,0:3|3:0,0:0:0:0:
43,361,190964,5,8,0:0:0:0:
384,293,192220,2,0,P|412:293|464:302,1,61.875002360344,2|0,0:0|0:0,0:0:0:0:
323,215,192471,1,8,0:0:0:0:
323,215,192596,2,0,P|263:228|246:300,1,123.750004720688,2|0,0:0|0:0,0:0:0:0:
38,357,192973,6,0,P|99:342|174:344,1,123.75,4|0,3:2|0:0,0:0:0:0:
159,341,193224,2,0,P|156:284|152:239,1,82.5,2|0,0:0|0:0,0:0:0:0:
0,91,193475,2,0,P|24:142|130:161,1,165,10|2,0:0|0:0,0:0:0:0:
269,93,193852,1,0,0:0:0:0:
285,17,193977,2,0,B|197:5|223:61|103:56,1,165,2|2,3:2|0:0,0:0:0:0:
368,117,194354,6,0,P|411:123|460:135,1,82.5,2|8,0:0|0:0,0:0:0:0:
347,291,194605,2,0,P|331:250|316:202,1,82.5,2|0,0:0|0:0,0:0:0:0:
509,223,194856,2,0,P|481:257|447:293,1,82.5,2|0,0:0|3:0,0:0:0:0:
245,383,195107,5,0,0:0:0:0:
183,320,195232,2,0,L|284:303,1,82.5,2|2,0:0|0:0,0:0:0:0:
430,382,195483,2,0,L|329:365,1,82.5,10|0,0:0|0:0,0:0:0:0:
197,225,195734,2,0,P|174:165|204:65,2,165,2|2|0,0:2|3:2|0:0,0:0:0:0:
401,151,196362,1,0,0:0:0:0:
401,151,196487,2,0,P|361:146|299:140,1,82.5,8|2,0:0|0:0,0:0:0:0:
199,70,196739,1,2,0:0:0:0:
293,38,196864,1,2,0:0:0:0:
185,30,196990,6,0,P|163:86|202:182,2,165,0|2|10,3:0|0:0|0:0,0:0:0:0:
14,204,197743,1,2,0:0:0:0:
14,204,197868,1,0,0:0:0:0:
53,329,197994,2,0,B|50:216|93:290|94:172,1,165,2|0,3:2|0:0,0:0:0:0:
164,53,198370,1,2,0:0:0:0:
213,108,198496,2,0,P|252:116|327:133,1,82.5,8|2,0:0|0:0,0:0:0:0:
387,174,198747,5,2,0:0:0:0:
498,141,198872,1,2,3:2:0:0:
498,141,199123,5,0,3:0:0:0:
434,91,199249,2,0,B|425:52|425:52|441:1,1,82.5,2|0,0:0|0:0,0:0:0:0:
498,219,199500,2,0,P|488:288|469:400,1,165,10|2,0:0|0:0,0:0:0:0:
405,347,199877,1,0,0:0:0:0:
299,294,200002,6,0,B|215:268|229:327|111:329,1,165,2|0,3:2|0:0,0:0:0:0:
43,270,200379,1,2,0:0:0:0:
147,147,200504,2,0,B|159:189|159:189|150:234,1,82.5,8|0,0:0|0:0,0:0:0:0:
28,32,200755,2,0,P|73:25|122:18,1,82.5,2|0,0:0|0:0,0:0:0:0:
323,0,201006,6,0,P|266:59|177:75,2,165,4|2|10,3:2|0:0|0:0,0:0:0:0:
394,31,201759,1,2,0:0:0:0:
394,31,201885,1,0,0:0:0:0:
343,141,202011,6,0,P|422:160|480:229,1,165,2|0,3:2|0:0,0:0:0:0:
446,381,202387,2,0,P|452:337|462:289,1,82.5,2|8,0:0|0:0,0:0:0:0:
241,163,202638,2,0,P|228:245|210:337,1,165,2|2,0:0|0:0,0:0:0:0:
307,261,203015,2,0,P|351:267|399:277,1,82.5,0|0,3:0|0:0,0:0:0:0:
343,141,203266,5,2,0:0:0:0:
316,53,203391,1,2,0:0:0:0:
405,73,203517,6,0,B|413:33|413:33|402:-15,1,82.5,10|0,0:0|0:0,0:0:0:0:
226,126,203768,2,0,B|218:166|218:166|229:214,1,82.5,2|0,0:0|0:0,0:0:0:0:
26,204,204019,2,0,P|84:186|136:93,1,165,2|0,3:2|0:0,0:0:0:0:
93,37,204395,1,0,0:0:0:0:
203,9,204521,5,8,0:0:0:0:
281,24,204646,2,0,P|325:31|378:41,1,82.5,2|2,0:0|0:0,0:0:0:0:
430,191,204898,5,2,0:0:0:0:
487,116,205023,2,0,B|513:188|513:188|485:283,2,165,0|2|10,3:0|0:0|0:0,0:0:0:0:
350,206,205651,1,0,0:0:0:0:
350,206,205776,2,0,P|304:212|242:221,1,82.5,2|0,0:0|0:0,0:0:0:0:
84,86,206027,6,0,P|136:148|224:143,1,165,2|0,3:2|0:0,0:0:0:0:
62,312,206404,1,2,0:0:0:0:
134,349,206529,2,0,B|141:310|141:310|130:245,1,82.5,8|2,0:0|0:0,0:0:0:0:
248,304,206780,5,2,0:0:0:0:
371,324,206906,1,2,3:2:0:0:
371,324,207157,1,0,3:0:0:0:
314,266,207282,2,0,P|317:224|327:152,1,82.5,2|0,0:0|0:0,0:0:0:0:
476,96,207534,2,0,P|469:178|458:260,1,165,10|2,0:0|0:0,0:0:0:0:
500,323,207910,1,0,0:0:0:0:
381,379,208036,6,0,B|366:276|333:340|313:211,1,165,2|0,3:2|0:0,0:0:0:0:
376,91,208412,1,2,0:0:0:0:
236,123,208538,2,0,P|286:129|328:159,1,82.5,8|2,0:0|0:3,0:0:0:0:
494,220,208789,2,0,P|444:226|402:256,1,82.5,8|4,0:3|0:3,0:0:0:0:
282,363,209040,1,4,3:2:0:0:
28,261,209291,6,0,L|118:238,1,82.5,2|0,0:0|0:0,0:0:0:0:
188,168,209542,2,0,B|195:63|154:106|156:8,1,165,10|2,0:0|0:0,0:0:0:0:
310,139,209918,1,0,0:0:0:0:
290,212,210044,2,0,P|367:224|457:242,1,165,2|2,3:2|0:0,0:0:0:0:
396,134,210421,6,0,P|403:93|410:52,1,82.5,2|8,0:0|0:0,0:0:0:0:
354,313,210672,2,0,B|252:302|288:353|163:354,1,165,2|2,0:0|0:0,0:0:0:0:
106,256,211048,2,0,P|62:263|14:273,1,82.5,0|0,3:0|0:0,0:0:0:0:
126,127,211299,1,2,0:0:0:0:
194,93,211425,1,2,0:0:0:0:
260,134,211550,2,0,B|266:173|266:173|262:216,1,82.5,10|0,0:0|0:0,0:0:0:0:
35,129,211801,2,0,P|46:73|168:43,1,165,2|2,0:0|3:2,0:0:0:0:
126,127,212178,1,0,0:0:0:0:
126,127,212303,2,0,P|121:170|119:220,1,82.5,0|0,0:0|0:0,0:0:0:0:
8,349,212554,5,8,0:0:0:0:
78,312,212680,2,0,P|124:320|169:350,1,82.5,2|2,0:0|0:0,0:0:0:0:
351,364,212931,5,2,0:0:0:0:
381,281,213057,2,0,P|313:288|248:375,2,165,0|2|10,3:0|0:0|0:0,0:0:0:0:
476,157,213810,2,0,B|479:117|479:117|467:48,1,82.5,2|0,0:0|0:0,0:0:0:0:
413,0,214061,2,0,P|375:54|256:79,1,165,2|0,3:2|0:0,0:0:0:0:
100,91,214437,1,2,0:0:0:0:
73,13,214563,2,0,P|129:16|165:42,1,82.5,8|2,0:0|0:0,0:0:0:0:
196,137,214814,5,2,0:0:0:0:
171,245,214939,1,2,3:2:0:0:
171,245,215190,5,0,3:0:0:0:
123,177,215316,2,0,P|85:184|41:190,1,82.5,2|0,0:0|0:0,0:0:0:0:
248,288,215567,2,0,P|291:292|379:400,1,165,10|2,0:0|0:0,0:0:0:0:
447,346,215944,1,0,0:0:0:0:
399,237,216069,6,0,B|410:180|410:180|395:144|395:144|410:70,1,165,2|0,3:2|0:0,0:0:0:0:
233,17,216446,1,2,0:0:0:0:
297,133,216571,1,8,0:0:0:0:
324,57,216697,2,0,P|267:62|205:159,1,165,2|0,0:0|0:0,0:0:0:0:
61,119,217073,6,0,P|51:195|45:304,2,165,4|2|10,3:2|0:0|0:0,0:0:0:0:
130,170,217826,1,2,0:0:0:0:
130,170,217952,1,0,0:0:0:0:
248,235,218077,6,0,B|345:217|335:276|431:267,1,165,2|0,3:2|0:0,0:0:0:0:
256,336,218454,2,0,P|215:344|164:357,1,82.5,2|8,0:0|0:0,0:0:0:0:
130,270,218705,2,0,P|57:238|47:160,1,165,2|2,0:0|0:0,0:0:0:0:
144,13,219082,2,0,B|154:53|154:53|149:108,1,82.5,0|0,3:0|0:0,0:0:0:0:
260,185,219333,1,2,0:0:0:0:
295,80,219458,1,2,0:0:0:0:
335,153,219584,6,0,P|400:167|441:183,1,82.5,10|0,0:0|0:0,0:0:0:0:
194,243,219835,2,0,P|129:257|88:273,1,82.5,2|0,0:0|0:0,0:0:0:0:
5,351,220086,2,0,P|62:300|31:196,1,165,2|0,3:2|0:0,0:0:0:0:
189,336,220462,2,0,P|232:342|275:350,1,82.5,0|8,0:0|0:0,0:0:0:0:
447,276,220713,1,2,0:0:0:0:
466,347,220839,2,0,P|422:353|380:361,1,82.5,2|2,0:0|0:0,0:0:0:0:
314,269,221090,6,0,P|305:199|319:105,2,165,0|2|10,3:0|0:0|0:0,0:0:0:0:
461,190,221718,1,0,0:0:0:0:
461,190,221843,2,0,P|462:148|456:108,1,82.5,2|0,0:0|0:0,0:0:0:0:
326,11,222094,2,0,P|255:28|223:131,1,165,2|0,3:2|0:0,0:0:0:0:
92,216,222471,1,2,0:0:0:0:
53,129,222596,2,0,L|149:142,1,82.5,8|2,0:0|0:0,0:0:0:0:
212,216,222847,5,2,0:0:0:0:
176,319,222973,1,2,3:2:0:0:
176,319,223224,5,0,3:0:0:0:
252,372,223349,2,0,B|259:331|259:331|248:280,1,82.5,2|0,0:0|0:0,0:0:0:0:
87,376,223600,2,0,B|78:336|78:336|85:295,1,82.5,10|0,0:0|0:0,0:0:0:0:
128,199,223852,2,0,P|126:136|119:69,1,123.75,2|0,0:0|0:0,0:0:0:0:
136,55,224103,5,8,0:0:0:0:
229,82,224228,1,8,0:0:0:0:
322,109,224354,2,0,B|330:68|330:68|321:14,1,82.5,8|8,0:3|0:0,0:0:0:0:
512,145,224605,2,0,P|428:157|380:232,1,165,0|4,3:0|0:3,0:0:0:0:
382,217,224939,1,0,3:3:0:0:
382,217,225023,1,0,3:3:0:0:
382,217,225107,6,0,P|372:296|363:380,1,148.49999546814,6|0,3:2|0:0,0:0:0:0:
259,281,225483,1,0,0:0:0:0:
259,281,225609,2,0,L|152:293,1,74.2499977340699,10|0,0:0|0:0,0:0:0:0:
25,369,225860,2,0,B|21:333|21:333|34:296,1,74.2499977340699,0|0,0:0|0:0,0:0:0:0:
135,219,226111,2,0,L|160:391,1,148.49999546814,2|0,3:2|0:0,0:0:0:0:
259,281,226487,2,0,L|343:296,1,74.2499977340699,2|8,0:0|0:0,0:0:0:0:
446,367,226738,2,0,P|440:330|436:293,2,74.2499977340699,2|2|2,0:0|0:0|0:0,0:0:0:0:
332,294,227115,6,0,P|267:263|266:169,1,148.49999546814,0|2,3:0|0:0,0:0:0:0:
310,117,227491,1,0,0:0:0:0:
310,117,227617,1,10,0:0:0:0:
448,214,227868,1,2,0:0:0:0:
400,41,228119,6,0,L|252:21,1,148.49999546814,2|0,3:2|0:0,0:0:0:0:
161,56,228495,2,0,P|156:92|149:129,1,74.2499977340699,2|8,0:0|0:0,0:0:0:0:
226,248,228747,2,0,P|266:183|361:194,1,148.49999546814,2|0,0:0|0:0,0:0:0:0:
360,340,229123,6,0,B|286:319|293:360|203:345,1,148.49999546814,2|0,3:2|0:0,0:0:0:0:
127,349,229500,1,0,0:0:0:0:
127,349,229625,1,10,0:0:0:0:
202,169,229876,2,0,P|194:132|187:96,1,74.2499977340699,0|0,0:0|0:0,0:0:0:0:
90,0,230127,2,0,L|64:154,1,148.49999546814,2|0,3:2|0:0,0:0:0:0:
163,260,230504,2,0,L|247:275,1,74.2499977340699,2|8,0:0|0:0,0:0:0:0:
360,384,230755,2,0,L|329:317,2,74.2499977340699,0|2|0,0:0|0:0|0:0,0:0:0:0:
441,165,231132,6,0,P|363:168|329:260,1,148.49999546814,0|2,3:2|0:0,0:0:0:0:
416,275,231508,1,0,0:0:0:0:
416,275,231634,1,10,0:0:0:0:
345,95,231885,1,2,0:0:0:0:
180,188,232136,2,0,L|12:215,1,148.49999546814,2|0,3:2|0:0,0:0:0:0:
9,295,232512,1,2,0:0:0:0:
9,295,232638,2,0,L|-2:378,2,74.2499977340699,10|2|0,0:0|0:0|0:0,0:0:0:0:
209,342,233140,6,0,B|284:330|277:375|368:362,1,148.49999546814,6|0,3:2|0:0,0:0:0:0:
440,361,233516,1,0,0:0:0:0:
440,361,233642,1,10,0:0:0:0:
302,241,233893,2,0,P|265:235|222:228,1,74.2499977340699,0|0,0:0|0:0,0:0:0:0:
117,302,234144,2,0,B|96:232|96:232|120:157,1,148.49999546814,2|0,3:2|0:0,0:0:0:0:
192,96,234521,2,0,P|222:92|288:84,1,74.2499977340699,2|8,0:0|0:0,0:0:0:0:
417,38,234772,2,0,P|387:34|321:26,2,74.2499977340699,2|2|2,0:0|0:0|0:0,0:0:0:0:
485,146,235148,6,0,P|424:143|379:250,1,148.49999546814,0|2,3:0|0:0,0:0:0:0:
392,295,235525,1,0,0:0:0:0:
392,295,235650,1,10,0:0:0:0:
228,204,235901,1,2,0:0:0:0:
117,336,236152,2,0,P|189:327|270:318,1,148.49999546814,2|0,3:2|0:0,0:0:0:0:
342,234,236529,1,2,0:0:0:0:
385,174,236654,1,8,0:0:0:0:
338,113,236780,2,0,B|260:99|274:144|174:127,1,148.49999546814,2|0,0:0|0:0,0:0:0:0:
14,133,237157,6,0,P|33:63|114:44,1,148.49999546814,2|0,3:2|0:0,0:0:0:0:
328,38,237659,2,0,P|364:43|401:47,1,74.2499977340699,10|0,0:0|0:0,0:0:0:0:
266,120,237910,2,0,P|229:123|192:130,1,74.2499977340699,0|0,0:0|0:0,0:0:0:0:
320,210,238161,2,0,B|394:201|387:242|477:232,1,148.49999546814,2|0,3:2|0:0,0:0:0:0:
379,310,238537,2,0,P|372:347|363:404,1,74.2499977340699,2|8,0:0|0:0,0:0:0:0:
267,332,238788,2,0,B|232:339|232:339|183:333,2,74.2499977340699,0|2|0,0:0|0:0|0:0,0:0:0:0:
320,210,239165,6,0,P|291:144|201:143,1,148.49999546814,0|2,3:0|0:0,0:0:0:0:
139,98,239541,1,0,0:0:0:0:
139,98,239667,1,10,0:0:0:0:
240,248,239918,2,0,L|226:339,1,74.2499977340699,8|0,0:3|0:0,0:0:0:0:
105,384,240169,2,0,L|90:225,1,148.49999546814,2|8,3:2|0:3,0:0:0:0:
0,117,240546,2,0,P|39:122|90:132,1,74.2499977340699,4|8,0:3|0:0,0:0:0:0:
198,3,240797,2,0,B|223:74|223:74|202:164,1,148.49999546814,0|0,3:3|0:0,0:0:0:0:
306,271,241174,6,0,B|390:261|374:302|460:291,1,148.49999546814,6|0,3:2|0:0,0:0:0:0:
512,219,241550,1,0,0:0:0:0:
512,219,241676,1,10,0:0:0:0:
368,138,241927,1,0,0:0:0:0:
461,0,242178,2,0,P|399:13|272:36,1,148.49999546814,2|0,3:2|0:0,0:0:0:0:
239,92,242554,2,0,L|221:170,1,74.2499977340699,2|8,0:0|0:0,0:0:0:0:
82,269,242805,2,0,B|75:234|75:234|89:188,1,74.2499977340699,2|2,0:0|0:0,0:0:0:0:
197,259,243057,1,2,0:0:0:0:
197,259,243182,6,0,P|239:266|289:277,1,74.2499977340699,0|0,3:0|0:0,0:0:0:0:
356,383,243433,2,0,L|368:301,1,74.2499977340699,2|0,0:0|0:0,0:0:0:0:
458,165,243684,2,0,B|485:235|485:235|463:313,1,148.49999546814,10|2,0:0|0:0,0:0:0:0:
260,162,244186,6,0,L|101:145,1,148.49999546814,2|0,3:2|0:0,0:0:0:0:
2,128,244563,2,0,P|10:164|16:200,1,74.2499977340699,2|8,0:0|0:0,0:0:0:0:
161,347,244814,2,0,B|161:262|187:293|182:185,1,148.49999546814,2|0,0:0|0:0,0:0:0:0:
71,57,245190,6,0,L|251:80,2,148.49999546814,2|0|10,3:2|0:0|0:0,0:0:0:0:
261,183,245943,2,0,L|345:168,1,74.2499977340699,0|0,0:0|0:0,0:0:0:0:
447,246,246195,2,0,L|420:99,1,148.49999546814,2|0,3:2|0:0,0:0:0:0:
354,261,246571,1,2,0:0:0:0:
354,261,246697,2,0,B|340:298|340:298|341:351,1,74.2499977340699,8|2,0:0|0:0,0:0:0:0:
427,374,246948,1,2,0:0:0:0:
427,374,247073,1,2,0:0:0:0:
239,293,247324,5,0,0:0:0:0:
239,293,247450,2,0,L|156:303,1,74.2499977340699,2|0,0:0|0:0,0:0:0:0:
59,355,247701,1,10,0:0:0:0:
159,201,247952,1,2,0:0:0:0:
51,42,248203,2,0,L|26:204,1,148.49999546814,2|0,3:2|0:0,0:0:0:0:
172,124,248579,1,2,0:0:0:0:
235,81,248705,1,8,0:0:0:0:
308,106,248830,2,0,B|394:96|375:134|468:124,1,148.49999546814,2|0,0:0|0:0,0:0:0:0:
337,206,249207,6,0,L|305:350,1,148.49999546814,6|0,3:2|0:0,0:0:0:0:
217,369,249584,1,0,0:0:0:0:
217,369,249709,1,10,0:0:0:0:
105,219,249960,1,0,0:0:0:0:
0,377,250211,2,0,P|62:376|107:285,1,148.49999546814,2|0,3:2|0:0,0:0:0:0:
25,151,250588,2,0,B|12:189|12:189|15:241,1,74.2499977340699,2|8,0:0|0:0,0:0:0:0:
201,168,250839,1,2,0:0:0:0:
236,103,250964,1,2,0:0:0:0:
187,44,251090,6,0,B|106:31|122:69|13:55,1,148.49999546814,2|0,0:0|0:0,0:0:0:0:
123,173,251467,2,0,L|142:275,1,74.2499977340699,2|0,0:0|0:0,0:0:0:0:
81,357,251718,1,10,0:0:0:0:
244,252,251969,1,0,0:0:0:0:
436,323,252220,2,0,B|458:254|458:254|428:164,1,148.49999546814,2|0,3:2|0:0,0:0:0:0:
346,266,252596,2,0,P|338:308|331:360,1,74.2499977340699,2|10,0:0|0:0,0:0:0:0:
244,252,252847,2,0,B|159:264|180:220|69:238,1,148.49999546814,2|0,0:0|0:0,0:0:0:0:
209,86,253224,6,0,P|284:108|300:196,1,148.49999546814,2|0,3:2|0:0,0:0:0:0:
379,229,253600,1,0,0:0:0:0:
379,229,253726,1,10,0:0:0:0:
499,100,253977,1,0,0:0:0:0:
341,5,254228,2,0,L|152:22,1,148.49999546814,2|0,3:2|0:0,0:0:0:0:
30,72,254605,2,0,L|104:82,1,74.2499977340699,2|8,0:0|0:0,0:0:0:0:
190,217,254856,2,0,B|197:180|197:180|186:129,1,74.2499977340699,2|2,0:0|0:0,0:0:0:0:
100,327,255107,6,0,L|77:157,1,148.49999546814,2|0,0:0|0:0,0:0:0:0:
104,82,255483,1,2,0:0:0:0:
306,209,255734,2,0,L|385:219,1,74.2499977340699,10|0,0:0|0:0,0:0:0:0:
311,57,255985,2,0,L|262:120,1,74.2499977340699,8|0,0:3|0:0,0:0:0:0:
94,215,256236,1,8,0:3:0:0:
141,203,256362,1,4,0:3:0:0:
190,216,256487,1,0,3:2:0:0:
216,259,256613,1,0,3:2:0:0:
218,310,256739,6,0,L|132:327,1,74.2499977340699,2|2,0:3|0:3,0:0:0:0:
363,384,256990,1,12,0:0:0:0:
256,192,257115,12,0,261257,0:0:0:0:
