osu file format v14

[General]
AudioFilename: audio.mp3
AudioLeadIn: 0
PreviewTime: 88909
Countdown: 0
SampleSet: Soft
StackLeniency: 0.7
Mode: 3
LetterboxInBreaks: 0
SpecialStyle: 0
WidescreenStoryboard: 1

[Editor]
DistanceSpacing: 1
BeatDivisor: 4
GridSize: 32
TimelineZoom: 2

[Metadata]
Title:Deai Machi (Cut Ver.)
TitleUnicode:出会い街 (Cut Ver.)
Artist:THE ORAL CIGARETTES
ArtistUnicode:THE ORAL CIGARETTES
Creator:Flade
Version:Pairo's Normal
Source:
Tags:japanese rock j-rock jrock toc 起死回生story kishikaisei story The BKW Show!! Before It’s Too Late short version pairoxd maxim-miau k_a_t_a_g_i_r_i katagiri yamanaka takuya AZCS-2037 AZZS-25 山中拓也 Revival Story
BeatmapID:3448659
BeatmapSetID:1687454

[Difficulty]
HPDrainRate:7
CircleSize:4
OverallDifficulty:7
ApproachRate:5
SliderMultiplier:1.6
SliderTickRate:1

[Events]
//Background and Video events
0,0,"bg.jpg",0,0
//Break Periods
//Storyboard Layer 0 (Background)
//Storyboard Layer 1 (Fail)
//Storyboard Layer 2 (Pass)
//Storyboard Layer 3 (Foreground)
//Storyboard Layer 4 (Overlay)
//Storyboard Sound Samples

[TimingPoints]
550,312.5,4,2,1,45,1,0
90550,-100,4,2,1,45,0,1
110550,-100,4,2,1,45,0,0

[HitObjects]
320,192,550,1,8,0:0:0:0:
448,192,550,1,2,0:0:0:0:
64,192,706,1,8,0:0:0:0:
192,192,706,1,0,0:0:0:0:
320,192,862,128,2,1018:0:0:0:0:
448,192,1018,128,0,1175:0:0:0:0:
192,192,1175,128,2,1331:0:0:0:0:
320,192,1331,128,0,1487:0:0:0:0:
64,192,1487,128,2,1643:0:0:0:0:
192,192,1643,128,0,1800:0:0:0:0:
448,192,1800,128,2,1956:0:0:0:0:
64,192,1956,128,0,2112:0:0:0:0:
320,192,2112,128,2,2268:0:0:0:0:
192,192,2268,128,0,2425:0:0:0:0:
448,192,2425,128,2,2581:0:0:0:0:
64,192,2581,128,0,2737:0:0:0:0:
320,192,2737,128,2,2893:0:0:0:0:
192,192,2893,128,0,3050:0:0:0:0:
320,192,3050,1,8,0:0:0:0:
448,192,3050,1,2,0:0:0:0:
64,192,3206,1,8,0:0:0:0:
192,192,3206,1,0,0:0:0:0:
320,192,3362,128,2,3518:0:0:0:0:
448,192,3518,128,0,3675:0:0:0:0:
192,192,3675,128,2,3831:0:0:0:0:
320,192,3831,128,0,3987:0:0:0:0:
64,192,3987,128,2,4143:0:0:0:0:
192,192,4143,128,0,4300:0:0:0:0:
448,192,4300,128,2,4456:0:0:0:0:
64,192,4456,128,0,4612:0:0:0:0:
320,192,4612,128,2,4768:0:0:0:0:
192,192,4768,128,0,4925:0:0:0:0:
448,192,4925,128,2,5081:0:0:0:0:
64,192,5081,128,0,5237:0:0:0:0:
320,192,5237,128,2,5393:0:0:0:0:
192,192,5393,128,0,5550:0:0:0:0:
320,192,5550,1,8,0:0:0:0:
448,192,5550,1,2,0:0:0:0:
64,192,5706,1,8,0:0:0:0:
192,192,5706,1,0,0:0:0:0:
320,192,5862,128,2,6018:0:0:0:0:
448,192,6018,128,0,6175:0:0:0:0:
64,192,6175,1,8,0:0:0:0:
192,192,6175,1,2,0:0:0:0:
320,192,6331,1,8,0:0:0:0:
448,192,6331,1,0,0:0:0:0:
64,192,6487,128,2,6643:0:0:0:0:
192,192,6643,128,0,6800:0:0:0:0:
320,192,6800,1,8,0:0:0:0:
448,192,6800,1,2,0:0:0:0:
64,192,6956,1,8,0:0:0:0:
192,192,6956,1,0,0:0:0:0:
448,192,7112,128,2,7268:0:0:0:0:
64,192,7268,128,0,7425:0:0:0:0:
320,192,7425,1,8,0:0:0:0:
448,192,7425,1,2,0:0:0:0:
64,192,7581,1,8,0:0:0:0:
192,192,7581,1,0,0:0:0:0:
320,192,7737,128,2,7893:0:0:0:0:
192,192,7893,128,0,8050:0:0:0:0:
320,192,8050,1,8,0:0:0:0:
448,192,8050,1,2,0:0:0:0:
64,192,8206,1,8,0:0:0:0:
192,192,8206,1,0,0:0:0:0:
320,192,8362,128,2,8518:0:0:0:0:
448,192,8518,128,0,8675:0:0:0:0:
64,192,8675,1,8,0:0:0:0:
192,192,8675,1,2,0:0:0:0:
320,192,8831,1,8,0:0:0:0:
448,192,8831,1,0,0:0:0:0:
64,192,8987,128,2,9143:0:0:0:0:
192,192,9143,128,0,9300:0:0:0:0:
448,192,9300,128,0,9456:0:0:0:70:tom.wav
64,192,9456,128,2,9612:0:0:0:0:
320,192,9612,128,8,9768:0:0:0:0:
448,192,9612,1,0,0:0:0:0:
192,192,9768,128,2,9925:0:0:0:0:
64,192,9925,1,8,0:0:0:0:
448,192,9925,128,0,10237:0:0:0:0:
320,192,10237,1,0,0:0:0:0:
64,192,10550,1,4,0:0:0:0:
192,192,10550,128,2,10706:0:0:0:0:
320,192,10706,128,2,10862:0:0:0:0:
64,192,10862,128,8,11018:0:0:0:0:
448,192,10862,1,0,0:0:0:0:
192,192,11018,128,0,11175:0:0:0:40:tom.wav
448,192,11175,1,2,0:0:0:0:
320,192,11331,1,2,0:0:0:0:
64,192,11487,128,8,11643:0:0:0:0:
192,192,11487,1,0,0:0:0:0:
448,192,11643,128,0,11800:0:0:0:0:
320,192,11800,1,2,0:0:0:0:
64,192,11956,1,2,0:0:0:0:
320,192,12112,128,8,12268:0:0:0:0:
448,192,12112,1,0,0:0:0:0:
192,192,12268,128,0,12425:0:0:0:40:tom.wav
448,192,12425,1,2,0:0:0:0:
64,192,12581,1,2,0:0:0:0:
192,192,12737,128,8,12893:0:0:0:0:
448,192,12737,1,0,0:0:0:0:
64,192,12893,128,0,13050:0:0:0:0:
320,192,13050,128,2,13206:0:0:0:0:
192,192,13206,128,2,13362:0:0:0:0:
64,192,13362,1,8,0:0:0:0:
448,192,13362,128,0,13518:0:0:0:0:
320,192,13518,128,0,13675:0:0:0:40:tom.wav
64,192,13675,1,2,0:0:0:0:
192,192,13831,1,2,0:0:0:0:
320,192,13987,1,8,0:0:0:0:
448,192,13987,128,0,14143:0:0:0:0:
64,192,14143,128,0,14300:0:0:0:0:
192,192,14300,1,2,0:0:0:0:
448,192,14456,1,2,0:0:0:0:
64,192,14612,1,8,0:0:0:0:
192,192,14612,128,0,14768:0:0:0:0:
320,192,14768,128,8,14925:0:0:0:0:
448,192,14768,1,0,0:0:0:0:
64,192,14925,1,2,0:0:0:0:
448,192,15081,1,2,0:0:0:0:
64,192,15237,1,8,0:0:0:0:
320,192,15237,128,0,15393:0:0:0:0:
448,192,15393,128,0,15550:0:0:0:0:
192,192,15550,128,2,15706:0:0:0:0:
320,192,15706,128,2,15862:0:0:0:0:
64,192,15862,128,8,16018:0:0:0:0:
448,192,15862,1,0,0:0:0:0:
192,192,16018,128,0,16175:0:0:0:40:tom.wav
448,192,16175,1,2,0:0:0:0:
320,192,16331,1,2,0:0:0:0:
64,192,16487,128,8,16643:0:0:0:0:
192,192,16487,1,0,0:0:0:0:
448,192,16643,128,0,16800:0:0:0:0:
320,192,16800,1,2,0:0:0:0:
64,192,16956,1,2,0:0:0:0:
320,192,17112,128,8,17268:0:0:0:0:
448,192,17112,1,0,0:0:0:0:
192,192,17268,128,0,17425:0:0:0:40:tom.wav
448,192,17425,1,2,0:0:0:0:
64,192,17581,1,2,0:0:0:0:
192,192,17737,128,8,17893:0:0:0:0:
448,192,17737,1,0,0:0:0:0:
64,192,17893,128,0,18050:0:0:0:0:
320,192,18050,128,2,18206:0:0:0:0:
192,192,18206,128,2,18362:0:0:0:0:
64,192,18362,1,8,0:0:0:0:
448,192,18362,128,0,18518:0:0:0:0:
320,192,18518,128,0,18675:0:0:0:40:tom.wav
64,192,18675,1,2,0:0:0:0:
192,192,18831,1,2,0:0:0:0:
320,192,18987,1,8,0:0:0:0:
448,192,18987,128,0,19143:0:0:0:0:
64,192,19143,128,0,19300:0:0:0:0:
192,192,19300,1,2,0:0:0:0:
448,192,19456,1,2,0:0:0:0:
64,192,19612,1,8,0:0:0:0:
192,192,19612,128,0,19768:0:0:0:0:
320,192,19768,128,8,19925:0:0:0:0:
448,192,19768,1,0,0:0:0:0:
64,192,19925,1,2,0:0:0:0:
192,192,20081,1,2,0:0:0:0:
320,192,20237,1,8,0:0:0:0:
448,192,20237,1,0,0:0:0:0:
192,192,20550,128,2,20706:0:0:0:0:
448,192,20706,128,2,20862:0:0:0:0:
64,192,20862,1,8,0:0:0:0:
192,192,20862,1,0,0:0:0:0:
320,192,21018,128,0,21175:0:0:0:40:tom.wav
64,192,21175,1,2,0:0:0:0:
192,192,21331,128,2,21487:0:0:0:0:
320,192,21487,1,8,0:0:0:0:
448,192,21487,1,0,0:0:0:0:
64,192,21643,128,0,21800:0:0:0:0:
448,192,21800,128,2,21956:0:0:0:0:
192,192,21956,128,2,22112:0:0:0:0:
320,192,22112,128,8,22268:0:0:0:0:
448,192,22112,1,0,0:0:0:0:
64,192,22268,128,0,22425:0:0:0:40:tom.wav
192,192,22425,1,2,0:0:0:0:
448,192,22581,1,2,0:0:0:0:
64,192,22737,1,8,0:0:0:0:
320,192,22737,128,0,22893:0:0:0:0:
448,192,23050,128,2,23206:0:0:0:0:
192,192,23206,1,2,0:0:0:0:
64,192,23362,128,8,23518:0:0:0:0:
320,192,23362,1,0,0:0:0:0:
448,192,23518,128,0,23675:0:0:0:40:tom.wav
192,192,23675,1,2,0:0:0:0:
320,192,23831,1,2,0:0:0:0:
192,192,23987,128,8,24300:0:0:0:0:
448,192,23987,1,0,0:0:0:0:
320,192,24300,128,2,24456:0:0:0:0:
64,192,24456,1,2,0:0:0:0:
320,192,24612,1,8,0:0:0:0:
448,192,24612,128,0,24768:0:0:0:0:
64,192,24768,128,8,24925:0:0:0:0:
192,192,24768,1,0,0:0:0:0:
320,192,24925,1,2,0:0:0:0:
448,192,25081,1,2,0:0:0:0:
64,192,25237,1,8,0:0:0:0:
192,192,25237,1,0,0:0:0:0:
320,192,25550,128,2,25706:0:0:0:0:
64,192,25706,128,2,25862:0:0:0:0:
320,192,25862,1,8,0:0:0:0:
448,192,25862,1,0,0:0:0:0:
192,192,26018,128,0,26175:0:0:0:40:tom.wav
448,192,26175,1,2,0:0:0:0:
320,192,26331,128,2,26487:0:0:0:0:
64,192,26487,1,8,0:0:0:0:
192,192,26487,1,0,0:0:0:0:
448,192,26643,128,0,26800:0:0:0:0:
64,192,26800,128,2,26956:0:0:0:0:
320,192,26956,128,2,27112:0:0:0:0:
64,192,27112,1,8,0:0:0:0:
192,192,27112,128,0,27268:0:0:0:0:
448,192,27268,128,0,27425:0:0:0:40:tom.wav
320,192,27425,1,2,0:0:0:0:
64,192,27581,1,2,0:0:0:0:
192,192,27737,128,8,27893:0:0:0:0:
448,192,27737,1,0,0:0:0:0:
64,192,28050,128,2,28206:0:0:0:0:
320,192,28206,1,2,0:0:0:0:
192,192,28362,1,8,0:0:0:0:
448,192,28362,128,0,28518:0:0:0:0:
64,192,28518,128,0,28675:0:0:0:40:tom.wav
192,192,28675,1,2,0:0:0:0:
448,192,28831,1,2,0:0:0:0:
64,192,28987,1,8,0:0:0:0:
320,192,28987,128,0,29143:0:0:0:0:
192,192,29143,128,0,29300:0:0:0:0:
448,192,29300,128,2,29456:0:0:0:0:
320,192,29456,128,2,29612:0:0:0:0:
64,192,29612,1,8,0:0:0:0:
192,192,29612,1,0,0:0:0:0:
320,192,29768,1,8,0:0:0:0:
448,192,29768,1,0,0:0:0:0:
64,192,29925,128,2,30081:0:0:0:0:
192,192,30081,128,0,30237:0:0:0:70:tom.wav
320,192,30237,1,2,0:0:0:0:
64,192,30393,1,0,0:0:0:60:tom.wav
192,192,30550,1,2,0:0:0:0:
448,192,30550,1,4,0:0:0:0:
192,192,32893,1,0,0:0:0:0:
320,192,32971,1,0,0:0:0:0:
64,192,33050,1,2,0:0:0:0:
448,192,33050,1,4,0:0:0:0:
320,192,33362,1,8,0:0:0:0:
448,192,33362,1,0,0:0:0:0:
192,192,33675,1,2,0:0:0:0:
320,192,33831,1,2,0:0:0:0:
64,192,33987,1,8,0:0:0:0:
448,192,33987,1,0,0:0:0:0:
320,192,34143,1,2,0:0:0:0:
320,192,34456,1,2,0:0:0:0:
64,192,34612,1,8,0:0:0:0:
192,192,34612,1,0,0:0:0:0:
448,192,34925,1,2,0:0:0:0:
320,192,35081,1,2,0:0:0:0:
64,192,35237,1,8,0:0:0:0:
192,192,35237,1,0,0:0:0:0:
320,192,35393,1,0,0:0:0:0:
192,192,35471,1,0,0:0:0:0:
64,192,35550,1,2,0:0:0:0:
448,192,35550,1,0,0:0:0:0:
64,192,35862,1,8,0:0:0:0:
192,192,35862,1,0,0:0:0:0:
320,192,36175,1,2,0:0:0:0:
192,192,36331,1,2,0:0:0:0:
64,192,36487,1,8,0:0:0:0:
448,192,36487,1,0,0:0:0:0:
192,192,36643,1,2,0:0:0:0:
192,192,36956,1,2,0:0:0:0:
320,192,37112,1,8,0:0:0:0:
448,192,37112,1,0,0:0:0:0:
64,192,37425,1,2,0:0:0:0:
192,192,37581,1,2,0:0:0:0:
320,192,37737,1,8,0:0:0:0:
448,192,37737,1,0,0:0:0:0:
64,192,38050,1,2,0:0:0:0:
448,192,38050,1,0,0:0:0:0:
320,192,38362,1,8,0:0:0:0:
448,192,38362,1,0,0:0:0:0:
192,192,38675,1,2,0:0:0:0:
320,192,38831,1,2,0:0:0:0:
64,192,38987,1,8,0:0:0:0:
448,192,38987,1,0,0:0:0:0:
192,192,39300,1,2,0:0:0:0:
64,192,39612,1,8,0:0:0:0:
448,192,39612,1,0,0:0:0:0:
320,192,39925,1,2,0:0:0:0:
192,192,40081,1,2,0:0:0:0:
64,192,40237,1,8,0:0:0:0:
448,192,40237,1,0,0:0:0:0:
64,192,40550,128,2,40862:0:0:0:0:
320,192,40550,1,4,0:0:0:0:
192,192,40862,128,2,41175:0:0:0:0:
448,192,40862,1,0,0:0:0:0:
64,192,41175,1,2,0:0:0:0:
320,192,41175,128,0,41487:0:0:0:0:
192,192,41487,1,2,0:0:0:0:
448,192,41487,128,0,41800:0:0:0:0:
64,192,41800,128,2,42112:0:0:0:0:
320,192,41800,1,0,0:0:0:0:
192,192,42112,128,2,42425:0:0:0:0:
448,192,42112,1,0,0:0:0:0:
64,192,42425,1,2,0:0:0:0:
320,192,42425,128,0,42737:0:0:0:0:
192,192,42737,1,2,0:0:0:0:
448,192,42737,128,0,43050:0:0:0:0:
64,192,43050,128,2,43362:0:0:0:0:
192,192,43050,1,4,0:0:0:0:
320,192,43362,128,2,43675:0:0:0:0:
448,192,43362,1,0,0:0:0:0:
64,192,43675,1,2,0:0:0:0:
192,192,43675,128,0,43987:0:0:0:0:
320,192,43987,1,2,0:0:0:0:
448,192,43987,128,0,44300:0:0:0:0:
64,192,44300,128,2,44612:0:0:0:0:
192,192,44300,1,0,0:0:0:0:
320,192,44612,1,8,0:0:0:0:
448,192,44612,1,0,0:0:0:0:
192,192,44925,1,2,0:0:0:0:
320,192,45081,1,2,0:0:0:0:
64,192,45237,1,8,0:0:0:0:
448,192,45237,1,0,0:0:0:0:
320,192,45550,1,2,0:0:0:0:
64,192,45862,1,8,0:0:0:0:
448,192,45862,1,0,0:0:0:0:
320,192,46175,1,2,0:0:0:0:
192,192,46331,1,2,0:0:0:0:
64,192,46487,1,8,0:0:0:0:
448,192,46487,1,0,0:0:0:0:
192,192,46800,1,2,0:0:0:0:
320,192,47112,1,8,0:0:0:0:
448,192,47112,1,0,0:0:0:0:
64,192,47425,1,8,0:0:0:0:
192,192,47425,1,2,0:0:0:0:
320,192,47581,1,8,0:0:0:0:
64,192,47737,1,8,0:0:0:0:
448,192,47737,1,2,0:0:0:0:
192,192,47893,1,8,0:0:0:0:
320,192,48050,128,2,48206:0:0:0:0:
448,192,48050,1,4,0:0:0:0:
448,192,48362,128,2,48518:0:0:0:0:
192,192,48518,1,0,0:0:0:0:
320,192,48675,128,2,48831:0:0:0:0:
64,192,48831,1,0,0:0:0:0:
192,192,48987,128,2,49143:0:0:0:0:
448,192,49143,1,0,0:0:0:0:
64,192,49300,128,2,49456:0:0:0:0:
320,192,49456,1,0,0:0:0:0:
192,192,49612,128,2,49768:0:0:0:0:
448,192,49768,1,0,0:0:0:0:
320,192,49925,128,2,50081:0:0:0:0:
64,192,50081,1,0,0:0:0:0:
448,192,50237,128,2,50393:0:0:0:0:
192,192,50393,1,0,0:0:0:0:
320,192,50550,128,2,50706:0:0:0:0:
64,192,50706,1,0,0:0:0:0:
192,192,50862,128,2,51018:0:0:0:0:
448,192,51018,1,0,0:0:0:0:
64,192,51175,128,2,51331:0:0:0:0:
320,192,51331,1,0,0:0:0:0:
192,192,51487,128,2,51643:0:0:0:0:
448,192,51643,1,0,0:0:0:0:
64,192,51800,1,8,0:0:0:0:
320,192,51800,128,2,51956:0:0:0:0:
192,192,51956,128,0,52112:0:0:0:70:tom.wav
448,192,52112,128,2,52268:0:0:0:0:
320,192,52268,128,2,52425:0:0:0:0:
64,192,52425,128,8,52737:0:0:0:0:
192,192,52425,1,0,0:0:0:0:
448,192,52737,128,0,52893:0:0:0:0:
192,192,52893,128,0,53050:0:0:0:0:
320,192,53050,128,2,53362:0:0:0:0:
448,192,53050,1,4,0:0:0:0:
64,192,53362,1,0,0:0:0:0:
192,192,53518,128,2,53675:0:0:0:0:
320,192,53675,1,8,0:0:0:0:
448,192,53675,128,0,53831:0:0:0:0:
320,192,53987,128,0,54143:0:0:0:0:
64,192,54143,128,0,54300:0:0:0:0:
192,192,54300,1,2,0:0:0:0:
320,192,54456,1,8,0:0:0:0:
448,192,54456,128,0,54612:0:0:0:0:
192,192,54612,128,0,54768:0:0:0:0:
320,192,54768,128,2,54925:0:0:0:0:
64,192,54925,128,8,55081:0:0:0:0:
448,192,54925,1,0,0:0:0:0:
192,192,55081,128,0,55237:0:0:0:0:
448,192,55237,128,0,55393:0:0:0:0:
320,192,55393,128,0,55550:0:0:0:0:
64,192,55550,128,2,55862:0:0:0:0:
448,192,55706,1,8,0:0:0:0:
192,192,55862,1,0,0:0:0:0:
320,192,56018,128,2,56175:0:0:0:0:
64,192,56175,128,8,56331:0:0:0:0:
192,192,56175,1,0,0:0:0:0:
192,192,56487,128,0,56643:0:0:0:0:
448,192,56643,128,0,56800:0:0:0:0:
320,192,56800,1,2,0:0:0:0:
64,192,56956,128,8,57112:0:0:0:0:
192,192,56956,1,0,0:0:0:0:
320,192,57112,128,0,57268:0:0:0:0:
192,192,57268,128,2,57425:0:0:0:0:
320,192,57425,1,8,0:0:0:0:
448,192,57425,128,0,58050:0:0:0:0:
64,192,58050,1,2,0:0:0:0:
192,192,58050,1,4,0:0:0:0:
64,192,58284,1,2,0:0:0:0:
320,192,58362,1,8,0:0:0:0:
448,192,58362,1,0,0:0:0:0:
192,192,58518,128,2,58831:0:0:0:0:
320,192,58831,1,2,0:0:0:0:
64,192,58987,1,8,0:0:0:0:
448,192,58987,128,0,59300:0:0:0:0:
320,192,59300,1,2,0:0:0:0:
192,192,59456,128,2,59612:0:0:0:0:
64,192,59612,1,8,0:0:0:0:
448,192,59612,128,0,59768:0:0:0:0:
192,192,59768,128,0,59925:0:0:0:0:
64,192,59925,1,2,0:0:0:0:
320,192,60081,128,2,60237:0:0:0:0:
64,192,60237,128,8,60393:0:0:0:0:
448,192,60237,1,0,0:0:0:0:
320,192,60550,1,2,0:0:0:0:
448,192,60550,1,4,0:0:0:0:
448,192,60784,1,2,0:0:0:0:
64,192,60862,1,8,0:0:0:0:
192,192,60862,1,0,0:0:0:0:
320,192,61018,128,2,61331:0:0:0:0:
192,192,61331,1,2,0:0:0:0:
64,192,61487,128,8,61800:0:0:0:0:
448,192,61487,1,0,0:0:0:0:
192,192,61800,1,2,0:0:0:0:
320,192,61956,128,2,62112:0:0:0:0:
64,192,62112,128,8,62268:0:0:0:0:
448,192,62112,1,0,0:0:0:0:
320,192,62268,128,0,62425:0:0:0:0:
448,192,62425,1,2,0:0:0:0:
192,192,62581,128,2,62737:0:0:0:0:
64,192,62737,1,8,0:0:0:0:
448,192,62737,128,0,62893:0:0:0:0:
64,192,63050,1,2,0:0:0:0:
192,192,63050,1,4,0:0:0:0:
64,192,63284,1,2,0:0:0:0:
320,192,63362,1,8,0:0:0:0:
448,192,63362,1,0,0:0:0:0:
192,192,63518,128,2,63831:0:0:0:0:
320,192,63831,1,2,0:0:0:0:
64,192,63987,1,8,0:0:0:0:
448,192,63987,128,0,64300:0:0:0:0:
320,192,64300,1,2,0:0:0:0:
192,192,64456,128,2,64612:0:0:0:0:
64,192,64612,1,8,0:0:0:0:
448,192,64612,128,0,64768:0:0:0:0:
192,192,64768,128,0,64925:0:0:0:0:
64,192,64925,1,2,0:0:0:0:
320,192,65081,128,2,65237:0:0:0:0:
64,192,65237,128,8,65393:0:0:0:0:
448,192,65237,1,0,0:0:0:0:
192,192,65550,1,2,0:0:0:0:
320,192,65706,1,2,0:0:0:0:
192,192,65862,1,8,0:0:0:0:
448,192,65862,1,0,0:0:0:0:
64,192,66175,1,2,0:0:0:0:
192,192,66331,1,2,0:0:0:0:
320,192,66487,1,8,0:0:0:0:
448,192,66487,1,0,0:0:0:0:
192,192,66800,1,2,0:0:0:0:
448,192,66956,1,2,0:0:0:0:
64,192,67112,1,8,0:0:0:0:
320,192,67112,1,0,0:0:0:0:
448,192,67425,1,2,0:0:0:0:
320,192,67581,1,2,0:0:0:0:
64,192,67737,1,8,0:0:0:0:
192,192,67737,1,0,0:0:0:0:
320,192,67893,1,0,0:0:0:0:
192,192,68050,128,2,68206:0:0:0:0:
64,192,68362,1,8,0:0:0:0:
448,192,68362,128,4,68987:0:0:0:0:
64,192,68987,1,8,0:0:0:0:
192,192,68987,1,0,0:0:0:0:
320,192,69300,1,2,0:0:0:0:
64,192,69612,1,8,0:0:0:0:
448,192,69612,1,0,0:0:0:0:
192,192,69925,1,2,0:0:0:0:
64,192,70081,1,2,0:0:0:0:
320,192,70237,1,8,0:0:0:0:
448,192,70237,1,0,0:0:0:0:
64,192,70550,1,2,0:0:0:0:
192,192,70550,128,4,70862:0:0:0:0:
320,192,70862,128,8,71175:0:0:0:0:
448,192,70862,1,2,0:0:0:0:
64,192,71175,128,2,71487:0:0:0:0:
192,192,71175,1,0,0:0:0:0:
320,192,71487,1,8,0:0:0:0:
448,192,71487,128,2,71800:0:0:0:0:
64,192,71800,1,2,0:0:0:0:
192,192,71800,128,0,72112:0:0:0:0:
320,192,72112,128,8,72425:0:0:0:0:
448,192,72112,1,2,0:0:0:0:
64,192,72425,128,2,72737:0:0:0:0:
192,192,72425,1,0,0:0:0:0:
320,192,72737,1,8,0:0:0:0:
448,192,72737,128,2,73050:0:0:0:0:
64,192,73050,1,2,0:0:0:0:
192,192,73050,128,4,73362:0:0:0:0:
320,192,73362,1,8,0:0:0:0:
448,192,73362,1,0,0:0:0:0:
64,192,73675,1,2,0:0:0:0:
320,192,73831,1,2,0:0:0:0:
192,192,73987,1,8,0:0:0:0:
448,192,73987,1,0,0:0:0:0:
320,192,74300,128,2,74612:0:0:0:0:
448,192,74300,1,0,0:0:0:0:
64,192,74612,1,8,0:0:0:0:
192,192,74612,1,0,0:0:0:0:
448,192,74925,1,2,0:0:0:0:
192,192,75081,1,2,0:0:0:0:
64,192,75237,1,8,0:0:0:0:
320,192,75237,1,0,0:0:0:0:
64,192,75550,1,2,0:0:0:0:
192,192,75550,128,0,75862:0:0:0:0:
320,192,75862,1,8,0:0:0:0:
448,192,75862,1,2,0:0:0:0:
64,192,76175,1,2,0:0:0:0:
320,192,76331,1,2,0:0:0:0:
192,192,76487,1,8,0:0:0:0:
448,192,76487,1,0,0:0:0:0:
64,192,76800,128,2,77112:0:0:0:0:
320,192,77112,1,8,0:0:0:0:
448,192,77112,1,2,0:0:0:0:
192,192,77425,1,2,0:0:0:0:
320,192,77581,1,0,0:0:0:70:tom.wav
448,192,77737,1,2,0:0:0:0:
64,192,77893,1,0,0:0:0:70:tom.wav
192,192,78050,1,2,0:0:0:0:
320,192,78050,128,4,78206:0:0:0:0:
64,192,78362,128,8,78987:0:0:0:0:
448,192,78362,1,4,0:0:0:0:
320,192,78987,1,8,0:0:0:0:
448,192,78987,1,0,0:0:0:0:
192,192,79300,1,2,0:0:0:0:
64,192,79612,1,8,0:0:0:0:
448,192,79612,1,0,0:0:0:0:
320,192,79925,1,2,0:0:0:0:
448,192,80081,1,2,0:0:0:0:
64,192,80237,1,8,0:0:0:0:
192,192,80237,1,0,0:0:0:0:
320,192,80550,128,2,80862:0:0:0:0:
448,192,80550,1,4,0:0:0:0:
64,192,80862,1,8,0:0:0:0:
192,192,80862,128,0,81175:0:0:0:0:
320,192,81175,1,2,0:0:0:0:
448,192,81175,128,0,81487:0:0:0:0:
64,192,81487,128,8,81800:0:0:0:0:
192,192,81487,1,0,0:0:0:0:
320,192,81800,128,2,82112:0:0:0:0:
448,192,81800,1,0,0:0:0:0:
64,192,82112,1,8,0:0:0:0:
192,192,82112,128,0,82425:0:0:0:0:
320,192,82425,1,2,0:0:0:0:
448,192,82425,128,0,82737:0:0:0:0:
64,192,82737,128,8,83050:0:0:0:0:
192,192,82737,1,0,0:0:0:0:
320,192,83050,128,2,83362:0:0:0:0:
448,192,83050,1,4,0:0:0:0:
64,192,83362,1,8,0:0:0:0:
192,192,83362,1,0,0:0:0:0:
448,192,83675,1,2,0:0:0:0:
192,192,83831,1,2,0:0:0:0:
64,192,83987,1,8,0:0:0:0:
320,192,83987,1,0,0:0:0:0:
64,192,84300,1,2,0:0:0:0:
192,192,84300,128,0,84612:0:0:0:0:
320,192,84612,1,8,0:0:0:0:
448,192,84612,1,0,0:0:0:0:
64,192,84925,1,2,0:0:0:0:
320,192,85081,1,2,0:0:0:0:
192,192,85237,1,8,0:0:0:0:
448,192,85237,1,0,0:0:0:0:
320,192,85550,128,2,85862:0:0:0:0:
448,192,85550,1,4,0:0:0:0:
64,192,85862,1,8,0:0:0:0:
192,192,85862,1,2,0:0:0:0:
320,192,86018,1,8,0:0:0:0:
64,192,86175,1,2,0:0:0:0:
448,192,86175,1,8,0:0:0:0:
192,192,86331,1,8,0:0:0:0:
320,192,86487,1,2,0:0:0:0:
448,192,86487,1,8,0:0:0:0:
192,192,86643,1,8,0:0:0:0:
64,192,86800,1,2,0:0:0:0:
448,192,86800,1,4,0:0:0:0:
192,192,87112,1,0,0:0:0:0:
320,192,87425,1,0,0:0:0:0:
64,192,87737,1,0,0:0:0:0:
192,192,88050,1,2,0:0:0:0:
448,192,88050,128,4,88557:0:0:0:0:
64,192,88557,1,4,0:0:0:0:
320,192,88557,128,2,88987:0:0:0:0:
192,192,88987,128,2,89300:0:0:0:0:
448,192,88987,1,4,0:0:0:0:
64,192,89300,128,0,89612:0:0:0:0:
320,192,89612,128,0,89925:0:0:0:0:
192,192,89925,128,0,90237:0:0:0:0:
448,192,90237,128,0,90550:0:0:0:0:
64,192,90550,128,4,90862:0:0:0:0:
192,192,90550,1,2,0:0:0:0:
320,192,90862,1,8,0:0:0:0:
448,192,90862,1,0,0:0:0:0:
192,192,91175,1,2,0:0:0:0:
448,192,91331,1,2,0:0:0:0:
64,192,91487,128,8,91800:0:0:0:0:
320,192,91487,1,0,0:0:0:0:
448,192,91800,128,2,92112:0:0:0:0:
64,192,92112,1,8,0:0:0:0:
192,192,92112,128,0,92425:0:0:0:0:
320,192,92425,1,2,0:0:0:0:
64,192,92581,1,2,0:0:0:0:
192,192,92737,1,8,0:0:0:0:
448,192,92737,128,0,93050:0:0:0:0:
64,192,93050,128,2,93362:0:0:0:0:
320,192,93362,1,8,0:0:0:0:
448,192,93362,1,0,0:0:0:0:
64,192,93675,1,2,0:0:0:0:
320,192,93831,1,2,0:0:0:0:
192,192,93987,128,8,94300:0:0:0:0:
448,192,93987,1,0,0:0:0:0:
320,192,94300,128,2,94612:0:0:0:0:
64,192,94612,128,8,94925:0:0:0:0:
192,192,94612,1,0,0:0:0:0:
448,192,94925,1,2,0:0:0:0:
192,192,95081,1,2,0:0:0:0:
64,192,95237,1,8,0:0:0:0:
320,192,95237,128,0,95550:0:0:0:0:
192,192,95550,1,2,0:0:0:0:
320,192,95862,1,8,0:0:0:0:
448,192,95862,128,0,96175:0:0:0:0:
192,192,96175,1,2,0:0:0:0:
320,192,96331,1,2,0:0:0:0:
64,192,96487,128,8,96800:0:0:0:0:
448,192,96487,1,0,0:0:0:0:
192,192,96800,128,2,97112:0:0:0:0:
64,192,97112,1,8,0:0:0:0:
448,192,97112,128,0,97425:0:0:0:0:
320,192,97425,1,2,0:0:0:0:
192,192,97581,1,2,0:0:0:0:
64,192,97737,128,8,98050:0:0:0:0:
448,192,97737,1,0,0:0:0:0:
192,192,98050,1,2,0:0:0:0:
320,192,98362,1,8,0:0:0:0:
448,192,98362,1,0,0:0:0:0:
64,192,98675,1,2,0:0:0:0:
192,192,98831,1,2,0:0:0:0:
320,192,98987,128,8,99300:0:0:0:0:
448,192,98987,1,0,0:0:0:0:
192,192,99300,128,2,99612:0:0:0:0:
64,192,99612,1,8,0:0:0:0:
448,192,99612,128,0,99925:0:0:0:0:
64,192,99925,1,2,0:0:0:0:
192,192,99925,1,8,0:0:0:0:
320,192,100081,1,8,0:0:0:0:
192,192,100159,1,8,0:0:0:0:
448,192,100237,1,10,0:0:0:0:
192,192,100393,1,8,0:0:0:0:
320,192,100471,1,8,0:0:0:0:
64,192,100550,1,2,0:0:0:0:
448,192,100550,128,4,100862:0:0:0:0:
64,192,100862,1,8,0:0:0:0:
192,192,100862,1,0,0:0:0:0:
320,192,101175,1,2,0:0:0:0:
192,192,101331,1,2,0:0:0:0:
64,192,101487,128,8,101800:0:0:0:0:
448,192,101487,1,0,0:0:0:0:
320,192,101800,128,2,102112:0:0:0:0:
64,192,102112,1,8,0:0:0:0:
448,192,102112,128,0,102425:0:0:0:0:
192,192,102425,1,2,0:0:0:0:
320,192,102581,1,2,0:0:0:0:
64,192,102737,128,8,103050:0:0:0:0:
448,192,102737,1,0,0:0:0:0:
192,192,103050,128,2,103362:0:0:0:0:
320,192,103362,1,8,0:0:0:0:
448,192,103362,1,0,0:0:0:0:
64,192,103675,1,2,0:0:0:0:
320,192,103831,1,2,0:0:0:0:
192,192,103987,1,8,0:0:0:0:
448,192,103987,128,0,104300:0:0:0:0:
320,192,104300,128,2,104612:0:0:0:0:
64,192,104612,1,8,0:0:0:0:
192,192,104612,1,0,0:0:0:0:
448,192,104925,1,2,0:0:0:0:
192,192,105081,1,2,0:0:0:0:
64,192,105237,1,8,0:0:0:0:
320,192,105237,128,0,105550:0:0:0:0:
192,192,105550,128,2,105862:0:0:0:0:
448,192,105550,1,4,0:0:0:0:
64,192,105862,1,8,0:0:0:0:
448,192,105862,1,2,0:0:0:0:
320,192,105940,1,8,0:0:0:0:
192,192,106018,1,8,0:0:0:0:
64,192,106175,1,10,0:0:0:0:
448,192,106331,1,8,0:0:0:0:
64,192,106487,1,10,0:0:0:0:
192,192,106565,1,8,0:0:0:0:
320,192,106643,1,8,0:0:0:0:
64,192,106800,128,2,107112:0:0:0:0:
448,192,106800,1,4,0:0:0:0:
320,192,107112,1,8,0:0:0:0:
448,192,107112,1,2,0:0:0:0:
192,192,107190,1,8,0:0:0:0:
64,192,107268,1,8,0:0:0:0:
448,192,107425,1,10,0:0:0:0:
64,192,107581,1,8,0:0:0:0:
192,192,107737,1,10,0:0:0:0:
320,192,107815,1,8,0:0:0:0:
448,192,107893,1,8,0:0:0:0:
192,192,108050,1,2,0:0:0:0:
320,192,108050,128,4,108362:0:0:0:0:
64,192,108362,1,2,0:0:0:0:
448,192,108362,1,8,0:0:0:0:
192,192,108440,1,8,0:0:0:0:
320,192,108518,1,8,0:0:0:0:
448,192,108675,1,10,0:0:0:0:
64,192,108831,1,8,0:0:0:0:
448,192,108987,1,10,0:0:0:0:
320,192,109065,1,8,0:0:0:0:
192,192,109143,1,8,0:0:0:0:
64,192,109300,1,2,0:0:0:0:
448,192,109300,128,4,109612:0:0:0:0:
192,192,109612,1,0,0:0:0:0:
320,192,109925,1,0,0:0:0:0:
192,192,110237,1,0,0:0:0:0:
320,192,110550,1,8,0:0:0:0:
448,192,110550,1,2,0:0:0:0:
64,192,110706,1,8,0:0:0:0:
192,192,110706,1,0,0:0:0:0:
320,192,110862,128,2,111018:0:0:0:0:
448,192,111018,128,0,111175:0:0:0:0:
192,192,111175,128,2,111331:0:0:0:0:
320,192,111331,128,0,111487:0:0:0:0:
64,192,111487,128,2,111643:0:0:0:0:
192,192,111643,128,0,111800:0:0:0:0:
448,192,111800,128,2,111956:0:0:0:0:
64,192,111956,128,0,112112:0:0:0:0:
320,192,112112,128,2,112268:0:0:0:0:
192,192,112268,128,0,112425:0:0:0:0:
448,192,112425,128,2,112581:0:0:0:0:
64,192,112581,128,0,112737:0:0:0:0:
320,192,112737,128,2,112893:0:0:0:0:
192,192,112893,128,0,113050:0:0:0:0:
320,192,113050,1,8,0:0:0:0:
448,192,113050,1,2,0:0:0:0:
64,192,113206,1,8,0:0:0:0:
192,192,113206,1,0,0:0:0:0:
320,192,113362,128,2,113518:0:0:0:0:
448,192,113518,128,0,113675:0:0:0:0:
192,192,113675,128,2,113831:0:0:0:0:
320,192,113831,128,0,113987:0:0:0:0:
64,192,113987,128,2,114143:0:0:0:0:
192,192,114143,128,0,114300:0:0:0:0:
448,192,114300,128,2,114456:0:0:0:0:
64,192,114456,128,0,114612:0:0:0:0:
320,192,114612,128,2,114768:0:0:0:0:
192,192,114768,128,0,114925:0:0:0:0:
448,192,114925,128,2,115081:0:0:0:0:
64,192,115081,128,0,115237:0:0:0:0:
320,192,115237,128,2,115393:0:0:0:0:
192,192,115393,128,0,115550:0:0:0:0:
320,192,115550,1,8,0:0:0:0:
448,192,115550,1,2,0:0:0:0:
64,192,115706,1,8,0:0:0:0:
192,192,115706,1,0,0:0:0:0:
320,192,115862,128,2,116018:0:0:0:0:
448,192,116018,128,0,116175:0:0:0:0:
64,192,116175,1,8,0:0:0:0:
192,192,116175,1,2,0:0:0:0:
320,192,116331,1,8,0:0:0:0:
448,192,116331,1,0,0:0:0:0:
64,192,116487,128,2,116643:0:0:0:0:
192,192,116643,128,0,116800:0:0:0:0:
320,192,116800,1,8,0:0:0:0:
448,192,116800,1,2,0:0:0:0:
64,192,116956,1,8,0:0:0:0:
192,192,116956,1,0,0:0:0:0:
448,192,117112,128,2,117268:0:0:0:0:
64,192,117268,128,0,117425:0:0:0:0:
320,192,117425,1,8,0:0:0:0:
448,192,117425,1,2,0:0:0:0:
64,192,117581,1,8,0:0:0:0:
192,192,117581,1,0,0:0:0:0:
320,192,117737,128,2,117893:0:0:0:0:
192,192,117893,128,0,118050:0:0:0:0:
320,192,118050,1,8,0:0:0:0:
448,192,118050,1,2,0:0:0:0:
64,192,118206,1,8,0:0:0:0:
192,192,118206,1,0,0:0:0:0:
320,192,118362,128,2,118518:0:0:0:0:
448,192,118518,128,0,118675:0:0:0:0:
64,192,118675,1,8,0:0:0:0:
192,192,118675,1,2,0:0:0:0:
320,192,118831,1,8,0:0:0:0:
448,192,118831,1,0,0:0:0:0:
64,192,118987,128,2,119143:0:0:0:0:
192,192,119143,128,0,119300:0:0:0:0:
448,192,119300,128,0,119456:0:0:0:70:tom.wav
64,192,119456,128,2,119612:0:0:0:0:
320,192,119612,128,8,119768:0:0:0:0:
448,192,119612,1,0,0:0:0:0:
192,192,119768,128,2,119925:0:0:0:0:
64,192,119925,1,8,0:0:0:0:
448,192,119925,128,0,120237:0:0:0:0:
320,192,120237,1,0,0:0:0:0:
64,192,120550,128,2,120706:0:0:0:0:
192,192,120550,1,4,0:0:0:0:
448,192,120706,128,2,120862:0:0:0:0:
64,192,120862,1,8,0:0:0:0:
192,192,120862,128,0,121018:0:0:0:0:
320,192,121018,128,0,121175:0:0:0:40:tom.wav
448,192,121175,128,2,121331:0:0:0:0:
64,192,121331,128,2,121487:0:0:0:0:
320,192,121487,128,8,121643:0:0:0:0:
448,192,121487,1,0,0:0:0:0:
192,192,121643,128,0,121800:0:0:0:0:
64,192,121800,128,2,121956:0:0:0:0:
448,192,121956,128,2,122112:0:0:0:0:
64,192,122112,1,8,0:0:0:0:
192,192,122112,128,0,122268:0:0:0:0:
320,192,122268,128,0,122425:0:0:0:40:tom.wav
448,192,122425,128,2,122581:0:0:0:0:
64,192,122581,128,2,122737:0:0:0:0:
320,192,122737,1,8,0:0:0:0:
448,192,122737,128,0,123050:0:0:0:0:
192,192,123050,128,2,123206:0:0:0:0:
320,192,123206,128,2,123362:0:0:0:0:
64,192,123362,128,8,123518:0:0:0:0:
192,192,123362,1,0,0:0:0:0:
448,192,123518,128,0,123675:0:0:0:40:tom.wav
192,192,123675,128,2,123831:0:0:0:0:
320,192,123831,128,2,123987:0:0:0:0:
64,192,123987,1,8,0:0:0:0:
192,192,123987,1,0,0:0:0:0:
320,192,124143,1,8,0:0:0:0:
448,192,124143,1,0,0:0:0:0:
64,192,124300,128,2,124456:0:0:0:0:
448,192,124456,128,2,124612:0:0:0:0:
64,192,124612,1,8,0:0:0:0:
192,192,124612,1,0,0:0:0:0:
320,192,124768,1,8,0:0:0:0:
448,192,124768,1,0,0:0:0:0:
64,192,124925,128,2,125237:0:0:0:0:
320,192,125237,1,8,0:0:0:0:
448,192,125237,128,0,125550:0:0:0:0:
64,192,125550,128,2,125706:0:0:0:0:
448,192,125706,128,2,125862:0:0:0:0:
64,192,125862,1,8,0:0:0:0:
192,192,125862,128,0,126018:0:0:0:0:
320,192,126018,128,0,126175:0:0:0:40:tom.wav
448,192,126175,128,2,126331:0:0:0:0:
64,192,126331,128,2,126487:0:0:0:0:
320,192,126487,128,8,126643:0:0:0:0:
448,192,126487,1,0,0:0:0:0:
192,192,126643,128,0,126800:0:0:0:0:
64,192,126800,128,2,126956:0:0:0:0:
448,192,126956,128,2,127112:0:0:0:0:
64,192,127112,1,8,0:0:0:0:
192,192,127112,128,0,127268:0:0:0:0:
320,192,127268,128,0,127425:0:0:0:40:tom.wav
448,192,127425,128,2,127581:0:0:0:0:
64,192,127581,128,2,127737:0:0:0:0:
320,192,127737,1,8,0:0:0:0:
448,192,127737,128,0,128050:0:0:0:0:
192,192,128050,128,2,128206:0:0:0:0:
320,192,128206,128,2,128362:0:0:0:0:
64,192,128362,128,8,128518:0:0:0:0:
192,192,128362,1,0,0:0:0:0:
448,192,128518,128,0,128675:0:0:0:40:tom.wav
192,192,128675,128,2,128831:0:0:0:0:
320,192,128831,128,2,128987:0:0:0:0:
64,192,128987,1,8,0:0:0:0:
192,192,128987,1,0,0:0:0:0:
320,192,129143,1,8,0:0:0:0:
448,192,129143,1,0,0:0:0:0:
64,192,129300,128,2,129456:0:0:0:0:
448,192,129456,128,2,129612:0:0:0:0:
64,192,129612,1,8,0:0:0:0:
192,192,129612,1,0,0:0:0:0:
320,192,129768,1,8,0:0:0:0:
64,192,129925,1,8,0:0:0:0:
448,192,129925,1,2,0:0:0:0:
192,192,130081,1,8,0:0:0:0:
320,192,130237,1,8,0:0:0:0:
448,192,130237,1,2,0:0:0:0:
192,192,130393,1,8,0:0:0:0:
64,192,130550,1,10,0:0:0:0:
448,192,130550,1,4,0:0:0:0:
