osu file format v14

[General]
AudioFilename: audio.mp3
AudioLeadIn: 0
PreviewTime: 64760
Countdown: 0
SampleSet: Soft
StackLeniency: 0.2
Mode: 0
LetterboxInBreaks: 0
WidescreenStoryboard: 1

[Editor]
Bookmarks: 43564,54977,64882,114406
DistanceSpacing: 1.5
BeatDivisor: 4
GridSize: 32
TimelineZoom: 2.4

[Metadata]
Title:CATCH ME
TitleUnicode:CATCH ME
Artist:THE ORAL CIGARETTES
ArtistUnicode:THE ORAL CIGARETTES
Creator:Nevo
Version:NiNo's Insane
Source:
Tags:eiri- ayyri Seto Kousuke mir irohas snownino_ mugiwarasekai
BeatmapID:1825834
BeatmapSetID:789885

[Difficulty]
HPDrainRate:5
CircleSize:4
OverallDifficulty:8
ApproachRate:9
SliderMultiplier:1.8
SliderTickRate:1

[Events]
//Background and Video events
0,0,"65966481_p0_master1200.jpg",0,0
//Break Periods
2,8221,9866
2,86282,90699
//Storyboard Layer 0 (Background)
//Storyboard Layer 1 (Fail)
//Storyboard Layer 2 (Pass)
//Storyboard Layer 3 (Foreground)
//Storyboard Sound Samples

[TimingPoints]
32,326.086956521739,4,2,1,75,1,0
32,-133.333333333333,4,2,1,75,0,0
10711,-100,4,2,1,5,0,0
10792,-133.333333333333,4,2,1,75,0,0
12667,-133.333333333333,4,2,1,5,0,0
12749,-133.333333333333,4,2,1,75,0,0
12993,-133.333333333333,4,2,1,5,0,0
13075,-133.333333333333,4,2,1,75,0,0
13320,-133.333333333333,4,2,1,5,0,0
13401,-133.333333333333,4,2,1,75,0,0
15928,-133.333333333333,4,2,1,5,0,0
16010,-133.333333333333,4,2,1,75,0,0
19515,-133.333333333333,4,2,1,5,0,0
19597,-133.333333333333,4,2,1,75,0,0
20901,-100,4,2,1,70,0,0
31336,-133.333333333333,4,2,1,70,0,0
41771,-100,4,2,1,70,0,0
42015,-100,4,2,1,5,0,0
42097,-100,4,2,1,70,0,0
44379,-133.333333333333,4,2,1,70,0,0
57341,-133.333333333333,4,2,1,5,0,0
57423,-133.333333333333,4,2,1,70,0,0
59950,-133.333333333333,4,2,1,5,0,0
60031,-133.333333333333,4,2,1,70,0,0
62559,-133.333333333333,4,2,1,5,0,0
62640,-133.333333333333,4,2,1,70,0,0
63909,326.086956521739,4,2,1,80,1,0
64009,-133.333333333333,4,2,1,80,0,0
65131,-133.333333333333,4,2,1,5,0,0
65213,-100,4,2,1,80,0,1
83432,-100,4,2,1,60,0,1
86082,-100,4,2,1,70,0,0
91258,-100,4,2,1,75,0,0
96394,-100,4,2,1,5,0,0
96476,-100,4,2,1,80,0,0
101612,-100,4,2,1,5,0,0
101735,-100,4,2,1,85,0,1
119995,-100,4,2,1,70,0,1
122604,-100,4,2,1,85,0,1
125416,-100,4,2,1,5,0,1
125498,-100,4,2,1,85,0,1
126517,-100,4,2,1,70,0,1
127822,-100,4,2,1,70,0,0
139682,-100,4,2,1,70,0,0
151258,-100,4,2,1,5,0,0

[Colours]
Combo1 : 177,177,177
Combo2 : 255,155,106
Combo3 : 119,150,255

[HitObjects]
273,84,5249,5,6,0:0:0:0:
256,192,5330,12,0,7531,0:0:0:0:
309,63,7858,5,8,0:2:0:0:
255,124,8021,1,8,0:2:0:0:
255,124,10466,6,0,L|112:120,1,135.000005149842,6|0,3:2|3:2,0:0:0:0:
42,95,10955,2,0,P|72:125|61:221,1,135.000005149842,8|0,0:2|0:0,0:0:0:0:
33,285,11445,1,8,0:2:0:0:
33,285,11771,6,0,B|75:251|75:251|175:273,1,135.000005149842,2|0,3:2|0:0,0:0:0:0:
191,340,12260,2,0,B|233:374|233:374|333:352,1,135.000005149842,8|0,0:2|0:0,0:0:0:0:
363,294,12749,1,8,0:2:0:0:
363,294,13075,6,0,P|346:250|405:183,1,135.000005149842,2|0,3:2|0:0,0:0:0:0:
472,163,13564,2,0,P|489:119|430:52,1,135.000005149842,8|0,0:2|0:0,0:0:0:0:
359,56,14053,1,8,0:2:0:0:
359,56,14379,6,0,L|210:51,1,135.000005149842,2|0,3:2|0:0,0:0:0:0:
145,32,14868,2,0,P|179:67|163:162,1,135.000005149842,8|0,0:2|0:0,0:0:0:0:
105,192,15358,1,8,0:2:0:0:
105,192,15521,1,8,0:2:0:0:
175,231,15684,6,0,L|335:237,1,135.000005149842,2|0,3:2|0:0,0:0:0:0:
310,316,16173,2,0,L|175:310,1,135.000005149842,8|0,0:2|0:0,0:0:0:0:
106,272,16662,1,8,0:2:0:0:
106,272,16825,1,8,0:2:0:0:
175,231,16988,6,0,P|211:178|192:93,1,135.000005149842,2|0,3:2|0:0,0:0:0:0:
142,56,17477,2,0,L|305:72,1,135.000005149842,8|0,0:2|0:0,0:0:0:0:
356,77,17966,1,8,0:2:0:0:
356,77,18129,1,8,0:2:0:0:
436,84,18292,6,0,B|466:130|466:130|455:239,1,135.000005149842,2|0,3:2|0:0,0:0:0:0:
473,289,18781,2,0,P|442:232|364:223,1,135.000005149842,8|0,0:2|0:0,0:0:0:0:
308,262,19271,1,8,0:2:0:0:
281,102,19597,5,10,0:2:0:0:
281,102,20901,5,6,3:2:0:0:
233,178,21064,2,0,B|124:173,1,90,0|8,3:2|0:2,0:0:0:0:
53,168,21390,1,8,0:2:0:0:
53,168,21472,1,8,0:2:0:0:
53,168,21553,2,0,P|67:216|57:272,1,90,0|0,3:2|3:2,0:0:0:0:
39,341,21879,2,0,B|128:345,1,90,8|8,0:2|0:2,0:0:0:0:
195,284,22205,6,0,B|284:279,2,90,2|0|8,3:2|3:2|0:2,0:0:0:0:
109,257,22695,1,8,0:2:0:0:
176,196,22858,2,0,B|265:191,1,90,0|0,3:2|3:2,0:0:0:0:
90,169,23184,2,0,B|0:164,1,90,8|8,0:2|0:2,0:0:0:0:
157,108,23510,5,2,3:2:0:0:
176,196,23673,2,0,L|180:304,1,90,0|8,3:2|0:2,0:0:0:0:
235,356,23999,1,8,0:2:0:0:
267,272,24162,2,0,P|321:261|365:274,1,90,0|0,3:2|3:2,0:0:0:0:
393,349,24488,2,0,P|447:360|491:347,1,90,8|8,0:2|0:2,0:0:0:0:
440,271,24814,5,2,3:2:0:0:
393,349,24977,1,0,3:2:0:0:
354,268,25140,1,8,0:2:0:0:
307,346,25303,1,8,0:2:0:0:
268,265,25466,2,0,L|274:163,1,90,0|0,3:2|3:2,0:0:0:0:
349,127,25792,1,8,0:2:0:0:
347,104,25873,1,8,0:2:0:0:
346,82,25955,1,8,0:2:0:0:
345,59,26036,1,8,0:2:0:0:
343,37,26118,5,2,3:2:0:0:
260,3,26281,2,0,L|161:0,1,90,0|8,3:2|0:2,0:0:0:0:
99,56,26608,1,8,0:2:0:0:
182,90,26771,2,0,L|271:92,1,90,0|0,3:2|3:2,0:0:0:0:
326,164,27097,1,8,0:2:0:0:
415,161,27260,1,8,0:2:0:0:
504,158,27423,5,2,3:2:0:0:
457,84,27586,1,0,3:2:0:0:
415,161,27749,1,8,0:2:0:0:
368,87,27912,1,8,0:2:0:0:
326,164,28075,2,0,L|334:286,1,90,0|0,3:2|3:2,0:0:0:0:
337,343,28401,2,0,P|291:326|235:335,1,90,8|8,0:2|0:2,0:0:0:0:
168,365,28727,5,2,3:2:0:0:
178,275,28890,2,0,L|182:171,1,90,0|8,3:2|0:2,0:0:0:0:
184,95,29216,1,8,0:2:0:0:
259,143,29379,2,0,P|305:161|363:149,1,90,0|0,3:2|3:2,0:0:0:0:
399,85,29705,2,0,P|443:81|484:99,1,90,8|2,0:2|0:2,0:0:0:0:
509,185,30031,5,10,0:2:0:0:
507,207,30112,1,8,0:2:0:0:
506,229,30194,1,8,0:2:0:0:
505,252,30275,1,8,0:2:0:0:
504,274,30358,2,0,L|501:319,1,45,8|8,0:2|0:2,0:0:0:0:
420,365,30521,2,0,L|417:320,1,45,8|8,0:2|0:2,0:0:0:0:
338,264,30684,2,0,L|335:309,7,45,2|2|2|2|2|2|2|2,3:0|3:0|3:0|3:0|3:0|3:0|3:0|3:0,0:0:0:0:
392,216,31336,6,0,L|386:136,1,67.5000025749208,2|0,3:2|3:2,0:0:0:0:
317,107,31662,2,0,L|322:27,1,67.5000025749208,8|8,0:2|0:2,0:0:0:0:
286,19,31906,1,8,0:2:0:0:
286,19,31988,2,0,P|248:12|212:23,1,67.5000025749208,0|0,3:2|3:2,0:0:0:0:
169,81,32314,2,0,P|131:88|95:77,1,67.5000025749208,8|8,0:2|0:2,0:0:0:0:
67,62,32559,1,8,0:2:0:0:
67,62,32640,6,0,L|72:148,1,67.5000025749208,2|0,3:2|3:2,0:0:0:0:
134,179,32966,2,0,L|129:265,1,67.5000025749208,8|8,0:2|0:2,0:0:0:0:
125,286,33211,1,8,0:2:0:0:
125,286,33292,2,0,P|167:302|205:300,1,67.5000025749208,0|0,3:2|3:2,0:0:0:0:
254,255,33618,1,8,0:2:0:0:
270,255,33699,1,8,0:2:0:0:
287,257,33781,1,8,0:2:0:0:
303,263,33862,1,8,0:2:0:0:
318,271,33944,5,2,3:2:0:0:
351,345,34108,1,0,3:2:0:0:
398,279,34271,2,0,L|392:194,1,67.5000025749208,8|8,0:2|0:2,0:0:0:0:
369,179,34515,1,8,0:0:0:0:
369,179,34597,2,0,L|375:94,1,67.5000025749208,0|0,3:2|3:2,0:0:0:0:
378,33,34923,2,0,P|333:24|293:27,1,67.5000025749208,8|8,0:2|0:2,0:0:0:0:
279,48,35167,1,8,0:2:0:0:
279,48,35249,6,0,P|234:57|194:54,1,67.5000025749208,2|0,3:2|3:2,0:0:0:0:
131,55,35575,2,0,L|135:122,1,67.5000025749208,8|8,0:2|0:2,0:0:0:0:
211,151,35901,2,0,L|206:218,1,67.5000025749208,0|0,3:2|3:2,0:0:0:0:
130,246,36227,1,8,0:2:0:0:
131,262,36308,1,8,0:2:0:0:
132,279,36390,1,8,0:2:0:0:
133,296,36471,1,8,0:2:0:0:
134,313,36553,5,2,3:2:0:0:
191,371,36716,1,0,3:0:0:0:
214,293,36879,2,0,L|209:225,1,67.5000025749208,8|8,0:2|0:2,0:0:0:0:
239,198,37124,1,8,0:0:0:0:
239,198,37205,2,0,L|243:130,1,67.5000025749208,0|0,3:2|3:2,0:0:0:0:
249,49,37531,2,0,P|293:42|335:52,1,67.5000025749208,8|8,0:2|0:2,0:0:0:0:
338,78,37776,1,8,0:2:0:0:
338,78,37858,5,2,3:2:0:0:
355,157,38021,1,0,3:2:0:0:
416,103,38184,2,0,P|463:102|497:112,1,67.5000025749208,8|8,0:2|0:2,0:0:0:0:
500,142,38428,1,8,0:2:0:0:
500,142,38510,2,0,L|494:228,1,67.5000025749208,0|0,3:2|3:2,0:0:0:0:
421,242,38836,1,8,0:0:0:0:
422,258,38917,1,8,0:0:0:0:
423,275,38999,1,8,0:0:0:0:
424,292,39080,1,8,0:0:0:0:
425,309,39162,5,2,3:2:0:0:
375,372,39325,1,0,3:2:0:0:
344,297,39488,2,0,L|270:291,1,67.5000025749208,8|0,0:2|0:2,0:0:0:0:
249,261,39733,1,8,0:0:0:0:
249,261,39814,2,0,L|175:267,1,67.5000025749208,0|0,3:2|3:2,0:0:0:0:
100,268,40140,2,0,P|111:224|106:186,1,67.5000025749208,8|8,0:2|0:2,0:0:0:0:
45,152,40466,5,2,3:2:0:0:
120,121,40629,1,0,3:2:0:0:
184,171,40792,2,0,P|220:181|262:177,1,67.5000025749208,14|0,0:2|0:0,0:0:0:0:
313,129,41118,1,8,0:2:0:0:
330,127,41199,1,8,0:2:0:0:
347,128,41281,1,8,0:2:0:0:
363,132,41362,1,8,0:2:0:0:
379,138,41445,2,0,P|409:163|429:204,1,67.5000025749208,2|2,3:3|3:3,0:0:0:0:
434,276,41771,5,6,3:2:0:0:
434,276,41934,1,0,0:0:0:0:
345,287,42097,2,0,L|255:298,1,90,8|2,0:2|0:2,0:0:0:0:
165,309,42423,1,0,3:2:0:0:
165,309,42586,1,0,3:2:0:0:
75,320,42749,1,8,0:2:0:0:
75,320,43075,5,2,3:2:0:0:
75,320,43238,1,0,3:2:0:0:
63,230,43401,1,8,0:2:0:0:
51,140,43564,1,8,0:2:0:0:
39,50,43727,1,0,3:2:0:0:
39,50,43890,1,0,3:2:0:0:
123,84,44053,1,8,0:2:0:0:
142,94,44134,1,8,0:2:0:0:
164,100,44216,1,8,0:2:0:0:
186,100,44297,1,8,0:2:0:0:
208,95,44379,6,0,P|245:90|288:98,1,67.5000025749208,2|0,3:2|0:0,0:0:0:0:
342,137,44705,1,8,0:2:0:0:
270,174,44868,1,8,0:2:0:0:
270,174,44950,1,8,0:2:0:0:
270,174,45031,1,0,3:2:0:0:
338,218,45195,1,0,3:2:0:0:
266,255,45358,2,0,L|190:260,1,67.5000025749208,8|8,0:2|0:2,0:0:0:0:
159,330,45684,6,0,L|83:325,1,67.5000025749208,2|0,3:2|0:0,0:0:0:0:
11,318,46010,2,0,P|22:278|20:240,1,67.5000025749208,8|8,0:2|0:2,0:0:0:0:
15,212,46254,1,8,0:2:0:0:
15,212,46336,2,0,P|15:178|25:146,1,67.5000025749208,0|0,3:2|3:2,0:0:0:0:
78,84,46662,1,8,0:2:0:0:
92,75,46743,1,8,0:2:0:0:
107,68,46825,1,8,0:2:0:0:
123,63,46906,1,8,0:2:0:0:
140,60,46988,6,0,P|173:60|205:70,1,67.5000025749208,2|0,3:2|3:2,0:0:0:0:
266,123,47314,1,8,0:2:0:0:
189,150,47477,1,8,0:2:0:0:
189,150,47559,1,8,0:0:0:0:
189,150,47640,1,0,3:2:0:0:
250,203,47803,1,0,3:2:0:0:
173,230,47966,2,0,L|96:226,1,67.5000025749208,8|8,0:2|0:2,0:0:0:0:
101,307,48292,6,0,L|168:310,1,67.5000025749208,2|0,3:2|3:2,0:0:0:0:
228,365,48618,2,0,L|295:361,1,67.5000025749208,8|8,0:2|0:2,0:0:0:0:
321,330,48863,1,8,0:0:0:0:
321,330,48945,2,0,L|388:333,1,67.5000025749208,0|0,3:2|3:2,0:0:0:0:
469,334,49271,1,8,0:2:0:0:
474,318,49352,1,8,0:2:0:0:
477,301,49434,1,8,0:2:0:0:
477,284,49515,1,8,0:2:0:0:
475,267,49597,6,0,P|472:228|482:194,1,67.5000025749208,2|0,3:2|3:2,0:0:0:0:
494,121,49923,2,0,L|426:117,1,67.5000025749208,8|8,0:2|0:2,0:0:0:0:
386,114,50167,1,8,0:2:0:0:
386,114,50249,1,0,3:2:0:0:
318,159,50412,1,0,3:2:0:0:
391,196,50575,2,0,P|400:235|393:277,1,67.5000025749208,8|8,0:2|0:2,0:0:0:0:
345,324,50901,6,0,L|277:320,1,67.5000025749208,2|0,3:2|3:2,0:0:0:0:
215,268,51227,2,0,L|147:271,1,67.5000025749208,8|8,0:2|0:2,0:0:0:0:
106,273,51472,1,8,0:2:0:0:
106,273,51553,2,0,P|117:233|116:202,1,67.5000025749208,0|0,3:2|3:2,0:0:0:0:
56,152,51879,1,8,0:2:0:0:
55,135,51960,1,8,0:2:0:0:
56,118,52042,1,8,0:2:0:0:
60,101,52123,1,8,0:2:0:0:
66,86,52205,5,2,3:2:0:0:
132,38,52368,1,0,3:2:0:0:
141,118,52531,2,0,P|174:134|221:135,1,67.5000025749208,8|8,0:2|0:2,0:0:0:0:
239,116,52776,1,8,0:0:0:0:
239,116,52858,2,0,P|272:120|302:135,1,67.5000025749208,0|0,3:2|3:2,0:0:0:0:
313,215,53184,2,0,L|308:296,1,67.5000025749208,8|0,0:2|0:0,0:0:0:0:
224,353,53510,6,0,L|221:312,1,33.7500012874604,10|8,0:2|0:2,0:0:0:0:
160,263,53673,5,8,0:2:0:0:
161,246,53754,1,8,0:2:0:0:
162,229,53836,1,8,0:2:0:0:
163,212,53917,1,8,0:2:0:0:
164,195,53999,1,8,0:2:0:0:
165,178,54080,1,8,0:2:0:0:
166,161,54162,2,0,L|168:120,7,33.7500012874604,2|2|2|2|2|2|2|2,3:3|3:3|3:3|3:3|3:3|3:3|3:3|3:3,0:0:0:0:
89,186,54814,5,6,3:2:0:0:
89,186,54977,1,0,3:2:0:0:
25,135,55140,5,0,3:2:0:0:
25,135,55303,1,0,3:2:0:0:
37,54,55466,5,4,3:2:0:0:
37,54,55792,5,8,0:2:0:0:
113,23,55955,1,8,0:2:0:0:
113,23,56037,1,8,0:2:0:0:
113,23,56118,2,0,L|206:27,1,67.5000025749208,2|0,3:2|3:2,0:0:0:0:
222,95,56445,1,8,0:2:0:0:
302,90,56608,1,8,0:2:0:0:
302,90,56689,1,8,0:2:0:0:
302,90,56771,2,0,L|395:86,1,67.5000025749208,0|0,3:2|3:2,0:0:0:0:
437,130,57097,2,0,P|425:177|435:211,1,67.5000025749208,8|0,0:2|0:0,0:0:0:0:
488,248,57423,5,6,3:2:0:0:
488,248,57586,1,0,3:2:0:0:
411,273,57749,5,0,3:2:0:0:
411,273,57912,1,0,3:2:0:0:
351,219,58075,5,4,3:2:0:0:
351,219,58401,2,0,L|257:212,1,67.5000025749208,8|8,0:2|0:2,0:0:0:0:
256,183,58646,1,8,0:2:0:0:
256,183,58727,2,0,L|162:190,1,67.5000025749208,2|0,3:2|3:2,0:0:0:0:
108,195,59053,2,0,P|114:142|105:111,1,67.5000025749208,8|8,0:2|0:2,0:0:0:0:
82,99,59298,1,8,0:2:0:0:
82,99,59379,2,0,P|76:46|85:15,1,67.5000025749208,0|0,3:2|3:2,0:0:0:0:
156,10,59705,2,0,L|245:16,1,67.5000025749208,8|0,0:2|0:0,0:0:0:0:
293,54,60031,5,6,3:2:0:0:
293,54,60195,1,0,3:2:0:0:
222,95,60358,5,0,3:2:0:0:
222,95,60522,1,0,3:2:0:0:
292,135,60684,5,4,3:2:0:0:
292,135,61010,6,0,L|373:130,1,67.5000025749208,8|0,0:2|0:0,0:0:0:0:
395,147,61254,1,8,0:2:0:0:
395,147,61336,1,2,3:2:0:0:
453,203,61499,1,0,3:2:0:0:
375,227,61662,2,0,L|307:231,1,67.5000025749208,8|8,0:2|0:2,0:0:0:0:
276,256,61906,1,8,0:2:0:0:
276,256,61988,2,0,L|208:251,1,67.5000025749208,0|0,3:2|3:2,0:0:0:0:
165,183,62314,2,0,P|162:148|173:116,1,67.5000025749208,8|0,0:2|0:0,0:0:0:0:
242,77,62640,5,2,3:2:0:0:
242,158,62803,1,0,3:2:0:0:
242,158,62966,1,0,3:2:0:0:
312,118,63129,5,8,0:2:0:0:
312,199,63292,1,0,3:2:0:0:
312,199,63455,1,0,3:2:0:0:
382,159,63618,5,8,0:2:0:0:
312,280,63781,1,8,0:2:0:0:
312,280,64887,2,0,L|235:271,1,67.5000025749208,2|0,0:2|0:0,0:0:0:0:
151,284,65213,6,0,P|163:237|155:187,1,90,6|0,3:2|0:0,0:0:0:0:
83,145,65539,1,8,0:2:0:0:
163,105,65702,2,0,L|294:114,1,90,8|0,0:2|3:2,0:0:0:0:
242,200,66028,1,0,3:2:0:0:
331,193,66191,1,8,0:2:0:0:
420,186,66354,6,0,L|551:177,1,90,2|0,0:2|3:2,0:0:0:0:
369,113,66680,1,0,3:2:0:0:
331,193,66843,1,8,0:2:0:0:
242,200,67006,2,0,L|152:206,1,90,2|0,0:2|3:2,0:0:0:0:
90,271,67332,2,0,L|0:264,1,90,2|8,3:2|0:2,0:0:0:0:
64,184,67658,5,0,0:2:0:0:
152,206,67821,1,0,3:2:0:0:
126,119,67984,2,0,P|83:97|28:102,1,90,2|8,3:2|0:2,0:0:0:0:
69,193,68310,5,0,0:2:0:0:
157,215,68473,1,0,3:2:0:0:
131,128,68636,2,0,P|88:106|33:111,1,90,2|8,3:2|0:2,0:0:0:0:
81,209,68963,5,0,0:2:0:0:
81,209,69044,1,8,0:2:0:0:
81,209,69126,2,0,L|84:303,1,90,0|0,3:2|3:2,0:0:0:0:
149,360,69452,2,0,P|199:343|246:349,1,90,8|0,0:2|0:2,0:0:0:0:
324,358,69778,2,0,L|321:268,1,90,2|0,3:2|3:2,0:0:0:0:
250,212,70104,1,8,0:2:0:0:
250,189,70185,1,8,0:2:0:0:
251,167,70267,1,8,0:2:0:0:
252,144,70348,1,8,0:2:0:0:
252,122,70430,6,0,L|254:32,1,90,2|0,3:2|3:2,0:0:0:0:
165,29,70756,2,0,L|162:118,1,90,8|0,0:2|0:2,0:0:0:0:
125,145,71001,1,8,0:0:0:0:
125,145,71082,2,0,L|127:234,1,90,0|0,3:2|3:2,0:0:0:0:
131,324,71408,1,8,0:2:0:0:
227,328,71571,1,0,0:2:0:0:
227,328,71652,1,8,0:2:0:0:
227,328,71734,6,0,L|316:325,1,90,0|0,3:2|3:2,0:0:0:0:
406,325,72060,2,0,P|397:274|412:224,1,90,8|2,0:2|0:2,0:0:0:0:
442,211,72305,1,8,0:0:0:0:
442,211,72386,2,0,P|451:160|436:110,1,90,0|2,3:2|3:2,0:0:0:0:
369,70,72713,2,0,L|279:72,1,90,8|0,0:2|0:2,0:0:0:0:
196,107,73039,5,0,3:2:0:0:
268,160,73202,1,0,3:2:0:0:
185,196,73365,2,0,L|95:198,1,90,8|0,0:2|0:2,0:0:0:0:
50,199,73609,1,8,0:0:0:0:
50,199,73691,2,0,P|57:247|50:290,1,90,2|0,3:2|3:2,0:0:0:0:
18,371,74017,2,0,L|108:369,1,90,8|0,0:2|0:2,0:0:0:0:
172,305,74343,5,8,0:2:0:0:
194,305,74424,1,8,0:2:0:0:
216,305,74506,1,8,0:2:0:0:
239,306,74587,1,8,0:2:0:0:
261,306,74669,1,8,0:2:0:0:
284,307,74750,1,8,0:2:0:0:
306,307,74832,1,8,0:2:0:0:
329,308,74913,1,8,0:2:0:0:
351,308,74995,2,0,L|441:310,1,90,0|0,3:2|3:2,0:0:0:0:
502,244,75321,1,0,3:2:0:0:
502,244,75647,6,0,L|495:140,1,90,6|0,3:2|3:2,0:0:0:0:
473,67,75973,1,8,0:2:0:0:
409,130,76136,1,8,0:2:0:0:
409,130,76218,1,8,0:2:0:0:
409,130,76299,2,0,P|357:147|311:136,1,90,0|0,3:2|3:2,0:0:0:0:
270,67,76626,2,0,P|218:50|172:61,1,90,8|8,0:2|0:2,0:0:0:0:
145,77,76870,1,8,0:2:0:0:
145,77,76952,6,0,L|151:171,1,90,2|0,3:2|3:2,0:0:0:0:
239,182,77278,1,8,0:2:0:0:
233,271,77441,1,8,0:2:0:0:
233,271,77522,1,8,0:2:0:0:
233,271,77604,2,0,L|227:365,1,90,0|0,3:2|3:2,0:0:0:0:
316,372,77930,2,0,L|321:282,1,90,8|8,0:2|0:2,0:0:0:0:
358,256,78174,1,8,0:2:0:0:
358,256,78256,6,0,L|352:166,1,90,0|2,3:2|3:2,0:0:0:0:
346,76,78582,1,8,0:2:0:0:
271,126,78745,1,8,0:2:0:0:
271,126,78827,1,8,0:2:0:0:
271,126,78908,2,0,P|218:134|169:119,1,90,0|0,3:2|3:2,0:0:0:0:
141,46,79234,2,0,P|88:38|39:53,1,90,8|8,0:2|0:2,0:0:0:0:
23,80,79479,1,8,0:2:0:0:
23,80,79560,6,0,L|26:172,1,90,2|0,3:2|3:2,0:0:0:0:
109,203,79886,1,8,0:2:0:0:
106,292,80049,1,8,0:2:0:0:
106,292,80131,1,8,0:2:0:0:
106,292,80213,2,0,L|103:384,1,90,8|8,0:2|0:2,0:0:0:0:
192,369,80539,1,8,0:2:0:0:
192,346,80620,1,8,0:2:0:0:
193,324,80702,1,8,0:2:0:0:
194,301,80783,1,8,0:2:0:0:
194,279,80865,6,0,L|196:189,1,90,2|0,3:2|0:0,0:0:0:0:
275,145,81191,2,0,L|272:55,1,90,8|8,0:2|0:2,0:0:0:0:
269,10,81435,1,8,0:2:0:0:
269,10,81517,2,0,P|314:27|368:22,1,90,2|0,3:2|3:2,0:0:0:0:
444,12,81843,2,0,L|446:101,1,90,8|8,0:2|0:2,0:0:0:0:
478,133,82088,1,8,0:2:0:0:
478,133,82169,6,0,L|475:222,1,90,2|0,3:2|3:2,0:0:0:0:
466,312,82495,2,0,P|423:294|365:306,1,90,8|0,0:2|0:2,0:0:0:0:
322,366,82821,1,8,0:2:0:0:
293,280,82984,1,8,0:2:0:0:
234,348,83147,1,2,3:0:0:0:
205,262,83310,1,2,0:0:0:0:
146,330,83473,6,0,B|21:323|21:323|5:256,1,180,6|0,3:2|3:2,0:0:0:0:
17,179,83963,1,0,3:2:0:0:
17,179,84126,2,0,B|142:172|142:172|154:118,1,180,8|2,0:2|3:2,0:0:0:0:
167,29,84615,1,0,0:0:0:0:
167,29,84778,6,0,P|215:51|224:177,1,180,2|2,3:2|3:2,0:0:0:0:
171,232,85267,1,0,3:2:0:0:
171,232,85430,2,0,P|155:275|197:359,2,135,2|2|2,3:2|3:2|3:2,0:0:0:0:
232,166,86082,5,2,3:2:0:0:
336,111,91299,6,0,L|146:95,1,180,10|8,3:2|0:2,0:0:0:0:
77,51,91789,2,0,B|127:97|127:97|108:232,1,180,10|0,3:2|3:2,0:0:0:0:
35,255,92278,1,8,0:2:0:0:
46,344,92441,1,8,0:2:0:0:
116,288,92604,6,0,B|167:258|167:258|297:278,1,180,10|8,3:2|0:2,0:0:0:0:
353,336,93093,2,0,P|319:290|389:190,1,180,10|0,3:2|3:2,0:0:0:0:
457,167,93582,1,8,0:2:0:0:
391,104,93745,1,8,0:2:0:0:
305,130,93908,6,0,L|122:121,1,180,10|8,3:2|0:2,0:0:0:0:
39,92,94397,2,0,P|81:121|53:250,1,180,10|0,3:2|3:2,0:0:0:0:
5,298,94886,1,8,0:2:0:0:
66,363,95049,1,8,0:2:0:0:
132,302,95212,6,0,P|174:275|291:337,1,180,10|8,3:2|0:2,0:0:0:0:
360,369,95702,2,0,L|367:173,1,180,10|0,3:2|3:2,0:0:0:0:
373,99,96191,1,8,0:2:0:0:
373,99,96517,5,10,0:2:0:0:
447,149,96680,1,0,3:2:0:0:
447,149,96843,1,0,3:2:0:0:
292,139,97006,5,8,0:2:0:0:
366,189,97169,1,0,3:2:0:0:
366,189,97332,1,0,3:2:0:0:
211,179,97495,5,8,0:2:0:0:
285,229,97658,1,0,3:2:0:0:
285,229,97821,1,2,3:2:0:0:
130,219,97984,5,8,0:2:0:0:
204,269,98147,2,0,P|212:318|192:374,1,90,0|0,3:2|3:2,0:0:0:0:
130,219,98473,5,8,0:2:0:0:
285,229,98636,1,0,3:2:0:0:
123,309,98799,1,8,0:2:0:0:
123,309,99126,5,2,3:2:0:0:
211,179,99289,1,8,0:2:0:0:
211,179,99452,1,8,0:2:0:0:
49,259,99615,5,2,3:2:0:0:
204,269,99778,1,8,0:2:0:0:
204,269,99941,1,8,0:2:0:0:
137,129,100104,5,2,3:2:0:0:
285,229,100267,1,8,0:2:0:0:
285,229,100430,1,10,0:2:0:0:
218,89,100593,5,8,3:2:0:0:
130,219,100756,1,8,3:2:0:0:
130,219,100919,1,2,3:2:0:0:
292,139,101082,5,8,0:2:0:0:
123,309,101408,1,2,0:2:0:0:
60,77,101735,6,0,L|171:71,1,90,6|0,3:2|0:0,0:0:0:0:
218,13,102060,1,8,0:2:0:0:
307,18,102223,2,0,L|418:24,1,90,8|0,0:2|3:2,0:0:0:0:
473,70,102549,1,0,3:2:0:0:
393,112,102712,1,8,0:2:0:0:
470,160,102876,6,0,L|474:264,1,90,2|0,0:2|3:2,0:0:0:0:
445,335,103202,1,0,3:2:0:0:
385,267,103365,1,8,0:2:0:0:
358,352,103528,2,0,P|315:364|250:347,1,90,2|0,0:2|3:2,0:0:0:0:
223,280,103854,2,0,P|178:273|135:285,1,90,2|8,3:2|0:2,0:0:0:0:
58,331,104180,5,0,0:2:0:0:
58,241,104343,1,0,3:2:0:0:
135,195,104506,2,0,L|135:306,1,90,2|8,3:2|0:2,0:0:0:0:
49,325,104832,5,0,0:2:0:0:
49,235,104995,1,0,3:2:0:0:
126,189,105158,2,0,L|126:300,1,90,2|8,3:2|0:2,0:0:0:0:
40,319,105484,5,0,0:2:0:0:
40,139,105647,2,0,L|40:229,1,90,0|0,3:2|3:2,0:0:0:0:
45,49,105973,2,0,P|90:61|158:46,1,90,8|0,0:2|0:2,0:0:0:0:
213,16,106299,2,0,P|257:11|300:23,1,90,0|0,3:2|3:2,0:0:0:0:
327,109,106626,1,8,0:2:0:0:
327,131,106707,1,8,0:2:0:0:
327,154,106789,1,8,0:2:0:0:
327,176,106870,1,8,0:2:0:0:
327,199,106952,6,0,L|327:289,1,90,2|0,3:2|3:2,0:0:0:0:
276,363,107278,1,8,0:2:0:0:
237,281,107441,1,0,0:2:0:0:
237,281,107522,1,8,0:0:0:0:
237,281,107604,2,0,P|183:266|139:275,1,90,0|0,3:2|3:2,0:0:0:0:
87,335,107930,1,8,0:2:0:0:
64,247,108093,1,2,0:2:0:0:
64,247,108174,1,8,0:2:0:0:
64,247,108256,6,0,L|69:137,1,90,0|0,3:2|3:2,0:0:0:0:
72,67,108582,2,0,P|119:77|168:69,1,90,8|2,0:2|0:2,0:0:0:0:
183,32,108827,1,8,0:0:0:0:
183,32,108908,2,0,P|227:26|271:36,1,90,0|2,3:2|3:2,0:0:0:0:
298,122,109234,2,0,L|293:211,1,90,8|0,0:0|0:2,0:0:0:0:
259,241,109479,1,8,0:0:0:0:
259,241,109560,6,0,L|263:330,1,90,0|0,3:2|3:2,0:0:0:0:
340,377,109886,2,0,P|387:355|437:359,1,90,8|0,0:2|0:2,0:0:0:0:
468,366,110131,1,8,0:2:0:0:
468,366,110212,2,0,L|463:276,1,90,0|0,3:2|3:2,0:0:0:0:
397,214,110539,2,0,L|401:124,1,90,8|0,0:2|0:2,0:0:0:0:
357,45,110865,5,8,0:2:0:0:
338,32,110946,1,8,0:2:0:0:
316,26,111028,1,8,0:2:0:0:
294,27,111109,1,8,0:2:0:0:
273,34,111191,1,8,0:2:0:0:
255,47,111272,1,8,0:2:0:0:
241,65,111354,1,8,0:2:0:0:
234,87,111435,1,8,0:2:0:0:
233,109,111517,2,0,L|237:198,1,90,2|2,3:2|3:2,0:0:0:0:
241,287,111843,1,2,3:2:0:0:
241,287,112169,5,6,3:2:0:0:
317,239,112332,1,0,3:2:0:0:
237,198,112495,2,0,L|144:195,1,90,8|0,0:2|0:2,0:0:0:0:
101,194,112740,1,8,0:2:0:0:
101,194,112821,2,0,P|92:137|104:91,1,90,0|0,3:2|3:2,0:0:0:0:
142,27,113147,1,8,0:2:0:0:
195,110,113310,1,8,0:2:0:0:
195,110,113392,1,8,0:2:0:0:
195,110,113473,6,0,L|284:112,1,90,2|0,3:2|3:2,0:0:0:0:
373,114,113799,1,8,0:2:0:0:
335,199,113962,1,0,0:2:0:0:
335,199,114044,1,8,0:2:0:0:
335,199,114126,2,0,P|325:244|335:292,1,90,0|0,3:2|3:2,0:0:0:0:
351,374,114452,2,0,L|261:371,1,90,8|0,0:2|0:2,0:0:0:0:
216,370,114696,1,8,0:2:0:0:
216,370,114778,5,2,3:2:0:0:
145,314,114941,1,0,3:2:0:0:
228,280,115104,1,8,0:2:0:0:
157,224,115267,1,0,0:2:0:0:
157,224,115348,1,8,0:2:0:0:
157,224,115430,2,0,L|67:221,1,90,0|0,3:2|3:2,0:0:0:0:
6,154,115756,1,8,0:2:0:0:
94,135,115919,1,0,0:2:0:0:
94,135,116001,1,8,0:2:0:0:
94,135,116082,6,0,L|183:137,1,90,2|0,3:2|3:2,0:0:0:0:
245,203,116408,2,0,L|334:200,1,90,8|0,0:2|0:2,0:0:0:0:
359,162,116653,1,8,0:2:0:0:
359,162,116734,2,0,L|448:164,1,90,0|0,3:2|3:2,0:0:0:0:
499,239,117060,1,8,0:2:0:0:
506,260,117141,1,8,0:2:0:0:
508,282,117223,1,8,0:2:0:0:
505,304,117304,1,8,0:2:0:0:
497,325,117386,6,0,P|459:355|403:355,1,90,2|0,3:2|3:2,0:0:0:0:
371,282,117712,1,8,0:2:0:0:
328,362,117876,1,0,0:2:0:0:
328,362,117957,1,8,0:2:0:0:
328,362,118039,2,0,L|225:353,1,90,2|0,3:2|3:2,0:0:0:0:
148,346,118365,2,0,P|163:296|149:239,1,90,8|0,0:2|0:2,0:0:0:0:
127,226,118609,1,8,0:2:0:0:
127,226,118691,6,0,P|122:181|136:139,1,90,0|0,3:2|3:2,0:0:0:0:
218,102,119017,1,8,0:2:0:0:
216,199,119180,1,0,0:2:0:0:
216,199,119261,1,8,0:2:0:0:
216,199,119343,2,0,P|264:212|312:201,1,90,0|0,3:2|3:2,0:0:0:0:
361,137,119669,1,8,0:2:0:0:
382,131,119750,1,8,0:2:0:0:
405,130,119832,1,8,0:2:0:0:
427,134,119913,1,8,0:2:0:0:
447,143,119995,6,0,P|462:198|453:249,1,90,2|0,3:2|0:0,0:0:0:0:
371,251,120321,2,0,P|356:306|365:357,1,90,8|8,0:2|0:2,0:0:0:0:
382,377,120566,1,8,0:2:0:0:
382,377,120647,2,0,L|276:368,1,90,2|0,3:2|3:2,0:0:0:0:
236,298,120973,2,0,L|130:307,1,90,8|8,0:2|0:2,0:0:0:0:
101,309,121218,1,8,0:2:0:0:
101,309,121299,6,0,P|116:263|109:211,1,90,2|0,3:2|0:0,0:0:0:0:
48,162,121626,1,8,0:2:0:0:
134,135,121789,1,8,0:2:0:0:
134,135,121870,1,8,0:2:0:0:
134,135,121952,2,0,L|249:130,1,90,2|0,3:2|3:2,0:0:0:0:
279,60,122278,1,8,0:2:0:0:
301,60,122359,1,8,0:2:0:0:
323,61,122441,1,8,0:2:0:0:
346,62,122522,1,8,0:2:0:0:
368,63,122604,6,0,L|483:68,1,90,6|0,0:0|0:0,0:0:0:0:
496,148,122930,1,8,0:2:0:0:
508,166,123011,1,8,0:2:0:0:
512,187,123093,1,8,0:2:0:0:
512,210,123174,1,8,0:2:0:0:
506,231,123256,1,8,0:2:0:0:
492,248,123337,1,8,0:2:0:0:
473,260,123419,1,8,0:2:0:0:
451,265,123500,1,8,0:2:0:0:
429,263,123582,2,0,L|379:254,1,45,8|8,0:2|0:2,0:0:0:0:
326,186,123745,2,0,L|276:195,1,45,8|8,0:2|0:2,0:0:0:0:
212,252,123908,6,0,L|162:243,3,45,10|8|8|8,0:2|0:2|0:2|0:2,0:0:0:0:
196,163,124234,2,0,L|167:121,3,45,8|8|8|8,0:2|0:2|0:2|0:2,0:0:0:0:
247,88,124560,2,0,L|256:38,3,45,8|8|8|8,0:2|0:2|0:2|0:2,0:0:0:0:
336,72,124886,2,0,L|377:43,3,45,2|2|2|2,3:2|3:2|3:2|3:2,0:0:0:0:
411,122,125212,5,2,3:2:0:0:
411,122,125539,1,8,0:2:0:0:
329,161,125702,1,8,0:2:0:0:
336,72,125865,1,8,0:2:0:0:
404,211,126028,1,8,0:2:0:0:
418,33,126191,1,8,0:2:0:0:
254,111,126354,1,8,0:2:0:0:
486,172,126517,5,10,0:2:0:0:
486,172,127821,5,6,3:2:0:0:
404,211,127984,2,0,L|311:203,1,90,0|8,3:2|0:2,0:0:0:0:
247,142,128310,1,8,0:2:0:0:
247,142,128392,1,8,0:2:0:0:
247,142,128473,2,0,L|154:150,1,90,0|0,3:2|3:2,0:0:0:0:
67,158,128799,2,0,P|80:211|71:250,1,90,8|8,0:2|0:2,0:0:0:0:
1,300,129126,5,2,3:2:0:0:
83,334,129289,1,0,3:2:0:0:
155,278,129452,1,8,0:2:0:0:
237,312,129615,1,8,0:2:0:0:
309,256,129778,2,0,P|320:210|305:161,1,90,0|0,3:2|3:2,0:0:0:0:
229,128,130104,2,0,P|216:85|225:32,1,90,8|8,0:2|0:2,0:0:0:0:
304,79,130430,5,2,3:2:0:0:
309,169,130593,2,0,P|278:201|227:220,1,90,0|8,3:2|0:2,0:0:0:0:
229,128,130919,1,8,0:2:0:0:
304,79,131082,2,0,P|347:89|389:123,1,90,0|0,3:2|3:2,0:0:0:0:
389,210,131408,1,8,0:2:0:0:
309,169,131571,1,8,0:2:0:0:
314,259,131734,6,0,L|321:359,1,90,2|0,3:2|3:2,0:0:0:0:
240,307,132060,2,0,L|233:217,1,90,8|8,0:2|0:2,0:0:0:0:
194,194,132305,1,8,0:2:0:0:
194,194,132386,2,0,L|200:104,1,90,0|0,3:2|3:2,0:0:0:0:
206,14,132712,1,8,0:2:0:0:
228,10,132793,1,8,0:2:0:0:
250,10,132875,1,8,0:2:0:0:
272,14,132956,1,8,0:2:0:0:
293,23,133039,6,0,P|343:38|388:33,1,90,2|0,3:2|3:0,0:0:0:0:
469,24,133365,2,0,L|462:113,1,90,8|8,0:2|0:2,0:0:0:0:
426,140,133609,1,8,0:2:0:0:
426,140,133691,2,0,L|432:229,1,90,0|0,3:2|3:2,0:0:0:0:
400,313,134017,1,8,0:2:0:0:
343,242,134180,1,8,0:2:0:0:
311,326,134343,5,2,3:2:0:0:
254,255,134506,1,0,3:2:0:0:
286,171,134669,2,0,P|293:115|283:72,1,90,8|0,0:2|0:2,0:0:0:0:
255,49,134914,1,8,0:0:0:0:
255,49,134995,2,0,L|157:46,1,90,0|0,3:2|3:2,0:0:0:0:
75,43,135321,2,0,P|82:99|72:142,1,90,8|8,0:2|0:0,0:0:0:0:
19,201,135647,5,10,0:2:0:0:
12,222,135728,1,8,0:2:0:0:
12,244,135810,1,8,0:2:0:0:
18,266,135891,1,8,0:2:0:0:
29,285,135973,1,8,0:2:0:0:
45,301,136054,1,8,0:2:0:0:
65,311,136136,1,8,0:2:0:0:
87,316,136217,1,8,0:2:0:0:
110,314,136299,6,0,L|159:310,1,45,8|8,0:2|0:2,0:0:0:0:
190,227,136462,2,0,L|239:231,1,45,8|8,0:2|0:2,0:0:0:0:
267,317,136626,2,0,L|316:313,1,45,8|8,0:2|0:0,0:0:0:0:
347,230,136789,2,0,L|396:234,1,45,8|8,0:2|0:2,0:0:0:0:
424,320,136952,5,2,3:2:0:0:
256,192,139560,5,6,0:2:0:0:
256,192,139642,12,0,151299,0:0:0:0:
