osu file format v14

[General]
AudioFilename: audio.mp3
AudioLeadIn: 0
PreviewTime: 64934
Countdown: 0
SampleSet: Soft
StackLeniency: 0.7
Mode: 3
LetterboxInBreaks: 0
SpecialStyle: 0
WidescreenStoryboard: 1

[Editor]
DistanceSpacing: 1.5
BeatDivisor: 4
GridSize: 32
TimelineZoom: 2.5

[Metadata]
Title:CATCH ME (Cut Ver.)
TitleUnicode:CATCH ME (Cut Ver.)
Artist:THE ORAL CIGARETTES
ArtistUnicode:THE ORAL CIGARETTES
Creator:Yuiazu-
Version:Normal
Source:
Tags:DIP-BAP Before It's Too Late TOC Kanon Matsubara Div Onii_ue Yamanaka Takuya 山中拓也 Akirakani Akira あきらかにあきら Suzuki Shigenobu 鈴木重伸 Nakanishi Masaya 中西雅哉 S-LOW SLOW Takurō Ōkubo Akashic Re:cords アカシックリコード Akashikku Rikōdo Short Version Japanese Rock J-Rock JRock Single A-Sketch Music みふる
BeatmapID:2942805
BeatmapSetID:1429483

[Difficulty]
HPDrainRate:7.5
CircleSize:4
OverallDifficulty:7.5
ApproachRate:5
SliderMultiplier:1.4
SliderTickRate:1

[Events]
//Background and Video events
0,0,"Catch Me.jpg",0,0
//Break Periods
//Storyboard Layer 0 (Background)
//Storyboard Layer 1 (Fail)
//Storyboard Layer 2 (Pass)
//Storyboard Layer 3 (Foreground)
//Storyboard Layer 4 (Overlay)
//Storyboard Sound Samples
Sample,10842,0,"Hat open.wav",50
Sample,11168,0,"Hat open.wav",50
Sample,12147,0,"Hat open.wav",50
Sample,12473,0,"Hat open.wav",50
Sample,13451,0,"Hat open.wav",50
Sample,13777,0,"Hat open.wav",50
Sample,14755,0,"Hat open.wav",50
Sample,15081,0,"Hat open.wav",50
Sample,16060,0,"Crash 2.wav",45
Sample,16386,0,"Crash 2.wav",45
Sample,16712,0,"Crash 2.wav",45
Sample,17364,0,"Crash 2.wav",45
Sample,17690,0,"Crash 2.wav",45
Sample,18016,0,"Crash 2.wav",45
Sample,18668,0,"Crash 2.wav",45
Sample,18995,0,"Crash 2.wav",45
Sample,40842,0,"Hat open.wav",50
Sample,53234,0,"Hat open.wav",50
Sample,55027,0,"Crash 2.wav",45
Sample,55353,0,"Crash 2.wav",45
Sample,57636,0,"Crash 2.wav",45
Sample,57962,0,"Crash 2.wav",45
Sample,60245,0,"Crash 2.wav",45
Sample,60571,0,"Crash 2.wav",45
Sample,62364,0,"Hat open.wav",50
Sample,78303,0,"Crash 2.wav",45
Sample,85477,0,"Ride.wav",60
Sample,91346,0,"Hat open.wav",50
Sample,91836,0,"Hat open.wav",50
Sample,92325,0,"Tom3.wav",55
Sample,92488,0,"Tom3.wav",55
Sample,92651,0,"Hat open.wav",50
Sample,93140,0,"Hat open.wav",50
Sample,93629,0,"Tom3.wav",55
Sample,93792,0,"Tom3.wav",55
Sample,93955,0,"Hat open.wav",50
Sample,94444,0,"Hat open.wav",50
Sample,94933,0,"Tom3.wav",55
Sample,95096,0,"Tom3.wav",55
Sample,95259,0,"Hat open.wav",50
Sample,95749,0,"Hat open.wav",50
Sample,99173,0,"Hat open.wav",50
Sample,99662,0,"Hat open.wav",50
Sample,100151,0,"Hat open.wav",50
Sample,114825,0,"Crash 2.wav",45
Sample,125586,0,"Tom3.wav",55
Sample,125749,0,"Tom3.wav",55
Sample,125912,0,"Tom3.wav",55
Sample,126075,0,"Tom3.wav",55
Sample,126238,0,"Tom3.wav",55
Sample,126401,0,"Tom3.wav",55

[TimingPoints]
82,326.086956521739,4,2,1,45,1,0
20951,-100.0,4,2,1,55,0,0
31386,-100.0,4,2,1,45,0,0
54864,-100.0,4,2,1,50,0,0
64934,326.086956521739,4,2,1,50,1,8
65260,326.086956521739,4,2,1,50,1,1
83520,-100.0,4,2,1,55,0,0
86129,-100.0,4,2,1,50,0,0
101781,-100.0,4,2,1,60,0,1
122651,-100.0,4,2,1,50,0,0
127868,-100.0,4,2,1,55,0,0

[HitObjects]
64,192,82,128,0,408:0:0:0:0:
448,192,408,1,0,0:0:0:0:
320,192,571,1,0,0:0:0:0:
192,192,734,1,0,0:0:0:0:
64,192,897,1,0,0:0:0:0:
448,192,1060,128,0,1386:0:0:0:0:
192,192,1386,1,0,0:0:0:0:
320,192,1549,1,0,0:0:0:0:
64,192,1712,1,0,0:0:0:0:
448,192,1875,1,0,0:0:0:0:
192,192,2038,128,0,2364:0:0:0:0:
320,192,2364,128,0,2690:0:0:0:0:
64,192,2690,128,0,3016:0:0:0:0:
448,192,3016,1,0,0:0:0:0:
320,192,3179,1,0,0:0:0:0:
64,192,3342,1,0,0:0:0:0:
192,192,3505,1,0,0:0:0:0:
448,192,3668,128,0,3995:0:0:0:0:
64,192,3995,1,0,0:0:0:0:
320,192,4158,1,0,0:0:0:0:
192,192,4321,1,0,0:0:0:0:
448,192,4484,1,0,0:0:0:0:
64,192,4647,128,0,4810:0:0:0:0:
320,192,4810,128,0,4973:0:0:0:0:
192,192,4973,1,0,0:0:0:0:
320,192,5299,1,2,0:0:0:0:
448,192,5299,1,4,0:0:0:0:
64,192,5625,1,0,0:0:0:0:
192,192,5788,1,0,0:0:0:0:
448,192,5951,1,0,0:0:0:0:
320,192,6114,1,0,0:0:0:0:
192,192,6277,128,0,6603:0:0:0:0:
64,192,6603,1,0,0:0:0:0:
448,192,6766,1,0,0:0:0:0:
320,192,6929,1,0,0:0:0:0:
192,192,7092,1,0,0:0:0:0:
64,192,7255,128,0,7581:0:0:0:0:
448,192,7581,128,0,7908:0:0:0:0:
192,192,7908,1,8,0:0:0:0:
192,192,8071,1,8,0:0:0:0:
320,192,8234,1,0,0:0:0:0:
64,192,8397,1,0,0:0:0:0:
448,192,8560,1,0,0:0:0:0:
192,192,8723,1,0,0:0:0:0:
320,192,8886,128,0,9212:0:0:0:0:
64,192,9212,1,0,0:0:0:0:
192,192,9375,1,0,0:0:0:0:
448,192,9538,1,0,0:0:0:0:
320,192,9701,1,0,0:0:0:0:
64,192,9864,128,0,10027:0:0:0:0:
192,192,10027,128,0,10190:0:0:0:0:
448,192,10190,1,0,0:0:0:0:
192,192,10516,1,10,0:0:0:0:
320,192,10516,1,4,0:0:0:0:
64,192,10842,1,2,0:0:0:0:
320,192,11005,1,8,0:0:0:0:
448,192,11005,1,0,0:0:0:0:
64,192,11168,1,2,0:0:0:0:
192,192,11495,1,10,0:0:0:0:
448,192,11495,1,0,0:0:0:45:Crash 2.wav
64,192,11821,1,10,0:0:0:0:
320,192,11821,1,0,0:0:0:45:Crash 2.wav
448,192,12147,1,2,0:0:0:0:
64,192,12310,1,8,0:0:0:0:
192,192,12310,1,0,0:0:0:0:
448,192,12473,1,2,0:0:0:0:
64,192,12799,1,10,0:0:0:0:
320,192,12799,1,0,0:0:0:45:Crash 2.wav
192,192,13125,1,10,0:0:0:0:
448,192,13125,1,0,0:0:0:45:Crash 2.wav
320,192,13451,1,2,0:0:0:0:
64,192,13614,1,8,0:0:0:0:
448,192,13614,1,0,0:0:0:0:
320,192,13777,1,2,0:0:0:0:
64,192,14103,1,10,0:0:0:0:
192,192,14103,1,0,0:0:0:45:Crash 2.wav
320,192,14429,1,10,0:0:0:0:
448,192,14429,1,0,0:0:0:45:Crash 2.wav
64,192,14755,1,2,0:0:0:0:
320,192,14918,1,8,0:0:0:0:
448,192,14918,1,0,0:0:0:0:
64,192,15081,1,2,0:0:0:0:
192,192,15408,1,14,0:0:0:0:
192,192,15571,1,8,0:0:0:0:
64,192,15734,1,10,0:0:0:0:
448,192,15734,1,0,0:0:0:45:Crash 2.wav
320,192,16060,1,2,0:0:0:0:
192,192,16223,1,8,0:0:0:0:
448,192,16223,1,0,0:0:0:0:
320,192,16386,1,2,0:0:0:0:
64,192,16712,1,10,0:0:0:0:
64,192,16875,1,8,0:0:0:0:
320,192,17038,1,10,0:0:0:0:
448,192,17038,1,0,0:0:0:45:Crash 2.wav
192,192,17364,1,2,0:0:0:0:
64,192,17527,1,8,0:0:0:0:
448,192,17527,1,0,0:0:0:0:
192,192,17690,1,2,0:0:0:0:
320,192,18016,1,10,0:0:0:0:
320,192,18179,1,8,0:0:0:0:
64,192,18342,1,10,0:0:0:0:
192,192,18342,1,0,0:0:0:45:Crash 2.wav
448,192,18668,1,2,0:0:0:0:
64,192,18831,1,8,0:0:0:0:
192,192,18831,1,0,0:0:0:0:
448,192,18995,1,2,0:0:0:0:
192,192,19321,1,8,0:0:0:0:
320,192,19321,1,2,0:0:0:0:
64,192,19647,1,8,0:0:0:0:
448,192,19647,1,0,0:0:0:45:Hat open.wav
192,192,19810,1,0,0:0:0:0:
320,192,19973,1,0,0:0:0:0:
64,192,20136,1,0,0:0:0:0:
448,192,20299,128,0,20625:0:0:0:0:
64,192,20951,1,2,0:0:0:0:
320,192,20951,1,4,0:0:0:0:
192,192,21114,1,2,0:0:0:0:
320,192,21277,1,8,0:0:0:0:
448,192,21277,1,0,0:0:0:0:
192,192,21603,1,2,0:0:0:0:
320,192,21766,1,2,0:0:0:0:
64,192,21929,128,8,22255:0:0:0:0:
448,192,21929,1,0,0:0:0:0:
320,192,22255,1,2,0:0:0:0:
192,192,22418,1,2,0:0:0:0:
64,192,22581,1,8,0:0:0:0:
448,192,22581,1,0,0:0:0:0:
192,192,22908,1,2,0:0:0:0:
320,192,23071,1,2,0:0:0:0:
64,192,23234,1,8,0:0:0:0:
448,192,23234,128,0,23560:0:0:0:0:
192,192,23560,1,2,0:0:0:0:
64,192,23723,1,2,0:0:0:0:
320,192,23886,1,8,0:0:0:0:
448,192,23886,1,0,0:0:0:0:
192,192,24212,1,2,0:0:0:0:
320,192,24375,1,2,0:0:0:0:
64,192,24538,128,8,24864:0:0:0:0:
448,192,24538,1,0,0:0:0:0:
320,192,24864,1,2,0:0:0:0:
192,192,25027,1,2,0:0:0:0:
64,192,25190,1,8,0:0:0:0:
448,192,25190,1,0,0:0:0:0:
192,192,25516,1,2,0:0:0:0:
448,192,25679,1,2,0:0:0:0:
320,192,25842,128,8,26005:0:0:0:0:
192,192,26005,128,8,26168:0:0:0:0:
64,192,26168,1,2,0:0:0:0:
448,192,26168,1,4,0:0:0:0:
192,192,26331,1,2,0:0:0:0:
320,192,26495,1,8,0:0:0:0:
448,192,26495,1,0,0:0:0:0:
192,192,26821,1,2,0:0:0:0:
320,192,26984,1,2,0:0:0:0:
64,192,27147,128,8,27473:0:0:0:0:
448,192,27147,1,0,0:0:0:0:
320,192,27473,1,2,0:0:0:0:
192,192,27636,1,2,0:0:0:0:
64,192,27799,1,8,0:0:0:0:
448,192,27799,1,0,0:0:0:0:
192,192,28125,1,2,0:0:0:0:
64,192,28288,1,2,0:0:0:0:
320,192,28451,1,8,0:0:0:0:
448,192,28451,128,0,28777:0:0:0:0:
192,192,28777,1,2,0:0:0:0:
320,192,28940,1,2,0:0:0:0:
64,192,29103,1,8,0:0:0:0:
448,192,29103,1,0,0:0:0:0:
320,192,29429,1,2,0:0:0:0:
64,192,29592,1,2,0:0:0:0:
192,192,29755,1,8,0:0:0:0:
448,192,29755,128,0,30081:0:0:0:45:Crash 2.wav
64,192,30081,128,8,30245:0:0:0:0:
192,192,30245,128,8,30408:0:0:0:0:
448,192,30408,128,8,30571:0:0:0:0:
320,192,30571,128,8,30734:0:0:0:0:
64,192,30734,1,0,0:0:0:50:Tom1.wav
448,192,30897,1,0,0:0:0:50:Tom1.wav
192,192,31060,1,0,0:0:0:55:Tom2.wav
320,192,31223,1,0,0:0:0:55:Tom3.wav
64,192,31386,1,2,0:0:0:0:
192,192,31386,1,4,0:0:0:0:
448,192,31549,1,2,0:0:0:0:
320,192,31712,1,8,0:0:0:0:
192,192,32038,1,2,0:0:0:0:
320,192,32201,1,2,0:0:0:0:
64,192,32364,1,8,0:0:0:0:
448,192,32690,1,2,0:0:0:0:
320,192,32853,1,2,0:0:0:0:
192,192,33016,1,8,0:0:0:0:
320,192,33342,1,2,0:0:0:0:
192,192,33505,1,2,0:0:0:0:
64,192,33668,128,8,33831:0:0:0:0:
448,192,33831,128,8,33995:0:0:0:0:
64,192,33995,1,2,0:0:0:0:
192,192,34158,1,2,0:0:0:0:
448,192,34321,1,8,0:0:0:0:
64,192,34647,1,2,0:0:0:0:
320,192,34810,1,2,0:0:0:0:
192,192,34973,1,8,0:0:0:0:
448,192,35299,1,2,0:0:0:0:
320,192,35462,1,2,0:0:0:0:
192,192,35625,1,8,0:0:0:0:
64,192,35951,1,2,0:0:0:0:
192,192,36114,1,2,0:0:0:0:
320,192,36277,128,8,36440:0:0:0:0:
64,192,36440,128,8,36603:0:0:0:0:
448,192,36603,1,2,0:0:0:0:
192,192,36766,1,2,0:0:0:0:
320,192,36929,1,8,0:0:0:0:
64,192,37255,1,2,0:0:0:0:
192,192,37418,1,2,0:0:0:0:
448,192,37581,1,8,0:0:0:0:
320,192,37908,1,2,0:0:0:0:
192,192,38071,1,2,0:0:0:0:
64,192,38234,1,8,0:0:0:0:
448,192,38560,1,2,0:0:0:0:
320,192,38723,1,2,0:0:0:0:
192,192,38886,128,8,39049:0:0:0:0:
448,192,39049,128,8,39212:0:0:0:0:
64,192,39212,1,2,0:0:0:0:
320,192,39375,1,2,0:0:0:0:
192,192,39538,1,8,0:0:0:0:
448,192,39864,1,2,0:0:0:0:
320,192,40027,1,2,0:0:0:0:
64,192,40190,1,8,0:0:0:0:
192,192,40516,1,2,0:0:0:0:
448,192,40679,1,2,0:0:0:0:
320,192,40842,1,8,0:0:0:0:
64,192,41168,128,8,41331:0:0:0:0:
320,192,41331,128,8,41495:0:0:0:0:
192,192,41495,1,0,0:0:0:50:Tom1.wav
448,192,41658,1,0,0:0:0:55:Tom2.wav
64,192,41821,1,2,0:0:0:0:
320,192,41821,1,4,0:0:0:0:
192,192,41984,1,2,0:0:0:0:
64,192,42147,1,8,0:0:0:0:
448,192,42147,1,0,0:0:0:45:Crash 2.wav
192,192,42473,1,2,0:0:0:0:
320,192,42636,1,2,0:0:0:0:
64,192,42799,1,8,0:0:0:0:
448,192,42799,1,0,0:0:0:45:Crash 2.wav
320,192,43125,1,2,0:0:0:0:
448,192,43288,1,2,0:0:0:0:
64,192,43451,1,8,0:0:0:0:
192,192,43451,1,0,0:0:0:45:Crash 2.wav
320,192,43614,1,8,0:0:0:0:
448,192,43614,1,0,0:0:0:0:
64,192,43777,1,2,0:0:0:0:
192,192,43940,1,2,0:0:0:0:
320,192,44103,128,8,44266:0:0:0:0:
192,192,44266,128,8,44429:0:0:0:0:
64,192,44429,1,2,0:0:0:0:
448,192,44429,1,4,0:0:0:0:
320,192,44592,1,2,0:0:0:0:
192,192,44755,1,8,0:0:0:0:
64,192,45081,1,2,0:0:0:0:
192,192,45245,1,2,0:0:0:0:
448,192,45408,1,8,0:0:0:0:
64,192,45734,1,2,0:0:0:0:
320,192,45897,1,2,0:0:0:0:
192,192,46060,1,8,0:0:0:0:
448,192,46386,1,2,0:0:0:0:
320,192,46549,1,2,0:0:0:0:
64,192,46712,128,8,46875:0:0:0:0:
448,192,46875,128,8,47038:0:0:0:0:
192,192,47038,1,2,0:0:0:0:
320,192,47201,1,2,0:0:0:0:
64,192,47364,1,8,0:0:0:0:
192,192,47690,1,2,0:0:0:0:
320,192,47853,1,2,0:0:0:0:
448,192,48016,1,8,0:0:0:0:
192,192,48342,1,2,0:0:0:0:
320,192,48505,1,2,0:0:0:0:
64,192,48668,1,8,0:0:0:0:
448,192,48995,1,2,0:0:0:0:
320,192,49158,1,2,0:0:0:0:
64,192,49321,128,8,49484:0:0:0:0:
320,192,49484,128,8,49647:0:0:0:0:
192,192,49647,1,2,0:0:0:0:
448,192,49810,1,2,0:0:0:0:
320,192,49973,1,8,0:0:0:0:
192,192,50299,1,2,0:0:0:0:
320,192,50462,1,2,0:0:0:0:
64,192,50625,1,8,0:0:0:0:
448,192,50951,1,2,0:0:0:0:
320,192,51114,1,2,0:0:0:0:
192,192,51277,1,8,0:0:0:0:
64,192,51603,1,2,0:0:0:0:
320,192,51766,1,2,0:0:0:0:
192,192,51929,128,8,52092:0:0:0:0:
448,192,52092,128,8,52255:0:0:0:0:
64,192,52255,1,2,0:0:0:0:
192,192,52418,1,2,0:0:0:0:
448,192,52581,1,8,0:0:0:0:
320,192,52908,1,2,0:0:0:0:
64,192,53071,1,2,0:0:0:0:
448,192,53234,1,8,0:0:0:0:
320,192,53560,1,10,0:0:0:0:
192,192,53723,1,8,0:0:0:0:
64,192,53886,1,10,0:0:0:0:
320,192,54049,1,8,0:0:0:0:
448,192,54212,1,10,0:0:0:0:
192,192,54375,1,8,0:0:0:0:
320,192,54538,1,10,0:0:0:0:
64,192,54701,1,8,0:0:0:0:
192,192,54864,1,2,0:0:0:0:
448,192,54864,1,4,0:0:0:0:
320,192,55027,1,2,0:0:0:0:
64,192,55190,1,2,0:0:0:0:
192,192,55190,1,4,0:0:0:0:
448,192,55353,1,2,0:0:0:0:
64,192,55516,128,2,55842:0:0:0:0:
320,192,55516,1,4,0:0:0:0:
448,192,55842,1,8,0:0:0:0:
320,192,56168,1,2,0:0:0:0:
192,192,56331,1,2,0:0:0:0:
64,192,56495,1,8,0:0:0:0:
192,192,56821,1,2,0:0:0:0:
448,192,56984,1,2,0:0:0:0:
320,192,57147,1,8,0:0:0:0:
64,192,57473,1,2,0:0:0:0:
448,192,57473,1,4,0:0:0:0:
192,192,57636,1,2,0:0:0:0:
320,192,57799,1,2,0:0:0:0:
448,192,57799,1,4,0:0:0:0:
64,192,57962,1,2,0:0:0:0:
192,192,58125,1,2,0:0:0:0:
320,192,58125,128,4,58451:0:0:0:0:
64,192,58451,1,8,0:0:0:0:
448,192,58777,1,2,0:0:0:0:
320,192,58940,1,2,0:0:0:0:
64,192,59103,1,8,0:0:0:0:
192,192,59429,1,2,0:0:0:0:
320,192,59592,1,2,0:0:0:0:
64,192,59755,1,8,0:0:0:0:
192,192,60081,1,2,0:0:0:0:
448,192,60081,1,4,0:0:0:0:
320,192,60245,1,2,0:0:0:0:
64,192,60408,1,2,0:0:0:0:
448,192,60408,1,4,0:0:0:0:
192,192,60571,1,2,0:0:0:0:
64,192,60734,128,2,61060:0:0:0:0:
320,192,60734,1,4,0:0:0:0:
448,192,61060,1,8,0:0:0:0:
320,192,61386,1,2,0:0:0:0:
64,192,61549,1,2,0:0:0:0:
192,192,61712,1,8,0:0:0:0:
448,192,62038,1,2,0:0:0:0:
192,192,62201,1,2,0:0:0:0:
320,192,62364,1,8,0:0:0:0:
64,192,62690,1,8,0:0:0:0:
448,192,62690,1,4,0:0:0:0:
192,192,62853,1,2,0:0:0:0:
192,192,63016,1,2,0:0:0:0:
64,192,63179,1,8,0:0:0:0:
448,192,63179,1,0,0:0:0:45:Crash 2.wav
320,192,63342,1,2,0:0:0:0:
320,192,63505,1,2,0:0:0:0:
64,192,63668,1,8,0:0:0:0:
192,192,63668,1,0,0:0:0:0:
320,192,63831,1,8,0:0:0:0:
448,192,63831,1,0,0:0:0:45:Hat open.wav
448,192,64934,1,0,0:0:0:0:
64,192,65260,1,2,0:0:0:0:
192,192,65260,1,4,0:0:0:0:
320,192,65423,1,2,0:0:0:0:
64,192,65586,1,8,0:0:0:0:
448,192,65586,1,0,0:0:0:0:
320,192,65912,1,2,0:0:0:0:
192,192,66075,1,2,0:0:0:0:
64,192,66238,1,8,0:0:0:0:
448,192,66238,1,0,0:0:0:0:
320,192,66564,1,2,0:0:0:0:
64,192,66727,1,2,0:0:0:0:
192,192,66890,1,8,0:0:0:0:
448,192,66890,1,0,0:0:0:0:
64,192,67216,1,2,0:0:0:0:
192,192,67379,1,2,0:0:0:0:
320,192,67542,1,8,0:0:0:0:
448,192,67542,1,0,0:0:0:0:
192,192,67868,1,2,0:0:0:0:
320,192,68031,1,2,0:0:0:0:
64,192,68194,1,8,0:0:0:0:
448,192,68194,1,0,0:0:0:0:
320,192,68520,1,2,0:0:0:0:
192,192,68683,1,2,0:0:0:0:
64,192,68846,1,8,0:0:0:0:
448,192,68846,1,0,0:0:0:0:
192,192,69173,1,2,0:0:0:0:
448,192,69336,1,2,0:0:0:0:
64,192,69499,1,8,0:0:0:0:
320,192,69499,1,0,0:0:0:0:
192,192,69825,1,2,0:0:0:0:
64,192,69988,1,2,0:0:0:0:
320,192,70151,128,8,70314:0:0:0:0:
192,192,70314,128,8,70477:0:0:0:0:
64,192,70477,1,2,0:0:0:0:
448,192,70477,1,4,0:0:0:0:
320,192,70640,1,2,0:0:0:0:
192,192,70803,1,8,0:0:0:0:
448,192,70803,1,0,0:0:0:0:
64,192,71129,1,2,0:0:0:0:
192,192,71292,1,2,0:0:0:0:
320,192,71455,1,8,0:0:0:0:
448,192,71455,1,0,0:0:0:0:
192,192,71781,1,2,0:0:0:0:
320,192,71944,1,2,0:0:0:0:
64,192,72107,1,8,0:0:0:0:
448,192,72107,1,0,0:0:0:0:
320,192,72433,1,2,0:0:0:0:
192,192,72596,1,2,0:0:0:0:
64,192,72760,1,8,0:0:0:0:
448,192,72760,1,0,0:0:0:0:
320,192,73086,1,2,0:0:0:0:
448,192,73249,1,2,0:0:0:0:
64,192,73412,1,8,0:0:0:0:
192,192,73412,1,0,0:0:0:0:
448,192,73738,1,2,0:0:0:0:
192,192,73901,1,2,0:0:0:0:
64,192,74064,1,8,0:0:0:0:
320,192,74064,1,0,0:0:0:0:
448,192,74390,128,8,74553:0:0:0:0:
320,192,74553,128,8,74716:0:0:0:0:
64,192,74716,128,8,74879:0:0:0:0:
192,192,74879,128,8,75042:0:0:0:0:
320,192,75042,128,0,75368:0:0:0:50:Tom1.wav
448,192,75042,1,0,0:0:0:0:
64,192,75368,128,0,75694:0:0:0:55:Tom2.wav
192,192,75368,1,0,0:0:0:0:
320,192,75694,1,2,0:0:0:0:
448,192,75694,1,4,0:0:0:0:
192,192,76020,1,8,0:0:0:0:
448,192,76020,1,0,0:0:0:0:
320,192,76183,128,8,76346:0:0:0:0:
64,192,76346,1,2,0:0:0:0:
192,192,76510,1,2,0:0:0:0:
320,192,76673,1,8,0:0:0:0:
448,192,76673,128,0,76999:0:0:0:0:
64,192,76999,1,2,0:0:0:0:
192,192,76999,1,0,0:0:0:0:
320,192,77162,1,2,0:0:0:0:
64,192,77325,1,8,0:0:0:0:
448,192,77325,1,0,0:0:0:0:
192,192,77488,128,8,77651:0:0:0:0:
448,192,77651,1,2,0:0:0:0:
320,192,77814,1,2,0:0:0:0:
64,192,77977,128,8,78303:0:0:0:0:
192,192,77977,1,0,0:0:0:0:
448,192,78303,1,2,0:0:0:0:
320,192,78466,1,2,0:0:0:0:
64,192,78629,1,8,0:0:0:0:
192,192,78629,1,0,0:0:0:0:
448,192,78792,128,8,78955:0:0:0:0:
320,192,78955,1,2,0:0:0:0:
64,192,79118,1,2,0:0:0:0:
192,192,79281,1,8,0:0:0:0:
448,192,79281,1,0,0:0:0:0:
320,192,79444,128,8,79607:0:0:0:0:
64,192,79607,1,2,0:0:0:0:
448,192,79770,1,2,0:0:0:0:
192,192,79933,1,8,0:0:0:0:
320,192,79933,1,0,0:0:0:0:
64,192,80096,128,8,80260:0:0:0:0:
448,192,80260,1,2,0:0:0:0:
192,192,80423,1,2,0:0:0:0:
320,192,80586,128,8,80749:0:0:0:0:
192,192,80749,128,8,80912:0:0:0:0:
64,192,80912,1,2,0:0:0:0:
448,192,80912,1,4,0:0:0:0:
320,192,81075,1,2,0:0:0:0:
64,192,81238,1,8,0:0:0:0:
192,192,81238,1,0,0:0:0:0:
448,192,81401,128,8,81564:0:0:0:0:
320,192,81564,1,2,0:0:0:0:
192,192,81727,1,2,0:0:0:0:
320,192,81890,1,8,0:0:0:0:
448,192,81890,1,0,0:0:0:0:
64,192,82053,128,8,82216:0:0:0:0:
192,192,82216,1,2,0:0:0:0:
448,192,82379,1,2,0:0:0:0:
64,192,82542,1,8,0:0:0:0:
320,192,82542,1,0,0:0:0:0:
192,192,82868,1,2,0:0:0:0:
448,192,82868,1,8,0:0:0:0:
64,192,83031,1,0,0:0:0:50:Tom1.wav
320,192,83194,128,0,83520:0:0:0:55:Tom2.wav
192,192,83520,128,2,83846:0:0:0:0:
448,192,83520,1,4,0:0:0:0:
64,192,83846,1,0,0:0:0:60:Ride.wav
320,192,84010,1,2,0:0:0:0:
64,192,84173,1,8,0:0:0:0:
448,192,84173,128,0,84499:0:0:0:0:
192,192,84499,1,0,0:0:0:60:Ride.wav
320,192,84662,1,0,0:0:0:0:
64,192,84825,128,2,85151:0:0:0:0:
192,192,85151,1,0,0:0:0:60:Ride.wav
320,192,85314,1,2,0:0:0:0:
448,192,85477,128,2,86129:0:0:0:0:
64,192,86129,1,6,0:0:0:0:
192,192,86292,1,2,0:0:0:0:
320,192,86455,1,8,0:0:0:0:
448,192,86455,1,0,0:0:0:0:
192,192,86618,1,2,0:0:0:0:
64,192,86944,1,2,0:0:0:0:
320,192,87107,128,8,87270:0:0:0:0:
192,192,87270,128,8,87433:0:0:0:0:
64,192,87433,1,2,0:0:0:0:
448,192,87596,1,2,0:0:0:0:
64,192,87760,1,8,0:0:0:0:
192,192,87760,1,0,0:0:0:0:
448,192,87923,1,2,0:0:0:0:
320,192,88249,1,2,0:0:0:0:
192,192,88412,128,8,88575:0:0:0:0:
320,192,88575,128,8,88738:0:0:0:0:
448,192,88738,1,2,0:0:0:0:
64,192,88901,1,2,0:0:0:0:
192,192,89064,1,8,0:0:0:0:
320,192,89064,1,0,0:0:0:0:
64,192,89227,1,2,0:0:0:0:
448,192,89553,1,2,0:0:0:0:
192,192,89716,128,8,89879:0:0:0:0:
448,192,89879,128,8,90042:0:0:0:0:
64,192,90042,1,2,0:0:0:0:
320,192,90205,1,2,0:0:0:0:
64,192,90368,1,8,0:0:0:0:
192,192,90368,1,0,0:0:0:0:
320,192,90531,1,2,0:0:0:0:
448,192,90857,1,2,0:0:0:0:
320,192,91020,128,8,91183:0:0:0:0:
192,192,91183,128,8,91346:0:0:0:0:
64,192,91346,128,2,91673:0:0:0:0:
320,192,91673,1,8,0:0:0:0:
192,192,91836,128,2,92162:0:0:0:0:
448,192,92162,1,2,0:0:0:0:
64,192,92325,1,8,0:0:0:0:
64,192,92488,1,8,0:0:0:0:
320,192,92651,128,2,92977:0:0:0:0:
192,192,92977,1,8,0:0:0:0:
448,192,93140,128,2,93466:0:0:0:0:
64,192,93466,1,2,0:0:0:0:
320,192,93629,1,8,0:0:0:0:
320,192,93792,1,8,0:0:0:0:
192,192,93955,128,2,94281:0:0:0:0:
64,192,94281,1,8,0:0:0:0:
320,192,94444,128,2,94770:0:0:0:0:
448,192,94770,1,2,0:0:0:0:
192,192,94933,1,8,0:0:0:0:
192,192,95096,1,8,0:0:0:0:
64,192,95259,128,2,95586:0:0:0:0:
192,192,95586,1,8,0:0:0:0:
448,192,95749,128,2,96075:0:0:0:0:
64,192,96075,1,2,0:0:0:0:
192,192,96238,128,8,96564:0:0:0:0:
320,192,96238,1,0,0:0:0:45:Crash 2.wav
64,192,96564,1,8,0:0:0:0:
448,192,96564,1,4,0:0:0:0:
320,192,96727,1,2,0:0:0:0:
320,192,96890,1,2,0:0:0:0:
192,192,97053,1,8,0:0:0:0:
448,192,97053,1,0,0:0:0:0:
64,192,97216,1,2,0:0:0:0:
64,192,97379,1,2,0:0:0:0:
192,192,97542,1,8,0:0:0:0:
320,192,97542,1,0,0:0:0:0:
448,192,97705,1,2,0:0:0:0:
448,192,97868,1,2,0:0:0:0:
64,192,98031,1,8,0:0:0:0:
320,192,98031,1,0,0:0:0:0:
192,192,98194,1,2,0:0:0:0:
192,192,98357,1,2,0:0:0:0:
320,192,98520,1,8,0:0:0:0:
448,192,98520,1,0,0:0:0:45:Crash 2.wav
192,192,98683,1,2,0:0:0:0:
64,192,98846,1,8,0:0:0:0:
448,192,98846,1,0,0:0:0:45:Crash 2.wav
192,192,99173,1,2,0:0:0:0:
320,192,99336,1,8,0:0:0:0:
448,192,99336,1,0,0:0:0:0:
64,192,99499,1,8,0:0:0:0:
192,192,99499,1,0,0:0:0:0:
448,192,99662,1,2,0:0:0:0:
64,192,99825,1,8,0:0:0:0:
192,192,99825,1,0,0:0:0:0:
320,192,99988,1,8,0:0:0:0:
448,192,99988,1,0,0:0:0:0:
192,192,100151,1,2,0:0:0:0:
64,192,100314,1,8,0:0:0:0:
448,192,100314,1,0,0:0:0:0:
192,192,100477,1,8,0:0:0:0:
320,192,100477,1,0,0:0:0:0:
64,192,100640,1,0,0:0:0:50:Tom1.wav
448,192,100803,1,0,0:0:0:55:Tom2.wav
192,192,100966,1,2,0:0:0:0:
64,192,101129,1,8,0:0:0:0:
320,192,101129,1,0,0:0:0:45:Hat open.wav
192,192,101455,1,0,0:0:0:0:
64,192,101781,1,2,0:0:0:0:
448,192,101781,1,4,0:0:0:0:
192,192,101944,1,2,0:0:0:0:
320,192,102107,1,8,0:0:0:0:
448,192,102107,1,0,0:0:0:0:
192,192,102433,1,2,0:0:0:0:
448,192,102596,1,2,0:0:0:0:
64,192,102759,1,8,0:0:0:0:
320,192,102759,1,0,0:0:0:0:
448,192,103086,1,2,0:0:0:0:
320,192,103249,1,2,0:0:0:0:
64,192,103412,1,8,0:0:0:0:
192,192,103412,1,0,0:0:0:0:
320,192,103738,1,2,0:0:0:0:
64,192,103901,1,2,0:0:0:0:
192,192,104064,1,8,0:0:0:0:
448,192,104064,1,0,0:0:0:0:
320,192,104390,1,2,0:0:0:0:
192,192,104553,1,2,0:0:0:0:
64,192,104716,1,8,0:0:0:0:
448,192,104716,1,0,0:0:0:0:
192,192,105042,1,2,0:0:0:0:
320,192,105205,1,2,0:0:0:0:
64,192,105368,1,8,0:0:0:0:
448,192,105368,1,0,0:0:0:0:
192,192,105694,1,2,0:0:0:0:
64,192,105857,1,2,0:0:0:0:
320,192,106020,1,8,0:0:0:0:
448,192,106020,1,0,0:0:0:0:
64,192,106346,1,2,0:0:0:0:
192,192,106509,1,2,0:0:0:0:
320,192,106673,128,8,106836:0:0:0:0:
192,192,106836,128,8,106999:0:0:0:0:
64,192,106999,1,2,0:0:0:0:
448,192,106999,1,4,0:0:0:0:
320,192,107162,1,2,0:0:0:0:
64,192,107325,1,8,0:0:0:0:
192,192,107325,1,0,0:0:0:0:
448,192,107651,1,2,0:0:0:0:
192,192,107814,1,2,0:0:0:0:
64,192,107977,1,8,0:0:0:0:
320,192,107977,1,0,0:0:0:0:
192,192,108303,1,2,0:0:0:0:
320,192,108466,1,2,0:0:0:0:
64,192,108629,1,8,0:0:0:0:
448,192,108629,1,0,0:0:0:0:
320,192,108955,1,2,0:0:0:0:
192,192,109118,1,2,0:0:0:0:
64,192,109281,1,8,0:0:0:0:
448,192,109281,1,0,0:0:0:0:
320,192,109607,1,2,0:0:0:0:
448,192,109770,1,2,0:0:0:0:
64,192,109933,1,8,0:0:0:0:
192,192,109933,1,0,0:0:0:0:
320,192,110259,1,2,0:0:0:0:
192,192,110423,1,2,0:0:0:0:
64,192,110586,1,8,0:0:0:0:
448,192,110586,1,0,0:0:0:0:
192,192,110912,128,8,111075:0:0:0:0:
320,192,111075,128,8,111238:0:0:0:0:
64,192,111238,128,8,111401:0:0:0:0:
448,192,111401,128,8,111564:0:0:0:0:
64,192,111564,1,0,0:0:0:50:Tom1.wav
192,192,111564,128,0,111890:0:0:0:0:
320,192,111890,1,0,0:0:0:55:Tom2.wav
448,192,111890,128,0,112216:0:0:0:0:
64,192,112216,1,2,0:0:0:0:
192,192,112216,1,4,0:0:0:0:
64,192,112542,1,8,0:0:0:0:
448,192,112542,1,0,0:0:0:0:
192,192,112705,128,8,112868:0:0:0:0:
448,192,112868,1,2,0:0:0:0:
320,192,113031,1,2,0:0:0:0:
64,192,113194,1,8,0:0:0:0:
192,192,113194,1,0,0:0:0:0:
448,192,113357,128,8,113520:0:0:0:0:
64,192,113520,1,2,0:0:0:0:
320,192,113683,1,2,0:0:0:0:
192,192,113846,1,8,0:0:0:0:
448,192,113846,1,0,0:0:0:0:
64,192,114009,128,8,114173:0:0:0:0:
320,192,114173,1,2,0:0:0:0:
448,192,114336,1,2,0:0:0:0:
64,192,114499,1,8,0:0:0:0:
320,192,114499,1,0,0:0:0:0:
192,192,114662,128,8,114825:0:0:0:0:
448,192,114825,1,2,0:0:0:0:
320,192,114988,1,2,0:0:0:0:
64,192,115151,1,8,0:0:0:0:
192,192,115151,1,0,0:0:0:0:
448,192,115314,128,8,115477:0:0:0:0:
64,192,115477,1,2,0:0:0:0:
192,192,115640,1,2,0:0:0:0:
320,192,115803,1,8,0:0:0:0:
448,192,115803,1,0,0:0:0:0:
64,192,115966,128,8,116129:0:0:0:0:
320,192,116129,1,2,0:0:0:0:
192,192,116292,1,2,0:0:0:0:
64,192,116455,1,8,0:0:0:0:
448,192,116455,1,0,0:0:0:0:
320,192,116618,128,8,116781:0:0:0:0:
192,192,116781,1,2,0:0:0:0:
448,192,116944,1,2,0:0:0:0:
64,192,117107,128,8,117270:0:0:0:0:
320,192,117270,128,8,117433:0:0:0:0:
192,192,117433,1,2,0:0:0:0:
448,192,117433,1,4,0:0:0:0:
64,192,117596,1,2,0:0:0:0:
320,192,117759,1,8,0:0:0:0:
448,192,117759,1,0,0:0:0:0:
192,192,117923,128,8,118086:0:0:0:0:
64,192,118086,1,2,0:0:0:0:
320,192,118249,1,2,0:0:0:0:
64,192,118412,1,8,0:0:0:0:
192,192,118412,1,0,0:0:0:0:
448,192,118575,128,8,118738:0:0:0:0:
320,192,118738,1,2,0:0:0:0:
192,192,118901,1,2,0:0:0:0:
64,192,119064,1,8,0:0:0:0:
448,192,119064,1,0,0:0:0:0:
320,192,119227,128,8,119390:0:0:0:0:
192,192,119390,1,2,0:0:0:0:
448,192,119553,1,2,0:0:0:0:
64,192,119716,128,8,119879:0:0:0:0:
192,192,119879,128,8,120042:0:0:0:0:
320,192,120042,1,2,0:0:0:0:
448,192,120042,1,4,0:0:0:0:
64,192,120205,1,2,0:0:0:0:
192,192,120368,1,8,0:0:0:0:
448,192,120368,1,0,0:0:0:0:
320,192,120531,128,8,120694:0:0:0:0:
192,192,120694,1,2,0:0:0:0:
64,192,120857,1,2,0:0:0:0:
320,192,121020,1,8,0:0:0:0:
448,192,121020,1,0,0:0:0:0:
192,192,121183,128,8,121346:0:0:0:0:
320,192,121346,1,2,0:0:0:0:
64,192,121509,1,2,0:0:0:0:
192,192,121673,1,8,0:0:0:0:
320,192,121673,1,0,0:0:0:0:
448,192,121836,128,8,121999:0:0:0:0:
64,192,121999,1,2,0:0:0:0:
320,192,122162,1,2,0:0:0:0:
192,192,122325,128,8,122488:0:0:0:0:
320,192,122488,128,8,122651:0:0:0:0:
64,192,122651,1,2,0:0:0:0:
448,192,122651,1,4,0:0:0:0:
64,192,122977,1,8,0:0:0:0:
320,192,122977,1,2,0:0:0:0:
448,192,123140,1,8,0:0:0:0:
192,192,123303,1,10,0:0:0:0:
320,192,123466,1,8,0:0:0:0:
64,192,123629,1,8,0:0:0:0:
448,192,123629,1,2,0:0:0:0:
192,192,123792,1,8,0:0:0:0:
448,192,123955,1,10,0:0:0:0:
320,192,124118,1,8,0:0:0:0:
64,192,124281,1,8,0:0:0:0:
192,192,124281,1,2,0:0:0:0:
448,192,124444,1,8,0:0:0:0:
320,192,124607,1,10,0:0:0:0:
64,192,124770,1,8,0:0:0:0:
192,192,124933,1,8,0:0:0:0:
448,192,124933,1,2,0:0:0:0:
320,192,125096,1,8,0:0:0:0:
64,192,125259,1,2,0:0:0:0:
448,192,125259,1,4,0:0:0:0:
192,192,125586,1,8,0:0:0:0:
192,192,125749,1,8,0:0:0:0:
320,192,125912,1,8,0:0:0:0:
320,192,126075,1,8,0:0:0:0:
64,192,126238,1,8,0:0:0:0:
64,192,126401,1,8,0:0:0:0:
192,192,126564,1,8,0:0:0:0:
448,192,126564,1,0,0:0:0:0:
64,192,127868,1,2,0:0:0:0:
192,192,127868,1,4,0:0:0:0:
320,192,128031,1,2,0:0:0:0:
64,192,128194,1,8,0:0:0:0:
448,192,128194,1,0,0:0:0:0:
192,192,128520,1,2,0:0:0:0:
64,192,128683,1,2,0:0:0:0:
320,192,128846,1,8,0:0:0:0:
448,192,128846,128,0,129173:0:0:0:0:
192,192,129173,1,2,0:0:0:0:
320,192,129336,1,2,0:0:0:0:
64,192,129499,1,8,0:0:0:0:
448,192,129499,1,0,0:0:0:0:
320,192,129825,1,2,0:0:0:0:
192,192,129988,1,2,0:0:0:0:
64,192,130151,128,8,130477:0:0:0:0:
448,192,130151,1,0,0:0:0:0:
320,192,130477,1,2,0:0:0:0:
448,192,130640,1,2,0:0:0:0:
64,192,130803,1,8,0:0:0:0:
192,192,130803,1,0,0:0:0:0:
320,192,131129,1,2,0:0:0:0:
192,192,131292,1,2,0:0:0:0:
64,192,131455,1,8,0:0:0:0:
448,192,131455,128,0,131781:0:0:0:0:
192,192,131781,1,2,0:0:0:0:
320,192,131944,1,2,0:0:0:0:
64,192,132107,1,8,0:0:0:0:
448,192,132107,1,0,0:0:0:0:
320,192,132433,1,2,0:0:0:0:
64,192,132596,1,2,0:0:0:0:
192,192,132759,128,8,132923:0:0:0:0:
320,192,132923,128,8,133086:0:0:0:0:
64,192,133086,1,2,0:0:0:0:
448,192,133086,1,4,0:0:0:0:
320,192,133249,1,2,0:0:0:0:
64,192,133412,1,8,0:0:0:0:
192,192,133412,1,0,0:0:0:0:
320,192,133738,1,2,0:0:0:0:
192,192,133901,1,2,0:0:0:0:
64,192,134064,1,8,0:0:0:0:
448,192,134064,128,0,134390:0:0:0:0:
192,192,134390,1,2,0:0:0:0:
64,192,134553,1,2,0:0:0:0:
320,192,134716,1,8,0:0:0:0:
448,192,134716,1,0,0:0:0:0:
192,192,135042,1,2,0:0:0:0:
320,192,135205,1,2,0:0:0:0:
64,192,135368,128,8,135694:0:0:0:0:
448,192,135368,1,0,0:0:0:0:
320,192,135694,1,10,0:0:0:0:
192,192,135857,1,8,0:0:0:0:
64,192,136020,1,8,0:0:0:0:
448,192,136020,1,2,0:0:0:0:
320,192,136183,1,8,0:0:0:0:
64,192,136346,1,8,0:0:0:0:
192,192,136346,1,2,0:0:0:0:
320,192,136509,1,8,0:0:0:0:
192,192,136673,1,8,0:0:0:0:
448,192,136673,1,2,0:0:0:0:
64,192,136836,1,8,0:0:0:0:
320,192,136999,1,2,0:0:0:0:
448,192,136999,1,0,0:0:0:45:Hat open.wav
64,192,139607,1,2,0:0:0:0:
448,192,139607,1,4,0:0:0:0:
