osu file format v14

[General]
AudioFilename: audio.mp3
AudioLeadIn: 0
PreviewTime: 64934
Countdown: 0
SampleSet: Soft
StackLeniency: 0.7
Mode: 3
LetterboxInBreaks: 0
SpecialStyle: 0
WidescreenStoryboard: 1

[Editor]
DistanceSpacing: 1.5
BeatDivisor: 4
GridSize: 32
TimelineZoom: 2.2

[Metadata]
Title:CATCH ME (Cut Ver.)
TitleUnicode:CATCH ME (Cut Ver.)
Artist:THE ORAL CIGARETTES
ArtistUnicode:THE ORAL CIGARETTES
Creator:Yuiazu-
Version:Hard
Source:
Tags:DIP-BAP Before It's Too Late TOC Kanon Matsubara Div Onii_ue Yamanaka Takuya 山中拓也 Akirakani Akira あきらかにあきら Suzuki Shigenobu 鈴木重伸 Nakanishi Masaya 中西雅哉 S-LOW SLOW Takurō Ōkubo Akashic Re:cords アカシックリコード Akashikku Rikōdo Short Version Japanese Rock J-Rock JRock Single A-Sketch Music みふる
BeatmapID:2942803
BeatmapSetID:1429483

[Difficulty]
HPDrainRate:8
CircleSize:4
OverallDifficulty:8
ApproachRate:5
SliderMultiplier:1.4
SliderTickRate:1

[Events]
//Background and Video events
0,0,"Catch Me.jpg",0,0
//Break Periods
//Storyboard Layer 0 (Background)
//Storyboard Layer 1 (Fail)
//Storyboard Layer 2 (Pass)
//Storyboard Layer 3 (Foreground)
//Storyboard Layer 4 (Overlay)
//Storyboard Sound Samples
Sample,85477,0,"Ride.wav",60
Sample,99173,0,"Hat open.wav",50
Sample,99662,0,"Hat open.wav",50
Sample,100151,0,"Hat open.wav",50

[TimingPoints]
82,326.086956521739,4,2,1,45,1,0
20951,-100.0,4,2,1,55,0,0
31386,-100.0,4,2,1,45,0,0
54864,-100.0,4,2,1,50,0,0
64934,326.086956521739,4,2,1,50,1,8
65260,326.086956521739,4,2,1,50,1,1
83520,-100.0,4,2,1,55,0,0
86129,-100.0,4,2,1,50,0,0
101781,-100.0,4,2,1,60,0,1
122651,-100.0,4,2,1,50,0,0
127868,-100.0,4,2,1,55,0,0

[HitObjects]
192,192,82,128,0,408:0:0:0:0:
448,192,408,128,0,571:0:0:0:0:
320,192,571,128,0,734:0:0:0:0:
192,192,734,128,0,897:0:0:0:0:
448,192,897,128,0,1060:0:0:0:0:
64,192,1060,128,0,1386:0:0:0:0:
320,192,1386,128,0,1549:0:0:0:0:
192,192,1549,128,0,1712:0:0:0:0:
448,192,1712,128,0,1875:0:0:0:0:
64,192,1875,128,0,2038:0:0:0:0:
320,192,2038,128,0,2364:0:0:0:0:
192,192,2364,128,0,2690:0:0:0:0:
448,192,2690,128,0,3016:0:0:0:0:
64,192,3016,128,0,3179:0:0:0:0:
192,192,3179,128,0,3342:0:0:0:0:
448,192,3342,128,0,3505:0:0:0:0:
320,192,3505,128,0,3668:0:0:0:0:
64,192,3668,128,0,3995:0:0:0:0:
448,192,3995,128,0,4158:0:0:0:0:
192,192,4158,128,0,4321:0:0:0:0:
320,192,4321,128,0,4484:0:0:0:0:
64,192,4484,128,0,4647:0:0:0:0:
192,192,4647,128,0,4810:0:0:0:0:
448,192,4810,128,0,4973:0:0:0:0:
320,192,4973,128,0,5136:0:0:0:0:
64,192,5299,128,2,5625:0:0:0:0:
192,192,5299,1,4,0:0:0:0:
448,192,5299,1,0,0:0:0:0:
320,192,5625,128,0,5788:0:0:0:0:
192,192,5788,128,0,5951:0:0:0:0:
448,192,5951,128,0,6114:0:0:0:0:
320,192,6114,128,0,6277:0:0:0:0:
64,192,6277,128,0,6603:0:0:0:0:
448,192,6603,128,0,6766:0:0:0:0:
192,192,6766,128,0,6929:0:0:0:0:
320,192,6929,128,0,7092:0:0:0:0:
64,192,7092,128,0,7255:0:0:0:0:
448,192,7255,128,0,7581:0:0:0:0:
192,192,7581,128,0,7908:0:0:0:0:
320,192,7908,1,8,0:0:0:0:
448,192,7908,1,0,0:0:0:0:
320,192,8071,1,8,0:0:0:0:
448,192,8071,1,0,0:0:0:0:
64,192,8234,128,0,8397:0:0:0:0:
192,192,8397,128,0,8560:0:0:0:0:
448,192,8560,128,0,8723:0:0:0:0:
320,192,8723,128,0,8886:0:0:0:0:
192,192,8886,128,0,9212:0:0:0:0:
448,192,9212,128,0,9375:0:0:0:0:
64,192,9375,128,0,9538:0:0:0:0:
192,192,9538,128,0,9701:0:0:0:0:
320,192,9701,128,0,9864:0:0:0:0:
448,192,9864,128,0,10027:0:0:0:0:
64,192,10027,128,0,10190:0:0:0:0:
192,192,10190,128,0,10353:0:0:0:0:
64,192,10516,1,2,0:0:0:0:
320,192,10516,1,8,0:0:0:0:
448,192,10516,128,4,10842:0:0:0:0:
64,192,10842,1,2,0:0:0:0:
192,192,10842,1,0,0:0:0:50:Hat open.wav
192,192,11005,1,8,0:0:0:0:
448,192,11005,1,0,0:0:0:0:
320,192,11168,1,2,0:0:0:0:
448,192,11168,1,0,0:0:0:50:Hat open.wav
64,192,11331,1,0,0:0:0:0:
192,192,11495,128,8,11821:0:0:0:0:
320,192,11495,1,2,0:0:0:0:
448,192,11495,1,0,0:0:0:45:Crash 2.wav
64,192,11821,1,8,0:0:0:0:
320,192,11821,1,2,0:0:0:0:
448,192,11821,1,0,0:0:0:45:Crash 2.wav
192,192,11984,1,0,0:0:0:0:
320,192,12147,1,2,0:0:0:0:
448,192,12147,1,0,0:0:0:50:Hat open.wav
64,192,12310,1,8,0:0:0:0:
320,192,12310,1,0,0:0:0:0:
64,192,12473,1,2,0:0:0:0:
192,192,12473,1,0,0:0:0:50:Hat open.wav
448,192,12636,1,0,0:0:0:0:
64,192,12799,1,8,0:0:0:0:
192,192,12799,1,2,0:0:0:0:
320,192,12799,128,0,13125:0:0:0:45:Crash 2.wav
64,192,13125,1,8,0:0:0:0:
192,192,13125,1,2,0:0:0:0:
448,192,13125,1,0,0:0:0:45:Crash 2.wav
320,192,13288,1,0,0:0:0:0:
192,192,13451,1,2,0:0:0:0:
448,192,13451,1,0,0:0:0:50:Hat open.wav
64,192,13614,1,8,0:0:0:0:
448,192,13614,1,0,0:0:0:0:
64,192,13777,1,2,0:0:0:0:
320,192,13777,1,0,0:0:0:50:Hat open.wav
192,192,13940,1,0,0:0:0:0:
64,192,14103,128,8,14429:0:0:0:0:
320,192,14103,1,2,0:0:0:0:
448,192,14103,1,0,0:0:0:45:Crash 2.wav
192,192,14429,1,8,0:0:0:0:
320,192,14429,1,2,0:0:0:0:
448,192,14429,1,0,0:0:0:45:Crash 2.wav
64,192,14592,1,0,0:0:0:0:
320,192,14755,1,2,0:0:0:0:
448,192,14755,1,0,0:0:0:50:Hat open.wav
192,192,14918,1,8,0:0:0:0:
448,192,14918,1,0,0:0:0:0:
192,192,15081,1,2,0:0:0:0:
320,192,15081,1,0,0:0:0:50:Hat open.wav
64,192,15245,1,0,0:0:0:0:
192,192,15408,1,10,0:0:0:0:
320,192,15408,1,4,0:0:0:0:
192,192,15571,1,8,0:0:0:0:
320,192,15571,1,0,0:0:0:0:
64,192,15734,1,8,0:0:0:0:
320,192,15734,1,2,0:0:0:0:
448,192,15734,128,0,16060:0:0:0:45:Crash 2.wav
64,192,16060,1,2,0:0:0:0:
192,192,16060,1,0,0:0:0:45:Crash 2.wav
192,192,16223,1,8,0:0:0:0:
448,192,16223,1,0,0:0:0:0:
320,192,16386,128,2,16712:0:0:0:0:
448,192,16386,1,0,0:0:0:45:Crash 2.wav
64,192,16712,1,10,0:0:0:0:
192,192,16712,1,0,0:0:0:45:Crash 2.wav
64,192,16875,1,8,0:0:0:0:
192,192,16875,1,0,0:0:0:0:
64,192,17038,128,2,17364:0:0:0:0:
320,192,17038,1,8,0:0:0:0:
448,192,17038,1,0,0:0:0:45:Crash 2.wav
320,192,17364,1,2,0:0:0:0:
448,192,17364,1,0,0:0:0:45:Crash 2.wav
64,192,17527,1,8,0:0:0:0:
320,192,17527,1,0,0:0:0:0:
64,192,17690,1,2,0:0:0:0:
192,192,17690,128,0,18016:0:0:0:45:Crash 2.wav
320,192,18016,1,10,0:0:0:0:
448,192,18016,1,0,0:0:0:45:Crash 2.wav
320,192,18179,1,8,0:0:0:0:
448,192,18179,1,0,0:0:0:0:
64,192,18342,1,8,0:0:0:0:
192,192,18342,1,2,0:0:0:0:
448,192,18342,128,0,18668:0:0:0:45:Crash 2.wav
64,192,18668,1,2,0:0:0:0:
320,192,18668,1,0,0:0:0:45:Crash 2.wav
192,192,18831,1,8,0:0:0:0:
320,192,18831,1,0,0:0:0:0:
192,192,18995,128,2,19321:0:0:0:0:
448,192,18995,1,0,0:0:0:45:Crash 2.wav
64,192,19321,1,8,0:0:0:0:
448,192,19321,128,2,19647:0:0:0:0:
64,192,19647,128,8,19810:0:0:0:0:
320,192,19647,1,0,0:0:0:45:Hat open.wav
192,192,19810,128,0,19973:0:0:0:0:
448,192,19973,128,0,20136:0:0:0:0:
320,192,20136,128,0,20299:0:0:0:0:
192,192,20299,128,0,20625:0:0:0:0:
192,192,20951,1,2,0:0:0:0:
320,192,20951,1,4,0:0:0:0:
448,192,20951,128,0,21114:0:0:0:0:
64,192,21114,128,2,21440:0:0:0:0:
192,192,21277,1,8,0:0:0:0:
448,192,21277,1,0,0:0:0:0:
320,192,21440,128,0,21603:0:0:0:0:
64,192,21603,1,2,0:0:0:0:
192,192,21603,128,0,21766:0:0:0:0:
448,192,21766,1,2,0:0:0:0:
192,192,21929,1,8,0:0:0:0:
320,192,21929,128,0,22092:0:0:0:0:
64,192,22092,128,0,22255:0:0:0:0:
320,192,22255,1,2,0:0:0:0:
448,192,22255,128,0,22418:0:0:0:0:
192,192,22418,128,2,22581:0:0:0:0:
320,192,22581,128,8,22745:0:0:0:0:
448,192,22581,1,0,0:0:0:0:
64,192,22745,128,0,22908:0:0:0:0:
192,192,22908,128,2,23071:0:0:0:0:
320,192,22908,1,0,0:0:0:0:
448,192,23071,1,2,0:0:0:0:
64,192,23234,128,8,23560:0:0:0:0:
320,192,23234,1,0,0:0:0:0:
192,192,23397,1,0,0:0:0:0:
320,192,23560,1,2,0:0:0:0:
448,192,23560,128,0,23723:0:0:0:0:
192,192,23723,128,2,24049:0:0:0:0:
64,192,23886,1,8,0:0:0:0:
448,192,23886,1,0,0:0:0:0:
320,192,24049,128,0,24212:0:0:0:0:
64,192,24212,128,2,24375:0:0:0:0:
192,192,24212,1,0,0:0:0:0:
320,192,24375,1,2,0:0:0:0:
64,192,24538,1,8,0:0:0:0:
448,192,24538,128,0,24701:0:0:0:0:
320,192,24701,128,0,24864:0:0:0:0:
64,192,24864,128,2,25027:0:0:0:0:
192,192,24864,1,0,0:0:0:0:
448,192,25027,128,2,25190:0:0:0:0:
192,192,25190,128,8,25353:0:0:0:0:
320,192,25190,1,0,0:0:0:0:
64,192,25353,128,0,25516:0:0:0:0:
320,192,25516,128,2,25679:0:0:0:0:
448,192,25516,1,0,0:0:0:0:
192,192,25679,1,2,0:0:0:0:
64,192,25842,1,8,0:0:0:0:
448,192,25842,1,0,0:0:0:0:
192,192,25924,1,8,0:0:0:0:
320,192,26005,1,8,0:0:0:0:
192,192,26087,1,8,0:0:0:0:
64,192,26168,1,2,0:0:0:0:
320,192,26168,1,4,0:0:0:0:
448,192,26168,128,0,26331:0:0:0:0:
192,192,26331,128,2,26658:0:0:0:0:
64,192,26495,1,8,0:0:0:0:
320,192,26495,1,0,0:0:0:0:
448,192,26658,128,0,26821:0:0:0:0:
64,192,26821,128,2,26984:0:0:0:0:
320,192,26821,1,0,0:0:0:0:
192,192,26984,1,2,0:0:0:0:
320,192,27147,128,8,27310:0:0:0:0:
448,192,27147,1,0,0:0:0:0:
64,192,27310,128,0,27473:0:0:0:0:
192,192,27473,128,2,27636:0:0:0:0:
320,192,27473,1,0,0:0:0:0:
448,192,27636,128,2,27799:0:0:0:0:
64,192,27799,128,8,27962:0:0:0:0:
192,192,27799,1,0,0:0:0:0:
320,192,27962,128,0,28125:0:0:0:0:
192,192,28125,128,2,28288:0:0:0:0:
448,192,28125,1,0,0:0:0:0:
64,192,28288,1,2,0:0:0:0:
192,192,28451,1,8,0:0:0:0:
448,192,28451,128,0,28777:0:0:0:0:
320,192,28614,1,0,0:0:0:0:
64,192,28777,128,2,28940:0:0:0:0:
192,192,28777,1,0,0:0:0:0:
320,192,28940,128,2,29266:0:0:0:0:
64,192,29103,1,8,0:0:0:0:
448,192,29103,1,0,0:0:0:0:
192,192,29266,128,0,29429:0:0:0:0:
320,192,29429,1,2,0:0:0:0:
448,192,29429,128,0,29592:0:0:0:0:
192,192,29592,1,2,0:0:0:0:
64,192,29755,128,8,30081:0:0:0:0:
448,192,29755,1,0,0:0:0:45:Crash 2.wav
192,192,29918,1,0,0:0:0:0:
320,192,30081,1,8,0:0:0:0:
448,192,30081,1,0,0:0:0:0:
192,192,30163,1,8,0:0:0:0:
64,192,30245,1,8,0:0:0:0:
448,192,30326,1,8,0:0:0:0:
320,192,30408,1,8,0:0:0:0:
64,192,30489,1,8,0:0:0:0:
192,192,30571,1,8,0:0:0:0:
320,192,30652,1,8,0:0:0:0:
64,192,30734,1,0,0:0:0:50:Tom1.wav
448,192,30815,1,0,0:0:0:50:Tom1.wav
192,192,30897,1,0,0:0:0:50:Tom1.wav
320,192,30978,1,0,0:0:0:50:Tom1.wav
64,192,31060,1,0,0:0:0:55:Tom2.wav
448,192,31141,1,0,0:0:0:55:Tom2.wav
320,192,31223,1,0,0:0:0:55:Tom3.wav
192,192,31304,1,0,0:0:0:55:Tom3.wav
64,192,31386,1,2,0:0:0:0:
320,192,31386,1,4,0:0:0:0:
448,192,31386,1,0,0:0:0:0:
64,192,31549,1,2,0:0:0:0:
320,192,31712,1,8,0:0:0:0:
448,192,31712,1,0,0:0:0:0:
192,192,31875,1,0,0:0:0:0:
320,192,31956,1,8,0:0:0:0:
64,192,32038,1,2,0:0:0:0:
448,192,32038,1,0,0:0:0:0:
448,192,32201,1,2,0:0:0:0:
64,192,32364,1,8,0:0:0:0:
192,192,32364,1,0,0:0:0:0:
448,192,32527,1,0,0:0:0:0:
320,192,32609,1,8,0:0:0:0:
64,192,32690,1,2,0:0:0:0:
192,192,32690,1,0,0:0:0:0:
192,192,32853,1,2,0:0:0:0:
320,192,33016,1,8,0:0:0:0:
448,192,33016,1,0,0:0:0:0:
64,192,33179,1,0,0:0:0:0:
192,192,33261,1,8,0:0:0:0:
320,192,33342,1,2,0:0:0:0:
448,192,33342,1,0,0:0:0:0:
320,192,33505,1,2,0:0:0:0:
64,192,33668,1,8,0:0:0:0:
448,192,33668,1,0,0:0:0:0:
320,192,33750,1,8,0:0:0:0:
192,192,33831,1,8,0:0:0:0:
64,192,33913,1,8,0:0:0:0:
320,192,33995,1,2,0:0:0:0:
448,192,33995,1,0,0:0:0:0:
448,192,34158,1,2,0:0:0:0:
64,192,34321,1,8,0:0:0:0:
320,192,34321,1,0,0:0:0:0:
192,192,34484,1,0,0:0:0:0:
320,192,34565,1,8,0:0:0:0:
64,192,34647,1,2,0:0:0:0:
448,192,34647,1,0,0:0:0:0:
64,192,34810,1,2,0:0:0:0:
320,192,34973,1,8,0:0:0:0:
448,192,34973,1,0,0:0:0:0:
192,192,35136,1,0,0:0:0:0:
448,192,35217,1,8,0:0:0:0:
64,192,35299,1,2,0:0:0:0:
320,192,35299,1,0,0:0:0:0:
320,192,35462,1,2,0:0:0:0:
192,192,35625,1,8,0:0:0:0:
448,192,35625,1,0,0:0:0:0:
64,192,35788,1,0,0:0:0:0:
448,192,35870,1,8,0:0:0:0:
192,192,35951,1,2,0:0:0:0:
320,192,35951,1,0,0:0:0:0:
192,192,36114,1,2,0:0:0:0:
320,192,36277,1,8,0:0:0:0:
448,192,36277,1,0,0:0:0:0:
64,192,36359,1,8,0:0:0:0:
192,192,36440,1,8,0:0:0:0:
320,192,36522,1,8,0:0:0:0:
64,192,36603,1,2,0:0:0:0:
448,192,36603,1,0,0:0:0:0:
448,192,36766,1,2,0:0:0:0:
64,192,36929,1,8,0:0:0:0:
192,192,36929,1,0,0:0:0:0:
320,192,37092,1,0,0:0:0:0:
448,192,37174,1,8,0:0:0:0:
64,192,37255,1,2,0:0:0:0:
192,192,37255,1,0,0:0:0:0:
192,192,37418,1,2,0:0:0:0:
320,192,37581,1,8,0:0:0:0:
448,192,37581,1,0,0:0:0:0:
64,192,37745,1,0,0:0:0:0:
192,192,37826,1,8,0:0:0:0:
320,192,37908,1,2,0:0:0:0:
448,192,37908,1,0,0:0:0:0:
320,192,38071,1,2,0:0:0:0:
64,192,38234,1,8,0:0:0:0:
448,192,38234,1,0,0:0:0:0:
192,192,38397,1,0,0:0:0:0:
320,192,38478,1,8,0:0:0:0:
64,192,38560,1,2,0:0:0:0:
448,192,38560,1,0,0:0:0:0:
64,192,38723,1,2,0:0:0:0:
320,192,38886,1,8,0:0:0:0:
448,192,38886,1,0,0:0:0:0:
192,192,38967,1,8,0:0:0:0:
64,192,39049,1,8,0:0:0:0:
448,192,39130,1,8,0:0:0:0:
192,192,39212,1,2,0:0:0:0:
320,192,39212,1,0,0:0:0:0:
320,192,39375,1,2,0:0:0:0:
64,192,39538,1,8,0:0:0:0:
192,192,39538,1,0,0:0:0:0:
320,192,39701,1,0,0:0:0:0:
192,192,39783,1,8,0:0:0:0:
64,192,39864,1,2,0:0:0:0:
448,192,39864,1,0,0:0:0:0:
64,192,40027,1,2,0:0:0:0:
320,192,40190,1,8,0:0:0:0:
448,192,40190,1,0,0:0:0:0:
192,192,40353,1,0,0:0:0:0:
320,192,40435,1,8,0:0:0:0:
64,192,40516,1,2,0:0:0:0:
448,192,40516,1,0,0:0:0:0:
448,192,40679,1,2,0:0:0:0:
192,192,40842,128,8,41168:0:0:0:0:
320,192,40842,1,0,0:0:0:50:Hat open.wav
64,192,41168,1,8,0:0:0:0:
448,192,41168,1,0,0:0:0:0:
320,192,41250,1,8,0:0:0:0:
192,192,41331,1,8,0:0:0:0:
64,192,41413,1,8,0:0:0:0:
448,192,41495,1,0,0:0:0:50:Tom1.wav
192,192,41576,1,0,0:0:0:50:Tom1.wav
320,192,41658,1,0,0:0:0:55:Tom2.wav
64,192,41739,1,0,0:0:0:55:Tom3.wav
192,192,41821,1,2,0:0:0:0:
320,192,41821,1,4,0:0:0:0:
448,192,41821,1,0,0:0:0:0:
448,192,41984,1,2,0:0:0:0:
64,192,42147,1,8,0:0:0:0:
320,192,42147,1,0,0:0:0:45:Crash 2.wav
192,192,42310,128,0,42473:0:0:0:0:
320,192,42473,128,2,42636:0:0:0:0:
448,192,42473,1,0,0:0:0:0:
64,192,42636,128,2,42799:0:0:0:0:
192,192,42799,1,8,0:0:0:0:
448,192,42799,128,0,43125:0:0:0:45:Crash 2.wav
64,192,43125,128,2,43288:0:0:0:0:
320,192,43125,1,0,0:0:0:0:
192,192,43288,128,2,43451:0:0:0:0:
320,192,43451,1,8,0:0:0:0:
448,192,43451,128,0,43614:0:0:0:45:Crash 2.wav
64,192,43614,128,8,43777:0:0:0:0:
192,192,43614,1,0,0:0:0:0:
320,192,43777,128,2,43940:0:0:0:0:
448,192,43777,1,0,0:0:0:0:
192,192,43940,1,2,0:0:0:0:
64,192,44103,1,8,0:0:0:0:
448,192,44103,1,0,0:0:0:0:
192,192,44185,1,8,0:0:0:0:
320,192,44266,1,8,0:0:0:0:
448,192,44348,1,8,0:0:0:0:
64,192,44429,1,2,0:0:0:0:
192,192,44429,1,4,0:0:0:0:
320,192,44429,1,0,0:0:0:0:
192,192,44592,1,2,0:0:0:0:
320,192,44755,1,8,0:0:0:0:
448,192,44755,1,0,0:0:0:0:
64,192,44918,1,0,0:0:0:0:
192,192,45000,1,8,0:0:0:0:
320,192,45081,1,2,0:0:0:0:
448,192,45081,1,0,0:0:0:0:
448,192,45245,1,2,0:0:0:0:
64,192,45408,1,8,0:0:0:0:
320,192,45408,1,0,0:0:0:0:
192,192,45571,1,0,0:0:0:0:
320,192,45652,1,8,0:0:0:0:
64,192,45734,1,2,0:0:0:0:
448,192,45734,1,0,0:0:0:0:
64,192,45897,1,2,0:0:0:0:
192,192,46060,1,8,0:0:0:0:
320,192,46060,1,0,0:0:0:0:
448,192,46223,1,0,0:0:0:0:
320,192,46304,1,8,0:0:0:0:
64,192,46386,1,2,0:0:0:0:
192,192,46386,1,0,0:0:0:0:
192,192,46549,1,2,0:0:0:0:
64,192,46712,1,8,0:0:0:0:
448,192,46712,1,0,0:0:0:0:
320,192,46793,1,8,0:0:0:0:
192,192,46875,1,8,0:0:0:0:
64,192,46956,1,8,0:0:0:0:
320,192,47038,1,2,0:0:0:0:
448,192,47038,1,0,0:0:0:0:
448,192,47201,1,2,0:0:0:0:
192,192,47364,1,8,0:0:0:0:
320,192,47364,1,0,0:0:0:0:
64,192,47527,1,0,0:0:0:0:
320,192,47609,1,8,0:0:0:0:
192,192,47690,1,2,0:0:0:0:
448,192,47690,1,0,0:0:0:0:
192,192,47853,1,2,0:0:0:0:
64,192,48016,1,8,0:0:0:0:
320,192,48016,1,0,0:0:0:0:
448,192,48179,1,0,0:0:0:0:
320,192,48261,1,8,0:0:0:0:
64,192,48342,1,2,0:0:0:0:
192,192,48342,1,0,0:0:0:0:
64,192,48505,1,2,0:0:0:0:
320,192,48668,1,8,0:0:0:0:
448,192,48668,1,0,0:0:0:0:
192,192,48831,1,0,0:0:0:0:
320,192,48913,1,8,0:0:0:0:
64,192,48995,1,2,0:0:0:0:
448,192,48995,1,0,0:0:0:0:
448,192,49158,1,2,0:0:0:0:
64,192,49321,1,8,0:0:0:0:
320,192,49321,1,0,0:0:0:0:
192,192,49402,1,8,0:0:0:0:
448,192,49484,1,8,0:0:0:0:
320,192,49565,1,8,0:0:0:0:
64,192,49647,1,2,0:0:0:0:
192,192,49647,1,0,0:0:0:0:
64,192,49810,1,2,0:0:0:0:
192,192,49973,1,8,0:0:0:0:
448,192,49973,1,0,0:0:0:0:
320,192,50136,1,0,0:0:0:0:
192,192,50217,1,8,0:0:0:0:
64,192,50299,1,2,0:0:0:0:
448,192,50299,1,0,0:0:0:0:
448,192,50462,1,2,0:0:0:0:
192,192,50625,1,8,0:0:0:0:
320,192,50625,1,0,0:0:0:0:
64,192,50788,1,0,0:0:0:0:
192,192,50870,1,8,0:0:0:0:
320,192,50951,1,2,0:0:0:0:
448,192,50951,1,0,0:0:0:0:
320,192,51114,1,2,0:0:0:0:
64,192,51277,1,8,0:0:0:0:
192,192,51277,1,0,0:0:0:0:
320,192,51440,1,0,0:0:0:0:
192,192,51522,1,8,0:0:0:0:
64,192,51603,1,2,0:0:0:0:
448,192,51603,1,0,0:0:0:0:
64,192,51766,1,2,0:0:0:0:
320,192,51929,1,8,0:0:0:0:
448,192,51929,1,0,0:0:0:0:
192,192,52011,1,8,0:0:0:0:
64,192,52092,1,8,0:0:0:0:
448,192,52174,1,8,0:0:0:0:
192,192,52255,1,2,0:0:0:0:
320,192,52255,1,0,0:0:0:0:
192,192,52418,1,2,0:0:0:0:
320,192,52581,1,8,0:0:0:0:
448,192,52581,1,0,0:0:0:0:
64,192,52745,1,0,0:0:0:0:
192,192,52826,1,8,0:0:0:0:
320,192,52908,1,2,0:0:0:0:
448,192,52908,1,0,0:0:0:0:
320,192,53071,1,2,0:0:0:0:
192,192,53234,128,8,53560:0:0:0:0:
448,192,53234,1,0,0:0:0:50:Hat open.wav
64,192,53560,1,8,0:0:0:0:
448,192,53560,1,2,0:0:0:0:
320,192,53641,1,8,0:0:0:0:
192,192,53723,1,8,0:0:0:0:
448,192,53804,1,8,0:0:0:0:
64,192,53886,1,10,0:0:0:0:
192,192,53967,1,8,0:0:0:0:
320,192,54049,1,8,0:0:0:0:
64,192,54130,1,8,0:0:0:0:
448,192,54212,1,10,0:0:0:0:
192,192,54293,1,8,0:0:0:0:
320,192,54375,1,8,0:0:0:0:
448,192,54456,1,8,0:0:0:0:
64,192,54538,1,10,0:0:0:0:
320,192,54620,1,8,0:0:0:0:
192,192,54701,1,8,0:0:0:0:
64,192,54783,1,8,0:0:0:0:
320,192,54864,1,2,0:0:0:0:
448,192,54864,128,4,55027:0:0:0:0:
64,192,55027,128,2,55190:0:0:0:0:
192,192,55027,1,0,0:0:0:45:Crash 2.wav
320,192,55190,128,2,55353:0:0:0:0:
448,192,55190,1,4,0:0:0:0:
64,192,55353,1,2,0:0:0:0:
192,192,55353,128,0,55516:0:0:0:45:Crash 2.wav
320,192,55516,1,2,0:0:0:0:
448,192,55516,128,4,55842:0:0:0:0:
64,192,55842,1,8,0:0:0:0:
192,192,55842,1,0,0:0:0:0:
320,192,56005,1,0,0:0:0:0:
192,192,56087,1,8,0:0:0:0:
64,192,56168,1,2,0:0:0:0:
448,192,56168,1,0,0:0:0:0:
448,192,56331,1,2,0:0:0:0:
64,192,56495,1,8,0:0:0:0:
320,192,56495,1,0,0:0:0:0:
192,192,56658,1,0,0:0:0:0:
320,192,56739,1,8,0:0:0:0:
64,192,56821,1,2,0:0:0:0:
448,192,56821,1,0,0:0:0:0:
64,192,56984,1,2,0:0:0:0:
192,192,57147,1,8,0:0:0:0:
448,192,57147,1,0,0:0:0:0:
64,192,57473,128,2,57636:0:0:0:0:
448,192,57473,1,4,0:0:0:0:
192,192,57636,1,2,0:0:0:0:
320,192,57636,128,0,57799:0:0:0:45:Crash 2.wav
64,192,57799,1,2,0:0:0:0:
448,192,57799,128,4,57962:0:0:0:0:
192,192,57962,128,2,58125:0:0:0:0:
320,192,57962,1,0,0:0:0:45:Crash 2.wav
64,192,58125,128,2,58451:0:0:0:0:
448,192,58125,1,4,0:0:0:0:
320,192,58451,1,8,0:0:0:0:
448,192,58451,1,0,0:0:0:0:
64,192,58614,1,0,0:0:0:0:
320,192,58696,1,8,0:0:0:0:
192,192,58777,1,2,0:0:0:0:
448,192,58777,1,0,0:0:0:0:
192,192,58940,1,2,0:0:0:0:
64,192,59103,1,8,0:0:0:0:
320,192,59103,1,0,0:0:0:0:
448,192,59266,1,0,0:0:0:0:
192,192,59348,1,8,0:0:0:0:
64,192,59429,1,2,0:0:0:0:
320,192,59429,1,0,0:0:0:0:
320,192,59592,1,2,0:0:0:0:
64,192,59755,1,8,0:0:0:0:
448,192,59755,1,0,0:0:0:0:
64,192,60081,128,2,60245:0:0:0:0:
192,192,60081,1,4,0:0:0:0:
320,192,60245,1,2,0:0:0:0:
448,192,60245,128,0,60408:0:0:0:45:Crash 2.wav
64,192,60408,1,2,0:0:0:0:
192,192,60408,128,4,60571:0:0:0:0:
320,192,60571,128,2,60734:0:0:0:0:
448,192,60571,1,0,0:0:0:45:Crash 2.wav
64,192,60734,128,2,61060:0:0:0:0:
192,192,60734,1,4,0:0:0:0:
320,192,61060,1,8,0:0:0:0:
448,192,61060,1,0,0:0:0:0:
192,192,61223,1,0,0:0:0:0:
448,192,61304,1,8,0:0:0:0:
64,192,61386,1,2,0:0:0:0:
320,192,61386,1,0,0:0:0:0:
320,192,61549,1,2,0:0:0:0:
64,192,61712,1,8,0:0:0:0:
192,192,61712,1,0,0:0:0:0:
448,192,61875,1,0,0:0:0:0:
64,192,61956,1,8,0:0:0:0:
192,192,62038,1,2,0:0:0:0:
320,192,62038,1,0,0:0:0:0:
192,192,62201,1,2,0:0:0:0:
64,192,62364,1,8,0:0:0:0:
320,192,62364,1,0,0:0:0:50:Hat open.wav
448,192,62364,1,0,0:0:0:0:
64,192,62690,1,8,0:0:0:0:
192,192,62690,1,4,0:0:0:0:
448,192,62690,1,0,0:0:0:0:
320,192,62853,1,2,0:0:0:0:
448,192,62853,1,0,0:0:0:0:
64,192,63016,1,2,0:0:0:0:
192,192,63016,1,0,0:0:0:0:
64,192,63179,1,8,0:0:0:0:
320,192,63179,1,0,0:0:0:45:Crash 2.wav
448,192,63179,1,0,0:0:0:0:
192,192,63342,1,2,0:0:0:0:
320,192,63342,1,0,0:0:0:0:
64,192,63505,1,2,0:0:0:0:
448,192,63505,1,0,0:0:0:0:
320,192,63668,1,8,0:0:0:0:
448,192,63668,1,0,0:0:0:0:
64,192,63831,1,8,0:0:0:0:
192,192,63831,1,0,0:0:0:45:Hat open.wav
448,192,64934,128,0,65260:0:0:0:0:
64,192,65260,1,2,0:0:0:0:
192,192,65260,1,4,0:0:0:0:
320,192,65260,1,0,0:0:0:0:
192,192,65423,1,2,0:0:0:0:
448,192,65423,1,0,0:0:0:0:
64,192,65586,1,8,0:0:0:0:
448,192,65586,1,0,0:0:0:0:
320,192,65749,1,0,0:0:0:0:
192,192,65830,1,8,0:0:0:0:
64,192,65912,1,2,0:0:0:0:
448,192,65912,1,0,0:0:0:0:
192,192,66075,1,2,0:0:0:0:
320,192,66075,1,0,0:0:0:0:
192,192,66238,1,8,0:0:0:0:
448,192,66238,1,0,0:0:0:0:
64,192,66401,1,0,0:0:0:0:
192,192,66482,1,8,0:0:0:0:
320,192,66564,1,2,0:0:0:0:
448,192,66564,1,0,0:0:0:0:
64,192,66727,1,2,0:0:0:0:
192,192,66727,1,0,0:0:0:0:
64,192,66890,1,8,0:0:0:0:
320,192,66890,1,0,0:0:0:0:
448,192,67053,1,0,0:0:0:0:
320,192,67135,1,8,0:0:0:0:
64,192,67216,1,2,0:0:0:0:
192,192,67216,1,0,0:0:0:0:
320,192,67379,1,2,0:0:0:0:
448,192,67379,1,0,0:0:0:0:
192,192,67542,1,8,0:0:0:0:
448,192,67542,1,0,0:0:0:0:
64,192,67705,1,0,0:0:0:0:
192,192,67787,1,8,0:0:0:0:
320,192,67868,1,2,0:0:0:0:
448,192,67868,1,0,0:0:0:0:
64,192,68031,1,2,0:0:0:0:
192,192,68031,1,0,0:0:0:0:
64,192,68194,1,8,0:0:0:0:
448,192,68194,1,0,0:0:0:0:
192,192,68357,1,0,0:0:0:0:
320,192,68439,1,8,0:0:0:0:
64,192,68520,1,2,0:0:0:0:
448,192,68520,1,0,0:0:0:0:
192,192,68683,1,2,0:0:0:0:
320,192,68683,1,0,0:0:0:0:
192,192,68846,1,8,0:0:0:0:
448,192,68846,1,0,0:0:0:0:
320,192,69010,1,0,0:0:0:0:
192,192,69091,1,8,0:0:0:0:
64,192,69173,1,2,0:0:0:0:
448,192,69173,1,0,0:0:0:0:
192,192,69336,1,2,0:0:0:0:
320,192,69336,1,0,0:0:0:0:
64,192,69499,1,8,0:0:0:0:
192,192,69499,1,0,0:0:0:0:
448,192,69662,1,0,0:0:0:0:
320,192,69743,1,8,0:0:0:0:
64,192,69825,1,2,0:0:0:0:
192,192,69825,1,0,0:0:0:0:
320,192,69988,1,2,0:0:0:0:
448,192,69988,1,0,0:0:0:0:
64,192,70151,1,8,0:0:0:0:
448,192,70151,1,0,0:0:0:0:
192,192,70232,1,8,0:0:0:0:
320,192,70314,1,8,0:0:0:0:
448,192,70395,1,8,0:0:0:0:
64,192,70477,1,2,0:0:0:0:
192,192,70477,1,4,0:0:0:0:
320,192,70477,1,0,0:0:0:0:
64,192,70640,1,2,0:0:0:0:
448,192,70640,1,0,0:0:0:0:
192,192,70803,1,8,0:0:0:0:
448,192,70803,1,0,0:0:0:0:
320,192,70966,1,0,0:0:0:0:
192,192,71048,1,8,0:0:0:0:
64,192,71129,1,2,0:0:0:0:
448,192,71129,1,0,0:0:0:0:
192,192,71292,1,2,0:0:0:0:
320,192,71292,1,0,0:0:0:0:
64,192,71455,1,8,0:0:0:0:
320,192,71455,1,0,0:0:0:0:
448,192,71618,1,0,0:0:0:0:
320,192,71700,1,8,0:0:0:0:
64,192,71781,1,2,0:0:0:0:
192,192,71781,1,0,0:0:0:0:
320,192,71944,1,2,0:0:0:0:
448,192,71944,1,0,0:0:0:0:
64,192,72107,1,8,0:0:0:0:
448,192,72107,1,0,0:0:0:0:
192,192,72270,1,0,0:0:0:0:
320,192,72352,1,8,0:0:0:0:
64,192,72433,1,2,0:0:0:0:
448,192,72433,1,0,0:0:0:0:
192,192,72596,1,2,0:0:0:0:
320,192,72596,1,0,0:0:0:0:
192,192,72760,1,8,0:0:0:0:
448,192,72760,1,0,0:0:0:0:
64,192,72923,1,0,0:0:0:0:
192,192,73004,1,8,0:0:0:0:
320,192,73086,1,2,0:0:0:0:
448,192,73086,1,0,0:0:0:0:
64,192,73249,1,2,0:0:0:0:
192,192,73249,1,0,0:0:0:0:
64,192,73412,1,8,0:0:0:0:
448,192,73412,1,0,0:0:0:0:
320,192,73575,1,0,0:0:0:0:
192,192,73656,1,8,0:0:0:0:
64,192,73738,1,2,0:0:0:0:
448,192,73738,1,0,0:0:0:0:
192,192,73901,1,2,0:0:0:0:
320,192,73901,1,0,0:0:0:0:
320,192,74064,1,8,0:0:0:0:
448,192,74064,1,0,0:0:0:0:
192,192,74227,1,0,0:0:0:0:
64,192,74390,1,8,0:0:0:0:
448,192,74390,1,0,0:0:0:0:
320,192,74471,1,8,0:0:0:0:
192,192,74553,1,8,0:0:0:0:
64,192,74635,1,8,0:0:0:0:
320,192,74716,1,8,0:0:0:0:
448,192,74716,1,0,0:0:0:0:
192,192,74798,1,8,0:0:0:0:
64,192,74879,1,8,0:0:0:0:
448,192,74961,1,8,0:0:0:0:
192,192,75042,1,0,0:0:0:50:Tom1.wav
320,192,75124,1,0,0:0:0:50:Tom1.wav
64,192,75205,1,0,0:0:0:50:Tom1.wav
448,192,75287,1,0,0:0:0:50:Tom1.wav
192,192,75368,1,0,0:0:0:55:Tom2.wav
320,192,75450,1,0,0:0:0:55:Tom2.wav
64,192,75531,1,0,0:0:0:55:Tom3.wav
192,192,75613,1,0,0:0:0:55:Tom3.wav
64,192,75694,1,2,0:0:0:0:
320,192,75694,1,4,0:0:0:0:
448,192,75694,1,0,0:0:0:0:
192,192,75857,1,2,0:0:0:0:
448,192,75857,1,0,0:0:0:0:
192,192,76020,1,8,0:0:0:0:
320,192,76020,1,0,0:0:0:0:
64,192,76183,1,8,0:0:0:0:
320,192,76265,1,8,0:0:0:0:
64,192,76346,1,2,0:0:0:0:
192,192,76346,1,0,0:0:0:0:
320,192,76510,1,2,0:0:0:0:
448,192,76510,1,0,0:0:0:0:
64,192,76673,1,8,0:0:0:0:
448,192,76673,1,0,0:0:0:0:
320,192,76836,1,8,0:0:0:0:
192,192,76917,1,8,0:0:0:0:
320,192,76999,1,2,0:0:0:0:
448,192,76999,1,0,0:0:0:0:
64,192,77162,1,2,0:0:0:0:
192,192,77162,1,0,0:0:0:0:
64,192,77325,1,8,0:0:0:0:
448,192,77325,1,0,0:0:0:0:
192,192,77488,1,8,0:0:0:0:
320,192,77569,1,8,0:0:0:0:
192,192,77651,1,2,0:0:0:0:
448,192,77651,1,0,0:0:0:0:
64,192,77814,1,2,0:0:0:0:
320,192,77814,1,0,0:0:0:0:
192,192,77977,1,8,0:0:0:0:
320,192,77977,1,0,0:0:0:0:
448,192,78140,1,8,0:0:0:0:
64,192,78221,1,8,0:0:0:0:
192,192,78303,1,2,0:0:0:0:
448,192,78303,1,0,0:0:0:45:Crash 2.wav
64,192,78466,1,2,0:0:0:0:
320,192,78466,1,0,0:0:0:0:
64,192,78629,1,8,0:0:0:0:
192,192,78629,1,0,0:0:0:0:
320,192,78792,1,8,0:0:0:0:
448,192,78874,1,8,0:0:0:0:
192,192,78955,1,2,0:0:0:0:
320,192,78955,1,0,0:0:0:0:
64,192,79118,1,2,0:0:0:0:
448,192,79118,1,0,0:0:0:0:
320,192,79281,1,8,0:0:0:0:
448,192,79281,1,0,0:0:0:0:
192,192,79444,1,8,0:0:0:0:
64,192,79526,1,8,0:0:0:0:
192,192,79607,1,2,0:0:0:0:
320,192,79607,1,0,0:0:0:0:
64,192,79770,1,2,0:0:0:0:
448,192,79770,1,0,0:0:0:0:
64,192,79933,1,8,0:0:0:0:
192,192,79933,1,0,0:0:0:0:
320,192,80096,1,8,0:0:0:0:
448,192,80178,1,8,0:0:0:0:
64,192,80260,1,2,0:0:0:0:
320,192,80260,1,0,0:0:0:0:
192,192,80423,1,2,0:0:0:0:
448,192,80423,1,0,0:0:0:0:
64,192,80586,1,8,0:0:0:0:
320,192,80586,1,0,0:0:0:0:
192,192,80667,1,8,0:0:0:0:
448,192,80749,1,8,0:0:0:0:
320,192,80830,1,8,0:0:0:0:
64,192,80912,1,2,0:0:0:0:
192,192,80912,1,4,0:0:0:0:
448,192,80912,1,0,0:0:0:0:
192,192,81075,1,2,0:0:0:0:
320,192,81075,1,0,0:0:0:0:
64,192,81238,1,8,0:0:0:0:
320,192,81238,1,0,0:0:0:0:
448,192,81401,1,8,0:0:0:0:
192,192,81482,1,8,0:0:0:0:
320,192,81564,1,2,0:0:0:0:
448,192,81564,1,0,0:0:0:0:
64,192,81727,1,2,0:0:0:0:
192,192,81727,1,0,0:0:0:0:
64,192,81890,1,8,0:0:0:0:
448,192,81890,1,0,0:0:0:0:
192,192,82053,1,8,0:0:0:0:
320,192,82135,1,8,0:0:0:0:
64,192,82216,1,2,0:0:0:0:
192,192,82216,1,0,0:0:0:0:
320,192,82379,1,2,0:0:0:0:
448,192,82379,1,0,0:0:0:0:
64,192,82542,1,8,0:0:0:0:
320,192,82542,1,0,0:0:0:0:
192,192,82705,1,0,0:0:0:0:
320,192,82868,1,2,0:0:0:0:
448,192,82868,1,8,0:0:0:0:
64,192,83031,1,0,0:0:0:50:Tom1.wav
192,192,83194,128,0,83520:0:0:0:55:Tom2.wav
64,192,83520,1,2,0:0:0:0:
320,192,83520,1,4,0:0:0:0:
448,192,83520,128,0,83846:0:0:0:0:
320,192,83846,1,0,0:0:0:60:Ride.wav
64,192,84010,1,2,0:0:0:0:
192,192,84010,1,0,0:0:0:0:
64,192,84173,128,8,84499:0:0:0:0:
448,192,84173,1,0,0:0:0:0:
320,192,84499,1,0,0:0:0:60:Ride.wav
192,192,84662,1,0,0:0:0:0:
320,192,84825,128,2,85151:0:0:0:0:
448,192,84825,1,0,0:0:0:0:
64,192,85151,1,0,0:0:0:60:Ride.wav
192,192,85314,1,2,0:0:0:0:
448,192,85314,1,0,0:0:0:0:
320,192,85477,1,2,0:0:0:0:
320,192,85721,1,0,0:0:0:60:Ride.wav
320,192,85966,1,0,0:0:0:60:Ride.wav
64,192,86129,1,2,0:0:0:0:
448,192,86129,1,4,0:0:0:0:
192,192,86292,1,2,0:0:0:0:
320,192,86455,1,8,0:0:0:0:
448,192,86455,1,0,0:0:0:0:
64,192,86618,1,2,0:0:0:0:
192,192,86618,1,0,0:0:0:0:
320,192,86781,1,0,0:0:0:0:
192,192,86944,1,2,0:0:0:0:
448,192,86944,1,0,0:0:0:0:
64,192,87107,1,8,0:0:0:0:
448,192,87107,1,0,0:0:0:0:
320,192,87189,1,8,0:0:0:0:
192,192,87270,1,8,0:0:0:0:
64,192,87352,1,8,0:0:0:0:
320,192,87433,1,2,0:0:0:0:
448,192,87433,1,0,0:0:0:0:
192,192,87596,1,2,0:0:0:0:
64,192,87760,1,8,0:0:0:0:
448,192,87760,1,0,0:0:0:0:
192,192,87923,1,2,0:0:0:0:
320,192,87923,1,0,0:0:0:0:
448,192,88086,1,0,0:0:0:0:
64,192,88249,1,2,0:0:0:0:
320,192,88249,1,0,0:0:0:0:
64,192,88412,1,8,0:0:0:0:
448,192,88412,1,0,0:0:0:0:
192,192,88493,1,8,0:0:0:0:
320,192,88575,1,8,0:0:0:0:
448,192,88656,1,8,0:0:0:0:
64,192,88738,1,2,0:0:0:0:
192,192,88738,1,0,0:0:0:0:
320,192,88901,1,2,0:0:0:0:
64,192,89064,1,8,0:0:0:0:
192,192,89064,1,0,0:0:0:0:
320,192,89227,1,2,0:0:0:0:
448,192,89227,1,0,0:0:0:0:
64,192,89390,1,0,0:0:0:0:
192,192,89553,1,2,0:0:0:0:
448,192,89553,1,0,0:0:0:0:
320,192,89716,1,8,0:0:0:0:
448,192,89716,1,0,0:0:0:0:
64,192,89798,1,8,0:0:0:0:
192,192,89879,1,8,0:0:0:0:
320,192,89961,1,8,0:0:0:0:
64,192,90042,1,2,0:0:0:0:
448,192,90042,1,0,0:0:0:0:
192,192,90205,1,2,0:0:0:0:
320,192,90368,1,8,0:0:0:0:
448,192,90368,1,0,0:0:0:0:
64,192,90531,1,2,0:0:0:0:
192,192,90531,1,0,0:0:0:0:
320,192,90694,1,0,0:0:0:0:
64,192,90857,1,2,0:0:0:0:
448,192,90857,1,0,0:0:0:0:
64,192,91020,1,8,0:0:0:0:
192,192,91020,1,0,0:0:0:0:
448,192,91102,1,8,0:0:0:0:
320,192,91183,1,8,0:0:0:0:
192,192,91265,1,8,0:0:0:0:
64,192,91346,128,2,91509:0:0:0:0:
448,192,91346,128,0,91509:0:0:0:50:Hat open.wav
320,192,91509,1,0,0:0:0:0:
64,192,91673,1,8,0:0:0:0:
192,192,91673,1,0,0:0:0:0:
320,192,91836,128,2,91999:0:0:0:0:
448,192,91836,128,0,91999:0:0:0:50:Hat open.wav
64,192,91999,1,0,0:0:0:0:
192,192,92162,1,2,0:0:0:0:
320,192,92325,1,8,0:0:0:0:
448,192,92325,1,0,0:0:0:55:Tom3.wav
320,192,92488,1,8,0:0:0:0:
448,192,92488,1,0,0:0:0:55:Tom3.wav
64,192,92651,128,2,92814:0:0:0:0:
192,192,92651,128,0,92814:0:0:0:50:Hat open.wav
448,192,92814,1,0,0:0:0:0:
64,192,92977,1,8,0:0:0:0:
192,192,92977,1,0,0:0:0:0:
320,192,93140,128,2,93303:0:0:0:0:
448,192,93140,128,0,93303:0:0:0:50:Hat open.wav
64,192,93303,1,0,0:0:0:0:
320,192,93466,1,2,0:0:0:0:
192,192,93629,1,8,0:0:0:0:
448,192,93629,1,0,0:0:0:55:Tom3.wav
192,192,93792,1,8,0:0:0:0:
448,192,93792,1,0,0:0:0:55:Tom3.wav
64,192,93955,128,2,94118:0:0:0:0:
320,192,93955,128,0,94118:0:0:0:50:Hat open.wav
192,192,94118,1,0,0:0:0:0:
64,192,94281,1,8,0:0:0:0:
448,192,94281,1,0,0:0:0:0:
192,192,94444,128,2,94607:0:0:0:0:
320,192,94444,128,0,94607:0:0:0:50:Hat open.wav
64,192,94607,1,0,0:0:0:0:
448,192,94770,1,2,0:0:0:0:
64,192,94933,1,8,0:0:0:0:
192,192,94933,1,0,0:0:0:55:Tom3.wav
64,192,95096,1,8,0:0:0:0:
192,192,95096,1,0,0:0:0:55:Tom3.wav
320,192,95259,128,2,95423:0:0:0:0:
448,192,95259,128,0,95423:0:0:0:50:Hat open.wav
192,192,95423,1,0,0:0:0:0:
64,192,95586,1,8,0:0:0:0:
448,192,95586,1,0,0:0:0:0:
192,192,95749,128,2,95912:0:0:0:0:
320,192,95749,128,0,95912:0:0:0:50:Hat open.wav
64,192,95912,1,0,0:0:0:0:
320,192,96075,1,2,0:0:0:0:
64,192,96238,1,8,0:0:0:0:
192,192,96238,1,0,0:0:0:45:Crash 2.wav
448,192,96238,1,0,0:0:0:0:
64,192,96564,1,8,0:0:0:0:
320,192,96564,1,4,0:0:0:0:
448,192,96564,1,0,0:0:0:0:
192,192,96727,1,2,0:0:0:0:
320,192,96727,1,0,0:0:0:0:
64,192,96890,1,2,0:0:0:0:
448,192,96890,1,0,0:0:0:0:
192,192,97053,1,8,0:0:0:0:
448,192,97053,1,0,0:0:0:0:
64,192,97216,1,2,0:0:0:0:
320,192,97216,1,0,0:0:0:0:
192,192,97379,1,2,0:0:0:0:
448,192,97379,1,0,0:0:0:0:
192,192,97542,1,8,0:0:0:0:
320,192,97542,1,0,0:0:0:0:
64,192,97705,1,2,0:0:0:0:
448,192,97705,1,0,0:0:0:0:
192,192,97868,1,2,0:0:0:0:
320,192,97868,1,0,0:0:0:0:
64,192,98031,1,8,0:0:0:0:
320,192,98031,1,0,0:0:0:0:
192,192,98194,1,2,0:0:0:0:
448,192,98194,1,0,0:0:0:0:
64,192,98357,1,2,0:0:0:0:
320,192,98357,1,0,0:0:0:0:
64,192,98520,1,8,0:0:0:0:
192,192,98520,1,0,0:0:0:45:Crash 2.wav
448,192,98520,1,0,0:0:0:0:
192,192,98683,1,2,0:0:0:0:
64,192,98846,1,8,0:0:0:0:
320,192,98846,1,0,0:0:0:45:Crash 2.wav
448,192,98846,1,0,0:0:0:0:
448,192,99009,1,0,0:0:0:0:
320,192,99173,1,2,0:0:0:0:
64,192,99336,1,8,0:0:0:0:
192,192,99336,1,0,0:0:0:0:
64,192,99499,1,8,0:0:0:0:
192,192,99499,1,0,0:0:0:0:
320,192,99662,1,2,0:0:0:0:
64,192,99825,1,8,0:0:0:0:
448,192,99825,1,0,0:0:0:0:
64,192,99988,1,8,0:0:0:0:
448,192,99988,1,0,0:0:0:0:
192,192,100151,1,2,0:0:0:0:
320,192,100314,1,8,0:0:0:0:
448,192,100314,1,0,0:0:0:0:
320,192,100477,1,8,0:0:0:0:
448,192,100477,1,0,0:0:0:0:
64,192,100640,1,0,0:0:0:50:Tom1.wav
192,192,100803,1,0,0:0:0:55:Tom2.wav
320,192,100966,1,2,0:0:0:0:
448,192,100966,1,0,0:0:0:0:
64,192,101129,1,8,0:0:0:0:
448,192,101129,1,0,0:0:0:45:Hat open.wav
192,192,101455,128,0,101781:0:0:0:0:
64,192,101781,1,2,0:0:0:0:
320,192,101781,1,4,0:0:0:0:
448,192,101781,1,0,0:0:0:0:
192,192,101944,1,2,0:0:0:0:
320,192,101944,1,0,0:0:0:0:
64,192,102107,1,8,0:0:0:0:
192,192,102107,1,0,0:0:0:0:
448,192,102270,1,0,0:0:0:0:
320,192,102352,1,8,0:0:0:0:
64,192,102433,1,2,0:0:0:0:
192,192,102433,1,0,0:0:0:0:
320,192,102596,1,2,0:0:0:0:
448,192,102596,1,0,0:0:0:0:
64,192,102759,1,8,0:0:0:0:
448,192,102759,1,0,0:0:0:0:
192,192,102923,1,0,0:0:0:0:
320,192,103004,1,8,0:0:0:0:
64,192,103086,1,2,0:0:0:0:
448,192,103086,1,0,0:0:0:0:
192,192,103249,1,2,0:0:0:0:
320,192,103249,1,0,0:0:0:0:
192,192,103412,1,8,0:0:0:0:
448,192,103412,1,0,0:0:0:0:
64,192,103575,1,0,0:0:0:0:
192,192,103656,1,8,0:0:0:0:
320,192,103738,1,2,0:0:0:0:
448,192,103738,1,0,0:0:0:0:
64,192,103901,1,2,0:0:0:0:
192,192,103901,1,0,0:0:0:0:
64,192,104064,1,8,0:0:0:0:
448,192,104064,1,0,0:0:0:0:
320,192,104227,1,0,0:0:0:0:
192,192,104308,1,8,0:0:0:0:
64,192,104390,1,2,0:0:0:0:
448,192,104390,1,0,0:0:0:0:
192,192,104553,1,2,0:0:0:0:
320,192,104553,1,0,0:0:0:0:
64,192,104716,1,8,0:0:0:0:
320,192,104716,1,0,0:0:0:0:
192,192,104879,1,0,0:0:0:0:
320,192,104961,1,8,0:0:0:0:
64,192,105042,1,2,0:0:0:0:
448,192,105042,1,0,0:0:0:0:
192,192,105205,1,2,0:0:0:0:
320,192,105205,1,0,0:0:0:0:
192,192,105368,1,8,0:0:0:0:
448,192,105368,1,0,0:0:0:0:
64,192,105531,1,0,0:0:0:0:
192,192,105613,1,8,0:0:0:0:
320,192,105694,1,2,0:0:0:0:
448,192,105694,1,0,0:0:0:0:
64,192,105857,1,2,0:0:0:0:
192,192,105857,1,0,0:0:0:0:
64,192,106020,1,8,0:0:0:0:
448,192,106020,1,0,0:0:0:0:
320,192,106183,1,0,0:0:0:0:
192,192,106265,1,8,0:0:0:0:
64,192,106346,1,2,0:0:0:0:
448,192,106346,1,0,0:0:0:0:
192,192,106509,1,2,0:0:0:0:
320,192,106509,1,0,0:0:0:0:
320,192,106673,1,8,0:0:0:0:
448,192,106673,1,0,0:0:0:0:
192,192,106754,1,8,0:0:0:0:
64,192,106836,1,8,0:0:0:0:
448,192,106917,1,8,0:0:0:0:
64,192,106999,1,2,0:0:0:0:
192,192,106999,1,4,0:0:0:0:
320,192,106999,1,0,0:0:0:0:
192,192,107162,1,2,0:0:0:0:
448,192,107162,1,0,0:0:0:0:
64,192,107325,1,8,0:0:0:0:
448,192,107325,1,0,0:0:0:0:
192,192,107488,1,0,0:0:0:0:
320,192,107569,1,8,0:0:0:0:
64,192,107651,1,2,0:0:0:0:
448,192,107651,1,0,0:0:0:0:
192,192,107814,1,2,0:0:0:0:
320,192,107814,1,0,0:0:0:0:
64,192,107977,1,8,0:0:0:0:
192,192,107977,1,0,0:0:0:0:
448,192,108140,1,0,0:0:0:0:
320,192,108221,1,8,0:0:0:0:
64,192,108303,1,2,0:0:0:0:
192,192,108303,1,0,0:0:0:0:
320,192,108466,1,2,0:0:0:0:
448,192,108466,1,0,0:0:0:0:
192,192,108629,1,8,0:0:0:0:
448,192,108629,1,0,0:0:0:0:
64,192,108792,1,0,0:0:0:0:
192,192,108874,1,8,0:0:0:0:
320,192,108955,1,2,0:0:0:0:
448,192,108955,1,0,0:0:0:0:
64,192,109118,1,2,0:0:0:0:
192,192,109118,1,0,0:0:0:0:
64,192,109281,1,8,0:0:0:0:
448,192,109281,1,0,0:0:0:0:
320,192,109444,1,0,0:0:0:0:
192,192,109526,1,8,0:0:0:0:
64,192,109607,1,2,0:0:0:0:
448,192,109607,1,0,0:0:0:0:
192,192,109770,1,2,0:0:0:0:
320,192,109770,1,0,0:0:0:0:
192,192,109933,1,8,0:0:0:0:
448,192,109933,1,0,0:0:0:0:
64,192,110096,1,0,0:0:0:0:
320,192,110178,1,8,0:0:0:0:
192,192,110259,1,2,0:0:0:0:
448,192,110259,1,0,0:0:0:0:
64,192,110423,1,2,0:0:0:0:
320,192,110423,1,0,0:0:0:0:
64,192,110586,1,8,0:0:0:0:
448,192,110586,1,0,0:0:0:0:
320,192,110749,1,0,0:0:0:0:
64,192,110912,1,8,0:0:0:0:
448,192,110912,1,0,0:0:0:0:
192,192,110993,1,8,0:0:0:0:
320,192,111075,1,8,0:0:0:0:
448,192,111156,1,8,0:0:0:0:
64,192,111238,1,8,0:0:0:0:
192,192,111238,1,0,0:0:0:0:
320,192,111319,1,8,0:0:0:0:
448,192,111401,1,8,0:0:0:0:
64,192,111482,1,8,0:0:0:0:
320,192,111564,1,0,0:0:0:50:Tom1.wav
192,192,111645,1,0,0:0:0:50:Tom1.wav
448,192,111727,1,0,0:0:0:50:Tom1.wav
64,192,111808,1,0,0:0:0:50:Tom1.wav
320,192,111890,1,0,0:0:0:55:Tom2.wav
192,192,111971,1,0,0:0:0:55:Tom2.wav
448,192,112053,1,0,0:0:0:55:Tom3.wav
320,192,112134,1,0,0:0:0:55:Tom3.wav
64,192,112216,1,2,0:0:0:0:
192,192,112216,1,4,0:0:0:0:
448,192,112216,1,0,0:0:0:0:
64,192,112379,1,2,0:0:0:0:
320,192,112379,1,0,0:0:0:0:
320,192,112542,1,8,0:0:0:0:
448,192,112542,1,0,0:0:0:0:
192,192,112705,1,8,0:0:0:0:
320,192,112787,1,8,0:0:0:0:
64,192,112868,1,2,0:0:0:0:
192,192,112868,1,0,0:0:0:0:
320,192,113031,1,2,0:0:0:0:
448,192,113031,1,0,0:0:0:0:
192,192,113194,1,8,0:0:0:0:
448,192,113194,1,0,0:0:0:0:
64,192,113357,1,8,0:0:0:0:
320,192,113439,1,8,0:0:0:0:
64,192,113520,1,2,0:0:0:0:
192,192,113520,1,0,0:0:0:0:
320,192,113683,1,2,0:0:0:0:
448,192,113683,1,0,0:0:0:0:
64,192,113846,1,8,0:0:0:0:
320,192,113846,1,0,0:0:0:0:
448,192,114009,1,8,0:0:0:0:
192,192,114091,1,8,0:0:0:0:
320,192,114173,1,2,0:0:0:0:
448,192,114173,1,0,0:0:0:0:
64,192,114336,1,2,0:0:0:0:
192,192,114336,1,0,0:0:0:0:
64,192,114499,1,8,0:0:0:0:
448,192,114499,1,0,0:0:0:0:
320,192,114662,1,8,0:0:0:0:
192,192,114743,1,8,0:0:0:0:
64,192,114825,1,2,0:0:0:0:
320,192,114825,1,0,0:0:0:45:Crash 2.wav
192,192,114988,1,2,0:0:0:0:
448,192,114988,1,0,0:0:0:0:
64,192,115151,1,8,0:0:0:0:
448,192,115151,1,0,0:0:0:0:
192,192,115314,1,8,0:0:0:0:
448,192,115395,1,8,0:0:0:0:
192,192,115477,1,2,0:0:0:0:
320,192,115477,1,0,0:0:0:0:
64,192,115640,1,2,0:0:0:0:
448,192,115640,1,0,0:0:0:0:
192,192,115803,1,8,0:0:0:0:
448,192,115803,1,0,0:0:0:0:
320,192,115966,1,8,0:0:0:0:
192,192,116048,1,8,0:0:0:0:
320,192,116129,1,2,0:0:0:0:
448,192,116129,1,0,0:0:0:0:
64,192,116292,1,2,0:0:0:0:
192,192,116292,1,0,0:0:0:0:
64,192,116455,1,8,0:0:0:0:
448,192,116455,1,0,0:0:0:0:
320,192,116618,1,8,0:0:0:0:
192,192,116700,1,8,0:0:0:0:
64,192,116781,1,2,0:0:0:0:
320,192,116781,1,0,0:0:0:0:
192,192,116944,1,2,0:0:0:0:
448,192,116944,1,0,0:0:0:0:
64,192,117107,1,8,0:0:0:0:
320,192,117107,1,0,0:0:0:0:
192,192,117189,1,8,0:0:0:0:
448,192,117270,1,8,0:0:0:0:
320,192,117352,1,8,0:0:0:0:
64,192,117433,1,2,0:0:0:0:
192,192,117433,1,4,0:0:0:0:
448,192,117433,1,0,0:0:0:0:
64,192,117596,1,2,0:0:0:0:
320,192,117596,1,0,0:0:0:0:
192,192,117759,1,8,0:0:0:0:
320,192,117759,1,0,0:0:0:0:
448,192,117923,1,8,0:0:0:0:
192,192,118004,1,8,0:0:0:0:
320,192,118086,1,2,0:0:0:0:
448,192,118086,1,0,0:0:0:0:
64,192,118249,1,2,0:0:0:0:
192,192,118249,1,0,0:0:0:0:
192,192,118412,1,8,0:0:0:0:
320,192,118412,1,0,0:0:0:0:
448,192,118575,1,8,0:0:0:0:
64,192,118656,1,8,0:0:0:0:
192,192,118738,1,2,0:0:0:0:
448,192,118738,1,0,0:0:0:0:
64,192,118901,1,2,0:0:0:0:
320,192,118901,1,0,0:0:0:0:
64,192,119064,1,8,0:0:0:0:
448,192,119064,1,0,0:0:0:0:
192,192,119227,1,8,0:0:0:0:
320,192,119308,1,8,0:0:0:0:
64,192,119390,1,2,0:0:0:0:
192,192,119390,1,0,0:0:0:0:
320,192,119553,1,2,0:0:0:0:
448,192,119553,1,0,0:0:0:0:
64,192,119716,1,8,0:0:0:0:
448,192,119716,1,0,0:0:0:0:
192,192,119798,1,8,0:0:0:0:
320,192,119879,1,8,0:0:0:0:
448,192,119961,1,8,0:0:0:0:
64,192,120042,1,2,0:0:0:0:
192,192,120042,1,4,0:0:0:0:
320,192,120042,1,0,0:0:0:0:
64,192,120205,1,2,0:0:0:0:
448,192,120205,1,0,0:0:0:0:
192,192,120368,1,8,0:0:0:0:
448,192,120368,1,0,0:0:0:0:
320,192,120531,1,8,0:0:0:0:
192,192,120613,1,8,0:0:0:0:
64,192,120694,1,2,0:0:0:0:
320,192,120694,1,0,0:0:0:0:
192,192,120857,1,2,0:0:0:0:
448,192,120857,1,0,0:0:0:0:
192,192,121020,1,8,0:0:0:0:
320,192,121020,1,0,0:0:0:0:
64,192,121183,1,8,0:0:0:0:
320,192,121265,1,8,0:0:0:0:
64,192,121346,1,2,0:0:0:0:
192,192,121346,1,0,0:0:0:0:
320,192,121509,1,2,0:0:0:0:
448,192,121509,1,0,0:0:0:0:
64,192,121673,1,8,0:0:0:0:
448,192,121673,1,0,0:0:0:0:
192,192,121836,1,8,0:0:0:0:
320,192,121917,1,8,0:0:0:0:
64,192,121999,1,2,0:0:0:0:
192,192,121999,1,0,0:0:0:0:
320,192,122162,1,2,0:0:0:0:
448,192,122162,1,0,0:0:0:0:
64,192,122325,1,8,0:0:0:0:
448,192,122325,1,0,0:0:0:0:
192,192,122406,1,8,0:0:0:0:
320,192,122488,1,8,0:0:0:0:
192,192,122569,1,8,0:0:0:0:
64,192,122651,1,2,0:0:0:0:
320,192,122651,1,4,0:0:0:0:
448,192,122651,1,0,0:0:0:0:
64,192,122977,1,8,0:0:0:0:
192,192,122977,1,2,0:0:0:0:
320,192,123058,1,8,0:0:0:0:
448,192,123140,1,8,0:0:0:0:
64,192,123221,1,8,0:0:0:0:
320,192,123303,1,10,0:0:0:0:
192,192,123384,1,8,0:0:0:0:
64,192,123466,1,8,0:0:0:0:
448,192,123548,1,8,0:0:0:0:
320,192,123629,1,10,0:0:0:0:
64,192,123711,1,8,0:0:0:0:
192,192,123792,1,8,0:0:0:0:
320,192,123874,1,8,0:0:0:0:
448,192,123955,1,10,0:0:0:0:
64,192,124037,1,8,0:0:0:0:
192,192,124118,1,8,0:0:0:0:
448,192,124200,1,8,0:0:0:0:
320,192,124281,1,10,0:0:0:0:
192,192,124363,1,8,0:0:0:0:
448,192,124444,1,8,0:0:0:0:
64,192,124526,1,8,0:0:0:0:
192,192,124607,1,10,0:0:0:0:
320,192,124689,1,8,0:0:0:0:
448,192,124770,1,8,0:0:0:0:
64,192,124852,1,8,0:0:0:0:
192,192,124933,1,10,0:0:0:0:
448,192,125015,1,8,0:0:0:0:
320,192,125096,1,8,0:0:0:0:
192,192,125178,1,8,0:0:0:0:
64,192,125259,1,2,0:0:0:0:
320,192,125259,1,4,0:0:0:0:
448,192,125259,1,0,0:0:0:0:
64,192,125586,1,8,0:0:0:0:
192,192,125586,1,0,0:0:0:55:Tom3.wav
192,192,125749,1,8,0:0:0:0:
448,192,125749,1,0,0:0:0:55:Tom3.wav
320,192,125912,1,8,0:0:0:0:
448,192,125912,1,0,0:0:0:55:Tom3.wav
64,192,126075,1,8,0:0:0:0:
320,192,126075,1,0,0:0:0:55:Tom3.wav
64,192,126238,1,8,0:0:0:0:
192,192,126238,1,0,0:0:0:55:Tom3.wav
192,192,126401,1,8,0:0:0:0:
448,192,126401,1,0,0:0:0:55:Tom3.wav
64,192,126564,1,8,0:0:0:0:
320,192,126564,1,0,0:0:0:0:
448,192,126564,1,0,0:0:0:0:
64,192,127868,128,2,128031:0:0:0:0:
192,192,127868,1,4,0:0:0:0:
320,192,127868,1,0,0:0:0:0:
448,192,128031,128,2,128357:0:0:0:0:
64,192,128194,1,8,0:0:0:0:
320,192,128194,1,0,0:0:0:0:
192,192,128357,128,0,128520:0:0:0:0:
320,192,128520,128,2,128683:0:0:0:0:
448,192,128520,1,0,0:0:0:0:
192,192,128683,1,2,0:0:0:0:
64,192,128846,128,8,129009:0:0:0:0:
448,192,128846,1,0,0:0:0:0:
320,192,129009,128,0,129173:0:0:0:0:
64,192,129173,1,2,0:0:0:0:
192,192,129173,128,0,129336:0:0:0:0:
448,192,129336,128,2,129499:0:0:0:0:
64,192,129499,128,8,129662:0:0:0:0:
320,192,129499,1,0,0:0:0:0:
192,192,129662,128,0,129825:0:0:0:0:
320,192,129825,128,2,129988:0:0:0:0:
448,192,129825,1,0,0:0:0:0:
192,192,129988,1,2,0:0:0:0:
64,192,130151,1,8,0:0:0:0:
448,192,130151,128,0,130477:0:0:0:0:
320,192,130314,1,0,0:0:0:0:
64,192,130477,128,2,130640:0:0:0:0:
192,192,130477,1,0,0:0:0:0:
320,192,130640,128,2,130966:0:0:0:0:
64,192,130803,1,8,0:0:0:0:
448,192,130803,1,0,0:0:0:0:
192,192,130966,128,0,131129:0:0:0:0:
320,192,131129,1,2,0:0:0:0:
448,192,131129,128,0,131292:0:0:0:0:
64,192,131292,1,2,0:0:0:0:
192,192,131455,128,8,131618:0:0:0:0:
448,192,131455,1,0,0:0:0:0:
320,192,131618,128,0,131781:0:0:0:0:
64,192,131781,128,2,131944:0:0:0:0:
192,192,131781,1,0,0:0:0:0:
448,192,131944,128,2,132107:0:0:0:0:
192,192,132107,128,8,132270:0:0:0:0:
320,192,132107,1,0,0:0:0:0:
64,192,132270,128,0,132433:0:0:0:0:
320,192,132433,1,2,0:0:0:0:
448,192,132433,1,0,0:0:0:0:
192,192,132596,1,2,0:0:0:0:
64,192,132759,1,8,0:0:0:0:
448,192,132759,1,0,0:0:0:0:
320,192,132841,1,8,0:0:0:0:
192,192,132923,1,8,0:0:0:0:
320,192,133004,1,8,0:0:0:0:
64,192,133086,128,2,133249:0:0:0:0:
192,192,133086,1,4,0:0:0:0:
448,192,133086,1,0,0:0:0:0:
320,192,133249,128,2,133575:0:0:0:0:
64,192,133412,1,8,0:0:0:0:
448,192,133412,1,0,0:0:0:0:
192,192,133575,128,0,133738:0:0:0:0:
64,192,133738,1,2,0:0:0:0:
448,192,133738,128,0,133901:0:0:0:0:
320,192,133901,1,2,0:0:0:0:
64,192,134064,128,8,134227:0:0:0:0:
192,192,134064,1,0,0:0:0:0:
448,192,134227,128,0,134390:0:0:0:0:
192,192,134390,128,2,134553:0:0:0:0:
320,192,134390,1,0,0:0:0:0:
64,192,134553,128,2,134716:0:0:0:0:
320,192,134716,128,8,134879:0:0:0:0:
448,192,134716,1,0,0:0:0:0:
192,192,134879,128,0,135042:0:0:0:0:
64,192,135042,1,2,0:0:0:0:
448,192,135042,128,0,135205:0:0:0:0:
192,192,135205,1,2,0:0:0:0:
64,192,135368,1,8,0:0:0:0:
320,192,135368,128,0,135694:0:0:0:0:
64,192,135694,1,8,0:0:0:0:
448,192,135694,1,2,0:0:0:0:
192,192,135776,1,8,0:0:0:0:
320,192,135857,1,8,0:0:0:0:
64,192,135939,1,8,0:0:0:0:
320,192,136020,1,8,0:0:0:0:
448,192,136020,1,2,0:0:0:0:
192,192,136102,1,8,0:0:0:0:
64,192,136183,1,8,0:0:0:0:
448,192,136265,1,8,0:0:0:0:
64,192,136346,1,8,0:0:0:0:
192,192,136346,1,2,0:0:0:0:
320,192,136428,1,8,0:0:0:0:
448,192,136509,1,8,0:0:0:0:
192,192,136591,1,8,0:0:0:0:
64,192,136673,1,8,0:0:0:0:
448,192,136673,1,2,0:0:0:0:
320,192,136754,1,8,0:0:0:0:
192,192,136836,1,8,0:0:0:0:
448,192,136917,1,8,0:0:0:0:
64,192,136999,1,2,0:0:0:0:
192,192,136999,1,0,0:0:0:45:Hat open.wav
64,192,139607,1,2,0:0:0:0:
192,192,139607,1,4,0:0:0:0:
448,192,139607,1,0,0:0:0:0:
