osu file format v14

[General]
AudioFilename: audio.mp3
AudioLeadIn: 0
PreviewTime: 59336
Countdown: 0
SampleSet: Soft
StackLeniency: 0.5
Mode: 0
LetterboxInBreaks: 0
WidescreenStoryboard: 1

[Editor]
Bookmarks: 34116,34446,36506,55627,71286
DistanceSpacing: 1
BeatDivisor: 4
GridSize: 32
TimelineZoom: 2.4

[Metadata]
Title:BLACK MEMORY
TitleUnicode:BLACK MEMORY
Artist:THE ORAL CIGARETTES
ArtistUnicode:THE ORAL CIGARETTES
Creator:dorsalplum
Version:synderes' Normal
Source:亜人
Tags:ajin demi-human japanese live action opening jp j-rock jrock rock cigs Takuya Yamanaka 山中 拓也 Akira Akirakani あきらかにあきら Shigenobu Suzuki 鈴木 重伸 Masaya Nakanishi 中西 雅哉 Mifuru みふる cut short ver version agatsu synderes frostwich glaceon [[Pika]] pikapoo2014 xenon- xen
BeatmapID:2134074
BeatmapSetID:975284

[Difficulty]
HPDrainRate:4
CircleSize:3.5
OverallDifficulty:4
ApproachRate:5
SliderMultiplier:1
SliderTickRate:1

[Events]
//Background and Video events
0,0,"u.jpg",0,0
//Break Periods
//Storyboard Layer 0 (Background)
//Storyboard Layer 1 (Fail)
//Storyboard Layer 2 (Pass)
//Storyboard Layer 3 (Foreground)
//Storyboard Layer 4 (Overlay)
//Storyboard Sound Samples

[TimingPoints]
257,329.67032967033,4,2,1,70,1,0
257,-105.263157894737,4,2,1,70,0,0
21191,-100,4,2,1,80,0,0
21273,-100,4,2,1,80,0,0
34377,-105.263157894737,4,2,1,70,0,0
34460,-105.263157894737,4,2,1,70,0,0
44927,-105.263157894737,4,2,1,70,0,0
45009,-105.263157894737,4,2,1,70,0,0
60751,-100,4,2,1,90,0,1
71218,-100,4,2,1,90,0,1
71300,-100,4,2,1,90,0,1
82015,-100,4,2,1,70,0,0

[Colours]
Combo1 : 149,74,0
Combo2 : 108,108,108
Combo3 : 106,106,255
Combo4 : 228,228,228

[HitObjects]
87,24,10806,6,0,L|73:134,1,94.9999974632264,4|10,1:2|0:2,0:0:0:0:
133,193,11465,2,0,L|140:248,1,47.4999987316132,2|2,1:2|1:2,0:0:0:0:
136,287,11795,2,0,P|175:278|238:275,1,94.9999974632264,10|0,0:2|1:2,0:0:0:0:
276,283,12289,1,2,1:2:0:0:
365,328,12619,1,2,0:2:0:0:
365,328,12784,2,0,L|432:317,1,47.4999987316132,2|2,1:2|1:2,0:0:0:0:
453,297,13114,2,0,P|461:242|443:188,1,94.9999974632264,10|2,0:2|1:2,0:0:0:0:
400,124,13773,5,10,0:2:0:0:
311,158,14103,2,0,L|247:150,1,47.4999987316132,2|2,1:2|1:2,0:0:0:0:
218,138,14432,2,0,B|199:182|199:182|205:240,1,94.9999974632264,10|0,0:2|1:2,0:0:0:0:
221,273,14927,1,2,1:2:0:0:
146,331,15257,1,2,0:2:0:0:
146,331,15421,2,0,L|84:326,1,47.4999987316132,2|2,1:2|1:2,0:0:0:0:
51,316,15751,2,0,L|56:254,1,47.4999987316132,10|0,0:2|0:2,0:0:0:0:
32,226,16081,1,6,1:2:0:0:
91,152,16410,6,0,L|199:139,1,94.9999974632264,10|2,0:2|1:2,0:0:0:0:
231,167,16905,1,2,1:2:0:0:
231,167,17070,1,10,0:2:0:0:
324,201,17399,1,0,1:2:0:0:
324,201,17564,2,0,L|418:212,1,94.9999974632264,2|2,1:2|0:2,0:0:0:0:
465,219,18059,2,0,L|461:266,2,47.4999987316132,2|2|10,1:2|1:2|0:2,0:0:0:0:
507,133,18718,1,2,1:2:0:0:
446,59,19048,6,0,B|398:47|398:47|340:65,1,94.9999974632264,10|2,0:2|1:2,0:0:0:0:
311,57,19542,1,2,1:2:0:0:
311,57,19707,2,0,L|302:119,1,47.4999987316132,10|4,0:2|0:2,0:0:0:0:
40,305,21026,5,10,0:2:0:0:
40,305,21191,2,0,L|156:321,1,100,4|0,1:2|1:2,0:0:0:0:
181,345,21685,1,10,0:2:0:0:
239,263,22015,2,0,L|230:201,1,50,2|2,1:2|1:2,0:0:0:0:
204,171,22344,2,0,L|220:60,1,100,10|0,0:2|1:2,0:0:0:0:
244,28,22839,1,2,1:2:0:0:
345,52,23169,1,2,1:2:0:0:
345,52,23333,2,0,L|408:39,2,50,2|2|10,1:2|1:2|0:2,0:0:0:0:
333,101,23828,6,0,B|317:155|317:155|345:215,1,100,4|0,1:2|1:2,0:0:0:0:
373,226,24322,1,10,0:2:0:0:
356,324,24652,2,0,L|344:383,1,50,2|2,1:2|1:2,0:0:0:0:
296,379,24982,2,0,P|255:376|190:361,1,100,10|0,0:2|1:2,0:0:0:0:
159,330,25476,1,2,1:2:0:0:
101,254,25806,1,8,0:2:0:0:
101,254,25971,2,0,P|104:220|111:187,1,50,2|2,1:2|1:2,0:0:0:0:
131,160,26300,1,10,0:2:0:0:
131,160,26465,6,0,P|128:111|121:53,1,100,4|0,1:2|1:2,0:0:0:0:
114,10,26960,1,10,0:2:0:0:
25,56,27289,2,0,P|22:80|20:105,1,50,2|2,1:2|1:2,0:0:0:0:
18,156,27619,2,0,P|23:205|21:267,1,100,10|0,0:2|1:2,0:0:0:0:
17,305,28114,1,2,1:2:0:0:
112,348,28443,1,2,0:2:0:0:
112,348,28608,2,0,L|121:276,2,50,2|2|10,1:2|1:2|0:2,0:0:0:0:
152,378,29103,5,6,1:2:0:0:
225,310,29432,2,0,L|216:238,1,50,6|8,1:2|1:2,0:0:0:0:
199,213,29762,1,6,1:2:0:0:
264,137,30092,2,0,L|273:65,1,50,6|8,1:2|1:2,0:0:0:0:
297,45,30421,2,0,B|346:39|346:39|409:64,1,100,6|6,1:2|1:2,0:0:0:0:
446,70,30916,1,8,1:2:0:0:
446,70,31081,2,0,B|452:119|452:119|427:182,1,100,6|6,1:2|1:2,0:0:0:0:
286,195,31905,6,0,B|267:242|267:242|273:291,1,100,12|8,0:2|0:2,0:0:0:0:
188,344,32564,2,0,P|142:340|81:337,1,100,8|8,0:2|0:2,0:0:0:0:
52,301,33059,1,0,1:2:0:0:
52,301,33224,2,0,B|70:253|70:253|64:204,1,100,8|8,0:2|0:2,0:0:0:0:
89,107,33883,2,0,L|77:41,2,50,10|8|10,0:2|0:2|0:2,0:0:0:0:
129,132,34377,6,0,P|179:139|241:138,1,94.9999974632264,6|2,1:2|1:2,0:0:0:0:
315,108,35037,1,2,0:2:0:0:
315,108,35202,2,0,P|362:108|409:115,1,94.9999974632264,2|10,1:2|0:2,0:0:0:0:
458,133,35696,1,2,0:2:0:0:
458,133,35861,1,2,1:2:0:0:
474,39,36191,1,10,0:2:0:0:
380,22,36520,1,2,1:2:0:0:
380,22,36685,2,0,L|311:30,1,47.4999987316132,2|10,1:2|0:2,0:0:0:0:
284,27,37015,6,0,P|289:74|294:130,1,94.9999974632264,6|2,1:2|1:2,0:0:0:0:
230,193,37674,1,2,0:2:0:0:
260,283,38004,1,2,1:2:0:0:
353,267,38333,2,0,L|408:257,1,47.4999987316132,2|2,0:2|1:2,0:2:0:0:
446,267,38663,2,0,L|438:204,2,47.4999987316132,2|10|10,1:2|0:2|0:2,0:0:0:0:
481,299,39158,1,2,1:2:0:0:
416,366,39487,1,8,0:2:0:0:
416,366,39652,6,0,P|370:357|323:360,1,94.9999974632264,6|2,1:2|1:2,0:0:0:0:
249,299,40311,1,2,0:2:0:0:
163,340,40641,1,2,1:2:0:0:
68,336,40971,2,0,B|55:294|55:294|79:238,1,94.9999974632264,2|0,0:2|1:0,0:0:0:0:
106,211,41465,1,8,0:2:0:0:
167,139,41795,1,2,1:2:0:0:
167,139,41960,2,0,L|160:70,1,47.4999987316132,2|8,1:2|0:2,0:0:0:0:
156,44,42289,5,6,1:2:0:0:
65,13,42619,2,0,L|60:60,1,47.4999987316132,6|8,1:2|1:2,0:0:0:0:
28,95,42949,1,6,1:2:0:0:
81,173,43278,2,0,L|85:220,1,47.4999987316132,6|8,1:2|1:2,0:0:0:0:
72,266,43608,2,0,P|124:269|185:260,1,94.9999974632264,6|6,1:2|1:2,0:0:0:0:
215,252,44103,1,8,1:2:0:0:
215,252,44267,2,0,L|204:367,1,94.9999974632264,6|6,0:2|3:0,0:0:0:0:
298,368,44927,6,0,B|345:373|345:373|390:358,1,94.9999974632264,6|2,1:2|1:2,0:0:0:0:
457,291,45586,2,0,B|462:243|462:243|447:198,1,94.9999974632264,2|2,0:2|1:2,0:0:0:0:
420,159,46081,2,0,L|428:104,1,47.4999987316132,10|2,0:2|0:2,0:0:0:0:
438,65,46410,1,2,1:2:0:0:
350,26,46740,2,0,L|288:39,1,47.4999987316132,10|2,0:2|0:2,0:0:0:0:
264,61,47070,1,2,1:2:0:0:
264,61,47235,2,0,L|217:51,1,47.4999987316132,2|10,1:2|0:2,0:0:0:0:
171,41,47564,6,0,P|129:60|94:113,1,94.9999974632264,6|2,1:2|1:2,0:0:0:0:
57,183,48224,2,0,P|52:228|80:285,1,94.9999974632264,2|2,0:2|1:2,0:0:0:0:
113,293,48718,2,0,L|100:347,1,47.4999987316132,10|2,0:2|0:2,0:0:0:0:
137,378,49048,1,2,1:2:0:0:
137,378,49213,1,2,1:2:0:0:
228,346,49542,1,10,0:2:0:0:
228,346,49707,2,0,L|236:251,1,94.9999974632264,2|8,1:2|0:2,0:0:0:0:
272,220,50202,6,0,L|263:125,1,94.9999974632264,6|2,1:2|1:2,0:0:0:0:
331,59,50861,1,2,0:2:0:0:
407,115,51191,2,0,L|470:128,1,47.4999987316132,2|8,1:2|0:2,0:0:0:0:
499,137,51520,2,0,P|497:185|480:247,1,94.9999974632264,2|0,0:2|1:0,0:0:0:0:
457,268,52015,1,8,0:2:0:0:
373,309,52344,1,2,1:2:0:0:
373,309,52509,2,0,L|382:363,1,47.4999987316132,2|8,1:2|0:2,0:0:0:0:
341,382,52839,5,6,1:2:0:0:
262,328,53169,2,0,L|215:320,1,47.4999987316132,6|8,1:2|1:2,0:0:0:0:
185,282,53498,1,6,1:2:0:0:
134,201,53828,2,0,L|87:208,1,47.4999987316132,6|8,1:2|1:2,0:0:0:0:
41,222,54158,2,0,B|21:178|21:178|29:122,1,94.9999974632264,6|6,1:2|1:2,0:0:0:0:
28,88,54652,1,8,1:2:0:0:
28,88,54817,2,0,L|132:95,1,94.9999974632264,6|2,1:2|1:2,0:0:0:0:
162,68,55311,1,8,0:2:0:0:
254,45,55641,6,0,P|271:99|268:200,1,142.49999619484,14|8,0:2|0:2,0:0:0:0:
252,227,56300,1,2,1:2:0:0:
254,322,56630,2,0,L|263:375,1,47.4999987316132,8|0,0:2|1:2,0:0:0:0:
309,364,56960,2,0,B|378:384|378:384|452:361,1,142.49999619484,14|8,0:2|0:2,0:0:0:0:
469,321,57619,2,0,L|474:266,1,47.4999987316132,2|0,1:2|1:2,0:0:0:0:
449,232,57949,1,12,0:2:0:0:
399,151,58278,6,0,P|393:94|404:47,1,94.9999974632264,14|8,0:2|0:2,0:0:0:0:
367,22,58773,2,0,L|261:37,1,94.9999974632264,14|8,0:2|0:2,0:0:0:0:
229,44,59267,1,0,1:2:0:0:
229,44,59432,1,0,1:2:0:0:
292,370,60586,5,8,0:2:0:0:
292,370,60751,2,0,L|302:255,1,100,6|0,1:2|1:2,0:0:0:0:
266,233,61246,2,0,L|260:164,1,50,10|0,0:2|0:2,0:0:0:0:
285,139,61575,1,2,1:2:0:0:
330,51,61905,1,10,0:2:0:0:
330,51,62070,2,0,P|278:33|218:36,1,100,2|0,1:2|1:2,0:0:0:0:
191,16,62564,1,10,0:2:0:0:
191,16,62729,2,0,P|141:16|94:34,1,100,2|2,0:2|1:2,0:0:0:0:
49,122,63388,6,0,B|27:171|27:171|45:230,1,100,2|0,1:2|1:2,0:0:0:0:
29,267,63883,1,10,0:2:0:0:
29,267,64048,2,0,P|79:259|141:254,1,100,2|2,0:2|1:2,0:0:0:0:
224,280,64707,2,0,P|256:284|291:289,1,50,2|0,1:2|0:2,0:0:0:0:
322,297,65037,2,0,P|328:247|333:184,1,100,2|0,1:2|0:0,0:0:0:0:
306,154,65531,2,0,L|297:81,2,50,2|2|10,1:2|1:2|0:2,0:0:0:0:
259,174,66026,6,0,B|211:179|211:179|149:161,1,100,6|2,1:2|1:2,0:0:0:0:
130,69,66685,2,0,B|80:54|80:54|32:59,1,100,2|0,0:2|1:0,0:0:0:0:
28,112,67180,1,10,0:2:0:0:
28,112,67344,2,0,L|37:231,1,100,6|2,1:2|1:2,0:0:0:0:
118,267,68004,1,2,0:2:0:0:
189,196,68333,2,0,L|192:146,1,50,2|10,1:2|0:2,0:0:0:0:
162,105,68663,5,6,1:2:0:0:
240,43,68993,2,0,L|305:32,1,50,6|8,1:2|1:2,0:0:0:0:
337,21,69322,1,4,1:2:0:0:
405,93,69652,2,0,L|470:104,1,50,4|8,1:2|1:2,0:0:0:0:
502,115,69981,1,4,1:2:0:0:
452,202,70311,2,0,L|463:254,1,50,4|8,1:2|1:2,0:0:0:0:
475,299,70641,1,4,1:2:0:0:
375,312,70971,2,0,L|364:364,1,50,8|8,0:2|0:2,0:0:0:0:
316,374,71300,6,0,P|266:372|213:334,1,100,6|0,1:2|1:2,0:0:0:0:
192,307,71795,2,0,P|151:289|131:291,1,50,10|0,0:2|0:2,0:0:0:0:
98,302,72125,1,2,1:2:0:0:
52,218,72454,1,10,0:2:0:0:
52,218,72619,2,0,B|42:169|42:169|62:108,1,100,2|0,1:2|1:2,0:0:0:0:
91,85,73114,1,10,0:2:0:0:
91,85,73278,1,2,0:2:0:0:
190,75,73608,2,0,L|183:14,1,50,2|8,1:2|0:2,0:0:0:0:
230,8,73938,6,0,P|277:11|336:21,1,100,2|0,1:2|1:2,0:0:0:0:
381,8,74432,1,10,0:2:0:0:
381,8,74597,2,0,B|393:56|393:56|371:125,1,100,2|2,0:2|1:2,0:0:0:0:
280,127,75257,2,0,L|290:188,1,50,2|0,1:2|0:2,0:0:0:0:
312,219,75586,2,0,B|296:267|296:267|308:315,1,100,2|0,1:2|0:0,0:0:0:0:
326,362,76081,2,0,L|271:371,2,50,2|2|10,1:2|1:2|0:2,0:0:0:0:
376,360,76575,6,0,P|438:362|489:356,1,100,6|2,1:2|1:2,0:0:0:0:
464,258,77235,2,0,P|402:256|351:262,1,100,2|0,0:2|1:0,0:0:0:0:
318,270,77729,1,10,0:2:0:0:
318,270,77894,2,0,L|318:168,1,100,6|2,1:2|1:2,0:0:0:0:
228,124,78553,2,0,L|228:24,1,100,2|0,0:2|1:0,0:0:0:0:
186,6,79048,1,8,0:2:0:0:
186,6,79213,5,6,1:2:0:0:
117,78,79542,2,0,L|53:85,1,50,6|8,1:2|1:2,0:0:0:0:
17,91,79872,1,6,1:2:0:0:
17,191,80202,2,0,L|81:198,1,50,6|8,1:2|1:2,0:0:0:0:
116,204,80531,1,6,1:2:0:0:
186,275,80861,2,0,L|235:269,1,50,6|8,1:2|1:2,0:0:0:0:
273,236,81191,2,0,L|372:246,1,100,6|6,1:2|1:2,0:0:0:0:
422,250,81685,1,8,1:2:0:0:
488,175,82015,6,0,L|473:104,1,50,4|0,1:2|1:2,0:0:0:0:
463,78,82344,1,10,0:2:0:0:
371,37,82674,2,0,L|322:47,1,50,2|2,1:2|1:2,0:0:0:0:
285,81,83004,2,0,B|235:66|235:66|179:90,1,100,10|0,0:2|1:2,0:0:0:0:
154,119,83498,1,2,1:2:0:0:
76,181,83828,1,2,1:2:0:0:
76,181,83993,2,0,L|12:173,2,50,2|2|10,1:2|1:2|0:2,0:0:0:0:
116,209,84487,6,0,P|119:255|106:321,1,100,4|0,1:2|1:2,0:0:0:0:
86,352,84982,1,10,0:2:0:0:
182,377,85311,2,0,L|244:361,1,50,2|2,1:2|1:2,0:0:0:0:
268,331,85641,2,0,L|366:356,1,100,10|0,0:2|1:2,0:0:0:0:
413,368,86136,1,2,1:2:0:0:
438,274,86465,1,0,0:0:0:0:
438,274,86630,2,0,L|424:210,1,50,2|2,1:2|1:2,0:0:0:0:
398,183,86960,1,10,0:2:0:0:
398,183,87125,6,0,P|393:115|402:83,1,100,4|0,1:2|1:2,0:0:0:0:
437,50,87619,1,10,0:2:0:0:
505,123,87949,2,0,L|496:187,1,50,2|2,1:2|1:2,0:0:0:0:
486,221,88278,2,0,L|495:329,1,100,10|0,0:2|1:2,0:0:0:0:
473,366,88773,1,2,1:2:0:0:
377,355,89103,1,2,0:2:0:0:
377,355,89267,2,0,L|314:367,2,50,2|2|10,1:2|1:2|0:2,0:0:0:0:
387,305,89762,5,6,1:2:0:0:
342,215,90092,2,0,L|354:152,1,50,6|8,1:2|1:2,0:0:0:0:
363,117,90421,1,6,1:2:0:0:
262,118,90751,2,0,L|250:55,1,50,6|8,1:2|1:2,0:0:0:0:
241,19,91081,2,0,L|133:37,1,100,6|6,1:2|1:2,0:0:0:0:
96,47,91575,1,8,1:2:0:0:
96,47,91740,2,0,P|89:93|111:157,1,100,6|6,1:2|1:2,0:0:0:0:
232,229,92564,5,12,0:2:0:0:
232,229,92729,2,0,L|220:295,1,50,0|0,1:2|1:2,0:0:0:0:
216,328,93059,2,0,B|168:336|168:336|106:310,1,100,12|0,0:2|1:2,0:0:0:0:
72,292,93553,1,12,1:2:0:0:
72,292,93718,1,8,1:2:0:0:
