osu file format v14

[General]
AudioFilename: audio.mp3
AudioLeadIn: 0
PreviewTime: 59336
Countdown: 0
SampleSet: Soft
StackLeniency: 0.5
Mode: 0
LetterboxInBreaks: 0
WidescreenStoryboard: 1

[Editor]
Bookmarks: 243,10792,21341,31891,34363,44913,55627,60572,71286,82001,93704
DistanceSpacing: 1.2
BeatDivisor: 4
GridSize: 8
TimelineZoom: 2.4

[Metadata]
Title:BLACK MEMORY
TitleUnicode:BLACK MEMORY
Artist:THE ORAL CIGARETTES
ArtistUnicode:THE ORAL CIGARETTES
Creator:dorsalplum
Version:Xenon's Insane
Source:亜人
Tags:ajin demi-human japanese live action opening jp j-rock jrock rock cigs Takuya Yamanaka 山中 拓也 Akira Akirakani あきらかにあきら Shigenobu Suzuki 鈴木 重伸 Masaya Nakanishi 中西 雅哉 Mifuru みふる cut short ver version agatsu synderes frostwich glaceon [[Pika]] pikapoo2014 xenon- xen
BeatmapID:2044142
BeatmapSetID:975284

[Difficulty]
HPDrainRate:5
CircleSize:4
OverallDifficulty:7.5
ApproachRate:8.5
SliderMultiplier:0.999999999999999
SliderTickRate:1

[Events]
//Background and Video events
0,0,"u.jpg",0,0
//Break Periods
//Storyboard Layer 0 (Background)
//Storyboard Layer 1 (Fail)
//Storyboard Layer 2 (Pass)
//Storyboard Layer 3 (Foreground)
//Storyboard Layer 4 (Overlay)
//Storyboard Sound Samples

[TimingPoints]
257,329.67032967033,4,2,1,70,1,0
257,-71.4285714285714,4,2,1,70,0,0
20202,-90.9090909090909,4,2,1,70,0,0
21191,-60.6060606060606,4,2,1,80,0,0
31081,-71.4285714285714,4,2,1,80,0,0
31905,-55.5555555555556,4,2,1,80,0,0
34377,-71.4285714285714,4,2,1,70,0,0
60586,-55.5555555555556,4,2,1,90,0,1
68910,-55.5555555555556,4,2,1,5,0,1
68993,-55.5555555555556,4,2,1,90,0,1
69570,-55.5555555555556,4,2,1,5,0,1
69653,-55.5555555555556,4,2,1,90,0,1
70229,-55.5555555555556,4,2,1,5,0,1
70312,-55.5555555555556,4,2,1,90,0,1
82015,-60.6060606060606,4,2,1,70,0,0
91740,-71.4285714285714,4,2,1,70,0,0

[Colours]
Combo1 : 149,74,0
Combo2 : 108,108,108
Combo3 : 106,106,255
Combo4 : 228,228,228

[HitObjects]
232,248,10806,6,0,L|212:89,1,139.999995727539,4|10,1:2|0:2,0:0:0:0:
317,18,11300,1,0,0:2:0:0:
298,99,11465,2,0,L|309:3,1,69.9999978637695,2|2,1:2|1:2,0:0:0:0:
386,112,11795,2,0,L|394:181,1,69.9999978637695,10|0,0:2|0:2,0:0:0:0:
507,178,12125,5,0,1:2:0:0:
476,255,12289,2,0,P|480:209|392:213,1,139.999995727539,2|2,1:2|0:2,0:0:0:0:
349,322,12784,2,0,L|341:253,1,69.9999978637695,2|2,1:2|1:2,0:0:0:0:
266,212,13114,2,0,L|274:143,1,69.9999978637695,10|0,0:2|0:2,0:0:0:0:
204,7,13443,5,2,1:2:0:0:
134,54,13608,1,0,0:0:0:0:
209,91,13773,2,0,B|123:74|159:132|79:120,1,139.999995727539,10|2,0:2|1:2,0:0:0:0:
28,212,14267,1,2,1:2:0:0:
82,275,14432,2,0,L|71:362,1,69.9999978637695,10|0,0:2|0:2,0:0:0:0:
152,224,14762,5,0,1:2:0:0:
207,285,14927,2,0,P|184:231|253:203,1,139.999995727539,2|2,1:2|0:2,0:0:0:0:
311,92,15421,2,0,L|319:161,1,69.9999978637695,2|2,1:2|1:2,0:0:0:0:
225,92,15751,2,0,L|233:23,1,69.9999978637695,10|0,0:2|0:2,0:0:0:0:
233,180,16081,6,0,L|74:160,1,139.999995727539,6|10,1:2|0:2,0:0:0:0:
3,265,16575,1,0,0:2:0:0:
84,246,16740,2,0,L|-12:257,1,69.9999978637695,2|2,1:2|1:2,0:0:0:0:
97,334,17070,2,0,L|166:342,1,69.9999978637695,10|0,0:2|0:2,0:0:0:0:
200,208,17400,5,0,1:2:0:0:
231,285,17564,2,0,P|227:239|315:243,1,139.999995727539,2|2,1:2|0:2,0:0:0:0:
358,352,18059,2,0,L|366:283,1,69.9999978637695,2|2,1:2|1:2,0:0:0:0:
441,242,18389,2,0,L|433:173,1,69.9999978637695,10|0,0:2|0:2,0:0:0:0:
359,40,18718,5,2,1:2:0:0:
289,87,18883,1,0,1:2:0:0:
364,124,19048,2,0,B|278:107|314:166|234:153,1,139.999995727539,10|2,0:2|1:2,0:0:0:0:
193,16,19542,2,0,L|184:85,1,69.9999978637695,2|10,1:2|0:2,0:0:0:0:
168,210,19871,1,4,0:2:0:0:
161,203,20202,6,0,P|117:188|89:252,1,110.000003356934,2|2,0:2|0:2,0:0:0:0:
231,290,20696,2,0,L|240:210,1,55.0000016784668,2|2,0:2|0:2,0:0:0:0:
267,85,21026,5,10,0:2:0:0:
400,191,21191,2,0,B|298:170|342:241|246:225,1,165.000001573562,4|0,1:2|1:2,0:0:0:0:
180,118,21685,2,0,L|190:36,1,82.5000007867812,10|0,0:2|0:2,0:0:0:0:
264,143,22015,1,2,1:2:0:0:
113,170,22180,1,2,1:2:0:0:
254,155,22344,1,10,0:2:0:0:
148,247,22509,6,0,P|187:239|221:261,1,82.5000007867812,0|0,0:2|1:2,0:0:0:0:
201,372,22839,2,0,P|161:379|127:357,1,82.5000007867812,2|8,1:2|0:2,0:0:0:0:
78,196,23169,1,2,1:2:0:0:
43,330,23333,1,2,1:2:0:0:
88,186,23498,2,0,L|78:104,1,82.5000007867812,2|10,1:2|0:2,0:0:0:0:
240,65,23828,6,0,P|191:24|165:98,1,165.000001573562,4|0,1:2|1:2,0:0:0:0:
308,177,24322,2,0,L|318:95,1,82.5000007867812,10|0,0:2|0:2,0:0:0:0:
464,3,24652,1,2,1:2:0:0:
399,130,24817,1,2,1:2:0:0:
312,13,24982,1,10,0:2:0:0:
230,137,25147,6,0,P|195:115|156:122,1,82.5000007867812,0|0,0:2|1:2,0:0:0:0:
92,65,25476,2,0,P|53:77|33:112,1,82.5000007867812,2|8,1:2|0:2,0:0:0:0:
165,205,25806,1,8,0:2:0:0:
19,194,25971,1,2,1:2:0:0:
156,122,26136,2,0,L|238:132,1,82.5000007867812,2|10,1:2|0:2,0:0:0:0:
372,182,26465,6,0,B|270:161|314:234|218:216,1,165.000001573562,4|0,1:2|1:2,0:0:0:0:
357,345,26960,2,0,L|347:263,1,82.5000007867812,10|0,0:2|0:2,0:0:0:0:
463,141,27289,1,2,1:2:0:0:
436,292,27454,1,2,1:2:0:0:
451,151,27618,1,10,0:2:0:0:
300,191,27784,6,0,P|266:211|226:202,1,82.5000007867812,0|0,0:2|1:2,0:0:0:0:
207,91,28113,2,0,P|242:70|281:79,1,82.5000007867812,2|8,1:2|0:2,0:0:0:0:
384,187,28443,1,2,0:2:0:0:
356,46,28607,1,2,1:2:0:0:
468,151,28773,2,0,L|458:233,1,82.5000007867812,2|10,1:2|0:2,0:0:0:0:
511,354,29103,6,0,B|487:312|487:312|370:327,1,165.000001573562,6|6,1:2|1:2,0:0:0:0:
308,384,29597,1,8,1:2:0:0:
375,243,29762,6,0,B|295:233|295:233|291:236|291:236|212:226,1,165.000001573562,6|6,1:2|1:2,0:0:0:0:
148,283,30257,1,8,1:2:0:0:
249,139,30421,6,0,B|195:145|195:145|192:149|192:149|145:148|145:148|142:152|142:152|89:158,1,165.000001573562,6|6,1:2|1:2,0:0:0:0:
25,214,30916,1,8,1:2:0:0:
103,78,31081,6,0,L|91:-17,1,69.9999978637695,6|0,1:2|0:2,0:0:0:0:
182,69,31410,2,0,L|170:-26,1,69.9999978637695,6|0,1:2|0:0,0:0:0:0:
418,84,31905,6,0,B|306:61|352:136|250:121,1,179.999994506836,12|8,0:2|0:2,0:0:0:0:
124,11,32399,1,0,1:2:0:0:
192,183,32564,2,0,P|150:174|114:201,1,89.999997253418,8|0,0:2|1:2,0:0:0:0:
61,69,32894,2,0,P|72:111|48:147,1,89.999997253418,8|0,0:2|1:2,0:0:0:0:
90,346,33224,5,8,0:2:0:0:
37,229,33388,1,0,1:2:0:0:
100,359,33553,2,0,L|112:264,1,89.999997253418,8|0,0:2|0:0,0:0:0:0:
290,248,33883,5,10,0:2:0:0:
194,112,34048,1,8,0:2:0:0:
124,262,34213,1,10,0:2:0:0:
203,208,34377,6,0,B|289:190|253:252|333:236,1,139.999995727539,6|2,1:2|1:2,0:0:0:0:
469,182,34872,1,8,0:2:0:0:
387,170,35037,1,2,0:2:0:0:
439,105,35202,2,0,L|427:10,1,69.9999978637695,2|0,1:2|1:2,0:0:0:0:
378,179,35531,2,0,L|386:248,1,69.9999978637695,10|2,0:2|0:2,0:0:0:0:
271,352,35861,6,0,B|310:329|310:329|298:233,1,139.999995727539,2|10,1:2|0:2,0:0:0:0:
233,182,36355,1,0,0:2:0:0:
169,237,36520,2,0,L|89:227,1,69.9999978637695,2|2,1:2|1:2,0:0:0:0:
29,100,36850,1,10,0:2:0:0:
0,179,37015,6,0,P|28:123|83:154,1,139.999995727539,6|2,1:2|1:2,0:0:0:0:
195,64,37509,1,8,0:2:0:0:
167,144,37674,2,0,L|175:215,1,69.9999978637695,2|0,0:2|1:2,0:0:0:0:
247,315,38004,2,0,L|255:245,1,69.9999978637695,2|8,1:2|0:2,0:0:0:0:
405,190,38333,1,2,0:2:0:0:
323,194,38498,6,0,P|361:201|394:172,1,69.9999978637695,2|2,1:2|1:2,0:0:0:0:
374,102,38828,2,0,P|336:95|303:124,1,69.9999978637695,10|10,0:2|0:2,0:0:0:0:
254,245,39158,2,0,B|186:236|186:236|183:239|183:239|116:231,1,139.999995727539,2|8,1:2|0:2,0:0:0:0:
0,343,39652,6,0,B|86:361|50:302|130:315,1,139.999995727539,6|2,1:2|1:2,0:0:0:0:
289,356,40147,1,8,0:2:0:0:
207,374,40311,2,0,L|218:278,1,69.9999978637695,2|0,0:2|1:2,0:0:0:0:
285,256,40641,2,0,L|273:160,1,69.9999978637695,2|8,1:2|0:2,0:0:0:0:
279,39,40971,6,0,B|270:106|270:106|273:109|273:109|265:176,1,139.999995727539,2|0,0:2|1:0,0:0:0:0:
367,248,41465,2,0,L|355:152,1,69.9999978637695,8|0,0:2|0:0,0:0:0:0:
245,332,41795,1,2,1:2:0:0:
285,256,41960,2,0,L|273:160,1,69.9999978637695,2|8,1:2|0:2,0:0:0:0:
384,91,42289,6,0,L|225:110,1,139.999995727539,6|6,1:2|1:2,0:0:0:0:
194,176,42784,1,8,1:2:0:0:
111,183,42949,6,0,L|269:202,1,139.999995727539,6|6,1:2|1:2,0:0:0:0:
301,268,43444,1,8,1:2:0:0:
384,275,43608,6,0,L|225:294,1,139.999995727539,6|6,1:2|1:2,0:0:0:0:
194,360,44103,1,8,1:2:0:0:
82,274,44267,6,0,L|94:179,1,69.9999978637695,6|8,0:2|3:0,0:0:0:0:
161,283,44597,2,0,L|173:188,1,69.9999978637695,6|0,3:0|1:2,0:0:0:0:
237,161,44927,6,0,B|323:179|285:120|367:133,1,139.999995727539,6|2,1:2|1:2,0:0:0:0:
447,247,45421,1,8,0:2:0:0:
446,166,45586,2,0,L|434:261,1,69.9999978637695,2|0,0:2|1:2,0:0:0:0:
365,279,45916,2,0,L|373:348,1,69.9999978637695,2|10,1:2|0:2,0:0:0:0:
294,233,46246,1,2,0:2:0:0:
183,303,46410,6,0,P|215:314|250:302,1,69.9999978637695,2|2,1:2|1:2,0:0:0:0:
178,170,46740,2,0,P|152:192|145:228,1,69.9999978637695,10|2,0:2|0:2,0:0:0:0:
294,233,47070,2,0,P|287:199|259:175,1,69.9999978637695,2|2,1:2|1:2,0:0:0:0:
183,303,47399,1,10,0:2:0:0:
169,161,47564,6,0,B|83:179|120:118|39:133,1,139.999995727539,6|2,1:2|1:2,0:0:0:0:
91,239,48059,1,8,0:2:0:0:
161,151,48224,2,0,L|149:55,1,69.9999978637695,2|0,0:2|1:2,0:0:0:0:
331,117,48553,1,2,1:2:0:0:
241,199,48718,2,0,L|249:129,1,69.9999978637695,10|2,0:2|0:2,0:0:0:0:
405,170,49048,5,2,1:2:0:0:
303,261,49213,2,0,P|348:241|379:251,1,69.9999978637695,2|8,1:2|0:2,0:0:0:0:
270,384,49542,1,10,0:2:0:0:
168,293,49707,2,0,P|213:313|244:303,1,69.9999978637695,2|0,1:2|1:2,0:0:0:0:
283,175,50037,1,8,0:2:0:0:
171,210,50202,6,0,P|124:267|99:211,1,139.999995727539,6|2,1:2|1:2,0:0:0:0:
13,123,50696,1,8,0:2:0:0:
13,204,50861,2,0,L|24:108,1,69.9999978637695,2|0,0:2|1:2,0:0:0:0:
90,86,51191,2,0,L|78:-9,1,69.9999978637695,2|8,1:2|0:2,0:0:0:0:
165,129,51520,6,0,B|232:120|232:120|234:117|234:117|301:109,1,139.999995727539,2|0,0:2|1:0,0:0:0:0:
382,37,52015,2,0,L|302:27,1,69.9999978637695,8|0,0:2|0:0,0:0:0:0:
457,77,52344,1,2,1:2:0:0:
402,186,52509,2,0,P|384:156|387:122,1,69.9999978637695,2|8,1:2|0:2,0:0:0:0:
368,265,52839,6,0,L|209:246,1,139.999995727539,6|6,1:2|1:2,0:0:0:0:
178,182,53334,1,8,1:2:0:0:
95,175,53499,6,0,L|253:156,1,139.999995727539,6|6,1:2|1:2,0:0:0:0:
285,91,53994,1,8,1:2:0:0:
368,84,54158,6,0,L|209:65,1,139.999995727539,6|6,1:2|1:2,0:0:0:0:
178,0,54653,1,8,1:2:0:0:
66,86,54817,6,0,L|78:181,1,69.9999978637695,6|0,1:2|0:2,0:0:0:0:
145,77,55147,2,0,L|157:172,1,69.9999978637695,2|8,1:2|0:2,0:0:0:0:
353,229,55641,6,0,B|267:247|305:188|223:201,1,139.999995727539,14|0,0:2|1:2,0:0:0:0:
171,267,56136,1,8,0:2:0:0:
108,211,56300,2,0,P|114:177|101:144,1,69.9999978637695,2|0,1:2|1:2,0:0:0:0:
226,118,56630,2,0,P|191:113|165:90,1,69.9999978637695,8|0,0:2|1:2,0:0:0:0:
290,65,56960,6,0,P|311:6|367:33,1,139.999995727539,14|0,0:2|1:2,0:0:0:0:
447,58,57454,1,8,0:2:0:0:
386,116,57619,2,0,P|392:149|379:182,1,69.9999978637695,2|0,1:2|1:2,0:0:0:0:
504,209,57949,2,0,P|469:213|443:236,1,69.9999978637695,12|0,0:2|0:0,0:0:0:0:
317,237,58278,5,14,0:2:0:0:
303,236,58360,1,8,0:2:0:0:
289,234,58443,2,0,L|241:228,3,34.9999989318848,8|8|8|8,0:2|0:2|0:2|0:2,0:0:0:0:
205,172,58773,1,14,0:2:0:0:
192,173,58855,1,8,0:2:0:0:
178,175,58938,2,0,L|130:180,3,34.9999989318848,8|8|8|8,0:2|0:2|0:2|0:2,0:0:0:0:
136,186,59267,2,0,P|106:168|71:170,1,69.9999978637695,0|0,1:2|1:2,0:0:0:0:
271,284,60586,5,8,0:2:0:0:
150,347,60751,2,0,B|264:363|209:298|318:310,1,179.999994506836,6|0,1:2|1:2,0:0:0:0:
469,362,61246,2,0,L|373:373,1,89.999997253418,10|0,0:2|0:2,0:0:0:0:
275,219,61575,2,0,L|370:230,1,89.999997253418,2|0,1:2|1:2,0:0:0:0:
479,128,61905,1,10,0:2:0:0:
429,286,62070,6,0,B|381:261|381:261|397:134,1,179.999994506836,2|0,1:2|1:2,0:0:0:0:
313,10,62564,1,10,0:2:0:0:
473,47,62729,2,0,L|361:60,1,89.999997253418,2|0,0:2|1:2,0:0:0:0:
228,109,63059,2,0,L|317:119,1,89.999997253418,2|8,1:2|0:2,0:0:0:0:
460,169,63388,6,0,B|346:153|401:218|292:206,1,179.999994506836,2|0,1:2|1:2,0:0:0:0:
226,349,63883,1,10,0:2:0:0:
377,300,64048,2,0,L|281:288,1,89.999997253418,2|0,0:2|1:2,0:0:0:0:
171,139,64377,2,0,L|266:127,1,89.999997253418,2|8,1:2|0:2,0:0:0:0:
200,295,64707,6,0,P|165:222|105:283,1,179.999994506836,2|2,1:2|1:2,0:0:0:0:
256,364,65202,2,0,L|345:353,1,89.999997253418,8|0,0:2|0:0,0:0:0:0:
512,251,65531,1,2,1:2:0:0:
428,384,65696,1,2,1:2:0:0:
502,235,65861,1,10,0:2:0:0:
347,177,66026,6,0,P|382:203|425:199,1,89.999997253418,6|0,1:2|0:0,0:0:0:0:
295,109,66355,1,2,1:2:0:0:
329,271,66520,1,8,0:2:0:0:
286,118,66685,2,0,B|199:128|199:128|195:125|195:125|109:136,1,179.999994506836,2|0,0:2|1:0,0:0:0:0:
206,46,67180,1,10,0:2:0:0:
226,206,67345,6,0,P|228:249|259:279,1,89.999997253418,6|0,1:2|0:2,0:0:0:0:
390,217,67674,1,2,1:2:0:0:
306,353,67839,1,8,0:2:0:0:
383,230,68004,2,0,P|380:186|349:156,1,89.999997253418,2|0,0:2|1:2,0:0:0:0:
219,219,68333,1,2,1:2:0:0:
303,83,68498,1,10,0:2:0:0:
141,184,68663,6,0,P|63:183|24:250,1,134.999995880127,6|0,1:2|0:0,0:0:0:0:
22,236,68993,2,0,L|11:147,1,89.999997253418,6|8,1:2|1:2,0:0:0:0:
200,127,69322,6,0,B|266:137|256:75|322:86,1,134.999995880127,4|0,1:2|0:0,0:0:0:0:
338,89,69652,2,0,L|349:0,1,89.999997253418,4|8,1:2|1:2,0:0:0:0:
498,131,69982,6,0,P|440:106|405:157,1,134.999995880127,4|0,1:2|0:0,0:0:0:0:
400,172,70311,2,0,L|411:261,1,89.999997253418,4|8,1:2|1:2,0:0:0:0:
251,116,70641,6,0,P|216:142|172:137,1,89.999997253418,4|0,1:2|0:0,0:0:0:0:
117,311,70971,2,0,L|111:266,3,44.999998626709,8|8|8|8,0:2|0:2|0:2|0:2,0:0:0:0:
104,259,71300,6,0,B|218:275|163:210|272:222,1,179.999994506836,6|0,1:2|1:2,0:0:0:0:
423,274,71795,2,0,L|327:285,1,89.999997253418,10|0,0:2|0:2,0:0:0:0:
229,131,72124,2,0,L|324:142,1,89.999997253418,2|0,1:2|1:2,0:0:0:0:
511,163,72454,1,10,0:2:0:0:
395,23,72619,6,0,B|387:85|387:85|418:131|418:131|410:193,1,179.999994506836,2|0,1:2|1:2,0:0:0:0:
376,384,73113,1,10,0:2:0:0:
471,254,73278,2,0,P|442:287|444:330,1,89.999997253418,2|0,0:2|1:2,0:0:0:0:
255,277,73608,2,0,P|290:303|297:346,1,89.999997253418,2|8,1:2|0:2,0:0:0:0:
354,202,73937,6,0,B|240:218|295:153|186:165,1,179.999994506836,2|0,1:2|1:2,0:0:0:0:
120,22,74432,1,10,0:2:0:0:
271,71,74597,2,0,L|175:83,1,89.999997253418,2|0,0:2|1:2,0:0:0:0:
65,232,74927,2,0,L|160:244,1,89.999997253418,2|8,1:2|0:2,0:0:0:0:
321,314,75256,6,0,P|256:268|224:340,1,179.999994506836,2|2,1:2|1:2,0:0:0:0:
400,384,75751,2,0,L|411:295,1,89.999997253418,8|0,0:2|0:0,0:0:0:0:
427,106,76080,1,2,1:2:0:0:
498,281,76245,1,2,1:2:0:0:
413,117,76410,1,10,0:2:0:0:
277,246,76575,6,0,P|312:220|355:224,1,89.999997253418,6|0,1:2|0:2,0:0:0:0:
225,314,76904,1,2,1:2:0:0:
259,152,77069,1,8,0:2:0:0:
216,305,77234,2,0,B|129:295|129:295|125:298|125:298|39:287,1,179.999994506836,2|0,0:2|1:0,0:0:0:0:
164,384,77729,1,10,0:2:0:0:
156,214,77894,6,0,P|158:171|189:141,1,89.999997253418,6|0,1:2|0:2,0:0:0:0:
320,203,78223,1,2,1:2:0:0:
218,51,78388,1,8,0:2:0:0:
392,46,78553,2,0,B|305:56|305:56|301:53|301:53|215:64,1,179.999994506836,2|0,0:2|1:0,0:0:0:0:
371,135,79048,1,8,0:2:0:0:
275,217,79213,6,0,P|294:174|284:130,1,89.999997253418,6|0,1:2|0:2,0:0:0:0:
89,190,79542,2,0,P|98:232|133:260,1,89.999997253418,6|8,1:2|1:2,0:0:0:0:
334,276,79872,6,0,P|375:256|396:216,1,89.999997253418,6|0,1:2|0:2,0:0:0:0:
206,120,80202,2,0,P|185:161|195:205,1,89.999997253418,6|8,1:2|1:2,0:0:0:0:
333,361,80531,6,0,P|377:373|418:355,1,89.999997253418,6|0,1:2|0:2,0:0:0:0:
336,159,80861,2,0,P|293:177|272:217,1,89.999997253418,6|8,1:2|1:2,0:0:0:0:
191,78,81190,6,0,P|154:54|110:53,1,89.999997253418,6|0,1:2|0:2,0:0:0:0:
207,159,81520,1,6,1:2:0:0:
234,1,81685,1,8,1:2:0:0:
472,85,82015,6,0,L|390:95,1,82.5000007867812,4|0,1:2|1:2,0:0:0:0:
296,172,82344,2,0,L|378:182,1,82.5000007867812,10|0,0:2|0:2,0:0:0:0:
271,256,82674,1,2,1:2:0:0:
244,105,82839,1,2,1:2:0:0:
259,246,83003,1,10,0:2:0:0:
167,140,83168,6,0,P|175:179|153:213,1,82.5000007867812,0|0,0:2|1:2,0:0:0:0:
42,193,83498,2,0,P|35:153|57:119,1,82.5000007867812,2|8,1:2|0:2,0:0:0:0:
218,70,83828,1,2,1:2:0:0:
84,35,83992,1,2,1:2:0:0:
228,80,84157,2,0,L|310:70,1,82.5000007867812,2|10,1:2|0:2,0:0:0:0:
483,184,84487,6,0,B|381:205|425:134|329:150,1,165.000001573562,4|0,1:2|1:2,0:0:0:0:
275,295,84982,2,0,L|265:213,1,82.5000007867812,10|0,0:2|0:2,0:0:0:0:
346,349,85311,1,2,1:2:0:0:
191,306,85476,1,2,1:2:0:0:
352,233,85641,1,10,0:2:0:0:
212,145,85806,6,0,P|177:123|138:130,1,82.5000007867812,0|0,0:2|1:2,0:0:0:0:
74,73,86135,2,0,P|35:85|15:120,1,82.5000007867812,2|8,1:2|0:2,0:0:0:0:
147,213,86465,1,0,0:0:0:0:
1,202,86630,1,2,1:2:0:0:
157,204,86795,2,0,L|147:286,1,82.5000007867812,2|10,1:2|0:2,0:0:0:0:
217,138,87124,6,0,B|319:117|275:190|371:172,1,165.000001573562,4|0,1:2|1:2,0:0:0:0:
232,301,87619,2,0,L|242:219,1,82.5000007867812,10|0,0:2|0:2,0:0:0:0:
126,97,87948,1,2,1:2:0:0:
153,248,88113,1,2,1:2:0:0:
138,107,88277,1,10,0:2:0:0:
289,147,88443,6,0,P|323:167|363:158,1,82.5000007867812,0|0,0:2|1:2,0:0:0:0:
382,47,88773,2,0,P|347:26|308:35,1,82.5000007867812,2|8,1:2|0:2,0:0:0:0:
211,147,89102,1,2,0:2:0:0:
233,2,89266,1,2,1:2:0:0:
126,110,89432,2,0,L|136:192,1,82.5000007867812,2|10,1:2|0:2,0:0:0:0:
0,303,89762,6,0,B|24:261|24:261|141:276,1,165.000001573562,6|6,1:2|1:2,0:0:0:0:
203,333,90256,1,8,1:2:0:0:
136,192,90421,6,0,B|216:182|216:182|220:185|220:185|299:175,1,165.000001573562,6|6,1:2|1:2,0:0:0:0:
363,232,90916,1,8,1:2:0:0:
262,88,91080,6,0,B|316:94|316:94|319:98|319:98|366:97|366:97|369:101|369:101|422:107,1,165.000001573562,6|6,1:2|1:2,0:0:0:0:
486,163,91575,1,8,1:2:0:0:
317,247,91740,6,0,L|329:152,1,69.9999978637695,6|0,1:2|0:2,0:0:0:0:
396,256,92070,2,0,L|408:161,1,69.9999978637695,6|0,1:2|0:0,0:0:0:0:
112,287,92564,5,12,0:2:0:0:
187,83,92729,1,0,1:2:0:0:
326,250,92894,1,0,1:2:0:0:
89,163,93059,5,12,0:2:0:0:
304,126,93224,1,0,1:2:0:0:
230,330,93389,1,0,1:2:0:0:
183,66,93553,5,12,1:2:0:0:
233,347,93718,1,8,1:2:0:0:
