osu file format v14

[General]
AudioFilename: audio.mp3
AudioLeadIn: 0
PreviewTime: 59336
Countdown: 0
SampleSet: Soft
StackLeniency: 0.5
Mode: 0
LetterboxInBreaks: 0
WidescreenStoryboard: 1

[Editor]
Bookmarks: 34116,34446,55627,71286
DistanceSpacing: 1.3
BeatDivisor: 4
GridSize: 32
TimelineZoom: 2.4

[Metadata]
Title:BLACK MEMORY
TitleUnicode:BLACK MEMORY
Artist:THE ORAL CIGARETTES
ArtistUnicode:THE ORAL CIGARETTES
Creator:dorsalplum
Version:Pika's Hard
Source:亜人
Tags:ajin demi-human japanese live action opening jp j-rock jrock rock cigs Takuya Yamanaka 山中 拓也 Akira Akirakani あきらかにあきら Shigenobu Suzuki 鈴木 重伸 Masaya Nakanishi 中西 雅哉 Mifuru みふる cut short ver version agatsu synderes frostwich glaceon [[Pika]] pikapoo2014 xenon- xen
BeatmapID:2055096
BeatmapSetID:975284

[Difficulty]
HPDrainRate:5
CircleSize:3.8
OverallDifficulty:6.5
ApproachRate:7.5
SliderMultiplier:1.3
SliderTickRate:1

[Events]
//Background and Video events
0,0,"u.jpg",0,0
//Break Periods
//Storyboard Layer 0 (Background)
//Storyboard Layer 1 (Fail)
//Storyboard Layer 2 (Pass)
//Storyboard Layer 3 (Foreground)
//Storyboard Layer 4 (Overlay)
//Storyboard Sound Samples

[TimingPoints]
257,329.67032967033,4,2,1,70,1,0
257,-105.263157894737,4,2,1,70,0,0
21191,-100,4,2,1,70,0,0
21273,-100,4,2,1,80,0,0
34377,-105.263157894737,4,2,1,70,0,0
34460,-105.263157894737,4,2,1,70,0,0
44927,-105.263157894737,4,2,1,70,0,0
45009,-105.263157894737,4,2,1,70,0,0
60751,-90.9090909090909,4,2,1,90,0,1
71218,-90.9090909090909,4,2,1,90,0,1
71300,-90.9090909090909,4,2,1,90,0,1
82015,-105.263157894737,4,2,1,80,0,0

[Colours]
Combo1 : 149,74,0
Combo2 : 108,108,108
Combo3 : 106,106,255
Combo4 : 228,228,228

[HitObjects]
256,192,6850,12,8,10476,0:2:0:0:
123,210,10806,6,0,L|129:271,1,61.7499983510971,4|0,1:2|1:2,0:0:0:0:
194,320,11136,2,0,P|225:307|257:307,1,61.7499983510971,10|0,0:2|0:2,0:0:0:0:
281,285,11383,1,0,1:2:0:0:
281,285,11465,2,0,P|312:298|344:298,1,61.7499983510971,2|2,1:2|1:2,0:0:0:0:
299,204,11795,1,10,0:2:0:0:
299,204,11960,2,0,L|237:210,1,61.7499983510971,0|0,0:2|1:2,0:0:0:0:
374,161,12289,5,2,1:2:0:0:
374,161,12454,2,0,L|380:222,1,61.7499983510971,8|2,0:2|0:2,0:0:0:0:
453,180,12784,2,0,B|452:138|452:138|472:110|472:110|473:58,1,123.499996702194,2|10,1:2|0:2,0:0:0:0:
413,11,13278,1,0,0:2:0:0:
343,45,13443,6,0,L|266:41,1,61.7499983510971,2|0,1:2|0:0,0:0:0:0:
199,7,13773,2,0,B|206:38|206:38|198:70,1,61.7499983510971,10|0,0:2|0:2,0:0:0:0:
220,89,14020,1,0,1:2:0:0:
220,89,14103,2,0,B|213:120|213:120|221:152,1,61.7499983510971,2|2,1:2|1:2,0:0:0:0:
301,188,14432,1,10,0:2:0:0:
301,188,14597,2,0,L|297:111,1,61.7499983510971,0|0,0:2|1:2,0:0:0:0:
277,265,14927,5,2,1:2:0:0:
277,265,15092,2,0,L|354:261,1,61.7499983510971,8|2,0:2|0:2,0:0:0:0:
395,333,15421,2,0,B|326:328|357:384|282:375,1,123.499996702194,2|10,1:2|0:2,0:0:0:0:
225,323,15916,1,0,0:2:0:0:
146,384,16081,6,0,B|116:375|116:375|80:386,1,61.7499983510972,6|0,1:2|0:0,0:0:0:0:
32,321,16410,2,0,L|24:248,1,61.7499983510972,10|0,0:2|0:2,0:0:0:0:
57,234,16657,1,0,1:2:0:0:
57,234,16740,2,0,L|65:161,1,61.7499983510972,2|2,1:2|1:2,0:0:0:0:
130,99,17070,1,10,0:2:0:0:
130,99,17235,2,0,B|96:103|96:103|62:91,1,61.7499983510972,0|0,0:2|1:2,0:0:0:0:
207,75,17564,5,2,1:2:0:0:
207,75,17729,2,0,B|211:109|211:109|199:143,1,61.7499983510972,8|2,0:2|0:2,0:0:0:0:
262,187,18059,2,0,P|290:165|389:167,1,123.499996702194,2|10,1:2|0:2,0:0:0:0:
426,220,18553,1,0,0:2:0:0:
374,279,18718,6,0,P|344:294|311:293,1,61.7499983510972,2|0,1:2|1:2,0:0:0:0:
254,343,19048,2,0,P|224:328|191:329,1,61.7499983510972,10|0,0:2|0:2,0:0:0:0:
166,316,19295,1,0,1:2:0:0:
166,316,19377,2,0,P|138:334|122:363,1,61.7499983510972,2|2,1:2|1:2,0:0:0:0:
48,335,19707,1,10,0:2:0:0:
53,243,19872,1,4,0:2:0:0:
53,243,21026,1,10,0:2:0:0:
143,181,21191,6,0,B|172:201|172:201|267:181,1,130,4|0,1:2|1:2,0:0:0:0:
306,252,21685,2,0,P|339:234|374:228,1,65,10|0,0:2|0:2,0:0:0:0:
397,207,21932,1,0,1:2:0:0:
397,207,22015,2,0,P|430:225|465:231,1,65,2|2,1:2|1:2,0:0:0:0:
512,173,22344,2,0,L|501:106,1,65,10|0,0:2|0:2,0:0:0:0:
495,78,22592,1,0,1:2:0:0:
495,78,22674,5,0,1:2:0:0:
415,48,22839,2,0,B|408:82|408:82|423:117,1,65,2|8,1:2|0:2,0:0:0:0:
343,132,23169,1,2,1:2:0:0:
343,132,23251,1,0,1:2:0:0:
343,132,23333,2,0,L|270:127,1,65,2|2,1:2|1:2,0:0:0:0:
237,60,23663,1,10,0:2:0:0:
147,116,23828,6,0,B|99:120|99:120|73:102|73:102|20:105,1,130,4|0,1:2|1:2,0:0:0:0:
51,181,24322,2,0,B|66:213|66:213|57:255,1,65,10|0,0:2|0:2,0:0:0:0:
84,269,24570,1,0,1:2:0:0:
84,269,24652,2,0,B|69:301|69:301|78:343,1,65,2|2,1:2|1:2,0:0:0:0:
131,384,24982,2,0,L|202:376,1,65,10|0,0:2|0:2,0:0:0:0:
221,376,25229,1,0,1:2:0:0:
221,376,25311,5,0,1:2:0:0:
244,296,25476,2,0,P|206:292|175:306,1,65,2|8,1:2|0:2,0:0:0:0:
302,358,25806,1,8,0:2:0:0:
302,358,25971,2,0,P|332:368|364:363,1,65,2|2,1:2|1:2,0:0:0:0:
429,317,26300,1,10,0:2:0:0:
365,232,26465,6,0,B|355:168|415:186|401:113,1,130,4|0,1:2|1:2,0:0:0:0:
335,65,26960,2,0,P|294:81|278:102,1,65,10|0,0:2|0:2,0:0:0:0:
276,126,27207,1,0,1:2:0:0:
276,126,27289,2,0,L|212:123,1,65,2|2,1:2|1:2,0:0:0:0:
156,67,27619,2,0,L|92:70,1,65,10|0,0:2|0:2,0:0:0:0:
71,72,27866,1,0,1:2:0:0:
71,72,27949,5,0,1:2:0:0:
128,144,28114,2,0,B|142:173|142:173|130:210,1,65,2|8,1:2|0:2,0:0:0:0:
51,240,28443,1,2,0:2:0:0:
51,240,28608,2,0,B|40:208|40:208|54:179,1,65,2|2,1:2|1:2,0:0:0:0:
135,219,28938,1,10,0:2:0:0:
114,305,29103,6,0,P|163:260|223:264,1,130,6|6,1:2|1:2,0:0:0:0:
189,342,29597,1,8,1:2:0:0:
241,257,29762,6,0,P|290:302|350:298,1,130,6|6,1:2|1:2,0:0:0:0:
316,220,30256,1,8,1:2:0:0:
427,267,30421,6,0,P|415:207|419:138,1,130,6|6,1:2|1:2,0:0:0:0:
376,67,30916,1,8,1:2:0:0:
376,67,31081,2,0,L|311:73,1,65,6|0,1:2|0:2,0:0:0:0:
432,8,31410,2,0,L|497:15,1,65,6|0,1:2|0:0,0:0:0:0:
497,14,31905,6,0,B|476:43|476:43|491:143,1,130,12|8,0:2|0:2,0:0:0:0:
420,184,32399,2,0,L|429:253,1,65,0|8,1:2|0:2,0:0:0:0:
493,311,32729,1,0,1:2:0:0:
493,311,32895,2,0,L|484:375,1,65,8|0,0:2|1:2,0:0:0:0:
412,331,33224,6,0,P|381:320|346:318,1,65,8|0,0:2|1:2,0:0:0:0:
281,267,33553,2,0,P|250:278|215:280,1,65,8|0,0:2|0:0,0:0:0:0:
137,295,33883,1,10,0:2:0:0:
137,295,34048,1,8,0:2:0:0:
165,215,34213,1,10,0:2:0:0:
69,183,34377,6,0,P|64:128|115:87,1,123.499996702194,6|2,1:2|1:2,0:0:0:0:
180,35,34872,2,0,P|216:47|261:51,1,61.7499983510972,8|2,0:2|0:2,0:0:0:0:
300,100,35202,2,0,P|336:88|381:84,1,61.7499983510972,2|0,1:2|1:2,0:0:0:0:
438,60,35531,2,0,L|432:136,1,61.7499983510972,10|2,0:2|0:2,0:0:0:0:
383,185,35861,6,0,B|407:159|407:159|505:178,2,123.499996702194,2|10|2,1:2|0:2|1:2,0:0:0:0:
330,242,36685,2,0,P|342:282|340:304,1,61.7499983510972,2|10,1:2|0:2,0:0:0:0:
255,352,37015,6,0,L|113:343,1,123.499996702194,6|2,1:2|1:2,0:0:0:0:
58,375,37509,1,8,0:2:0:0:
58,375,37674,2,0,P|51:347|58:314,1,61.7499983510972,2|0,0:2|1:2,0:0:0:0:
13,249,38004,2,0,P|20:221|13:188,1,61.7499983510972,2|8,1:2|0:2,0:0:0:0:
78,141,38333,2,0,L|153:150,1,61.7499983510972,2|2,0:2|1:2,0:0:0:0:
200,196,38663,5,2,1:2:0:0:
275,169,38828,1,10,0:2:0:0:
275,169,38993,1,10,0:2:0:0:
338,216,39158,2,0,P|381:182|451:193,1,123.499996702194,2|8,1:2|0:2,0:0:0:0:
379,284,39652,6,0,P|319:293|270:257,1,123.499996702194,6|2,1:2|1:2,0:0:0:0:
269,177,40147,1,8,0:2:0:0:
269,177,40311,2,0,L|274:110,1,61.7499983510972,2|0,0:2|1:2,0:0:0:0:
289,29,40641,2,0,P|243:42|216:41,1,61.7499983510972,2|8,1:2|0:2,0:0:0:0:
165,89,40971,6,0,P|116:59|42:65,1,123.499996702194,2|0,0:2|1:0,0:0:0:0:
0,120,41465,2,0,L|7:185,1,61.7499983510972,8|0,0:2|0:0,0:0:0:0:
81,217,41795,1,2,1:2:0:0:
81,217,41960,2,0,L|74:282,1,61.7499983510972,2|8,1:2|0:2,0:0:0:0:
118,366,42289,6,0,B|155:345|155:345|247:361,1,123.499996702194,6|6,1:2|1:2,0:0:0:0:
198,260,42784,1,8,1:2:0:0:
257,349,42949,6,0,B|294:370|294:370|386:354,1,123.499996702194,6|6,1:2|1:2,0:0:0:0:
449,283,43443,1,8,1:2:0:0:
361,343,43608,6,0,P|336:296|359:226,1,123.499996702194,6|6,1:2|1:2,0:0:0:0:
420,184,44103,1,8,1:2:0:0:
337,92,44267,2,0,P|346:122|347:153,1,61.7499983510972,6|8,0:2|3:0,0:0:0:0:
269,136,44597,1,6,3:0:0:0:
380,24,44927,6,0,P|340:54|261:52,1,123.499996702194,6|2,1:2|1:2,0:0:0:0:
182,18,45421,2,0,P|192:65|185:96,1,61.7499983510972,8|2,0:2|0:2,0:0:0:0:
133,129,45751,2,0,P|87:114|63:92,1,61.7499983510972,0|2,1:2|1:2,0:0:0:0:
14,151,46081,2,0,P|24:198|17:229,1,61.7499983510972,10|2,0:2|0:2,0:0:0:0:
89,262,46410,5,2,1:2:0:0:
89,262,46575,1,2,1:2:0:0:
29,314,46740,2,0,P|19:361|26:392,1,61.7499983510972,10|2,0:2|0:2,0:0:0:0:
102,358,47070,1,2,1:2:0:0:
102,358,47235,2,0,L|174:362,1,61.7499983510972,2|10,1:2|0:2,0:0:0:0:
242,289,47564,6,0,L|376:285,1,123.499996702194,6|2,1:2|1:2,0:0:0:0:
442,317,48059,1,8,0:2:0:0:
442,317,48224,2,0,B|451:287|451:287|439:257,1,61.7499983510972,2|0,0:2|1:2,0:0:0:0:
376,207,48553,1,2,1:2:0:0:
376,207,48718,2,0,B|367:177|367:177|379:147,1,61.7499983510972,10|2,0:2|0:2,0:0:0:0:
406,71,49048,6,0,L|344:73,1,61.7499983510972,2|2,1:2|1:2,0:0:0:0:
265,33,49377,1,8,0:2:0:0:
265,33,49542,1,10,0:2:0:0:
200,79,49707,2,0,B|130:72|154:33|92:28,1,123.499996702194,2|8,1:2|0:2,0:0:0:0:
23,116,50202,6,0,B|52:143|52:143|38:250,1,123.499996702194,6|2,1:2|1:2,0:0:0:0:
112,271,50696,1,8,0:2:0:0:
112,271,50861,2,0,P|101:313|105:339,1,61.7499983510972,2|0,0:2|1:2,0:0:0:0:
167,384,51191,2,0,P|208:372|229:356,1,61.7499983510972,2|8,1:2|0:2,0:0:0:0:
269,293,51520,6,0,B|342:278|320:332|393:319,1,123.499996702194,2|0,0:2|1:0,0:0:0:0:
438,233,52015,2,0,P|400:233|379:243,1,61.7499983510972,8|0,0:2|0:0,0:0:0:0:
321,190,52344,1,2,1:2:0:0:
321,190,52509,2,0,P|283:190|262:180,1,61.7499983510972,2|8,1:2|0:2,0:0:0:0:
317,78,52839,6,0,P|341:130|319:192,1,123.499996702194,6|6,1:2|1:2,0:0:0:0:
258,134,53333,1,8,1:2:0:0:
191,220,53498,6,0,P|139:192|59:183,1,123.499996702194,6|6,1:2|1:2,0:0:0:0:
10,234,53993,1,8,1:2:0:0:
16,125,54158,6,0,B|-13:160|-13:160|19:260,1,123.499996702194,6|6,1:2|1:2,0:0:0:0:
50,311,54652,1,8,1:2:0:0:
50,311,54817,2,0,L|117:304,1,61.7499983510972,6|0,1:2|0:2,0:0:0:0:
163,369,55147,2,0,L|224:375,1,61.7499983510972,2|8,1:2|0:2,0:0:0:0:
224,375,55641,6,0,B|203:339|203:339|226:251,1,123.499996702194,14|0,0:2|1:2,0:0:0:0:
304,266,56136,1,8,0:2:0:0:
304,266,56300,2,0,L|286:331,1,61.7499983510972,2|0,1:2|1:2,0:0:0:0:
342,382,56630,2,0,P|375:379|399:359,1,61.7499983510972,8|0,0:2|1:2,0:0:0:0:
475,379,56960,6,0,P|438:353|413:280,1,123.499996702194,14|0,0:2|1:2,0:0:0:0:
462,222,57454,1,8,0:2:0:0:
462,222,57619,2,0,B|454:195|454:195|461:161,1,61.7499983510972,2|0,1:2|1:2,0:0:0:0:
379,107,57949,2,0,B|387:134|387:134|380:168,1,61.7499983510972,12|0,0:2|0:0,0:0:0:0:
318,221,58278,6,0,L|315:262,4,30.8749991755486,14|8|8|8|8,0:2|0:2|0:2|0:2|0:2,0:0:0:0:
263,160,58773,2,0,L|260:129,4,30.8749991755486,14|8|8|8|8,0:2|0:2|0:2|0:2|0:2,0:0:0:0:
201,223,59267,5,0,1:2:0:0:
181,145,59432,1,0,1:2:0:0:
123,200,59597,1,0,0:0:0:0:
123,200,60586,1,8,0:2:0:0:
67,267,60751,6,0,P|130:238|208:252,1,143.000004364014,6|0,1:2|1:2,0:0:0:0:
268,297,61246,2,0,L|339:293,1,71.5000021820069,10|0,0:2|0:2,0:0:0:0:
403,236,61575,2,0,L|474:239,1,71.5000021820069,2|0,1:2|1:2,0:0:0:0:
445,157,61905,1,10,0:2:0:0:
334,191,62070,6,0,B|317:154|317:154|339:47,1,143.000004364014,2|0,1:2|1:2,0:0:0:0:
265,0,62564,1,10,0:2:0:0:
265,0,62729,2,0,L|251:73,1,71.5000021820069,2|0,0:2|1:2,0:0:0:0:
186,117,63059,2,0,P|141:103|114:68,1,71.5000021820069,2|8,1:2|0:2,0:0:0:0:
54,43,63388,6,0,B|15:118|85:113|50:182,1,143.000004364014,2|0,1:2|1:2,0:0:0:0:
3,243,63883,1,10,0:2:0:0:
23,319,64048,2,0,B|57:330|57:330|95:317,1,71.5000021820069,2|0,0:2|1:2,0:0:0:0:
173,238,64377,2,0,L|96:240,1,71.5000021820069,2|8,1:2|0:2,0:0:0:0:
182,318,64707,6,0,B|240:326|240:326|263:311|263:311|326:320,1,143.000004364014,2|2,1:2|1:2,0:0:0:0:
459,363,65202,2,0,L|379:366,1,71.5000021820069,8|0,0:2|0:0,0:0:0:0:
341,243,65531,1,2,1:2:0:0:
341,243,65696,2,0,P|379:264|393:290,1,71.5000021820069,2|10,1:2|0:2,0:0:0:0:
396,178,66026,6,0,P|356:161|264:203,1,143.000004364014,6|2,1:2|1:2,0:0:0:0:
267,276,66520,1,8,0:2:0:0:
255,186,66685,6,0,P|215:203|123:161,1,143.000004364014,2|0,0:2|1:0,0:0:0:0:
199,116,67180,1,10,0:2:0:0:
113,179,67344,6,0,B|126:213|126:213|116:250,1,71.5000021820069,6|0,1:2|0:2,0:0:0:0:
42,315,67674,2,0,B|29:281|29:281|39:244,1,71.5000021820069,2|8,1:2|0:2,0:0:0:0:
116,351,68004,2,0,L|258:345,1,143.000004364014,2|2,0:2|1:2,0:0:0:0:
334,384,68498,1,10,0:2:0:0:
361,286,68663,6,0,P|395:300|435:293,1,71.5000021820069,6|0,1:2|0:2,0:0:0:0:
324,215,68993,2,0,P|294:237|280:275,1,71.5000021820069,6|8,1:2|1:2,0:0:0:0:
403,218,69322,2,0,P|398:181|372:150,1,71.5000021820069,4|0,1:2|0:2,0:0:0:0:
227,138,69652,6,0,L|315:140,1,71.5000021820069,4|8,1:2|1:2,0:0:0:0:
305,0,69982,2,0,L|259:75,1,71.5000021820069,4|0,1:2|0:2,0:0:0:0:
385,136,70311,2,0,L|342:58,1,71.5000021820069,4|8,1:2|1:2,0:0:0:0:
188,67,70641,6,0,P|144:118|166:192,1,143.000004364014,4|8,1:2|0:2,0:0:0:0:
187,213,71053,1,8,0:2:0:0:
187,213,71136,2,0,L|188:265,1,35.7500010910034,8|8,0:2|0:2,0:0:0:0:
118,299,71300,6,0,B|167:289|167:289|211:308|211:308|270:297,1,143.000004364014,6|0,1:2|1:2,0:0:0:0:
337,330,71795,2,0,L|330:258,1,71.5000021820069,10|0,0:2|0:2,0:0:0:0:
273,202,72125,2,0,L|280:130,1,71.5000021820069,2|0,1:2|1:2,0:0:0:0:
347,85,72454,1,10,0:2:0:0:
274,16,72619,6,0,B|198:-5|213:53|134:33,1,143.000004364014,2|0,1:2|1:2,0:0:0:0:
67,79,73114,1,10,0:2:0:0:
141,119,73278,2,0,P|150:167|143:196,1,71.5000021820069,2|0,0:2|1:2,0:0:0:0:
0,167,73608,2,0,L|74:159,1,71.5000021820069,2|8,1:2|0:2,0:0:0:0:
164,205,73938,6,0,B|202:229|202:229|307:217,1,143.000004364014,2|0,1:2|1:2,0:0:0:0:
371,255,74432,1,10,0:2:0:0:
370,176,74597,2,0,P|339:144|310:137,1,71.5000021820069,2|0,0:2|1:2,0:0:0:0:
262,64,74927,2,0,L|339:55,1,71.5000021820069,2|8,1:2|0:2,0:0:0:0:
408,98,75257,6,0,P|451:152|443:221,1,143.000004364014,2|2,1:2|1:2,0:0:0:0:
375,269,75751,2,0,B|364:304|364:304|377:342,1,71.5000021820069,8|0,0:2|0:0,0:0:0:0:
307,382,76081,2,0,L|233:370,1,71.5000021820069,2|2,1:2|1:2,0:0:0:0:
186,306,76410,1,10,0:2:0:0:
89,375,76575,6,0,B|82:327|82:327|101:292|101:292|92:238,1,143.000004364014,6|2,1:2|1:2,0:0:0:0:
23,190,77070,1,8,0:2:0:0:
113,227,77235,6,0,L|91:84,1,143.000004364014,2|0,0:2|1:0,0:0:0:0:
103,7,77729,1,10,0:2:0:0:
196,76,77894,6,0,P|234:65|268:62,1,71.5000021820069,6|0,1:2|0:2,0:0:0:0:
329,110,78224,2,0,P|367:121|401:124,1,71.5000021820069,2|8,1:2|0:2,0:0:0:0:
462,63,78553,2,0,P|427:126|450:190,1,143.000004364014,2|0,0:2|1:0,0:0:0:0:
512,243,79048,1,8,0:2:0:0:
416,314,79213,6,0,B|331:296|356:348|275:332,1,143.000004364014,6|6,1:2|1:2,0:0:0:0:
299,248,79707,1,8,1:2:0:0:
250,325,79872,6,0,P|218:291|223:199,1,143.000004364014,6|6,1:2|1:2,0:0:0:0:
301,162,80366,1,8,1:2:0:0:
176,130,80531,6,0,B|118:123|118:123|84:141|84:141|32:134,1,143.000004364014,6|6,1:2|1:2,0:0:0:0:
69,55,81026,1,8,1:2:0:0:
209,44,81191,2,0,B|267:37|267:37|301:55|301:55|353:48,1,143.000004364014,6|6,1:2|1:2,0:0:0:0:
421,7,81685,1,8,1:2:0:0:
421,7,82015,6,0,L|428:70,1,61.7499983510972,4|0,1:2|1:2,0:0:0:0:
374,124,82344,2,0,B|386:155|386:155|382:188,1,61.7499983510972,10|0,0:2|0:2,0:0:0:0:
402,204,82592,1,0,1:2:0:0:
402,204,82674,2,0,B|390:235|390:235|394:268,1,61.7499983510972,2|2,1:2|1:2,0:0:0:0:
443,336,83004,1,10,0:2:0:0:
443,336,83169,2,0,L|378:345,1,61.7499983510972,0|0,0:2|1:2,0:0:0:0:
317,293,83498,6,0,L|252:284,1,61.7499983510972,2|8,1:2|0:2,0:0:0:0:
194,332,83828,1,2,1:2:0:0:
194,332,83910,1,0,1:2:0:0:
194,332,83993,2,0,P|158:339|133:337,1,61.7499983510972,2|2,1:2|1:2,0:0:0:0:
67,384,84322,1,10,0:2:0:0:
0,300,84487,6,0,B|-7:259|-7:259|8:227|8:227|0:179,1,123.499996702194,4|0,1:2|1:2,0:0:0:0:
87,156,84982,2,0,P|59:129|53:102,1,61.7499983510972,10|0,0:2|0:2,0:0:0:0:
19,91,85229,1,0,1:2:0:0:
19,91,85311,2,0,P|28:53|48:34,1,61.7499983510972,2|2,1:2|1:2,0:0:0:0:
137,28,85641,1,10,0:2:0:0:
137,28,85806,2,0,L|131:90,1,61.7499983510972,0|0,0:2|1:2,0:0:0:0:
218,141,86136,6,0,L|212:79,1,61.7499983510972,2|8,1:2|0:2,0:0:0:0:
276,26,86465,1,0,0:0:0:0:
276,26,86548,1,0,1:0:0:0:
276,26,86630,2,0,B|307:37|307:37|338:27,1,61.7499983510972,2|2,1:2|1:2,0:0:0:0:
411,58,86960,1,10,0:2:0:0:
354,139,87125,6,0,P|400:189|393:249,1,123.499996702194,4|0,1:2|1:2,0:0:0:0:
334,295,87619,2,0,L|265:292,1,61.7499983510972,10|0,0:2|0:2,0:0:0:0:
250,315,87866,1,0,1:2:0:0:
250,315,87949,2,0,L|181:318,1,61.7499983510972,2|2,1:2|1:2,0:0:0:0:
112,351,88278,1,10,0:2:0:0:
112,351,88443,2,0,L|109:282,1,61.7499983510972,0|0,0:2|1:2,0:0:0:0:
178,178,88773,6,0,L|175:239,1,61.7499983510972,2|8,1:2|0:2,0:0:0:0:
37,209,89103,1,2,0:2:0:0:
37,209,89185,1,0,1:2:0:0:
37,209,89267,2,0,L|98:211,1,61.7499983510972,2|2,1:2|1:2,0:0:0:0:
173,164,89597,1,10,0:2:0:0:
255,232,89762,6,0,B|289:213|289:213|377:233,1,123.499996702194,6|6,1:2|1:2,0:0:0:0:
435,289,90257,1,8,1:2:0:0:
433,173,90421,2,0,B|399:154|399:154|311:174,1,123.499996702194,6|6,1:2|1:2,0:0:0:0:
265,109,90916,1,8,1:2:0:0:
142,132,91081,6,0,L|10:119,1,123.499996702194,6|6,1:2|1:2,0:0:0:0:
44,211,91575,1,8,1:2:0:0:
44,211,91740,2,0,L|112:205,1,61.7499983510972,6|0,1:2|0:2,0:0:0:0:
99,295,92070,2,0,L|31:289,1,61.7499983510972,6|0,1:2|0:0,0:0:0:0:
268,354,92564,5,12,0:2:0:0:
335,296,92729,2,0,L|329:228,1,61.7499983510972,0|0,1:2|1:2,0:0:0:0:
413,256,93059,5,12,0:2:0:0:
312,215,93224,2,0,L|318:147,1,61.7499983510972,0|0,1:2|1:2,0:0:0:0:
385,106,93553,5,12,1:2:0:0:
242,132,93718,1,8,1:2:0:0:
