osu file format v14

[General]
AudioFilename: audio.mp3
AudioLeadIn: 0
PreviewTime: 59336
Countdown: 0
SampleSet: Soft
StackLeniency: 0.5
Mode: 0
LetterboxInBreaks: 0
WidescreenStoryboard: 1

[Editor]
DistanceSpacing: 1.1
BeatDivisor: 4
GridSize: 32
TimelineZoom: 2.4

[Metadata]
Title:BLACK MEMORY
TitleUnicode:BLACK MEMORY
Artist:THE ORAL CIGARETTES
ArtistUnicode:THE ORAL CIGARETTES
Creator:dorsalplum
Version:Glaceon's Insane
Source:亜人
Tags:ajin demi-human japanese live action opening jp j-rock jrock rock cigs Takuya Yamanaka 山中 拓也 Akira Akirakani あきらかにあきら Shigenobu Suzuki 鈴木 重伸 Masaya Nakanishi 中西 雅哉 Mifuru みふる cut short ver version agatsu synderes frostwich glaceon [[Pika]] pikapoo2014 xenon- xen
BeatmapID:2061975
BeatmapSetID:975284

[Difficulty]
HPDrainRate:5
CircleSize:4
OverallDifficulty:8.5
ApproachRate:9
SliderMultiplier:1.7
SliderTickRate:1

[Events]
//Background and Video events
0,0,"u.jpg",0,0
//Break Periods
//Storyboard Layer 0 (Background)
//Storyboard Layer 1 (Fail)
//Storyboard Layer 2 (Pass)
//Storyboard Layer 3 (Foreground)
//Storyboard Layer 4 (Overlay)
//Storyboard Sound Samples

[TimingPoints]
257,329.67032967033,4,2,1,70,1,0
257,-125,4,2,1,70,0,0
21191,-111.111111111111,4,2,1,80,0,0
33800,-111.111111111111,4,2,1,5,0,0
33883,-111.111111111111,4,2,1,80,0,0
34377,-125,4,2,1,70,0,0
55641,-111.111111111111,4,2,1,70,0,0
60751,-100,4,2,1,90,0,1
70971,-100,4,2,1,90,0,1
71300,-100,4,2,1,90,0,1
82015,-111.111111111111,4,2,1,80,0,0

[Colours]
Combo1 : 149,74,0
Combo2 : 108,108,108
Combo3 : 106,106,255
Combo4 : 228,228,228

[HitObjects]
89,278,257,5,0,1:2:0:0:
116,122,421,1,0,1:2:0:0:
193,318,586,2,0,L|269:313,1,68,8|0,0:2|0:2,0:0:0:0:
334,282,833,1,0,1:2:0:0:
334,282,916,2,0,L|258:277,1,68,0|0,1:2|1:2,0:0:0:0:
451,125,1246,6,0,P|463:172|445:228,1,102,8|0,0:2|1:2,0:0:0:0:
426,251,1575,1,0,1:2:0:0:
351,91,1740,1,0,1:2:0:0:
266,277,1905,2,0,P|221:282|174:264,1,68,8|0,0:2|0:2,0:0:0:0:
135,240,2152,1,0,1:2:0:0:
135,240,2235,2,0,P|180:235|227:253,1,68,0|0,1:2|1:2,0:0:0:0:
368,66,2564,6,0,P|316:77|242:48,1,102,8|0,0:2|1:2,0:0:0:0:
239,40,2894,1,0,1:2:0:0:
296,163,3059,1,0,1:2:0:0:
126,65,3224,2,0,L|132:150,1,68,8|0,0:2|0:2,0:0:0:0:
95,206,3471,1,0,1:2:0:0:
95,206,3553,2,0,L|99:138,1,68,0|0,1:2|1:2,0:0:0:0:
218,275,3883,6,0,P|269:264|328:284,1,102,8|0,0:2|1:2,0:0:0:0:
348,295,4213,1,0,1:2:0:0:
192,374,4377,1,0,1:2:0:0:
442,375,4542,2,0,L|433:282,1,68,8|0,0:2|0:2,0:0:0:0:
486,238,4789,1,0,1:2:0:0:
486,238,4872,2,0,L|479:305,1,68,0|0,1:2|1:2,0:0:0:0:
360,149,5202,6,0,P|310:160|247:140,1,102,8|0,0:2|1:2,0:0:0:0:
230,127,5531,1,0,1:2:0:0:
381,47,5696,1,0,1:2:0:0:
150,1,5861,2,0,P|189:-5|225:6,1,68,8|0,0:2|0:2,0:0:0:0:
284,39,6108,1,0,1:2:0:0:
284,39,6191,2,0,P|245:45|209:34,1,68,0|0,1:2|1:2,0:0:0:0:
45,157,6520,6,0,L|54:284,1,102,8|0,0:2|1:2,0:0:0:0:
54,296,6850,1,0,1:2:0:0:
180,178,7015,1,0,1:2:0:0:
205,379,7180,2,0,L|213:298,1,68,8|0,0:2|0:2,0:0:0:0:
244,240,7427,1,0,1:2:0:0:
244,240,7509,2,0,L|250:307,1,68,0|0,1:2|1:2,0:0:0:0:
130,103,7839,6,0,P|182:89|237:111,1,102,8|0,0:2|1:2,0:0:0:0:
256,126,8169,1,0,1:2:0:0:
105,222,8333,1,0,1:2:0:0:
330,261,8498,2,0,P|370:269|408:258,1,68,8|0,0:2|0:2,0:0:0:0:
466,228,8746,1,0,1:2:0:0:
466,228,8828,2,0,P|426:220|388:231,1,68,0|0,1:2|1:2,0:0:0:0:
206,333,9158,6,0,P|144:345|91:319,1,102,8|0,0:2|1:2,0:0:0:0:
76,313,9487,1,0,1:2:0:0:
299,233,9652,1,0,1:2:0:0:
122,117,9817,2,0,L|127:192,1,68,8|0,0:2|0:2,0:0:0:0:
156,257,10064,1,0,1:2:0:0:
156,257,10147,2,0,L|160:189,1,68,0|0,1:2|1:2,0:0:0:0:
49,41,10476,1,8,0:2:0:0:
284,130,10641,1,0,0:2:0:0:
284,130,10724,1,0,1:2:0:0:
284,130,10806,6,0,P|242:135|196:122,1,68,4|0,1:2|1:2,0:0:0:0:
362,57,11136,2,0,P|387:90|399:137,1,68,10|0,0:2|0:2,0:0:0:0:
395,114,11383,1,0,1:2:0:0:
395,114,11465,1,2,1:2:0:0:
306,276,11630,1,2,1:2:0:0:
493,215,11795,2,0,L|393:225,1,68,10|0,0:2|0:2,0:0:0:0:
425,221,12042,1,0,1:2:0:0:
425,221,12125,5,0,1:2:0:0:
317,368,12289,2,0,L|417:378,1,68,2|8,1:2|0:2,0:0:0:0:
209,233,12619,1,2,0:2:0:0:
209,233,12702,1,0,1:2:0:0:
209,233,12784,2,0,P|202:289|214:321,1,68,2|2,1:2|1:2,0:0:0:0:
340,182,13114,2,0,P|347:126|335:94,1,68,10|0,0:2|0:2,0:0:0:0:
310,48,13361,1,0,1:2:0:0:
310,48,13443,6,0,P|303:104|315:136,1,68,2|0,1:2|0:0,0:0:0:0:
474,197,13773,2,0,P|429:162|395:157,1,68,10|0,0:2|0:2,0:0:0:0:
418,159,14020,1,0,1:2:0:0:
418,159,14103,1,2,1:2:0:0:
235,191,14267,1,2,1:2:0:0:
413,326,14432,2,0,L|406:256,1,68,10|0,0:2|0:2,0:0:0:0:
406,259,14680,1,0,1:2:0:0:
406,259,14762,5,0,1:2:0:0:
226,308,14927,2,0,L|219:375,1,68,2|8,1:2|0:2,0:0:0:0:
326,218,15257,1,2,0:2:0:0:
326,218,15339,1,0,1:2:0:0:
326,218,15421,2,0,L|319:148,1,68,2|2,1:2|1:2,0:0:0:0:
131,54,15751,2,0,P|123:96|131:128,1,68,10|0,0:2|0:2,0:0:0:0:
162,192,15998,1,0,1:2:0:0:
162,192,16081,6,0,P|170:150|162:118,1,68,6|0,1:2|0:0,0:0:0:0:
71,268,16410,2,0,P|103:295|135:305,1,68,10|0,0:2|0:2,0:0:0:0:
126,303,16658,1,0,1:2:0:0:
126,303,16740,1,2,1:2:0:0:
39,159,16905,1,2,1:2:0:0:
222,270,17070,2,0,L|308:264,1,68,10|0,0:2|0:2,0:0:0:0:
289,265,17317,1,0,1:2:0:0:
289,265,17399,5,0,1:2:0:0:
106,163,17564,2,0,L|20:157,1,68,2|8,1:2|0:2,0:0:0:0:
255,84,17894,1,2,0:2:0:0:
255,84,17976,1,0,1:2:0:0:
255,84,18059,2,0,P|261:127|250:160,1,68,2|2,1:2|1:2,0:0:0:0:
69,265,18388,2,0,P|112:259|145:270,1,68,10|0,0:2|0:2,0:0:0:0:
203,308,18636,1,0,1:2:0:0:
203,308,18718,6,0,P|160:314|127:303,1,68,2|0,1:2|1:2,0:0:0:0:
320,241,19048,2,0,L|326:338,1,68,10|0,0:2|0:2,0:0:0:0:
324,308,19295,1,0,1:2:0:0:
324,308,19377,1,2,1:2:0:0:
232,193,19542,1,2,1:2:0:0:
430,235,19707,1,10,0:2:0:0:
193,185,19872,1,4,0:2:0:0:
193,185,20202,6,0,L|202:42,1,136,2|2,0:2|0:2,0:0:0:0:
376,96,20696,1,2,0:2:0:0:
286,138,20861,1,2,0:2:0:0:
394,3,21026,1,10,0:2:0:0:
415,231,21191,6,0,P|338:252|259:220,1,152.999995330811,4|0,1:2|1:2,0:0:0:0:
105,117,21685,2,0,L|111:208,1,76.4999976654053,10|0,0:2|0:2,0:0:0:0:
146,274,21932,1,0,1:2:0:0:
146,274,22015,2,0,L|151:197,1,76.4999976654053,2|2,1:2|1:2,0:0:0:0:
50,332,22344,1,10,0:2:0:0:
245,324,22509,1,0,0:2:0:0:
245,324,22592,1,0,1:2:0:0:
245,324,22674,6,0,L|321:318,1,76.4999976654053,0|2,1:2|1:2,0:0:0:0:
151,197,23004,1,8,0:2:0:0:
355,145,23169,1,2,1:2:0:0:
355,145,23251,1,0,1:2:0:0:
355,145,23333,1,2,1:2:0:0:
226,240,23498,1,2,1:2:0:0:
274,52,23663,1,10,0:2:0:0:
440,215,23828,6,0,B|344:229|344:229|289:203,1,152.999995330811,4|0,1:2|1:2,0:0:0:0:
110,96,24322,2,0,L|195:88,1,76.4999976654053,10|0,0:2|0:2,0:0:0:0:
267,129,24570,1,0,1:2:0:0:
267,129,24652,2,0,L|182:121,1,76.4999976654053,2|2,1:2|1:2,0:0:0:0:
44,50,24982,1,10,0:2:0:0:
91,231,25147,1,0,0:2:0:0:
91,231,25229,1,0,1:2:0:0:
91,231,25311,6,0,L|176:223,1,76.4999976654053,0|2,1:2|1:2,0:0:0:0:
44,50,25641,1,8,0:2:0:0:
232,155,25806,1,8,0:2:0:0:
232,155,25888,1,0,0:0:0:0:
232,155,25971,1,2,1:2:0:0:
13,148,26136,1,2,1:2:0:0:
202,29,26300,1,10,0:2:0:0:
126,227,26465,6,0,B|134:166|134:166|119:137|119:137|125:78,1,152.999995330811,4|0,1:2|1:2,0:0:0:0:
291,0,26960,2,0,L|283:87,1,76.4999976654053,10|0,0:2|0:2,0:0:0:0:
324,158,27207,1,0,1:2:0:0:
324,158,27289,2,0,L|316:81,1,76.4999976654053,2|2,1:2|1:2,0:0:0:0:
240,225,27619,1,10,0:2:0:0:
420,168,27784,1,0,0:2:0:0:
420,168,27866,1,0,1:2:0:0:
420,168,27949,6,0,L|412:244,1,76.4999976654053,0|2,1:2|1:2,0:0:0:0:
244,141,28278,1,8,0:2:0:0:
348,334,28443,1,2,0:2:0:0:
348,334,28526,1,0,1:2:0:0:
348,334,28608,1,2,1:2:0:0:
161,244,28773,1,2,1:2:0:0:
411,244,28938,1,10,0:2:0:0:
246,348,29103,5,6,1:2:0:0:
246,348,29432,2,0,L|238:272,1,76.4999976654053,6|8,1:2|1:2,0:0:0:0:
177,80,29762,5,6,1:2:0:0:
177,80,30092,2,0,L|169:156,1,76.4999976654053,6|8,1:2|1:2,0:0:0:0:
108,348,30421,5,6,1:2:0:0:
108,348,30751,2,0,L|100:272,1,76.4999976654053,6|8,1:2|1:2,0:0:0:0:
262,163,31081,2,0,L|254:239,1,76.4999976654053,6|0,1:2|0:2,0:0:0:0:
88,135,31410,1,6,1:2:0:0:
88,135,31905,6,0,P|129:126|166:138,1,76.4999976654053,12|0,0:2|1:2,0:0:0:0:
120,320,32235,2,0,P|111:279|123:242,1,76.4999976654053,8|0,0:2|1:2,0:0:0:0:
305,288,32564,2,0,P|264:297|227:285,1,76.4999976654053,8|0,0:2|1:2,0:0:0:0:
208,68,32894,1,8,0:2:0:0:
268,216,33059,1,0,1:2:0:0:
197,39,33224,6,0,L|281:46,1,76.4999976654053,8|0,0:2|1:2,0:0:0:0:
421,206,33553,2,0,L|281:217,1,114.749996498108,8|0,0:2|0:0,0:0:0:0:
268,216,33883,5,10,0:2:0:0:
404,110,34048,1,8,0:2:0:0:
361,314,34213,1,10,0:2:0:0:
292,118,34377,6,0,B|237:110|237:110|219:121|219:121|144:111,1,136,6|2,1:2|1:2,0:0:0:0:
38,65,34872,1,8,0:2:0:0:
117,180,35037,1,2,0:2:0:0:
191,40,35202,2,0,L|111:32,1,68,2|0,1:2|1:2,0:0:0:0:
49,186,35531,2,0,L|129:178,1,68,10|2,0:2|0:2,0:0:0:0:
257,146,35861,6,0,P|262:195|253:227,1,68,2|0,1:2|1:2,0:0:0:0:
141,321,36191,2,0,P|136:272|145:240,1,68,10|0,0:2|0:2,0:0:0:0:
344,216,36520,1,2,1:2:0:0:
215,286,36685,1,2,1:2:0:0:
257,146,36850,1,10,0:2:0:0:
340,352,37015,6,0,B|256:376|256:376|184:361,1,136,6|2,1:2|1:2,0:0:0:0:
195,196,37509,1,8,0:2:0:0:
73,328,37674,2,0,L|156:319,1,68,2|0,0:2|1:2,0:0:0:0:
76,215,38004,2,0,L|-7:206,1,68,2|8,1:2|0:2,0:0:0:0:
215,286,38333,6,0,L|366:273,1,136,2|2,0:2|1:2,0:0:0:0:
321,126,38828,1,10,0:2:0:0:
425,218,38993,1,10,0:2:0:0:
237,210,39158,2,0,P|233:165|248:125,1,68,2|0,1:2|1:2,0:0:0:0:
340,245,39487,1,8,0:2:0:0:
321,87,39652,6,0,P|354:80|387:85,1,68,6|0,1:2|0:2,0:0:0:0:
499,178,39982,2,0,P|476:152|464:121,1,68,2|8,1:2|0:2,0:0:0:0:
340,245,40311,2,0,L|432:237,1,68,2|0,0:2|1:2,0:0:0:0:
238,143,40641,2,0,L|146:135,1,68,2|8,1:2|0:2,0:0:0:0:
276,276,40971,6,0,L|438:261,1,136,2|0,0:2|1:0,0:0:0:0:
162,223,41465,1,8,0:2:0:0:
162,223,41795,1,2,1:2:0:0:
243,369,41960,1,2,1:2:0:0:
308,193,42125,1,8,0:2:0:0:
158,319,42289,6,0,P|88:341|20:310,1,136,6|6,1:2|1:2,0:0:0:0:
196,226,42784,1,8,1:2:0:0:
158,335,42949,6,0,P|88:357|20:326,1,136,6|6,1:2|1:2,0:0:0:0:
196,243,43443,1,8,1:2:0:0:
158,351,43608,6,0,P|88:373|20:342,1,136,6|6,1:2|1:2,0:0:0:0:
196,259,44102,1,8,1:2:0:0:
160,373,44267,6,0,L|248:366,1,68,6|8,0:2|3:0,0:0:0:0:
348,272,44597,2,0,L|260:265,1,68,6|0,3:0|1:2,0:0:0:0:
422,331,44927,6,0,B|447:285|447:285|424:192,1,136,6|2,1:2|1:2,0:0:0:0:
380,74,45421,1,8,0:2:0:0:
297,162,45586,2,0,L|376:153,1,68,2|0,0:2|1:2,0:0:0:0:
214,129,45916,1,2,1:2:0:0:
283,245,46081,1,10,0:2:0:0:
284,79,46246,1,2,0:2:0:0:
139,176,46410,6,0,P|133:231|149:262,1,68,2|2,1:2|1:2,0:0:0:0:
281,324,46740,1,10,0:2:0:0:
210,211,46905,1,2,0:2:0:0:
130,341,47070,2,0,L|212:333,1,68,2|2,1:2|1:2,0:0:0:0:
304,231,47399,1,10,0:2:0:0:
102,263,47564,6,0,P|83:209|118:123,1,136,6|2,1:2|1:2,0:0:0:0:
218,43,48059,1,8,0:2:0:0:
186,203,48224,2,0,L|260:196,1,68,2|0,0:2|1:2,0:0:0:0:
329,29,48553,1,2,1:2:0:0:
230,119,48718,1,10,0:2:0:0:
394,94,48883,1,2,0:2:0:0:
196,126,49048,5,2,1:2:0:0:
362,175,49213,2,0,P|404:184|439:171,1,68,2|8,1:2|0:2,0:0:0:0:
297,82,49542,1,10,0:2:0:0:
251,262,49707,2,0,P|260:220|247:185,1,68,2|0,1:2|1:2,0:0:0:0:
170,68,50037,1,8,0:2:0:0:
44,240,50202,6,0,B|89:257|89:257|189:228,1,136,6|2,1:2|1:2,0:0:0:0:
59,103,50696,1,8,0:2:0:0:
260,128,50861,2,0,L|252:205,1,68,2|0,0:2|1:2,0:0:0:0:
170,68,51191,2,0,L|162:0,1,68,2|8,1:2|0:2,0:0:0:0:
297,131,51520,6,0,L|280:277,1,136,2|0,0:2|1:0,0:0:0:0:
101,327,52015,2,0,L|94:249,1,68,8|0,0:2|0:0,0:0:0:0:
281,266,52344,1,2,1:2:0:0:
170,371,52509,1,2,1:2:0:0:
190,189,52674,1,8,0:2:0:0:
277,364,52839,6,0,B|332:356|332:356|350:367|350:367|408:359,1,136,6|6,1:2|1:2,0:0:0:0:
255,267,53333,1,8,1:2:0:0:
321,350,53498,6,0,B|376:342|376:342|394:353|394:353|452:345,1,136,6|6,1:2|1:2,0:0:0:0:
240,255,53993,1,8,1:2:0:0:
365,336,54158,6,0,B|420:328|420:328|438:339|438:339|496:331,1,136,6|6,1:2|1:2,0:0:0:0:
225,243,54652,1,8,1:2:0:0:
467,186,54817,6,0,L|460:260,1,68,6|0,1:2|0:2,0:0:0:0:
208,230,55147,1,2,1:2:0:0:
386,164,55311,1,8,0:2:0:0:
386,164,55641,6,0,B|342:135|342:135|233:148,1,152.999995330811,14|0,0:2|1:2,0:0:0:0:
135,295,56136,2,0,B|179:324|179:324|288:311,1,152.999995330811,8|0,0:2|1:2,0:0:0:0:
168,110,56630,2,0,P|159:149|173:189,1,76.4999976654053,8|0,0:2|1:2,0:0:0:0:
352,381,56960,6,0,P|374:330|349:236,1,152.999995330811,14|0,0:2|1:2,0:0:0:0:
136,313,57454,2,0,P|187:335|281:310,1,152.999995330811,8|0,0:2|1:2,0:0:0:0:
374,166,57949,1,12,0:2:0:0:
374,166,58278,6,0,L|322:170,5,38.2499988327027,14|8|8|8|8|8,0:2|0:2|0:2|0:2|0:2|0:2,0:0:0:0:
306,138,58773,2,0,L|267:135,5,38.2499988327027,14|8|8|8|8|8,0:2|0:2|0:2|0:2|0:2|0:2,0:0:0:0:
228,150,59267,5,0,1:2:0:0:
372,295,59432,1,0,1:2:0:0:
372,295,60586,1,8,0:2:0:0:
179,193,60751,6,0,B|224:175|270:197|257:208|302:225|363:201,1,170,6|0,1:2|1:2,0:0:0:0:
295,38,61246,2,0,L|302:126,1,85,10|0,0:2|0:2,0:0:0:0:
433,238,61575,2,0,L|439:153,1,85,2|0,1:2|1:2,0:0:0:0:
267,251,61905,1,10,0:2:0:0:
389,69,62070,6,0,P|330:38|211:91,1,170,2|0,1:2|1:2,0:0:0:0:
132,234,62564,1,10,0:2:0:0:
346,177,62729,2,0,L|354:274,1,85,2|0,0:2|1:2,0:0:0:0:
147,148,63059,2,0,L|153:63,1,85,2|8,1:2|0:2,0:0:0:0:
264,328,63388,6,0,B|192:319|192:319|171:335|171:335|61:320,1,170,2|0,1:2|1:2,0:0:0:0:
315,156,63883,1,10,0:2:0:0:
60,170,64048,2,0,P|50:216|63:258,1,85,2|0,0:2|1:2,0:0:0:0:
264,328,64377,2,0,P|274:282|261:240,1,85,2|8,1:2|0:2,0:0:0:0:
0,338,64707,6,0,B|48:366|48:366|164:339,1,170,2|2,1:2|1:2,0:0:0:0:
377,290,65202,1,8,0:2:0:0:
377,290,65531,1,2,1:2:0:0:
182,207,65696,1,2,1:2:0:0:
279,378,65861,1,10,0:2:0:0:
354,131,66026,6,0,L|249:140,1,85,6|0,1:2|0:0,0:0:0:0:
145,296,66355,2,0,L|250:305,1,85,2|8,1:2|0:2,0:0:0:0:
439,213,66685,2,0,P|467:146|432:53,1,170,2|0,0:2|1:0,0:0:0:0:
315,219,67180,1,10,0:2:0:0:
203,24,67344,6,0,P|250:14|302:35,1,85,6|0,1:2|0:2,0:0:0:0:
172,219,67674,2,0,P|139:183|132:127,1,85,2|8,1:2|0:2,0:0:0:0:
356,148,68004,2,0,P|341:193|296:228,1,85,2|0,0:2|1:2,0:0:0:0:
129,65,68333,1,2,1:2:0:0:
275,145,68498,1,10,0:2:0:0:
61,188,68663,5,6,1:2:0:0:
61,188,68993,1,6,1:2:0:0:
220,78,69158,1,8,1:2:0:0:
170,308,69322,5,4,1:2:0:0:
170,308,69652,1,4,1:2:0:0:
125,101,69817,1,8,1:2:0:0:
314,218,69982,5,4,1:2:0:0:
314,218,70311,1,4,1:2:0:0:
81,275,70476,1,8,1:2:0:0:
220,78,70641,5,4,1:2:0:0:
220,78,70971,1,8,0:2:0:0:
248,91,71053,1,8,0:2:0:0:
279,97,71135,1,8,0:2:0:0:
311,92,71218,1,8,0:2:0:0:
340,79,71300,6,0,L|327:266,1,170,6|0,1:2|1:2,0:0:0:0:
151,335,71795,2,0,L|142:242,1,85,10|0,0:2|0:2,0:0:0:0:
413,196,72125,2,0,L|404:280,1,85,2|0,1:2|1:2,0:0:0:0:
228,156,72454,1,10,0:2:0:0:
336,348,72619,6,0,B|395:373|395:373|523:337,1,170,2|0,1:2|1:2,0:0:0:0:
263,179,73114,1,10,0:2:0:0:
502,154,73278,2,0,P|450:143|402:164,1,85,2|0,0:2|1:2,0:0:0:0:
221,263,73608,2,0,P|273:274|321:253,1,85,2|8,1:2|0:2,0:0:0:0:
216,100,73938,6,0,P|148:74|49:107,1,170,2|0,1:2|1:2,0:0:0:0:
263,179,74432,1,10,0:2:0:0:
47,269,74597,2,0,L|56:175,1,85,2|0,0:2|1:2,0:0:0:0:
302,265,74927,2,0,L|310:349,1,85,2|8,1:2|0:2,0:0:0:0:
1,361,75257,6,0,B|71:370|71:370|92:354|92:354|164:363,1,170,2|2,1:2|1:2,0:0:0:0:
388,303,75751,1,8,0:2:0:0:
388,303,76081,1,2,1:2:0:0:
174,206,76246,1,2,1:2:0:0:
286,382,76410,1,10,0:2:0:0:
357,138,76575,6,0,L|367:250,1,85,6|0,1:2|0:2,0:0:0:0:
208,366,76905,2,0,L|215:281,1,85,2|8,1:2|0:2,0:0:0:0:
464,303,77235,2,0,B|344:311|344:311|290:278,1,170,2|0,0:2|1:0,0:0:0:0:
142,183,77729,1,10,0:2:0:0:
399,106,77894,6,0,P|347:93|297:117,1,85,6|0,1:2|0:2,0:0:0:0:
99,256,78224,2,0,P|151:269|201:245,1,85,2|8,1:2|0:2,0:0:0:0:
71,42,78553,2,0,L|80:142,1,85,2|0,0:2|1:2,0:0:0:0:
323,199,78883,1,0,1:0:0:0:
171,103,79048,1,8,0:2:0:0:
354,219,79213,5,6,1:2:0:0:
354,219,79542,1,6,1:2:0:0:
142,224,79707,1,8,1:2:0:0:
321,76,79872,5,6,1:2:0:0:
321,76,80202,1,6,1:2:0:0:
265,303,80366,1,8,1:2:0:0:
171,103,80531,5,6,1:2:0:0:
171,103,80861,5,6,1:2:0:0:
392,145,81026,1,8,1:2:0:0:
142,225,81191,5,6,1:2:0:0:
142,225,81520,1,6,1:2:0:0:
250,0,81685,1,8,1:2:0:0:
310,157,81850,1,2,0:0:0:0:
137,24,82015,6,0,L|129:114,1,76.4999976654053,4|0,1:2|1:2,0:0:0:0:
316,233,82344,2,0,L|309:156,1,76.4999976654053,10|0,0:2|0:2,0:0:0:0:
282,78,82592,1,0,1:2:0:0:
282,78,82674,2,0,L|275:154,1,76.4999976654053,2|2,1:2|1:2,0:0:0:0:
165,237,83004,1,10,0:2:0:0:
403,208,83169,1,0,0:2:0:0:
403,208,83251,1,0,1:2:0:0:
403,208,83333,6,0,P|411:163|392:119,1,76.4999976654053,0|2,1:2|1:2,0:0:0:0:
302,310,83663,1,8,0:2:0:0:
500,229,83828,1,2,1:2:0:0:
500,229,83910,1,0,1:2:0:0:
500,229,83993,1,2,1:2:0:0:
270,183,84158,1,2,1:2:0:0:
438,325,84322,1,10,0:2:0:0:
244,162,84487,6,0,P|181:136|87:176,1,152.999995330811,4|0,1:2|1:2,0:0:0:0:
156,360,84982,2,0,L|242:351,1,76.4999976654053,10|0,0:2|0:2,0:0:0:0:
310,326,85229,1,0,1:2:0:0:
310,326,85311,2,0,L|224:317,1,76.4999976654053,2|2,1:2|1:2,0:0:0:0:
384,238,85641,1,10,0:2:0:0:
175,154,85806,1,0,0:2:0:0:
175,154,85888,1,0,1:2:0:0:
175,154,85971,6,0,P|166:209|180:240,1,76.4999976654053,0|2,1:2|1:2,0:0:0:0:
345,130,86300,1,8,0:2:0:0:
254,296,86465,1,0,0:0:0:0:
254,296,86548,1,0,1:0:0:0:
254,296,86630,1,2,1:2:0:0:
443,173,86795,1,2,1:2:0:0:
248,192,86960,1,10,0:2:0:0:
485,318,87125,6,0,B|425:310|425:310|407:321|407:321|332:311,1,152.999995330811,4|0,1:2|1:2,0:0:0:0:
171,197,87619,2,0,L|276:189,1,76.4999976654053,10|0,0:2|0:2,0:0:0:0:
327,165,87866,1,0,1:2:0:0:
327,165,87949,2,0,L|222:157,1,76.4999976654053,2|2,1:2|1:2,0:0:0:0:
147,34,88278,1,10,0:2:0:0:
379,28,88443,1,0,0:2:0:0:
379,28,88526,1,0,1:2:0:0:
379,28,88608,6,0,P|387:74|367:115,1,76.4999976654053,0|2,1:2|1:2,0:0:0:0:
149,150,88938,1,8,0:2:0:0:
307,64,89103,1,2,0:2:0:0:
307,64,89185,1,0,1:2:0:0:
307,64,89267,1,2,1:2:0:0:
269,240,89432,1,2,1:2:0:0:
184,32,89597,1,10,0:2:0:0:
384,211,89762,6,0,P|402:288|363:367,1,152.999995330811,6|6,1:2|1:2,0:0:0:0:
233,158,90257,1,8,1:2:0:0:
403,211,90421,6,0,P|421:288|382:367,1,152.999995330811,6|6,1:2|1:2,0:0:0:0:
252,158,90916,1,8,1:2:0:0:
422,211,91081,6,0,P|440:288|401:367,1,152.999995330811,6|6,1:2|1:2,0:0:0:0:
271,158,91576,1,8,1:2:0:0:
184,368,91740,2,0,L|287:355,1,76.4999976654053,6|0,1:2|0:2,0:0:0:0:
355,130,92070,2,0,L|169:112,1,152.999995330811,6|0,1:2|0:0,0:0:0:0:
27,208,92564,5,12,0:2:0:0:
207,29,92729,1,0,1:2:0:0:
198,200,92894,1,0,1:2:0:0:
26,71,93059,5,12,0:2:0:0:
118,284,93224,1,0,1:2:0:0:
202,115,93388,1,0,1:2:0:0:
0,205,93553,5,12,1:2:0:0:
306,237,93718,1,8,1:2:0:0:
