osu file format v14

[General]
AudioFilename: audio.mp3
AudioLeadIn: 0
PreviewTime: 59336
Countdown: 0
SampleSet: Soft
StackLeniency: 0.5
Mode: 0
LetterboxInBreaks: 0
WidescreenStoryboard: 0

[Editor]
DistanceSpacing: 1.5
BeatDivisor: 4
GridSize: 32
TimelineZoom: 2.4

[Metadata]
Title:BLACK MEMORY
TitleUnicode:BLACK MEMORY
Artist:THE ORAL CIGARETTES
ArtistUnicode:THE ORAL CIGARETTES
Creator:dorsalplum
Version:Catastrophe
Source:亜人
Tags:ajin demi-human japanese live action opening jp j-rock jrock rock cigs Takuya Yamanaka 山中 拓也 Akira Akirakani あきらかにあきら Shigenobu Suzuki 鈴木 重伸 Masaya Nakanishi 中西 雅哉 Mifuru みふる cut short ver version agatsu synderes frostwich glaceon [[Pika]] pikapoo2014 xenon- xen
BeatmapID:2298522
BeatmapSetID:975284

[Difficulty]
HPDrainRate:5
CircleSize:4
OverallDifficulty:9
ApproachRate:9.3
SliderMultiplier:1.8
SliderTickRate:1

[Events]
//Background and Video events
0,0,"u.jpg",0,0
//Break Periods
//Storyboard Layer 0 (Background)
//Storyboard Layer 1 (Fail)
//Storyboard Layer 2 (Pass)
//Storyboard Layer 3 (Foreground)
//Storyboard Layer 4 (Overlay)
//Storyboard Sound Samples

[TimingPoints]
257,329.67032967033,4,2,1,70,1,0
257,-105.263157894737,4,2,1,70,0,0
21191,-90.9090909090909,4,2,1,80,0,0
34377,-105.263157894737,4,2,1,70,0,0
60751,-83.3333333333333,4,2,1,90,0,1
82015,-90.9090909090909,4,2,1,70,0,0

[Colours]
Combo1 : 149,74,0
Combo2 : 108,108,108
Combo3 : 106,106,255
Combo4 : 228,228,228

[HitObjects]
474,25,257,6,0,L|361:29,1,85.4999977169037,0|0,1:2|1:2,0:0:0:0:
245,61,586,1,8,0:2:0:0:
343,156,751,1,0,0:2:0:0:
343,156,834,1,0,1:2:0:0:
343,156,916,2,0,P|349:185|320:251,1,85.4999977169037,0|0,1:2|1:2,0:0:0:0:
199,280,1246,1,8,0:2:0:0:
344,327,1410,2,0,P|371:328|403:337,1,42.7499988584519,0|0,0:2|1:2,0:0:0:0:
192,269,1575,6,0,L|190:166,1,85.4999977169037,0|0,1:2|1:2,0:0:0:0:
115,82,1904,1,8,0:2:0:0:
21,213,2069,1,0,0:2:0:0:
21,213,2152,1,0,1:2:0:0:
21,213,2234,2,0,P|59:211|104:233,1,85.4999977169037,0|0,1:2|1:2,0:0:0:0:
252,132,2564,1,8,0:2:0:0:
192,269,2728,2,0,P|195:288|197:332,1,42.7499988584519,0|0,0:2|1:2,0:0:0:0:
263,121,2894,6,0,L|358:126,1,85.4999977169037,0|0,1:2|1:2,0:0:0:0:
419,219,3223,1,8,0:2:0:0:
486,126,3388,1,0,0:2:0:0:
486,126,3471,1,0,1:2:0:0:
486,126,3553,2,0,P|492:83|481:34,1,85.4999977169037,0|0,1:2|1:2,0:0:0:0:
322,45,3883,1,8,0:2:0:0:
416,177,4047,2,0,P|419:194|415:244,1,42.7499988584519,0|0,0:2|1:2,0:0:0:0:
310,32,4213,6,0,L|204:40,1,85.4999977169037,0|0,1:2|1:2,0:0:0:0:
76,42,4542,1,8,0:2:0:0:
153,151,4707,1,0,0:2:0:0:
153,151,4790,1,0,1:2:0:0:
153,151,4872,2,0,P|164:191|158:233,1,85.4999977169037,0|0,1:2|1:2,0:0:0:0:
276,285,5202,1,8,0:2:0:0:
147,353,5366,2,0,P|120:356|92:351,1,42.7499988584519,0|0,0:2|1:2,0:0:0:0:
285,273,5531,6,0,P|332:261|390:279,1,85.4999977169037,0|0,1:2|1:2,0:0:0:0:
472,355,5860,1,8,0:2:0:0:
466,178,6025,1,0,0:2:0:0:
466,178,6108,1,0,1:2:0:0:
466,178,6190,2,0,L|459:273,1,85.4999977169037,0|0,1:2|1:2,0:0:0:0:
354,148,6520,1,8,0:2:0:0:
285,273,6684,2,0,P|284:295|291:328,1,42.7499988584519,0|0,0:2|1:2,0:0:0:0:
355,130,6850,6,0,P|359:84|337:18,1,85.4999977169037,0|0,1:2|1:2,0:0:0:0:
172,11,7179,1,8,0:2:0:0:
250,110,7344,1,0,0:2:0:0:
250,110,7427,1,0,1:2:0:0:
250,110,7509,2,0,P|242:157|218:194,1,85.4999977169037,0|0,1:2|1:2,0:0:0:0:
135,285,7839,1,8,0:2:0:0:
55,177,8003,2,0,P|53:154|60:114,1,42.7499988584519,0|0,0:2|1:2,0:0:0:0:
138,299,8169,6,0,L|252:300,1,85.4999977169037,0|0,1:2|1:2,0:0:0:0:
339,204,8498,1,8,0:2:0:0:
397,334,8663,1,0,0:2:0:0:
397,334,8746,1,0,1:2:0:0:
397,334,8828,2,0,L|307:341,1,85.4999977169037,0|0,1:2|1:2,0:0:0:0:
225,207,9158,1,8,0:2:0:0:
358,122,9322,2,0,P|379:122|402:118,1,42.7499988584519,0|0,0:2|1:2,0:0:0:0:
197,215,9487,6,0,P|157:204|91:213,1,85.4999977169037,0|0,1:2|1:2,0:0:0:0:
86,26,9816,1,8,0:2:0:0:
207,110,9981,1,0,0:2:0:0:
207,110,10064,1,0,1:2:0:0:
207,110,10146,2,0,P|256:110|294:89,1,85.4999977169037,0|0,1:2|1:2,0:0:0:0:
419,12,10476,1,8,0:2:0:0:
473,193,10641,2,0,P|476:218|474:256,1,42.7499988584519,0|0,0:2|1:2,0:0:0:0:
384,330,10806,6,0,L|282:335,1,85.4999977169037,4|0,1:2|1:2,0:0:0:0:
192,209,11136,1,10,0:2:0:0:
201,319,11300,1,0,0:2:0:0:
201,319,11383,1,0,1:2:0:0:
201,319,11465,1,2,1:2:0:0:
103,193,11630,1,2,1:2:0:0:
259,164,11795,2,0,P|276:219|262:264,1,85.4999977169037,10|0,0:2|0:2,0:0:0:0:
265,269,12042,1,0,1:2:0:0:
265,269,12125,5,0,1:2:0:0:
364,165,12289,2,0,L|452:168,1,85.4999977169037,2|8,1:2|0:2,0:0:0:0:
325,80,12619,1,2,0:2:0:0:
325,80,12702,1,0,1:2:0:0:
325,80,12784,1,2,1:2:0:0:
391,246,12949,1,2,1:2:0:0:
259,164,13114,1,10,0:2:0:0:
449,167,13278,2,0,P|465:188|476:234,1,42.7499988584519,0|0,0:2|1:2,0:0:0:0:
427,341,13443,6,0,B|381:365|381:365|394:222,1,170.999995433807,2|10,1:2|0:2,0:0:0:0:
255,266,13938,1,0,0:2:0:0:
255,266,14020,1,0,1:2:0:0:
255,266,14103,1,2,1:2:0:0:
391,246,14267,1,2,1:2:0:0:
309,346,14432,2,0,P|269:362|220:354,1,85.4999977169037,10|0,0:2|0:2,0:0:0:0:
197,345,14680,1,0,1:2:0:0:
197,345,14762,5,0,1:2:0:0:
71,236,14927,2,0,B|49:260|49:260|44:336,1,85.4999977169037,2|8,1:2|0:2,0:0:0:0:
188,210,15257,1,2,0:2:0:0:
188,210,15339,1,0,1:2:0:0:
188,210,15421,1,2,1:2:0:0:
32,155,15586,1,2,1:2:0:0:
233,126,15751,1,10,0:2:0:0:
63,56,15916,2,0,L|105:50,1,42.7499988584519,0|0,0:2|1:2,0:0:0:0:
243,37,16081,6,0,B|344:16|288:106|422:79,1,170.999995433807,6|10,1:2|0:2,0:0:0:0:
465,194,16575,1,0,0:2:0:0:
465,194,16658,1,0,1:2:0:0:
465,194,16740,1,2,1:2:0:0:
304,169,16905,1,2,1:2:0:0:
372,270,17070,2,0,P|377:311|351:366,1,85.4999977169037,10|0,0:2|0:2,0:0:0:0:
332,373,17317,1,0,1:2:0:0:
332,373,17399,5,0,1:2:0:0:
226,288,17564,2,0,P|227:242|208:193,1,85.4999977169037,2|8,1:2|0:2,0:0:0:0:
129,128,17894,1,2,0:2:0:0:
129,128,17976,1,0,1:2:0:0:
129,128,18059,1,2,1:2:0:0:
304,169,18224,1,2,1:2:0:0:
218,11,18388,2,0,P|206:49|215:99,1,85.4999977169037,10|0,0:2|0:2,0:0:0:0:
283,62,18636,1,0,1:2:0:0:
283,62,18718,6,0,L|405:64,1,85.4999977169037,2|0,1:2|1:2,0:0:0:0:
422,231,19048,1,10,0:2:0:0:
482,126,19213,1,0,0:2:0:0:
482,126,19295,1,0,1:2:0:0:
482,126,19377,1,2,1:2:0:0:
433,328,19542,1,2,1:2:0:0:
304,169,19707,1,10,0:2:0:0:
345,372,19872,1,4,0:2:0:0:
345,372,20202,6,0,L|223:375,1,85.4999977169037,2|0,0:2|0:2,0:0:0:0:
154,142,20531,1,2,0:2:0:0:
24,286,20696,1,2,0:2:0:0:
211,319,20860,1,2,0:2:0:0:
159,126,21025,1,10,0:2:0:0:
25,308,21191,6,0,B|157:266|89:376|235:308,1,198.000006042481,4|0,1:2|1:2,0:0:0:0:
272,124,21685,2,0,P|248:164|257:244,1,99.0000030212403,10|0,0:2|0:2,0:0:0:0:
272,250,21932,1,0,1:2:0:0:
272,250,22015,1,2,1:2:0:0:
431,171,22180,1,2,1:2:0:0:
379,374,22344,1,10,0:2:0:0:
491,244,22509,1,0,0:2:0:0:
491,244,22592,1,0,1:2:0:0:
491,244,22674,1,0,1:2:0:0:
305,331,22839,6,0,P|233:330|188:291,1,99.0000030212403,2|8,1:2|0:2,0:0:0:0:
40,151,23169,2,0,P|37:124|29:103,1,49.5000015106202,2|0,1:2|1:2,0:0:0:0:
84,289,23333,1,2,1:2:0:0:
183,95,23498,1,2,1:2:0:0:
211,317,23663,1,10,0:2:0:0:
314,171,23828,6,0,B|247:155|247:155|199:181|199:181|127:161,1,198.000006042481,4|0,1:2|1:2,0:0:0:0:
171,15,24322,2,0,P|226:25|263:87,1,99.0000030212403,10|0,0:2|0:2,0:0:0:0:
261,82,24570,1,0,1:2:0:0:
261,82,24652,1,2,1:2:0:0:
286,257,24817,1,2,1:2:0:0:
402,153,24982,1,10,0:2:0:0:
274,80,25147,2,0,P|273:43|283:8,1,49.5000015106202,0|0,0:2|1:2,0:0:0:0:
473,106,25311,6,0,B|486:132|486:132|470:240,1,99.0000030212403,0|2,1:2|1:2,0:0:0:0:
355,342,25641,1,8,0:2:0:0:
402,153,25806,1,8,0:2:0:0:
286,257,25971,1,2,1:2:0:0:
449,301,26136,1,2,1:2:0:0:
290,119,26300,1,10,0:2:0:0:
238,352,26465,6,0,B|123:400|177:283|22:351,1,198.000006042481,4|0,1:2|1:2,0:0:0:0:
198,157,26960,2,0,L|195:292,1,99.0000030212403,10|0,0:2|0:2,0:0:0:0:
197,282,27207,1,0,1:2:0:0:
197,282,27289,1,2,1:2:0:0:
19,244,27454,1,2,1:2:0:0:
153,81,27619,2,0,P|202:66|253:86,1,99.0000030212403,10|0,0:2|0:2,0:0:0:0:
268,101,27866,1,0,1:2:0:0:
268,101,27949,1,0,1:2:0:0:
429,185,28114,5,2,1:2:0:0:
253,175,28278,1,8,0:2:0:0:
452,302,28443,2,0,P|426:300|385:309,1,49.5000015106202,2|0,0:2|1:2,0:0:0:0:
289,384,28608,1,2,1:2:0:0:
333,148,28773,1,2,1:2:0:0:
401,383,28938,1,10,0:2:0:0:
432,87,29103,6,0,L|428:199,1,99.0000030212403,6|0,1:2|0:2,0:0:0:0:
127,214,29433,1,6,1:2:0:0:
331,231,29598,1,8,1:2:0:0:
235,313,29763,6,0,L|226:200,1,99.0000030212403,6|0,1:2|0:2,0:0:0:0:
75,39,30092,1,6,1:2:0:0:
38,281,30257,1,8,1:2:0:0:
189,114,30422,6,0,L|296:118,1,99.0000030212403,6|0,1:2|0:2,0:0:0:0:
507,279,30751,1,6,1:2:0:0:
331,231,30916,1,8,1:2:0:0:
459,34,31081,2,0,L|459:139,1,99.0000030212403,6|0,1:2|0:2,0:0:0:0:
305,306,31411,5,6,1:2:0:0:
305,306,31905,5,12,0:2:0:0:
244,69,32070,1,0,1:2:0:0:
189,333,32235,5,8,0:2:0:0:
245,47,32399,1,0,1:2:0:0:
425,259,32564,5,8,0:2:0:0:
113,206,32729,1,0,1:2:0:0:
364,19,32894,5,8,0:2:0:0:
305,306,33059,1,0,1:2:0:0:
98,31,33224,5,8,0:2:0:0:
189,333,33388,1,0,1:2:0:0:
250,25,33553,1,8,0:2:0:0:
250,25,33883,5,10,0:2:0:0:
380,253,34048,1,8,0:2:0:0:
114,249,34213,1,10,0:2:0:0:
396,169,34377,6,0,P|436:189|463:228,1,85.4999977169037,6|0,1:2|0:2,0:0:0:0:
293,288,34707,2,0,P|289:239|309:198,1,85.4999977169037,2|8,1:2|0:2,0:0:0:0:
439,314,35037,1,2,0:2:0:0:
439,314,35202,2,0,L|345:349,1,85.4999977169037,2|0,1:2|1:2,0:0:0:0:
179,347,35531,1,10,0:2:0:0:
293,288,35696,1,2,0:2:0:0:
177,167,35861,6,0,L|194:272,1,85.4999977169037,2|0,1:2|1:2,0:0:0:0:
57,325,36191,2,0,L|73:219,1,85.4999977169037,10|0,0:2|0:2,0:0:0:0:
187,82,36520,1,2,1:2:0:0:
42,48,36685,1,2,1:2:0:0:
177,167,36850,1,10,0:2:0:0:
12,158,37015,6,0,L|125:137,1,85.4999977169037,6|0,1:2|0:2,0:0:0:0:
219,241,37344,2,0,P|178:253|114:216,1,85.4999977169037,2|8,1:2|0:2,0:0:0:0:
187,82,37674,2,0,L|172:202,1,85.4999977169037,2|0,0:2|1:2,0:0:0:0:
326,285,38004,2,0,L|313:187,1,85.4999977169037,2|8,1:2|0:2,0:0:0:0:
359,68,38333,5,2,0:2:0:0:
243,182,38498,1,2,1:2:0:0:
399,215,38663,1,2,1:2:0:0:
259,101,38828,1,10,0:2:0:0:
326,285,38993,1,10,0:2:0:0:
469,142,39158,2,0,L|368:135,1,85.4999977169037,2|0,1:2|1:2,0:0:0:0:
243,182,39487,1,8,0:2:0:0:
369,353,39652,6,0,P|406:316|408:272,1,85.4999977169037,6|0,1:2|0:2,0:0:0:0:
237,284,39982,2,0,P|249:333|286:357,1,85.4999977169037,2|8,1:2|0:2,0:0:0:0:
328,181,40311,2,0,L|218:182,1,85.4999977169037,2|0,0:2|1:2,0:0:0:0:
152,281,40641,2,0,L|257:284,1,85.4999977169037,2|8,1:2|0:2,0:0:0:0:
155,122,40971,2,0,B|137:187|137:187|164:221|164:221|143:314,1,170.999995433807,2|0,0:2|1:0,0:0:0:0:
122,347,41465,1,8,0:2:0:0:
122,347,41795,5,2,1:2:0:0:
247,184,41960,1,2,1:2:0:0:
316,361,42125,1,8,0:2:0:0:
284,91,42289,6,0,P|314:82|385:110,1,85.4999977169037,6|0,1:2|0:2,0:0:0:0:
381,328,42619,1,6,1:2:0:0:
323,170,42784,1,8,1:2:0:0:
457,234,42949,6,0,L|343:245,1,85.4999977169037,6|0,1:2|0:2,0:0:0:0:
109,220,43278,1,6,1:2:0:0:
291,251,43443,1,8,1:2:0:0:
194,358,43608,6,0,L|201:253,1,85.4999977169037,6|0,1:2|0:2,0:0:0:0:
323,170,43938,1,6,1:2:0:0:
292,334,44103,1,8,1:2:0:0:
207,108,44268,1,6,0:2:0:0:
448,245,44432,5,8,3:0:0:0:
212,186,44597,1,6,3:0:0:0:
442,92,44762,1,0,1:2:0:0:
292,334,44927,6,0,P|249:344|197:327,1,85.4999977169037,6|0,1:2|0:2,0:0:0:0:
212,186,45257,2,0,P|241:218|252:271,1,85.4999977169037,2|8,1:2|0:2,0:0:0:0:
124,325,45586,2,0,P|136:282|176:246,1,85.4999977169037,2|0,0:2|1:2,0:0:0:0:
343,258,45916,1,2,1:2:0:0:
305,111,46081,1,10,0:2:0:0:
252,257,46246,1,2,0:2:0:0:
397,188,46410,5,2,1:2:0:0:
213,188,46575,1,2,1:2:0:0:
412,266,46740,1,10,0:2:0:0:
252,257,46905,1,2,0:2:0:0:
432,93,47070,1,2,1:2:0:0:
412,266,47235,1,2,1:2:0:0:
336,56,47399,1,10,0:2:0:0:
252,257,47564,6,0,P|237:293|185:326,1,85.4999977169037,6|0,1:2|0:2,0:0:0:0:
96,231,47894,2,0,P|134:225|189:254,1,85.4999977169037,2|8,1:2|0:2,0:0:0:0:
44,305,48224,2,0,P|20:274|17:212,1,85.4999977169037,2|0,0:2|1:2,0:0:0:0:
245,149,48553,1,2,1:2:0:0:
81,88,48718,1,10,0:2:0:0:
241,65,48883,1,2,0:2:0:0:
176,242,49048,5,2,1:2:0:0:
241,65,49213,2,0,P|292:80|315:110,1,85.4999977169037,2|8,1:2|0:2,0:0:0:0:
361,267,49542,1,10,0:2:0:0:
467,130,49707,2,0,L|369:128,1,85.4999977169037,2|0,1:2|1:2,0:0:0:0:
245,149,50037,1,8,0:2:0:0:
361,267,50202,6,0,P|391:243|409:179,1,85.4999977169037,6|0,1:2|0:2,0:0:0:0:
321,21,50531,2,0,P|306:57|323:123,1,85.4999977169037,2|8,1:2|0:2,0:0:0:0:
361,267,50861,2,0,P|338:237|274:218,1,85.4999977169037,2|0,0:2|1:2,0:0:0:0:
150,185,51191,2,0,P|189:180|237:134,1,85.4999977169037,2|8,1:2|0:2,0:0:0:0:
131,24,51520,6,0,B|125:90|125:90|153:125|153:125|148:200,1,170.999995433807,2|0,0:2|1:0,0:0:0:0:
261,277,52015,1,8,0:2:0:0:
261,277,52344,5,2,1:2:0:0:
297,87,52509,1,2,1:2:0:0:
341,327,52674,1,8,0:2:0:0:
460,122,52839,6,0,L|358:142,1,85.4999977169037,6|0,1:2|0:2,0:0:0:0:
102,205,53169,1,6,1:2:0:0:
343,229,53334,1,8,1:2:0:0:
212,90,53499,6,0,L|222:204,1,85.4999977169037,6|0,1:2|0:2,0:0:0:0:
268,369,53828,1,6,1:2:0:0:
298,154,53993,1,8,1:2:0:0:
97,300,54158,6,0,L|212:290,1,85.4999977169037,6|0,1:2|0:2,0:0:0:0:
426,235,54487,1,6,1:2:0:0:
220,175,54652,1,8,1:2:0:0:
345,353,54817,2,0,L|345:256,1,85.4999977169037,6|0,1:2|0:2,0:0:0:0:
231,95,55147,5,2,1:2:0:0:
186,369,55311,1,8,0:2:0:0:
145,101,55641,6,0,L|37:108,1,85.4999977169037,14|0,0:2|1:2,0:0:0:0:
224,10,55971,1,0,1:2:0:0:
302,142,56136,1,8,0:2:0:0:
374,48,56301,2,0,L|488:41,1,85.4999977169037,2|0,1:2|1:2,0:0:0:0:
231,95,56630,1,8,0:2:0:0:
381,148,56795,1,0,1:2:0:0:
245,227,56960,6,0,L|134:233,1,85.4999977169037,14|0,0:2|1:2,0:0:0:0:
302,142,57289,1,0,1:2:0:0:
343,294,57454,1,8,0:2:0:0:
173,314,57620,2,0,P|159:277|172:199,1,85.4999977169037,2|0,1:2|1:2,0:0:0:0:
194,65,57949,1,12,0:2:0:0:
194,65,58278,5,14,0:2:0:0:
230,92,58360,1,8,0:2:0:0:
246,136,58442,1,8,0:2:0:0:
235,181,58525,1,8,0:2:0:0:
207,221,58608,1,8,0:2:0:0:
184,270,58690,1,8,0:2:0:0:
193,325,58773,1,14,0:2:0:0:
231,365,58855,1,8,0:2:0:0:
288,384,58938,1,8,0:2:0:0:
345,364,59020,1,8,0:2:0:0:
386,323,59103,1,8,0:2:0:0:
398,267,59185,1,8,0:2:0:0:
391,230,59267,6,0,B|362:218|350:227|350:227|341:223|341:223|324:232|288:227,1,85.4999977169037,0|0,1:2|1:2,0:0:0:0:
151,139,60586,5,8,0:2:0:0:
16,326,60751,6,0,B|143:286|97:397|232:358,1,215.999993408203,6|0,1:2|1:2,0:0:0:0:
377,169,61246,2,0,P|399:217|401:277,1,107.999996704102,10|0,0:2|0:2,0:0:0:0:
151,139,61575,2,0,P|155:88|178:35,1,107.999996704102,2|0,1:2|1:2,0:0:0:0:
377,169,61905,1,10,0:2:0:0:
205,245,62070,6,0,B|147:230|81:272|81:272|40:259|36:189,1,215.999993408203,2|0,1:2|1:2,0:0:0:0:
263,95,62564,1,10,0:2:0:0:
337,291,62729,2,0,P|395:308|470:277,1,107.999996704102,2|0,0:2|1:2,0:0:0:0:
512,102,63059,2,0,P|470:75|399:88,1,107.999996704102,2|8,1:2|0:2,0:0:0:0:
224,173,63388,6,0,B|184:211|197:267|197:267|259:294|254:386,1,215.999993408203,2|0,1:2|1:2,0:0:0:0:
337,291,63883,1,10,0:2:0:0:
145,347,64048,1,2,0:2:0:0:
380,203,64213,1,0,1:2:0:0:
224,173,64378,1,2,1:2:0:0:
253,357,64543,1,8,0:2:0:0:
287,113,64707,6,0,B|312:154|312:154|286:241,1,107.999996704102,2|0,1:2|0:2,0:0:0:0:
117,84,65037,1,2,1:2:0:0:
179,324,65202,1,8,0:2:0:0:
179,324,65531,5,2,1:2:0:0:
377,212,65696,1,2,1:2:0:0:
130,196,65861,1,10,0:2:0:0:
332,68,66026,6,0,P|381:94|413:150,1,107.999996704102,6|0,1:2|0:0,0:0:0:0:
301,342,66355,2,0,P|275:292|281:228,1,107.999996704102,2|8,1:2|0:2,0:0:0:0:
409,136,66685,2,0,B|464:132|491:186|491:186|457:328,1,215.999993408203,2|0,0:2|1:0,0:0:0:0:
210,340,67180,1,10,0:2:0:0:
384,236,67344,6,0,L|273:241,1,107.999996704102,6|0,1:2|0:2,0:0:0:0:
115,118,67674,1,2,1:2:0:0:
300,108,67839,1,8,0:2:0:0:
107,242,68004,2,0,L|99:365,1,107.999996704102,2|0,0:2|1:2,0:0:0:0:
115,118,68333,1,2,1:2:0:0:
99,349,68498,1,10,0:2:0:0:
115,118,68663,6,0,L|250:114,1,107.999996704102,6|0,1:2|0:2,0:0:0:0:
418,98,68993,1,6,1:2:0:0:
221,199,69158,1,8,1:2:0:0:
403,209,69322,2,0,P|409:253|380:319,1,107.999996704102,4|0,1:2|0:2,0:0:0:0:
93,245,69652,1,4,1:2:0:0:
322,235,69817,1,8,1:2:0:0:
215,384,69982,6,0,L|211:275,1,107.999996704102,4|0,1:2|0:2,0:0:0:0:
391,121,70311,1,4,1:2:0:0:
310,323,70476,1,8,1:2:0:0:
308,4,70641,1,4,1:2:0:0:
308,4,70971,5,8,0:2:0:0:
301,56,71053,1,8,0:2:0:0:
294,107,71136,1,8,0:2:0:0:
289,159,71218,1,8,0:2:0:0:
280,208,71300,6,0,B|242:215|208:197|208:197|186:205|163:232|163:232|126:206|72:224,1,215.999993408203,6|0,1:2|1:2,0:0:0:0:
217,384,71795,2,0,P|236:331|217:265,1,107.999996704102,10|0,0:2|0:2,0:0:0:0:
30,316,72125,2,0,L|143:324,1,107.999996704102,2|0,1:2|1:2,0:0:0:0:
281,208,72454,1,10,0:2:0:0:
54,124,72619,6,0,B|7:162|12:213|12:213|69:262|12:346,1,215.999993408203,2|0,1:2|1:2,0:0:0:0:
143,256,73114,1,10,0:2:0:0:
123,55,73278,2,0,P|77:24|3:30,1,107.999996704102,2|0,0:2|1:2,0:0:0:0:
143,256,73608,2,0,P|198:258|258:215,1,107.999996704102,2|8,1:2|0:2,0:0:0:0:
238,31,73938,6,0,B|181:149|306:122|240:238,1,215.999993408203,2|0,1:2|1:2,0:0:0:0:
433,220,74432,1,10,0:2:0:0:
243,232,74597,1,2,0:2:0:0:
382,102,74762,1,0,1:2:0:0:
238,31,74927,1,2,1:2:0:0:
336,223,75092,1,8,0:2:0:0:
488,123,75257,6,0,B|376:101,1,107.999996704102,2|0,1:2|0:2,0:0:0:0:
227,257,75586,1,2,1:2:0:0:
411,353,75751,1,8,0:2:0:0:
411,353,76081,5,2,1:2:0:0:
382,102,76246,1,2,1:2:0:0:
291,325,76410,1,10,0:2:0:0:
250,49,76575,6,0,P|203:57|151:109,1,107.999996704102,6|0,1:2|0:2,0:0:0:0:
291,325,76905,2,0,P|307:277|290:216,1,107.999996704102,2|8,1:2|0:2,0:0:0:0:
86,212,77235,2,0,B|161:202|161:202|218:232|218:232|314:219,1,215.999993408203,2|0,0:2|1:0,0:0:0:0:
400,94,77729,1,10,0:2:0:0:
415,374,77894,6,0,L|437:259,1,107.999996704102,6|0,1:2|0:2,0:0:0:0:
276,115,78224,2,0,L|295:238,1,107.999996704102,2|8,1:2|0:2,0:0:0:0:
441,160,78553,2,0,B|443:112|401:92|401:92|339:138|234:104,1,215.999993408203,2|0,0:2|1:0,0:0:0:0:
14,90,79048,1,8,0:2:0:0:
278,6,79213,6,0,L|274:118,1,107.999996704102,6|0,1:2|0:2,0:0:0:0:
147,333,79543,1,6,1:2:0:0:
105,91,79708,1,8,1:2:0:0:
352,267,79873,6,0,L|234:258,1,107.999996704102,6|0,1:2|0:2,0:0:0:0:
27,161,80202,1,6,1:2:0:0:
274,113,80367,1,8,1:2:0:0:
147,333,80532,6,0,L|156:173,1,107.999996704102,6|0,1:2|0:2,0:0:0:0:
278,6,80861,1,6,1:2:0:0:
352,267,81026,1,8,1:2:0:0:
477,132,81191,2,0,L|350:130,1,107.999996704102,6|0,1:2|0:2,0:0:0:0:
156,63,81521,5,6,1:2:0:0:
230,323,81685,1,8,1:2:0:0:
230,323,82015,6,0,B|267:341|267:341|342:326,1,99.0000030212403,4|0,1:2|1:2,0:0:0:0:
270,124,82344,2,0,B|250:168|250:168|267:236,1,99.0000030212403,10|0,0:2|0:2,0:0:0:0:
272,250,82591,1,0,1:2:0:0:
272,250,82674,1,2,1:2:0:0:
377,196,82839,1,2,1:2:0:0:
230,323,83003,1,10,0:2:0:0:
428,355,83168,1,0,0:2:0:0:
428,355,83251,1,0,1:2:0:0:
428,355,83333,1,0,1:2:0:0:
377,196,83498,6,0,L|384:62,1,99.0000030212403,2|8,1:2|0:2,0:0:0:0:
113,51,83828,2,0,P|76:39|53:22,1,49.5000015106202,2|0,1:2|1:2,0:0:0:0:
285,121,83992,1,2,1:2:0:0:
96,197,84157,1,2,1:2:0:0:
272,250,84322,1,10,0:2:0:0:
42,315,84487,6,0,B|165:265|120:381|262:308,1,198.000006042481,4|0,1:2|1:2,0:0:0:0:
399,227,84982,2,0,P|356:263|355:335,1,99.0000030212403,10|0,0:2|0:2,0:0:0:0:
365,337,85229,1,0,1:2:0:0:
365,337,85311,1,2,1:2:0:0:
296,171,85476,1,2,1:2:0:0:
229,322,85641,1,10,0:2:0:0:
168,131,85806,2,0,P|175:157|177:203,1,49.5000015106202,0|0,0:2|1:2,0:0:0:0:
42,315,85971,6,0,B|24:281|24:281|30:220,1,99.0000030212403,0|2,1:2|1:2,0:0:0:0:
168,131,86300,1,8,0:2:0:0:
159,255,86465,1,0,0:0:0:0:
305,184,86630,1,2,1:2:0:0:
85,110,86795,1,2,1:2:0:0:
135,335,86959,1,10,0:2:0:0:
352,110,87124,6,0,B|280:104|280:104|236:139|236:139|158:129,1,198.000006042481,4|0,1:2|1:2,0:0:0:0:
317,297,87619,2,0,B|332:249|332:249|297:164,1,99.0000030212403,10|0,0:2|0:2,0:0:0:0:
308,189,87866,1,0,1:2:0:0:
308,189,87948,1,2,1:2:0:0:
167,130,88113,1,2,1:2:0:0:
354,0,88278,2,0,B|326:49|326:49|352:128,1,99.0000030212403,10|0,0:2|0:2,0:0:0:0:
352,110,88525,1,0,1:2:0:0:
352,110,88608,1,0,1:2:0:0:
456,201,88773,5,2,1:2:0:0:
388,357,88937,1,8,0:2:0:0:
308,189,89102,2,0,P|285:178|261:173,1,49.5000015106202,2|0,0:2|1:2,0:0:0:0:
57,182,89267,1,2,1:2:0:0:
259,274,89432,1,2,1:2:0:0:
46,352,89597,1,10,0:2:0:0:
262,372,89762,6,0,L|258:260,1,99.0000030212403,6|0,1:2|0:2,0:0:0:0:
196,40,90092,1,6,1:2:0:0:
386,189,90257,1,8,1:2:0:0:
162,177,90421,6,0,L|296:171,1,99.0000030212403,6|0,1:2|0:2,0:0:0:0:
392,55,90751,1,6,1:2:0:0:
364,310,90916,1,8,1:2:0:0:
485,188,91081,6,0,L|353:190,1,99.0000030212403,6|0,1:2|0:2,0:0:0:0:
162,177,91410,1,6,1:2:0:0:
364,310,91576,1,8,1:2:0:0:
181,373,91740,6,0,L|172:262,1,99.0000030212403,6|0,1:2|0:2,0:0:0:0:
0,154,92070,1,6,1:2:0:0:
0,154,92564,5,12,0:2:0:0:
275,141,92729,1,0,1:2:0:0:
68,226,92894,1,0,1:2:0:0:
339,95,93059,5,12,0:2:0:0:
84,73,93224,1,0,1:2:0:0:
308,215,93389,1,0,1:2:0:0:
213,8,93553,5,12,1:2:0:0:
174,299,93718,1,8,1:2:0:0:
