osu file format v14

[General]
AudioFilename: audio.mp3
AudioLeadIn: 0
PreviewTime: 59255
Countdown: 0
SampleSet: Soft
StackLeniency: 0.7
Mode: 3
LetterboxInBreaks: 0
SpecialStyle: 0
WidescreenStoryboard: 0

[Editor]
DistanceSpacing: 1
BeatDivisor: 4
GridSize: 32
TimelineZoom: 1.7

[Metadata]
Title:BLACK MEMORY (Cut Ver.)
TitleUnicode:BLACK MEMORY (Cut Ver.)
Artist:THE ORAL CIGARETTES
ArtistUnicode:THE ORAL CIGARETTES
Creator:Yuiazu-
Version:Insane
Source:亜人
Tags:ajin demi human japanese live action LA anime Kisses and Kills Before It's Too Late 映画 主題歌 opening OP jp j-rock jrock rock TOC cigs Takuya Yamanaka 山中 拓也 Akira Akirakani あきらかにあきら Shigenobu Suzuki 鈴木 重伸 Masaya Nakanishi 中西 雅哉 Onii_ue short version
BeatmapID:2608578
BeatmapSetID:1255164

[Difficulty]
HPDrainRate:8.5
CircleSize:4
OverallDifficulty:8.5
ApproachRate:5
SliderMultiplier:1.4
SliderTickRate:1

[Events]
//Background and Video events
0,0,"bg.jpg",0,0
//Break Periods
//Storyboard Layer 0 (Background)
//Storyboard Layer 1 (Fail)
//Storyboard Layer 2 (Pass)
//Storyboard Layer 3 (Foreground)
//Storyboard Layer 4 (Overlay)
//Storyboard Sound Samples

[TimingPoints]
245,329.67032967033,4,2,1,50,1,0
60739,-100.0,4,2,1,50,0,1
70959,-100.0,4,2,1,50,0,0
71288,-100.0,4,2,1,50,0,1
81673,-100.0,4,2,1,50,0,0

[HitObjects]
64,192,245,1,2,0:0:0:0:
448,192,245,1,0,0:0:0:0:
192,192,409,1,2,0:0:0:0:
320,192,409,1,0,0:0:0:0:
64,192,574,1,8,0:0:0:0:
320,192,574,1,0,0:0:0:0:
448,192,574,1,0,0:0:0:0:
192,192,739,1,0,0:0:0:50:tom3.wav
320,192,821,1,0,0:0:0:50:tom2.wav
64,192,904,1,2,0:0:0:0:
192,192,904,1,0,0:0:0:0:
320,192,1069,1,2,0:0:0:0:
448,192,1069,1,0,0:0:0:0:
64,192,1234,1,8,0:0:0:0:
192,192,1234,1,0,0:0:0:0:
448,192,1234,1,0,0:0:0:0:
320,192,1398,1,0,0:0:0:50:tom3.wav
192,192,1481,1,0,0:0:0:50:tom2.wav
320,192,1563,1,2,0:0:0:0:
448,192,1563,1,0,0:0:0:0:
64,192,1728,1,2,0:0:0:0:
192,192,1728,1,0,0:0:0:0:
64,192,1893,1,8,0:0:0:0:
320,192,1893,1,0,0:0:0:0:
448,192,1893,1,0,0:0:0:0:
192,192,2058,1,0,0:0:0:50:tom3.wav
320,192,2140,1,0,0:0:0:50:tom2.wav
192,192,2223,1,2,0:0:0:0:
448,192,2223,1,0,0:0:0:0:
64,192,2387,1,2,0:0:0:0:
320,192,2387,1,0,0:0:0:0:
64,192,2552,1,8,0:0:0:0:
192,192,2552,1,0,0:0:0:0:
448,192,2552,1,0,0:0:0:0:
320,192,2717,1,0,0:0:0:50:tom3.wav
192,192,2799,1,0,0:0:0:50:tom2.wav
320,192,2882,1,2,0:0:0:0:
448,192,2882,1,0,0:0:0:0:
64,192,3047,1,2,0:0:0:0:
192,192,3047,1,0,0:0:0:0:
192,192,3212,1,8,0:0:0:0:
320,192,3212,1,0,0:0:0:0:
448,192,3212,1,0,0:0:0:0:
64,192,3376,1,0,0:0:0:50:tom3.wav
448,192,3459,1,0,0:0:0:50:tom2.wav
64,192,3541,1,2,0:0:0:0:
320,192,3541,1,0,0:0:0:0:
192,192,3706,1,2,0:0:0:0:
448,192,3706,1,0,0:0:0:0:
64,192,3871,1,8,0:0:0:0:
192,192,3871,1,0,0:0:0:0:
320,192,3871,1,0,0:0:0:0:
448,192,4036,1,0,0:0:0:50:tom3.wav
64,192,4118,1,0,0:0:0:50:tom2.wav
192,192,4201,1,2,0:0:0:0:
448,192,4201,1,0,0:0:0:0:
64,192,4365,1,2,0:0:0:0:
320,192,4365,1,0,0:0:0:0:
192,192,4530,1,8,0:0:0:0:
320,192,4530,1,0,0:0:0:0:
448,192,4530,1,0,0:0:0:0:
64,192,4695,1,0,0:0:0:50:tom3.wav
320,192,4777,1,0,0:0:0:50:tom2.wav
64,192,4860,1,2,0:0:0:0:
192,192,4860,1,0,0:0:0:0:
320,192,5025,1,2,0:0:0:0:
448,192,5025,1,0,0:0:0:0:
64,192,5190,1,8,0:0:0:0:
192,192,5190,1,0,0:0:0:0:
448,192,5190,1,0,0:0:0:0:
320,192,5354,1,0,0:0:0:50:tom3.wav
192,192,5437,1,0,0:0:0:50:tom2.wav
320,192,5519,1,2,0:0:0:0:
448,192,5519,1,0,0:0:0:0:
64,192,5684,1,2,0:0:0:0:
192,192,5684,1,0,0:0:0:0:
64,192,5849,1,8,0:0:0:0:
320,192,5849,1,0,0:0:0:0:
448,192,5849,1,0,0:0:0:0:
192,192,6014,1,0,0:0:0:50:tom3.wav
320,192,6096,1,0,0:0:0:50:tom2.wav
192,192,6179,1,2,0:0:0:0:
448,192,6179,1,0,0:0:0:0:
64,192,6343,1,2,0:0:0:0:
320,192,6343,1,0,0:0:0:0:
64,192,6508,1,8,0:0:0:0:
192,192,6508,1,0,0:0:0:0:
448,192,6508,1,0,0:0:0:0:
320,192,6673,1,0,0:0:0:50:tom3.wav
192,192,6755,1,0,0:0:0:50:tom2.wav
64,192,6838,1,2,0:0:0:0:
320,192,6838,1,0,0:0:0:0:
192,192,7003,1,2,0:0:0:0:
448,192,7003,1,0,0:0:0:0:
64,192,7168,1,8,0:0:0:0:
320,192,7168,1,0,0:0:0:0:
448,192,7168,1,0,0:0:0:0:
192,192,7332,1,0,0:0:0:50:tom3.wav
320,192,7415,1,0,0:0:0:50:tom2.wav
64,192,7497,1,2,0:0:0:0:
192,192,7497,1,0,0:0:0:0:
320,192,7662,1,2,0:0:0:0:
448,192,7662,1,0,0:0:0:0:
64,192,7827,1,8,0:0:0:0:
192,192,7827,1,0,0:0:0:0:
448,192,7827,1,0,0:0:0:0:
320,192,7992,1,0,0:0:0:50:tom3.wav
192,192,8074,1,0,0:0:0:50:tom2.wav
320,192,8157,1,2,0:0:0:0:
448,192,8157,1,0,0:0:0:0:
64,192,8321,1,2,0:0:0:0:
192,192,8321,1,0,0:0:0:0:
64,192,8486,1,8,0:0:0:0:
320,192,8486,1,0,0:0:0:0:
448,192,8486,1,0,0:0:0:0:
192,192,8651,1,0,0:0:0:50:tom3.wav
448,192,8734,1,0,0:0:0:50:tom2.wav
192,192,8816,1,2,0:0:0:0:
320,192,8816,1,0,0:0:0:0:
64,192,8981,1,2,0:0:0:0:
448,192,8981,1,0,0:0:0:0:
64,192,9146,1,8,0:0:0:0:
192,192,9146,1,0,0:0:0:0:
320,192,9146,1,0,0:0:0:0:
448,192,9310,1,0,0:0:0:50:tom3.wav
192,192,9393,1,0,0:0:0:50:tom2.wav
320,192,9475,1,2,0:0:0:0:
448,192,9475,1,0,0:0:0:0:
64,192,9640,1,2,0:0:0:0:
192,192,9640,1,0,0:0:0:0:
64,192,9805,1,8,0:0:0:0:
320,192,9805,1,0,0:0:0:0:
448,192,9805,1,0,0:0:0:0:
192,192,9970,1,0,0:0:0:50:tom3.wav
320,192,10052,1,0,0:0:0:50:tom2.wav
64,192,10135,1,2,0:0:0:0:
192,192,10135,1,0,0:0:0:0:
320,192,10299,1,2,0:0:0:0:
448,192,10299,1,0,0:0:0:0:
64,192,10464,1,8,0:0:0:0:
192,192,10464,1,0,0:0:0:0:
448,192,10464,1,0,0:0:0:0:
320,192,10629,1,0,0:0:0:50:tom3.wav
192,192,10712,1,0,0:0:0:50:tom2.wav
64,192,10794,1,4,0:0:0:0:
320,192,10794,128,2,11124:0:0:0:0:
448,192,10794,1,0,0:0:0:0:
192,192,10959,1,2,0:0:0:0:
64,192,11124,1,8,0:0:0:0:
192,192,11124,1,0,0:0:0:0:
448,192,11124,1,0,0:0:0:0:
448,192,11288,128,0,11453:0:0:0:50:tom3.wav
320,192,11371,1,0,0:0:0:50:tom2.wav
64,192,11453,128,2,11618:0:0:0:0:
192,192,11453,1,0,0:0:0:0:
320,192,11618,128,2,11783:0:0:0:0:
448,192,11618,1,0,0:0:0:0:
64,192,11783,1,8,0:0:0:0:
192,192,11783,128,0,12113:0:0:0:0:
448,192,11783,1,0,0:0:0:0:
320,192,11948,1,0,0:0:0:50:tom3.wav
64,192,12030,1,0,0:0:0:50:tom2.wav
320,192,12113,1,2,0:0:0:0:
448,192,12113,1,0,0:0:0:0:
64,192,12277,128,2,12442:0:0:0:0:
192,192,12277,1,0,0:0:0:0:
192,192,12442,1,8,0:0:0:0:
320,192,12442,1,0,0:0:0:0:
448,192,12442,128,0,12772:0:0:0:0:
64,192,12607,1,0,0:0:0:50:tom3.wav
192,192,12690,1,0,0:0:0:50:tom2.wav
64,192,12772,128,2,12937:0:0:0:0:
320,192,12772,1,0,0:0:0:0:
192,192,12937,1,2,0:0:0:0:
448,192,12937,128,0,13102:0:0:0:0:
64,192,13102,1,8,0:0:0:0:
192,192,13102,128,0,13266:0:0:0:0:
320,192,13102,1,0,0:0:0:0:
320,192,13266,128,0,13431:0:0:0:50:tom3.wav
448,192,13349,1,0,0:0:0:50:tom2.wav
64,192,13431,128,2,13761:0:0:0:0:
192,192,13431,1,0,0:0:0:0:
320,192,13596,1,2,0:0:0:0:
192,192,13761,1,8,0:0:0:0:
320,192,13761,1,0,0:0:0:0:
448,192,13761,1,0,0:0:0:0:
192,192,13926,128,0,14091:0:0:0:50:tom3.wav
64,192,14008,1,0,0:0:0:50:tom2.wav
320,192,14091,128,2,14255:0:0:0:0:
448,192,14091,1,0,0:0:0:0:
64,192,14255,128,2,14420:0:0:0:0:
192,192,14255,1,0,0:0:0:0:
192,192,14420,1,8,0:0:0:0:
320,192,14420,1,0,0:0:0:0:
448,192,14420,128,0,14750:0:0:0:0:
64,192,14585,1,0,0:0:0:50:tom3.wav
192,192,14668,1,0,0:0:0:50:tom2.wav
64,192,14750,1,2,0:0:0:0:
320,192,14750,1,0,0:0:0:0:
192,192,14915,128,2,15080:0:0:0:0:
448,192,14915,1,0,0:0:0:0:
64,192,15080,1,8,0:0:0:0:
320,192,15080,128,0,15409:0:0:0:0:
448,192,15080,1,0,0:0:0:0:
192,192,15245,1,0,0:0:0:50:tom3.wav
448,192,15327,1,0,0:0:0:50:tom2.wav
64,192,15409,128,2,15574:0:0:0:0:
192,192,15409,1,0,0:0:0:0:
320,192,15574,1,2,0:0:0:0:
448,192,15574,128,0,15739:0:0:0:0:
64,192,15739,1,8,0:0:0:0:
192,192,15739,128,0,15904:0:0:0:0:
320,192,15739,1,0,0:0:0:0:
448,192,15904,1,0,0:0:0:50:tom3.wav
320,192,15986,1,0,0:0:0:50:tom2.wav
64,192,16069,128,2,16398:0:0:0:0:
192,192,16069,1,4,0:0:0:0:
448,192,16069,1,0,0:0:0:0:
320,192,16234,1,2,0:0:0:0:
192,192,16398,1,8,0:0:0:0:
320,192,16398,1,0,0:0:0:0:
448,192,16398,1,0,0:0:0:0:
448,192,16563,128,0,16728:0:0:0:50:tom3.wav
320,192,16646,1,0,0:0:0:50:tom2.wav
64,192,16728,1,2,0:0:0:0:
192,192,16728,128,0,16893:0:0:0:0:
320,192,16893,128,2,17058:0:0:0:0:
448,192,16893,1,0,0:0:0:0:
64,192,17058,128,8,17387:0:0:0:0:
192,192,17058,1,0,0:0:0:0:
448,192,17058,1,0,0:0:0:0:
320,192,17223,1,0,0:0:0:50:tom3.wav
192,192,17305,1,0,0:0:0:50:tom2.wav
320,192,17387,1,2,0:0:0:0:
448,192,17387,1,0,0:0:0:0:
64,192,17552,1,2,0:0:0:0:
192,192,17552,128,0,17717:0:0:0:0:
64,192,17717,1,8,0:0:0:0:
320,192,17717,1,0,0:0:0:0:
448,192,17717,128,0,18047:0:0:0:0:
192,192,17882,1,0,0:0:0:50:tom3.wav
320,192,17964,1,0,0:0:0:50:tom2.wav
64,192,18047,128,2,18212:0:0:0:0:
192,192,18047,1,0,0:0:0:0:
320,192,18212,128,2,18376:0:0:0:0:
448,192,18212,1,0,0:0:0:0:
64,192,18376,1,8,0:0:0:0:
192,192,18376,128,0,18541:0:0:0:0:
448,192,18376,1,0,0:0:0:0:
320,192,18541,128,0,18706:0:0:0:50:tom3.wav
448,192,18624,1,0,0:0:0:50:tom2.wav
64,192,18706,128,2,19036:0:0:0:0:
192,192,18706,1,0,0:0:0:0:
320,192,18871,1,2,0:0:0:0:
192,192,19036,1,8,0:0:0:0:
320,192,19036,1,0,0:0:0:0:
448,192,19036,1,0,0:0:0:0:
448,192,19201,128,0,19365:0:0:0:50:tom3.wav
320,192,19283,1,0,0:0:0:50:tom2.wav
64,192,19365,1,2,0:0:0:0:
192,192,19365,128,0,19530:0:0:0:0:
320,192,19530,128,2,19695:0:0:0:0:
448,192,19530,1,0,0:0:0:0:
64,192,19695,128,8,20025:0:0:0:0:
192,192,19695,1,0,0:0:0:0:
448,192,19695,1,0,0:0:0:0:
192,192,19860,128,2,20025:0:0:0:0:
320,192,19860,128,0,20025:0:0:0:50:HHOpen.wav
448,192,19860,128,0,20025:0:0:0:0:
64,192,20190,128,0,20354:0:0:0:0:
320,192,20354,128,0,20519:0:0:0:0:
192,192,20519,128,0,20684:0:0:0:0:
448,192,20684,128,0,20849:0:0:0:0:
64,192,20849,128,0,21014:0:0:0:0:
192,192,21014,1,8,0:0:0:0:
320,192,21014,1,0,0:0:0:50:tom3.wav
448,192,21014,1,0,0:0:0:0:
64,192,21179,1,2,0:0:0:0:
192,192,21179,1,4,0:0:0:0:
320,192,21179,128,0,21508:0:0:0:0:
448,192,21179,128,0,21508:0:0:0:0:
64,192,21508,1,2,0:0:0:0:
192,192,21508,1,0,0:0:0:0:
64,192,21673,1,8,0:0:0:0:
320,192,21673,1,0,0:0:0:50:HHOpen.wav
448,192,21673,1,0,0:0:0:0:
192,192,21838,1,0,0:0:0:0:
320,192,21920,1,8,0:0:0:0:
448,192,21920,1,0,0:0:0:0:
64,192,22003,1,2,0:0:0:0:
192,192,22003,1,0,0:0:0:50:HHOpen.wav
320,192,22168,1,2,0:0:0:0:
448,192,22168,1,0,0:0:0:0:
64,192,22332,1,8,0:0:0:0:
192,192,22332,1,0,0:0:0:50:HHOpen.wav
320,192,22332,1,0,0:0:0:0:
448,192,22497,1,0,0:0:0:0:
64,192,22580,1,8,0:0:0:0:
192,192,22580,1,0,0:0:0:0:
320,192,22662,1,2,0:0:0:0:
448,192,22662,1,0,0:0:0:50:HHOpen.wav
64,192,22827,1,2,0:0:0:0:
192,192,22827,1,0,0:0:0:0:
192,192,22992,1,8,0:0:0:0:
320,192,22992,1,0,0:0:0:50:HHOpen.wav
448,192,22992,1,0,0:0:0:0:
64,192,23157,1,0,0:0:0:0:
192,192,23239,1,8,0:0:0:0:
448,192,23239,1,0,0:0:0:0:
64,192,23321,1,2,0:0:0:0:
320,192,23321,1,0,0:0:0:50:HHOpen.wav
192,192,23486,1,2,0:0:0:0:
448,192,23486,1,0,0:0:0:0:
64,192,23651,1,8,0:0:0:0:
320,192,23651,1,0,0:0:0:0:
448,192,23651,1,0,0:0:0:0:
64,192,23816,1,2,0:0:0:0:
192,192,23816,128,4,24146:0:0:0:0:
320,192,23816,128,0,24146:0:0:0:0:
448,192,23816,1,0,0:0:0:0:
64,192,24146,1,2,0:0:0:0:
448,192,24146,1,0,0:0:0:0:
192,192,24310,1,8,0:0:0:0:
320,192,24310,1,0,0:0:0:50:HHOpen.wav
448,192,24310,1,0,0:0:0:0:
64,192,24475,1,0,0:0:0:0:
320,192,24558,1,8,0:0:0:0:
448,192,24558,1,0,0:0:0:0:
64,192,24640,1,2,0:0:0:0:
192,192,24640,1,0,0:0:0:50:HHOpen.wav
320,192,24805,1,2,0:0:0:0:
448,192,24805,1,0,0:0:0:0:
64,192,24970,1,8,0:0:0:0:
192,192,24970,1,0,0:0:0:50:HHOpen.wav
448,192,24970,1,0,0:0:0:0:
320,192,25135,1,0,0:0:0:0:
64,192,25217,1,8,0:0:0:0:
192,192,25217,1,0,0:0:0:0:
320,192,25299,1,2,0:0:0:0:
448,192,25299,1,0,0:0:0:50:HHOpen.wav
64,192,25464,1,2,0:0:0:0:
192,192,25464,1,0,0:0:0:0:
192,192,25629,1,8,0:0:0:0:
320,192,25629,1,0,0:0:0:50:HHOpen.wav
448,192,25629,1,0,0:0:0:0:
64,192,25794,1,8,0:0:0:0:
320,192,25794,1,0,0:0:0:0:
448,192,25794,1,0,0:0:0:0:
64,192,25959,1,2,0:0:0:0:
192,192,25959,1,0,0:0:0:50:HHOpen.wav
320,192,26124,1,2,0:0:0:0:
448,192,26124,1,0,0:0:0:0:
64,192,26288,1,8,0:0:0:0:
192,192,26288,1,0,0:0:0:0:
320,192,26288,1,0,0:0:0:0:
64,192,26453,128,2,26783:0:0:0:0:
192,192,26453,128,4,26783:0:0:0:0:
320,192,26453,1,0,0:0:0:0:
448,192,26453,1,0,0:0:0:0:
320,192,26783,1,2,0:0:0:0:
448,192,26783,1,0,0:0:0:0:
64,192,26948,1,8,0:0:0:0:
192,192,26948,1,0,0:0:0:50:HHOpen.wav
320,192,26948,1,0,0:0:0:0:
448,192,27113,1,0,0:0:0:0:
64,192,27195,1,8,0:0:0:0:
320,192,27195,1,0,0:0:0:0:
192,192,27277,1,2,0:0:0:0:
448,192,27277,1,0,0:0:0:50:HHOpen.wav
64,192,27442,1,2,0:0:0:0:
320,192,27442,1,0,0:0:0:0:
64,192,27607,1,8,0:0:0:0:
192,192,27607,1,0,0:0:0:50:HHOpen.wav
448,192,27607,1,0,0:0:0:0:
320,192,27772,1,0,0:0:0:0:
192,192,27854,1,8,0:0:0:0:
448,192,27854,1,0,0:0:0:0:
64,192,27937,1,2,0:0:0:0:
320,192,27937,1,0,0:0:0:50:HHOpen.wav
192,192,28102,1,2,0:0:0:0:
448,192,28102,1,0,0:0:0:0:
64,192,28266,1,8,0:0:0:0:
320,192,28266,1,0,0:0:0:50:HHOpen.wav
448,192,28266,1,0,0:0:0:0:
192,192,28431,1,0,0:0:0:0:
320,192,28514,1,8,0:0:0:0:
448,192,28514,1,0,0:0:0:0:
64,192,28596,1,2,0:0:0:0:
192,192,28596,1,0,0:0:0:50:HHOpen.wav
320,192,28761,1,2,0:0:0:0:
448,192,28761,1,0,0:0:0:0:
64,192,28926,1,8,0:0:0:0:
192,192,28926,1,0,0:0:0:0:
320,192,28926,1,0,0:0:0:0:
64,192,29091,128,2,29338:0:0:0:0:
192,192,29091,128,0,29338:0:0:0:50:HHOpen.wav
448,192,29091,1,0,0:0:0:0:
64,192,29420,1,2,0:0:0:0:
192,192,29420,1,0,0:0:0:50:HHOpen.wav
64,192,29585,1,8,0:0:0:0:
320,192,29585,1,0,0:0:0:0:
448,192,29585,1,0,0:0:0:0:
192,192,29750,1,2,0:0:0:0:
320,192,29750,128,0,29997:0:0:0:50:HHOpen.wav
448,192,29750,128,0,29997:0:0:0:0:
320,192,30080,1,2,0:0:0:0:
448,192,30080,1,0,0:0:0:50:HHOpen.wav
64,192,30245,1,8,0:0:0:0:
192,192,30245,1,0,0:0:0:0:
320,192,30245,1,0,0:0:0:0:
64,192,30409,128,2,30657:0:0:0:0:
192,192,30409,128,0,30657:0:0:0:50:HHOpen.wav
448,192,30409,1,0,0:0:0:0:
64,192,30739,1,2,0:0:0:0:
192,192,30739,1,0,0:0:0:50:HHOpen.wav
192,192,30904,1,8,0:0:0:0:
320,192,30904,1,0,0:0:0:0:
448,192,30904,1,0,0:0:0:0:
64,192,31069,1,2,0:0:0:0:
320,192,31069,128,0,31316:0:0:0:50:HHOpen.wav
448,192,31069,128,0,31316:0:0:0:0:
192,192,31398,128,2,31728:0:0:0:0:
320,192,31398,128,0,31728:0:0:0:50:HHOpen.wav
448,192,31398,1,0,0:0:0:0:
64,192,31893,1,8,0:0:0:0:
192,192,31893,1,4,0:0:0:0:
320,192,31893,1,0,0:0:0:0:
448,192,31893,1,0,0:0:0:0:
192,192,32058,1,2,0:0:0:0:
320,192,32058,1,0,0:0:0:0:
64,192,32223,1,8,0:0:0:0:
192,192,32223,1,0,0:0:0:50:HHOpen.wav
448,192,32223,1,0,0:0:0:0:
320,192,32387,1,2,0:0:0:0:
448,192,32387,1,0,0:0:0:0:
64,192,32552,1,8,0:0:0:0:
192,192,32552,1,0,0:0:0:50:HHOpen.wav
320,192,32552,1,0,0:0:0:0:
192,192,32717,1,2,0:0:0:0:
448,192,32717,1,0,0:0:0:0:
64,192,32882,1,8,0:0:0:0:
320,192,32882,1,0,0:0:0:50:HHOpen.wav
448,192,32882,1,0,0:0:0:0:
64,192,33047,1,2,0:0:0:0:
192,192,33047,1,0,0:0:0:0:
192,192,33212,1,8,0:0:0:0:
320,192,33212,1,0,0:0:0:50:HHOpen.wav
448,192,33212,1,0,0:0:0:0:
64,192,33376,1,2,0:0:0:0:
320,192,33376,1,0,0:0:0:0:
64,192,33541,1,8,0:0:0:0:
192,192,33541,1,0,0:0:0:50:HHOpen.wav
448,192,33541,1,0,0:0:0:0:
448,192,33706,1,0,0:0:0:0:
64,192,33871,1,8,0:0:0:0:
192,192,33871,1,0,0:0:0:0:
320,192,33871,1,0,0:0:0:0:
64,192,34036,1,8,0:0:0:0:
192,192,34036,1,0,0:0:0:0:
320,192,34036,1,0,0:0:0:0:
192,192,34201,1,8,0:0:0:0:
320,192,34201,1,0,0:0:0:0:
448,192,34201,1,0,0:0:0:0:
64,192,34365,1,2,0:0:0:0:
192,192,34365,1,4,0:0:0:0:
320,192,34365,1,0,0:0:0:0:
448,192,34365,128,0,34695:0:0:0:0:
64,192,34695,1,2,0:0:0:0:
192,192,34695,1,0,0:0:0:0:
64,192,34860,1,8,0:0:0:0:
320,192,34860,1,0,0:0:0:0:
448,192,34860,1,0,0:0:0:0:
320,192,35025,1,2,0:0:0:0:
64,192,35190,1,2,0:0:0:0:
192,192,35190,1,0,0:0:0:0:
320,192,35354,1,2,0:0:0:0:
448,192,35354,1,0,0:0:0:0:
64,192,35519,1,8,0:0:0:0:
192,192,35519,1,0,0:0:0:0:
448,192,35519,1,0,0:0:0:0:
192,192,35684,1,0,0:0:0:0:
64,192,35849,1,2,0:0:0:0:
320,192,35849,1,0,0:0:0:0:
192,192,36014,1,2,0:0:0:0:
448,192,36014,1,0,0:0:0:0:
64,192,36179,1,8,0:0:0:0:
320,192,36179,1,0,0:0:0:0:
448,192,36179,1,0,0:0:0:0:
320,192,36343,1,2,0:0:0:0:
192,192,36508,1,2,0:0:0:0:
448,192,36508,1,0,0:0:0:0:
64,192,36673,1,2,0:0:0:0:
320,192,36673,1,0,0:0:0:0:
64,192,36838,1,8,0:0:0:0:
192,192,36838,1,0,0:0:0:0:
448,192,36838,1,0,0:0:0:0:
192,192,37003,1,2,0:0:0:0:
320,192,37003,1,0,0:0:0:50:HHOpen.wav
448,192,37003,1,0,0:0:0:0:
64,192,37332,1,2,0:0:0:0:
192,192,37332,1,0,0:0:0:0:
64,192,37497,1,8,0:0:0:0:
320,192,37497,1,0,0:0:0:0:
448,192,37497,1,0,0:0:0:0:
448,192,37662,1,2,0:0:0:0:
64,192,37827,1,2,0:0:0:0:
320,192,37827,1,0,0:0:0:0:
192,192,37992,1,2,0:0:0:0:
448,192,37992,1,0,0:0:0:0:
64,192,38157,1,8,0:0:0:0:
192,192,38157,1,0,0:0:0:0:
320,192,38157,1,0,0:0:0:0:
320,192,38321,1,0,0:0:0:0:
64,192,38486,1,2,0:0:0:0:
448,192,38486,1,0,0:0:0:0:
192,192,38651,1,2,0:0:0:0:
320,192,38651,1,0,0:0:0:0:
64,192,38816,1,8,0:0:0:0:
192,192,38816,1,0,0:0:0:0:
448,192,38816,1,0,0:0:0:0:
64,192,38981,1,8,0:0:0:0:
320,192,38981,1,0,0:0:0:0:
448,192,38981,1,0,0:0:0:0:
192,192,39146,1,2,0:0:0:0:
320,192,39146,1,0,0:0:0:0:
64,192,39310,1,2,0:0:0:0:
448,192,39310,1,0,0:0:0:0:
192,192,39475,1,8,0:0:0:0:
320,192,39475,1,0,0:0:0:0:
448,192,39475,1,0,0:0:0:0:
64,192,39640,1,2,0:0:0:0:
192,192,39640,1,0,0:0:0:50:Splash.wav
320,192,39640,1,0,0:0:0:0:
64,192,39970,1,2,0:0:0:0:
320,192,39970,1,0,0:0:0:0:
64,192,40135,1,8,0:0:0:0:
192,192,40135,1,0,0:0:0:0:
448,192,40135,1,0,0:0:0:0:
192,192,40299,1,2,0:0:0:0:
320,192,40464,1,2,0:0:0:0:
448,192,40464,1,0,0:0:0:0:
64,192,40629,1,2,0:0:0:0:
192,192,40629,1,0,0:0:0:0:
64,192,40794,1,8,0:0:0:0:
320,192,40794,1,0,0:0:0:0:
448,192,40794,1,0,0:0:0:0:
320,192,40959,1,0,0:0:0:0:
64,192,41124,1,2,0:0:0:0:
448,192,41124,1,0,0:0:0:0:
192,192,41288,1,2,0:0:0:0:
320,192,41288,1,0,0:0:0:0:
64,192,41453,1,8,0:0:0:0:
192,192,41453,1,0,0:0:0:0:
448,192,41453,1,0,0:0:0:0:
448,192,41618,1,2,0:0:0:0:
64,192,41783,1,2,0:0:0:0:
320,192,41783,1,0,0:0:0:0:
192,192,41948,1,2,0:0:0:0:
448,192,41948,1,0,0:0:0:0:
64,192,42113,1,8,0:0:0:0:
192,192,42113,1,0,0:0:0:0:
320,192,42113,1,0,0:0:0:0:
64,192,42277,1,2,0:0:0:0:
320,192,42277,128,0,42442:0:0:0:50:HHOpen.wav
448,192,42277,128,0,42442:0:0:0:0:
64,192,42607,128,2,42690:0:0:0:0:
192,192,42607,128,0,42690:0:0:0:50:HHOpen.wav
64,192,42772,1,8,0:0:0:0:
320,192,42772,1,0,0:0:0:0:
448,192,42772,1,0,0:0:0:0:
192,192,42937,128,2,43102:0:0:0:0:
320,192,42937,128,0,43102:0:0:0:50:HHOpen.wav
448,192,42937,1,0,0:0:0:0:
64,192,43266,128,2,43349:0:0:0:0:
448,192,43266,128,0,43349:0:0:0:50:HHOpen.wav
192,192,43431,1,8,0:0:0:0:
320,192,43431,1,0,0:0:0:0:
448,192,43431,1,0,0:0:0:0:
64,192,43596,128,2,43761:0:0:0:0:
192,192,43596,128,0,43761:0:0:0:50:HHOpen.wav
320,192,43596,1,0,0:0:0:0:
320,192,43926,128,2,44008:0:0:0:0:
448,192,43926,128,0,44008:0:0:0:50:HHOpen.wav
64,192,44091,1,8,0:0:0:0:
192,192,44091,1,0,0:0:0:0:
320,192,44091,1,0,0:0:0:0:
64,192,44255,128,0,44420:0:0:0:50:Splash.wav
192,192,44255,1,0,0:0:0:0:
448,192,44255,128,0,44420:0:0:0:0:
320,192,44420,1,0,0:0:0:50:tom1.wav
192,192,44585,1,0,0:0:0:50:tom2.wav
64,192,44750,1,0,0:0:0:50:tom3.wav
64,192,44915,1,2,0:0:0:0:
192,192,44915,1,4,0:0:0:0:
320,192,44915,128,0,45245:0:0:0:0:
448,192,44915,1,0,0:0:0:0:
64,192,45245,128,2,45409:0:0:0:0:
448,192,45245,1,0,0:0:0:0:
192,192,45409,1,8,0:0:0:0:
320,192,45409,1,0,0:0:0:0:
448,192,45409,128,0,45574:0:0:0:0:
192,192,45574,128,2,45739:0:0:0:0:
320,192,45739,128,2,45904:0:0:0:0:
448,192,45739,1,0,0:0:0:0:
64,192,45904,128,2,46069:0:0:0:0:
192,192,45904,1,0,0:0:0:0:
192,192,46069,1,8,0:0:0:0:
320,192,46069,1,0,0:0:0:0:
448,192,46069,128,0,46234:0:0:0:0:
64,192,46234,128,0,46398:0:0:0:0:
320,192,46398,128,2,46563:0:0:0:0:
448,192,46398,1,0,0:0:0:0:
64,192,46563,1,2,0:0:0:0:
192,192,46563,128,0,46728:0:0:0:0:
64,192,46728,1,8,0:0:0:0:
320,192,46728,1,0,0:0:0:0:
448,192,46728,128,0,46893:0:0:0:0:
192,192,46893,128,0,47058:0:0:0:0:
64,192,47058,1,2,0:0:0:0:
320,192,47058,1,0,0:0:0:0:
192,192,47223,128,2,47387:0:0:0:0:
448,192,47223,1,0,0:0:0:0:
64,192,47387,1,8,0:0:0:0:
320,192,47387,1,0,0:0:0:0:
448,192,47387,1,0,0:0:0:0:
64,192,47552,128,2,47882:0:0:0:0:
192,192,47552,1,0,0:0:0:50:HHOpen.wav
320,192,47552,1,0,0:0:0:0:
192,192,47882,1,2,0:0:0:0:
448,192,47882,128,0,48047:0:0:0:0:
64,192,48047,1,8,0:0:0:0:
192,192,48047,128,0,48212:0:0:0:0:
320,192,48047,1,0,0:0:0:0:
320,192,48212,128,0,48376:0:0:0:0:
192,192,48376,1,2,0:0:0:0:
448,192,48376,128,0,48541:0:0:0:0:
64,192,48541,128,2,48706:0:0:0:0:
320,192,48541,1,0,0:0:0:0:
192,192,48706,1,8,0:0:0:0:
320,192,48706,1,0,0:0:0:0:
448,192,48706,128,0,48871:0:0:0:0:
192,192,48871,128,0,49036:0:0:0:0:
64,192,49036,128,2,49201:0:0:0:0:
320,192,49036,1,0,0:0:0:0:
192,192,49201,1,2,0:0:0:0:
448,192,49201,128,0,49365:0:0:0:0:
64,192,49365,1,8,0:0:0:0:
192,192,49365,128,0,49530:0:0:0:0:
320,192,49365,1,0,0:0:0:0:
64,192,49530,1,8,0:0:0:0:
320,192,49530,128,0,49695:0:0:0:0:
448,192,49530,1,0,0:0:0:0:
192,192,49695,1,2,0:0:0:0:
448,192,49695,128,0,49860:0:0:0:0:
64,192,49860,128,2,50025:0:0:0:0:
320,192,49860,1,0,0:0:0:0:
192,192,50025,1,8,0:0:0:0:
320,192,50025,128,0,50190:0:0:0:0:
448,192,50025,1,0,0:0:0:0:
64,192,50190,1,2,0:0:0:0:
192,192,50190,128,0,50519:0:0:0:50:Splash.wav
448,192,50190,1,0,0:0:0:0:
64,192,50519,1,2,0:0:0:0:
448,192,50519,128,0,50684:0:0:0:0:
64,192,50684,128,8,50849:0:0:0:0:
192,192,50684,1,0,0:0:0:0:
320,192,50684,1,0,0:0:0:0:
320,192,50849,128,2,51014:0:0:0:0:
64,192,51014,1,2,0:0:0:0:
192,192,51014,128,0,51179:0:0:0:0:
320,192,51179,1,2,0:0:0:0:
448,192,51179,128,0,51343:0:0:0:0:
64,192,51343,128,8,51508:0:0:0:0:
192,192,51343,1,0,0:0:0:0:
320,192,51343,1,0,0:0:0:0:
448,192,51508,128,0,51673:0:0:0:0:
192,192,51673,128,2,51838:0:0:0:0:
320,192,51673,1,0,0:0:0:0:
64,192,51838,1,2,0:0:0:0:
320,192,51838,128,0,52003:0:0:0:0:
64,192,52003,128,8,52168:0:0:0:0:
192,192,52003,1,0,0:0:0:0:
448,192,52003,1,0,0:0:0:0:
320,192,52168,128,0,52332:0:0:0:0:
64,192,52332,1,2,0:0:0:0:
192,192,52332,1,0,0:0:0:0:
320,192,52497,128,2,52662:0:0:0:0:
448,192,52497,1,0,0:0:0:0:
64,192,52662,1,8,0:0:0:0:
192,192,52662,1,0,0:0:0:0:
448,192,52662,1,0,0:0:0:0:
64,192,52827,128,2,52992:0:0:0:0:
192,192,52827,128,0,52992:0:0:0:50:HHOpen.wav
320,192,52827,1,0,0:0:0:0:
320,192,53157,128,2,53239:0:0:0:0:
448,192,53157,128,0,53239:0:0:0:50:HHOpen.wav
64,192,53321,1,8,0:0:0:0:
192,192,53321,1,0,0:0:0:0:
448,192,53321,1,0,0:0:0:0:
64,192,53486,1,2,0:0:0:0:
192,192,53486,128,0,53651:0:0:0:50:HHOpen.wav
320,192,53486,128,0,53651:0:0:0:0:
64,192,53816,128,2,53898:0:0:0:0:
448,192,53816,128,0,53898:0:0:0:50:HHOpen.wav
64,192,53981,1,8,0:0:0:0:
192,192,53981,1,0,0:0:0:0:
320,192,53981,1,0,0:0:0:0:
192,192,54146,1,2,0:0:0:0:
320,192,54146,128,0,54310:0:0:0:50:HHOpen.wav
448,192,54146,128,0,54310:0:0:0:0:
64,192,54475,128,2,54558:0:0:0:0:
192,192,54475,128,0,54558:0:0:0:50:HHOpen.wav
192,192,54640,1,8,0:0:0:0:
320,192,54640,1,0,0:0:0:0:
448,192,54640,1,0,0:0:0:0:
64,192,54805,128,2,54970:0:0:0:0:
320,192,54805,1,0,0:0:0:50:HHOpen.wav
448,192,54805,128,0,54970:0:0:0:0:
192,192,55135,1,2,0:0:0:0:
320,192,55135,1,0,0:0:0:0:
64,192,55299,1,8,0:0:0:0:
192,192,55299,1,0,0:0:0:0:
448,192,55299,1,0,0:0:0:0:
64,192,55629,1,8,0:0:0:0:
192,192,55629,1,4,0:0:0:0:
320,192,55629,1,0,0:0:0:0:
448,192,55629,1,0,0:0:0:0:
320,192,55794,1,2,0:0:0:0:
448,192,55794,1,0,0:0:0:0:
64,192,55959,1,2,0:0:0:0:
192,192,55959,1,0,0:0:0:0:
64,192,56124,1,8,0:0:0:0:
320,192,56124,1,0,0:0:0:50:HHOpen.wav
448,192,56124,1,0,0:0:0:0:
192,192,56288,1,2,0:0:0:0:
320,192,56288,1,0,0:0:0:0:
64,192,56453,1,2,0:0:0:0:
448,192,56453,1,0,0:0:0:0:
192,192,56618,1,8,0:0:0:0:
320,192,56618,1,0,0:0:0:50:HHOpen.wav
448,192,56618,1,0,0:0:0:0:
64,192,56783,1,2,0:0:0:0:
320,192,56783,1,0,0:0:0:0:
64,192,56948,1,8,0:0:0:0:
192,192,56948,1,4,0:0:0:0:
320,192,56948,1,0,0:0:0:0:
448,192,56948,1,0,0:0:0:0:
192,192,57113,1,2,0:0:0:0:
448,192,57113,1,0,0:0:0:0:
64,192,57277,1,2,0:0:0:0:
320,192,57277,1,0,0:0:0:0:
64,192,57442,1,8,0:0:0:0:
192,192,57442,1,0,0:0:0:50:HHOpen.wav
448,192,57442,1,0,0:0:0:0:
320,192,57607,1,2,0:0:0:0:
448,192,57607,1,0,0:0:0:0:
64,192,57772,1,2,0:0:0:0:
192,192,57772,1,0,0:0:0:0:
64,192,57937,1,8,0:0:0:0:
192,192,57937,1,4,0:0:0:0:
320,192,57937,128,0,58266:0:0:0:0:
448,192,57937,1,0,0:0:0:0:
64,192,58266,1,2,0:0:0:0:
192,192,58266,1,4,0:0:0:0:
320,192,58349,1,8,0:0:0:0:
448,192,58349,1,0,0:0:0:0:
64,192,58431,1,8,0:0:0:0:
192,192,58431,1,0,0:0:0:0:
320,192,58514,1,8,0:0:0:0:
448,192,58514,1,0,0:0:0:0:
64,192,58596,1,8,0:0:0:0:
192,192,58596,1,0,0:0:0:0:
320,192,58679,1,8,0:0:0:0:
448,192,58679,1,0,0:0:0:0:
64,192,58761,1,10,0:0:0:0:
192,192,58761,1,4,0:0:0:0:
320,192,58843,1,8,0:0:0:0:
448,192,58843,1,0,0:0:0:0:
64,192,58926,1,8,0:0:0:0:
192,192,58926,1,0,0:0:0:0:
320,192,59008,1,8,0:0:0:0:
448,192,59008,1,0,0:0:0:0:
64,192,59091,1,8,0:0:0:0:
192,192,59091,1,0,0:0:0:0:
320,192,59173,1,8,0:0:0:0:
64,192,59255,1,2,0:0:0:0:
192,192,59255,1,0,0:0:0:50:HHOpen.wav
448,192,59255,1,0,0:0:0:0:
64,192,59420,1,2,0:0:0:0:
320,192,59420,1,0,0:0:0:50:HHOpen.wav
448,192,59420,1,0,0:0:0:0:
64,192,60574,1,8,0:0:0:0:
192,192,60574,1,0,0:0:0:50:tom3.wav
448,192,60574,1,0,0:0:0:0:
64,192,60739,1,2,0:0:0:0:
192,192,60739,1,4,0:0:0:0:
320,192,60739,128,0,61069:0:0:0:0:
448,192,60739,128,0,61069:0:0:0:0:
64,192,61069,1,2,0:0:0:0:
192,192,61069,1,0,0:0:0:0:
64,192,61234,1,8,0:0:0:0:
320,192,61234,1,0,0:0:0:50:HHOpen.wav
448,192,61234,1,0,0:0:0:0:
320,192,61398,1,0,0:0:0:0:
64,192,61563,1,2,0:0:0:0:
192,192,61563,1,0,0:0:0:0:
320,192,61728,1,2,0:0:0:0:
448,192,61728,1,0,0:0:0:0:
64,192,61893,1,8,0:0:0:0:
192,192,61893,1,0,0:0:0:0:
448,192,61893,1,0,0:0:0:0:
64,192,62058,128,2,62387:0:0:0:0:
320,192,62058,1,0,0:0:0:0:
192,192,62223,1,0,0:0:0:0:
320,192,62387,1,2,0:0:0:0:
448,192,62387,1,0,0:0:0:0:
64,192,62552,1,8,0:0:0:0:
192,192,62552,1,0,0:0:0:0:
448,192,62552,1,0,0:0:0:0:
192,192,62717,1,0,0:0:0:0:
320,192,62882,1,2,0:0:0:0:
448,192,62882,1,0,0:0:0:0:
64,192,63047,1,2,0:0:0:0:
192,192,63047,1,0,0:0:0:0:
64,192,63212,1,8,0:0:0:0:
320,192,63212,1,0,0:0:0:0:
448,192,63212,1,0,0:0:0:0:
192,192,63376,1,2,0:0:0:0:
448,192,63376,128,0,63706:0:0:0:0:
320,192,63541,1,0,0:0:0:0:
64,192,63706,1,2,0:0:0:0:
192,192,63706,1,0,0:0:0:0:
64,192,63871,1,8,0:0:0:0:
320,192,63871,1,0,0:0:0:0:
448,192,63871,1,0,0:0:0:0:
320,192,64036,1,0,0:0:0:0:
192,192,64201,1,2,0:0:0:0:
448,192,64201,1,0,0:0:0:0:
64,192,64365,1,2,0:0:0:0:
320,192,64365,1,0,0:0:0:0:
64,192,64530,1,8,0:0:0:0:
192,192,64530,1,0,0:0:0:0:
448,192,64530,1,0,0:0:0:0:
192,192,64695,128,2,65025:0:0:0:0:
320,192,64695,1,0,0:0:0:0:
448,192,64860,1,0,0:0:0:0:
64,192,65025,1,2,0:0:0:0:
320,192,65025,1,0,0:0:0:0:
64,192,65190,1,8,0:0:0:0:
192,192,65190,1,0,0:0:0:0:
448,192,65190,1,0,0:0:0:0:
448,192,65354,1,0,0:0:0:0:
64,192,65519,1,2,0:0:0:0:
320,192,65519,1,0,0:0:0:0:
192,192,65684,1,2,0:0:0:0:
448,192,65684,1,0,0:0:0:0:
64,192,65849,1,8,0:0:0:0:
192,192,65849,1,0,0:0:0:0:
320,192,65849,1,0,0:0:0:0:
64,192,66014,128,2,66343:0:0:0:0:
192,192,66014,1,4,0:0:0:0:
320,192,66014,1,0,0:0:0:0:
448,192,66014,128,0,66343:0:0:0:0:
192,192,66343,1,2,0:0:0:0:
320,192,66343,1,0,0:0:0:0:
64,192,66508,1,8,0:0:0:0:
320,192,66508,1,0,0:0:0:0:
448,192,66508,1,0,0:0:0:0:
192,192,66673,1,0,0:0:0:0:
64,192,66838,1,2,0:0:0:0:
448,192,66838,1,0,0:0:0:0:
192,192,67003,1,2,0:0:0:0:
320,192,67003,1,0,0:0:0:0:
64,192,67168,1,8,0:0:0:0:
320,192,67168,1,0,0:0:0:0:
448,192,67168,1,0,0:0:0:0:
64,192,67332,1,2,0:0:0:0:
192,192,67332,128,4,67662:0:0:0:0:
320,192,67332,128,0,67662:0:0:0:0:
448,192,67332,1,0,0:0:0:0:
64,192,67662,1,2,0:0:0:0:
448,192,67662,1,0,0:0:0:0:
64,192,67827,1,8,0:0:0:0:
192,192,67827,1,0,0:0:0:0:
320,192,67827,1,0,0:0:0:0:
448,192,67992,1,0,0:0:0:0:
192,192,68157,1,2,0:0:0:0:
320,192,68157,1,0,0:0:0:0:
64,192,68321,1,2,0:0:0:0:
448,192,68321,1,0,0:0:0:0:
64,192,68486,1,8,0:0:0:0:
192,192,68486,1,0,0:0:0:0:
320,192,68486,1,0,0:0:0:0:
192,192,68651,1,2,0:0:0:0:
320,192,68651,128,0,68816:0:0:0:50:HHOpen.wav
448,192,68651,128,0,68816:0:0:0:0:
320,192,68981,128,2,69063:0:0:0:0:
448,192,68981,128,0,69063:0:0:0:50:HHOpen.wav
64,192,69146,1,8,0:0:0:0:
192,192,69146,1,0,0:0:0:0:
448,192,69146,1,0,0:0:0:0:
64,192,69310,128,2,69475:0:0:0:0:
192,192,69310,128,0,69475:0:0:0:50:HHOpen.wav
320,192,69310,1,0,0:0:0:0:
64,192,69640,128,2,69723:0:0:0:0:
192,192,69640,128,0,69723:0:0:0:50:HHOpen.wav
64,192,69805,1,8,0:0:0:0:
320,192,69805,1,0,0:0:0:0:
448,192,69805,1,0,0:0:0:0:
192,192,69970,128,2,70135:0:0:0:0:
320,192,69970,128,0,70135:0:0:0:50:HHOpen.wav
448,192,69970,1,0,0:0:0:0:
192,192,70299,128,2,70382:0:0:0:0:
320,192,70299,128,0,70382:0:0:0:50:HHOpen.wav
64,192,70464,1,8,0:0:0:0:
192,192,70464,1,0,0:0:0:0:
448,192,70464,1,0,0:0:0:0:
64,192,70629,128,2,70876:0:0:0:0:
320,192,70629,1,0,0:0:0:50:Splash.wav
448,192,70629,128,0,70876:0:0:0:0:
64,192,70959,1,8,0:0:0:0:
448,192,70959,1,0,0:0:0:0:
192,192,71041,1,8,0:0:0:0:
320,192,71041,1,0,0:0:0:0:
64,192,71124,1,8,0:0:0:0:
448,192,71124,1,0,0:0:0:0:
320,192,71206,1,8,0:0:0:0:
64,192,71288,128,2,71618:0:0:0:0:
192,192,71288,128,4,71618:0:0:0:0:
448,192,71288,1,0,0:0:0:0:
320,192,71618,1,2,0:0:0:0:
448,192,71618,1,0,0:0:0:0:
64,192,71783,1,8,0:0:0:0:
192,192,71783,1,0,0:0:0:50:HHOpen.wav
320,192,71783,1,0,0:0:0:0:
192,192,71948,1,0,0:0:0:0:
64,192,72113,1,2,0:0:0:0:
448,192,72113,1,0,0:0:0:0:
192,192,72277,1,2,0:0:0:0:
320,192,72277,1,0,0:0:0:0:
64,192,72442,1,8,0:0:0:0:
320,192,72442,1,0,0:0:0:0:
448,192,72442,1,0,0:0:0:0:
192,192,72607,1,2,0:0:0:0:
448,192,72607,128,0,72937:0:0:0:0:
320,192,72772,1,0,0:0:0:0:
64,192,72937,1,2,0:0:0:0:
192,192,72937,1,0,0:0:0:0:
64,192,73102,1,8,0:0:0:0:
320,192,73102,1,0,0:0:0:0:
448,192,73102,1,0,0:0:0:0:
320,192,73266,1,0,0:0:0:0:
192,192,73431,1,2,0:0:0:0:
448,192,73431,1,0,0:0:0:0:
64,192,73596,1,2,0:0:0:0:
320,192,73596,1,0,0:0:0:0:
64,192,73761,1,8,0:0:0:0:
192,192,73761,1,0,0:0:0:0:
448,192,73761,1,0,0:0:0:0:
192,192,73926,128,2,74255:0:0:0:0:
320,192,73926,1,0,0:0:0:0:
64,192,74091,1,0,0:0:0:0:
320,192,74255,1,2,0:0:0:0:
448,192,74255,1,0,0:0:0:0:
64,192,74420,1,8,0:0:0:0:
192,192,74420,1,0,0:0:0:0:
448,192,74420,1,0,0:0:0:0:
192,192,74585,1,0,0:0:0:0:
64,192,74750,1,2,0:0:0:0:
320,192,74750,1,0,0:0:0:0:
192,192,74915,1,2,0:0:0:0:
448,192,74915,1,0,0:0:0:0:
64,192,75080,1,8,0:0:0:0:
320,192,75080,1,0,0:0:0:0:
448,192,75080,1,0,0:0:0:0:
192,192,75245,1,2,0:0:0:0:
320,192,75245,128,0,75574:0:0:0:0:
448,192,75409,1,0,0:0:0:0:
64,192,75574,1,2,0:0:0:0:
192,192,75574,1,0,0:0:0:0:
192,192,75739,1,8,0:0:0:0:
320,192,75739,1,0,0:0:0:0:
448,192,75739,1,0,0:0:0:0:
64,192,75904,1,0,0:0:0:0:
320,192,76069,1,2,0:0:0:0:
448,192,76069,1,0,0:0:0:0:
64,192,76234,1,2,0:0:0:0:
192,192,76234,1,0,0:0:0:0:
192,192,76398,1,8,0:0:0:0:
320,192,76398,1,0,0:0:0:0:
448,192,76398,1,0,0:0:0:0:
64,192,76563,1,2,0:0:0:0:
192,192,76563,128,4,76893:0:0:0:0:
320,192,76563,128,0,76893:0:0:0:0:
448,192,76563,1,0,0:0:0:0:
64,192,76893,1,2,0:0:0:0:
448,192,76893,1,0,0:0:0:0:
64,192,77058,1,8,0:0:0:0:
192,192,77058,1,0,0:0:0:0:
320,192,77058,1,0,0:0:0:0:
448,192,77223,1,0,0:0:0:0:
192,192,77387,1,2,0:0:0:0:
320,192,77387,1,0,0:0:0:0:
64,192,77552,1,2,0:0:0:0:
448,192,77552,1,0,0:0:0:0:
192,192,77717,1,8,0:0:0:0:
320,192,77717,1,0,0:0:0:0:
448,192,77717,1,0,0:0:0:0:
64,192,77882,128,2,78212:0:0:0:0:
192,192,77882,1,4,0:0:0:0:
320,192,77882,1,0,0:0:0:0:
448,192,77882,128,0,78212:0:0:0:0:
192,192,78212,1,2,0:0:0:0:
320,192,78212,1,0,0:0:0:0:
64,192,78376,1,8,0:0:0:0:
192,192,78376,1,0,0:0:0:0:
448,192,78376,1,0,0:0:0:0:
320,192,78541,1,0,0:0:0:0:
64,192,78706,1,2,0:0:0:0:
448,192,78706,1,0,0:0:0:0:
192,192,78871,1,2,0:0:0:0:
320,192,78871,1,0,0:0:0:0:
64,192,79036,1,8,0:0:0:0:
320,192,79036,1,0,0:0:0:0:
448,192,79036,1,0,0:0:0:0:
64,192,79201,128,2,79365:0:0:0:0:
192,192,79201,128,0,79365:0:0:0:50:HHOpen.wav
448,192,79201,1,0,0:0:0:0:
64,192,79530,128,2,79613:0:0:0:0:
192,192,79530,128,0,79613:0:0:0:50:HHOpen.wav
64,192,79695,1,8,0:0:0:0:
320,192,79695,1,0,0:0:0:0:
448,192,79695,1,0,0:0:0:0:
192,192,79860,128,2,80025:0:0:0:0:
320,192,79860,128,0,80025:0:0:0:50:HHOpen.wav
448,192,79860,1,0,0:0:0:0:
192,192,80190,128,2,80272:0:0:0:0:
320,192,80190,128,0,80272:0:0:0:50:HHOpen.wav
64,192,80354,1,8,0:0:0:0:
192,192,80354,1,0,0:0:0:0:
448,192,80354,1,0,0:0:0:0:
320,192,80519,128,2,80684:0:0:0:0:
448,192,80519,128,0,80684:0:0:0:50:HHOpen.wav
320,192,80849,128,2,80931:0:0:0:0:
448,192,80849,128,0,80931:0:0:0:50:HHOpen.wav
64,192,81014,1,8,0:0:0:0:
192,192,81014,1,0,0:0:0:0:
448,192,81014,1,0,0:0:0:0:
64,192,81179,128,2,81343:0:0:0:0:
192,192,81179,128,0,81343:0:0:0:50:HHOpen.wav
320,192,81179,1,0,0:0:0:0:
64,192,81508,128,2,81591:0:0:0:0:
192,192,81508,128,0,81591:0:0:0:50:HHOpen.wav
64,192,81673,1,8,0:0:0:0:
320,192,81673,1,0,0:0:0:0:
448,192,81673,1,0,0:0:0:0:
64,192,82003,1,4,0:0:0:0:
192,192,82003,1,2,0:0:0:0:
320,192,82003,1,0,0:0:0:0:
448,192,82003,1,0,0:0:0:0:
192,192,82168,1,2,0:0:0:0:
320,192,82168,1,0,0:0:0:0:
64,192,82332,1,8,0:0:0:0:
192,192,82332,1,0,0:0:0:50:HHOpen.wav
448,192,82332,1,0,0:0:0:0:
320,192,82497,1,0,0:0:0:0:
64,192,82580,1,8,0:0:0:0:
192,192,82580,1,0,0:0:0:0:
320,192,82662,1,2,0:0:0:0:
448,192,82662,1,0,0:0:0:50:HHOpen.wav
64,192,82827,1,2,0:0:0:0:
192,192,82827,1,0,0:0:0:0:
192,192,82992,1,8,0:0:0:0:
320,192,82992,1,0,0:0:0:50:HHOpen.wav
448,192,82992,1,0,0:0:0:0:
64,192,83157,1,0,0:0:0:0:
320,192,83239,1,8,0:0:0:0:
448,192,83239,1,0,0:0:0:0:
64,192,83321,1,2,0:0:0:0:
192,192,83321,1,0,0:0:0:50:HHOpen.wav
320,192,83486,1,2,0:0:0:0:
448,192,83486,1,0,0:0:0:0:
64,192,83651,1,8,0:0:0:0:
192,192,83651,1,0,0:0:0:50:HHOpen.wav
320,192,83651,1,0,0:0:0:0:
448,192,83816,1,0,0:0:0:0:
64,192,83898,1,8,0:0:0:0:
320,192,83898,1,0,0:0:0:0:
192,192,83981,1,2,0:0:0:0:
448,192,83981,1,0,0:0:0:50:HHOpen.wav
64,192,84146,1,2,0:0:0:0:
320,192,84146,1,0,0:0:0:0:
64,192,84310,1,8,0:0:0:0:
192,192,84310,1,0,0:0:0:0:
448,192,84310,1,0,0:0:0:0:
64,192,84475,128,2,84805:0:0:0:0:
192,192,84475,128,4,84805:0:0:0:0:
320,192,84475,1,0,0:0:0:0:
448,192,84475,1,0,0:0:0:0:
320,192,84805,1,2,0:0:0:0:
448,192,84805,1,0,0:0:0:0:
64,192,84970,1,8,0:0:0:0:
192,192,84970,1,0,0:0:0:50:HHOpen.wav
320,192,84970,1,0,0:0:0:0:
448,192,85135,1,0,0:0:0:0:
64,192,85217,1,8,0:0:0:0:
192,192,85217,1,0,0:0:0:0:
320,192,85299,1,2,0:0:0:0:
448,192,85299,1,0,0:0:0:50:HHOpen.wav
64,192,85464,1,2,0:0:0:0:
192,192,85464,1,0,0:0:0:0:
64,192,85629,1,8,0:0:0:0:
320,192,85629,1,0,0:0:0:50:HHOpen.wav
448,192,85629,1,0,0:0:0:0:
192,192,85794,1,0,0:0:0:0:
320,192,85876,1,8,0:0:0:0:
448,192,85876,1,0,0:0:0:0:
64,192,85959,1,2,0:0:0:0:
192,192,85959,1,0,0:0:0:50:HHOpen.wav
320,192,86124,1,2,0:0:0:0:
448,192,86124,1,0,0:0:0:0:
64,192,86288,1,8,0:0:0:0:
192,192,86288,1,0,0:0:0:50:HHOpen.wav
320,192,86288,1,0,0:0:0:0:
448,192,86453,1,0,0:0:0:0:
192,192,86536,1,8,0:0:0:0:
320,192,86536,1,0,0:0:0:0:
64,192,86618,1,2,0:0:0:0:
448,192,86618,1,0,0:0:0:50:HHOpen.wav
192,192,86783,1,2,0:0:0:0:
320,192,86783,1,0,0:0:0:0:
64,192,86948,1,8,0:0:0:0:
320,192,86948,1,0,0:0:0:0:
448,192,86948,1,0,0:0:0:0:
64,192,87113,1,2,0:0:0:0:
192,192,87113,1,4,0:0:0:0:
320,192,87113,128,0,87442:0:0:0:0:
448,192,87113,128,0,87442:0:0:0:0:
64,192,87442,1,2,0:0:0:0:
192,192,87442,1,0,0:0:0:0:
192,192,87607,1,8,0:0:0:0:
320,192,87607,1,0,0:0:0:50:HHOpen.wav
448,192,87607,1,0,0:0:0:0:
64,192,87772,1,0,0:0:0:0:
192,192,87854,1,8,0:0:0:0:
320,192,87854,1,0,0:0:0:0:
64,192,87937,1,2,0:0:0:0:
448,192,87937,1,0,0:0:0:50:HHOpen.wav
192,192,88102,1,2,0:0:0:0:
320,192,88102,1,0,0:0:0:0:
64,192,88266,1,8,0:0:0:0:
320,192,88266,1,0,0:0:0:50:HHOpen.wav
448,192,88266,1,0,0:0:0:0:
192,192,88431,1,0,0:0:0:0:
320,192,88514,1,8,0:0:0:0:
448,192,88514,1,0,0:0:0:0:
64,192,88596,1,2,0:0:0:0:
192,192,88596,1,0,0:0:0:50:HHOpen.wav
320,192,88761,1,2,0:0:0:0:
448,192,88761,1,0,0:0:0:0:
64,192,88926,1,8,0:0:0:0:
192,192,88926,1,0,0:0:0:50:HHOpen.wav
448,192,88926,1,0,0:0:0:0:
320,192,89091,1,0,0:0:0:0:
64,192,89173,1,8,0:0:0:0:
192,192,89173,1,0,0:0:0:0:
320,192,89255,1,2,0:0:0:0:
448,192,89255,1,0,0:0:0:50:HHOpen.wav
64,192,89420,1,2,0:0:0:0:
192,192,89420,1,0,0:0:0:0:
192,192,89585,1,8,0:0:0:0:
320,192,89585,1,0,0:0:0:0:
448,192,89585,1,0,0:0:0:0:
64,192,89750,128,2,89997:0:0:0:0:
320,192,89750,1,0,0:0:0:50:HHOpen.wav
448,192,89750,128,0,89997:0:0:0:0:
64,192,90080,1,2,0:0:0:0:
448,192,90080,1,0,0:0:0:50:HHOpen.wav
64,192,90245,1,8,0:0:0:0:
192,192,90245,1,0,0:0:0:0:
320,192,90245,1,0,0:0:0:0:
192,192,90409,128,2,90657:0:0:0:0:
320,192,90409,128,0,90657:0:0:0:50:HHOpen.wav
448,192,90409,1,0,0:0:0:0:
192,192,90739,1,2,0:0:0:0:
320,192,90739,1,0,0:0:0:50:HHOpen.wav
64,192,90904,1,8,0:0:0:0:
192,192,90904,1,0,0:0:0:0:
448,192,90904,1,0,0:0:0:0:
64,192,91069,1,2,0:0:0:0:
320,192,91069,128,0,91316:0:0:0:50:HHOpen.wav
448,192,91069,128,0,91316:0:0:0:0:
320,192,91398,1,2,0:0:0:0:
448,192,91398,1,0,0:0:0:50:HHOpen.wav
64,192,91563,1,8,0:0:0:0:
192,192,91563,1,0,0:0:0:0:
320,192,91563,1,0,0:0:0:0:
64,192,91728,128,2,91975:0:0:0:0:
192,192,91728,128,0,91975:0:0:0:50:HHOpen.wav
448,192,91728,1,0,0:0:0:0:
64,192,92058,1,2,0:0:0:0:
192,192,92058,128,0,92387:0:0:0:50:HHOpen.wav
320,192,92058,128,0,92387:0:0:0:0:
64,192,92552,1,8,0:0:0:0:
192,192,92552,1,4,0:0:0:0:
320,192,92552,1,0,0:0:0:0:
448,192,92552,1,0,0:0:0:0:
64,192,92717,1,2,0:0:0:0:
448,192,92717,1,0,0:0:0:0:
192,192,92882,1,2,0:0:0:0:
320,192,92882,1,0,0:0:0:0:
64,192,93047,1,8,0:0:0:0:
192,192,93047,1,4,0:0:0:0:
320,192,93047,1,0,0:0:0:0:
448,192,93047,1,0,0:0:0:0:
320,192,93212,1,2,0:0:0:0:
448,192,93212,1,0,0:0:0:0:
64,192,93376,1,2,0:0:0:0:
192,192,93376,1,0,0:0:0:0:
64,192,93541,1,8,0:0:0:0:
320,192,93541,1,0,0:0:0:50:tom3.wav
448,192,93541,1,0,0:0:0:0:
64,192,93706,1,8,0:0:0:0:
320,192,93706,1,0,0:0:0:50:tom3.wav
448,192,93706,1,0,0:0:0:0:
