osu file format v14

[General]
AudioFilename: audio.mp3
AudioLeadIn: 0
PreviewTime: 59418
Countdown: 0
SampleSet: Soft
StackLeniency: 0.7
Mode: 0
LetterboxInBreaks: 0
WidescreenStoryboard: 0

[Editor]
Bookmarks: 10792,21177,34363,44913,60737,82001
DistanceSpacing: 0.1
BeatDivisor: 4
GridSize: 32
TimelineZoom: 1.8

[Metadata]
Title:BLACK MEMORY (Cut Ver.)
TitleUnicode:BLACK MEMORY (Cut Ver.)
Artist:THE ORAL CIGARETTES
ArtistUnicode:THE ORAL CIGARETTES
Creator:Pepekcz
Version:Shout
Source:亜人
Tags:kisses and kills AJIN DEMI HUMAN Live Action opening japanese jp rock j-rock jrock cigs Takuya Yamanaka 山中 拓也 Akira Akirakani あきらかにあきら Shigenobu Suzuki 鈴木 重伸 Masaya Nakanishi 中西 雅哉 Mifuru みふる short version toc
BeatmapID:2951751
BeatmapSetID:1434327

[Difficulty]
HPDrainRate:5
CircleSize:4.2
OverallDifficulty:8.8
ApproachRate:9.2
SliderMultiplier:1.9
SliderTickRate:1

[Events]
//Background and Video events
0,0,"bg.jpg",0,0
//Break Periods
//Storyboard Layer 0 (Background)
//Storyboard Layer 1 (Fail)
//Storyboard Layer 2 (Pass)
//Storyboard Layer 3 (Foreground)
//Storyboard Layer 4 (Overlay)
//Storyboard Sound Samples

[TimingPoints]
243,329.67032967033,4,2,22,50,1,0
243,-125,4,2,22,50,0,0
10792,-111.111111111111,4,2,22,60,0,0
19858,-166.666666666666,4,2,22,40,0,0
21177,-99.9999999999999,4,2,22,70,0,0
34363,-125,4,2,22,50,0,0
44913,-111.111111111111,4,2,22,60,0,0
60737,-90.9090909090908,4,2,22,80,0,1
68649,-90.9090909090908,4,2,22,80,0,0
71286,-90.9090909090908,4,2,22,80,0,1
82001,-100,4,2,22,70,0,0

[Colours]
Combo1 : 255,255,83
Combo2 : 72,158,253
Combo3 : 180,111,99

[HitObjects]
85,116,243,5,0,1:2:0:0:
85,116,407,1,0,1:2:0:0:
173,210,572,2,0,P|215:193|261:177,1,76,8|0,0:2|0:0,0:0:0:0:
303,137,819,1,8,0:3:0:0:
303,137,902,2,0,P|338:149|373:164,1,76,0|0,1:2|1:2,0:0:0:0:
454,245,1232,1,8,0:2:0:0:
422,58,1396,5,0,0:0:0:0:
422,58,1479,1,8,0:3:0:0:
422,58,1561,2,0,P|378:60|351:93,1,76,0|0,1:2|1:2,0:0:0:0:
247,191,1891,2,0,P|275:214|312:213,1,76,8|0,0:2|0:0,0:0:0:0:
394,187,2138,1,8,0:3:0:0:
394,187,2221,2,0,P|382:231|370:283,1,76,0|0,1:2|1:2,0:0:0:0:
283,371,2550,1,8,0:2:0:0:
177,251,2715,5,0,0:0:0:0:
177,251,2797,1,8,0:3:0:0:
177,251,2880,2,0,P|167:214|158:177,1,76,0|0,1:2|1:2,0:0:0:0:
37,51,3210,2,0,P|27:87|18:124,1,76,8|0,0:2|0:0,0:0:0:0:
4,196,3457,1,8,0:3:0:0:
4,196,3539,2,0,P|48:191|81:156,1,76,0|0,1:2|1:2,0:0:0:0:
177,47,3869,1,8,0:2:0:0:
271,193,4034,5,0,0:0:0:0:
271,193,4116,1,8,0:3:0:0:
271,193,4199,2,0,L|355:167,1,76,0|0,1:2|1:2,0:0:0:0:
488,105,4528,2,0,L|404:79,1,76,8|0,0:2|0:0,0:0:0:0:
352,43,4776,1,8,0:3:0:0:
352,43,4858,2,0,P|308:46|280:81,1,76,0|0,1:2|1:2,0:0:0:0:
179,196,5188,1,8,0:2:0:0:
76,78,5352,5,0,0:0:0:0:
76,78,5435,1,8,0:3:0:0:
76,78,5517,2,0,L|55:172,1,76,0|0,1:2|1:2,0:0:0:0:
195,270,5847,2,0,L|178:195,1,76,8|0,0:2|0:0,0:0:0:0:
168,122,6094,1,8,0:3:0:0:
168,122,6177,2,0,L|252:146,1,76,0|0,1:2|1:2,0:0:0:0:
359,273,6506,1,8,0:2:0:0:
392,124,6671,5,0,0:0:0:0:
392,124,6753,1,8,0:3:0:0:
392,124,6836,2,0,P|346:123|313:157,1,76,0|0,1:2|1:2,0:0:0:0:
198,280,7166,2,0,P|229:299|267:295,1,76,8|0,0:2|0:0,0:0:0:0:
336,252,7413,1,8,0:3:0:0:
336,252,7495,2,0,P|346:295|358:345,1,76,0|0,1:2|1:2,0:0:0:0:
439,183,7825,1,8,0:2:0:0:
295,76,7990,5,0,0:0:0:0:
295,76,8072,1,8,0:3:0:0:
295,76,8155,2,0,P|253:81|224:113,1,76,0|0,1:2|1:2,0:0:0:0:
127,243,8484,2,0,P|155:267|192:269,1,76,8|0,0:2|0:0,0:0:0:0:
270,281,8732,1,8,0:3:0:0:
270,281,8814,2,0,L|249:202,1,76,0|0,1:2|1:2,0:0:0:0:
146,92,9144,1,8,0:2:0:0:
53,263,9308,5,0,0:0:0:0:
53,263,9391,1,8,0:3:0:0:
53,263,9473,2,0,P|96:250|139:239,1,76,0|0,1:2|1:2,0:0:0:0:
290,150,9803,2,0,P|247:137|204:126,1,76,8|0,0:2|0:0,0:0:0:0:
146,92,10051,1,8,0:3:0:0:
146,92,10133,2,0,P|133:134|148:179,1,76,0|0,1:2|1:2,0:0:0:0:
253,298,10462,1,8,0:2:0:0:
366,177,10627,5,0,0:0:0:0:
366,177,10710,1,8,0:3:0:0:
366,177,10792,2,0,B|311:164|281:194|301:211|246:245|201:209,1,170.999994781494,6|8,1:2|0:2,0:0:0:0:
354,258,11286,1,2,0:2:0:0:
354,258,11369,1,8,0:3:0:0:
354,258,11451,2,0,P|396:256|433:214,1,85.4999973907472,2|2,1:2|1:2,0:0:0:0:
230,117,11781,1,8,0:2:0:0:
144,305,11946,5,0,0:0:0:0:
144,305,12028,1,8,0:3:0:0:
144,305,12111,1,0,1:2:0:0:
0,145,12275,2,0,P|84:171|174:201,1,170.999994781494,2|2,0:2|0:2,0:0:0:0:
189,210,12688,1,8,0:3:0:0:
189,210,12770,1,2,1:2:0:0:
372,137,12935,1,2,1:2:0:0:
225,45,13100,2,0,P|235:95|245:144,1,85.4999973907472,8|2,0:2|0:2,0:0:0:0:
300,182,13347,5,8,0:3:0:0:
300,182,13429,2,0,P|280:271|264:358,1,170.999994781494,2|8,1:2|0:2,0:0:0:0:
189,210,13924,1,2,0:2:0:0:
189,210,14006,1,8,0:3:0:0:
189,210,14089,1,2,1:2:0:0:
312,95,14253,1,2,1:2:0:0:
435,282,14418,2,0,P|395:270|348:258,1,85.4999973907472,8|0,0:2|0:0,0:0:0:0:
330,254,14666,5,8,0:3:0:0:
330,254,14748,1,0,1:2:0:0:
188,97,14913,2,0,P|130:92|80:189,1,170.999994781494,2|2,0:2|0:2,0:0:0:0:
73,254,15325,1,8,0:3:0:0:
73,254,15407,2,0,P|117:238|161:224,1,85.4999973907472,2|2,1:2|1:2,0:0:0:0:
266,95,15737,2,0,P|306:108|346:122,1,85.4999973907472,8|2,0:2|0:2,0:0:0:0:
420,119,15984,5,8,0:3:0:0:
420,119,16067,2,0,B|375:144|375:144|395:271,1,170.999994781494,6|8,1:2|0:2,0:0:0:0:
505,363,16561,1,2,0:2:0:0:
505,363,16644,1,8,0:3:0:0:
505,363,16726,2,0,P|459:359|430:328,1,85.4999973907472,2|2,1:2|1:2,0:0:0:0:
307,214,17056,2,0,P|261:218|232:249,1,85.4999973907472,8|0,0:2|0:0,0:0:0:0:
217,271,17303,5,8,0:3:0:0:
217,271,17385,1,0,1:2:0:0:
14,360,17550,2,0,P|28:283|51:177,1,170.999994781494,2|2,0:2|0:2,0:0:0:0:
59,163,17962,1,8,0:3:0:0:
59,163,18045,1,2,1:2:0:0:
142,282,18210,1,2,1:2:0:0:
209,99,18374,2,0,P|255:102|291:130,1,85.4999973907472,8|2,0:2|0:2,0:0:0:0:
329,182,18622,5,8,0:3:0:0:
329,182,18704,2,0,B|415:184|384:101|481:102,1,170.999994781494,2|8,1:2|0:2,0:0:0:0:
321,39,19199,1,2,0:2:0:0:
321,39,19281,1,8,0:3:0:0:
321,39,19363,1,2,1:2:0:0:
413,241,19528,1,2,1:2:0:0:
471,102,19693,1,8,0:2:0:0:
297,314,19858,5,6,1:2:0:0:
297,314,20188,6,0,P|259:315|234:332,1,56.9999982604981,2|0,0:2|0:0,0:0:0:0:
151,369,20517,1,2,0:2:0:0:
151,369,20682,2,0,P|113:368|88:351,1,56.9999982604981,2|2,0:2|0:2,0:0:0:0:
18,233,21012,1,8,1:2:0:0:
139,77,21177,6,0,P|157:168|176:266,1,190,4|0,1:2|1:2,0:0:0:0:
317,360,21671,2,0,P|327:313|341:256,1,95,10|0,0:2|0:0,0:0:0:0:
374,210,21918,1,8,0:3:0:0:
374,210,22001,1,2,1:2:0:0:
245,101,22166,1,0,1:2:0:0:
397,31,22330,2,0,P|451:39|490:122,1,142.5,10|8,0:2|0:3,0:0:0:0:
489,144,22660,5,0,1:2:0:0:
382,294,22825,2,0,P|338:282|284:269,1,95,2|8,0:2|0:2,0:0:0:0:
173,144,23155,1,2,0:2:0:0:
173,144,23237,1,8,0:3:0:0:
173,144,23319,1,2,1:2:0:0:
218,324,23484,1,2,1:2:0:0:
333,169,23649,1,10,0:2:0:0:
127,227,23814,6,0,P|76:172|119:65,1,190,4|0,1:2|1:2,0:0:0:0:
268,10,24308,2,0,P|280:60|295:121,1,95,10|0,0:2|0:0,0:0:0:0:
316,172,24556,1,8,0:3:0:0:
316,172,24638,1,2,1:2:0:0:
442,60,24803,1,0,1:2:0:0:
501,257,24968,2,0,B|465:227|465:227|358:261,1,142.5,10|8,0:2|0:3,0:0:0:0:
346,284,25297,5,0,1:2:0:0:
222,141,25462,2,0,P|171:141|136:177,1,95,2|8,0:2|0:2,0:0:0:0:
49,343,25792,1,2,0:2:0:0:
205,223,25957,1,2,1:2:0:0:
65,154,26122,1,2,1:2:0:0:
171,353,26286,1,10,0:2:0:0:
314,165,26451,6,0,B|407:165|375:253|481:253,1,190,4|0,1:2|1:2,0:0:0:0:
335,382,26946,2,0,P|288:365|237:349,1,95,10|0,0:2|0:0,0:0:0:0:
177,356,27193,1,8,0:3:0:0:
177,356,27275,1,2,1:2:0:0:
118,189,27440,1,0,1:2:0:0:
40,371,27605,2,0,P|65:308|15:234,1,142.5,10|8,0:2|0:3,0:0:0:0:
7,223,27935,5,0,1:2:0:0:
129,87,28100,2,0,P|181:96|208:137,1,95,2|8,0:2|0:2,0:0:0:0:
290,261,28429,1,2,0:2:0:0:
401,93,28594,1,2,1:2:0:0:
457,273,28759,1,2,1:2:0:0:
317,125,28924,1,10,0:2:0:0:
221,320,29089,6,0,P|150:322|98:222,1,190,6|2,1:2|1:2,0:0:0:0:
29,93,29583,1,8,0:2:0:0:
205,17,29748,2,0,P|220:109|237:216,1,190,6|2,1:2|1:2,0:0:0:0:
334,313,30243,1,8,0:2:0:0:
476,147,30407,6,0,B|426:126|382:164|398:176|348:216|305:187,1,190,6|2,1:2|1:2,0:0:0:0:
452,251,30902,1,8,0:2:0:0:
291,104,31067,2,0,P|248:117|194:136,1,95,6|0,1:2|0:0,0:0:0:0:
107,285,31396,2,0,P|149:298|204:317,1,95,6|0,1:2|0:0,0:0:0:0:
446,373,31891,5,10,0:2:0:0:
354,195,32056,1,2,1:2:0:0:
298,346,32221,5,8,0:2:0:0:
436,168,32385,1,2,1:2:0:0:
206,156,32550,5,10,0:2:0:0:
418,301,32715,1,2,1:2:0:0:
381,64,32880,5,10,0:2:0:0:
251,290,33045,1,2,1:2:0:0:
244,27,33210,5,10,0:2:0:0:
355,257,33374,1,2,1:2:0:0:
473,40,33539,6,0,P|426:50|381:63,1,95,8|0,0:2|1:2,0:0:0:0:
177,274,33869,5,10,0:2:0:0:
317,27,34034,1,8,0:2:0:0:
435,293,34199,1,10,0:2:0:0:
190,79,34363,6,0,P|132:115|152:211,1,152,6|2,1:2|1:2,0:0:0:0:
303,271,34858,1,8,0:2:0:0:
202,155,35023,1,2,0:2:0:0:
159,315,35188,2,0,P|198:302|234:292,1,76,2|2,1:2|1:2,0:0:0:0:
353,164,35517,2,0,P|316:152|280:141,1,76,10|2,0:2|0:2,0:0:0:0:
420,236,35847,6,0,P|407:281|396:326,1,76,2|0,1:2|1:2,0:0:0:0:
252,369,36177,2,0,P|242:332|232:295,1,76,10|0,0:2|0:0,0:0:0:0:
185,151,36506,1,2,1:2:0:0:
154,311,36671,2,0,P|121:308|99:273,1,76,2|10,1:2|0:2,0:0:0:0:
251,133,37001,6,0,P|328:158|406:185,1,152,2|2,1:2|1:2,0:0:0:0:
339,75,37495,1,8,0:2:0:0:
445,235,37660,1,2,0:2:0:0:
484,67,37825,2,0,P|442:64|412:102,1,76,2|2,1:2|1:2,0:0:0:0:
298,226,38155,2,0,P|327:248|364:243,1,76,8|2,0:2|0:2,0:0:0:0:
160,137,38484,5,2,1:2:0:0:
230,294,38649,1,0,1:2:0:0:
276,103,38814,1,10,0:2:0:0:
161,219,38979,1,10,0:2:0:0:
105,30,39144,2,0,L|198:57,1,76,2|2,1:2|1:2,0:0:0:0:
266,193,39473,1,10,0:2:0:0:
403,33,39638,6,0,B|328:33|354:103|269:103,1,152,6|2,1:2|1:2,0:0:0:0:
368,199,40133,1,8,0:2:0:0:
215,60,40297,2,0,P|205:102|196:143,1,76,2|0,0:2|1:2,0:0:0:0:
78,236,40627,2,0,P|69:198|60:161,1,76,2|8,1:2|0:2,0:0:0:0:
153,299,40957,6,0,P|198:243|286:270,1,152,2|0,0:2|1:2,0:0:0:0:
378,358,41451,2,0,P|387:320|397:283,1,76,8|0,0:2|0:0,0:0:0:0:
352,139,41781,1,2,1:2:0:0:
485,299,41946,2,0,P|475:261|465:224,1,76,2|8,1:2|0:2,0:0:0:0:
352,139,42275,6,0,P|312:150|271:166,1,76,6|0,1:2|0:0,0:0:0:0:
199,309,42605,2,0,P|238:320|280:336,1,76,2|8,1:2|0:2,0:0:0:0:
78,200,42935,2,0,P|90:247|101:289,1,76,6|0,1:2|0:0,0:0:0:0:
252,139,43264,2,0,P|239:186|229:228,1,76,2|8,1:2|0:2,0:0:0:0:
71,62,43594,6,0,P|102:37|151:49,1,76,6|0,1:2|0:0,0:0:0:0:
232,212,43924,2,0,P|194:213|166:189,1,76,2|8,1:2|0:2,0:0:0:0:
320,65,44253,1,6,1:2:0:0:
149,189,44418,1,8,0:3:0:0:
324,272,44583,1,10,0:3:0:0:
222,135,44748,1,8,0:3:0:0:
459,75,44913,6,0,P|437:158|415:248,1,170.999994781494,6|2,1:2|1:2,0:0:0:0:
201,357,45407,1,8,0:2:0:0:
314,208,45572,1,2,0:2:0:0:
402,374,45737,2,0,P|359:362|315:351,1,85.4999973907472,0|2,1:2|1:2,0:0:0:0:
160,182,46067,2,0,P|201:170|242:160,1,85.4999973907472,10|2,0:2|0:2,0:0:0:0:
69,357,46396,5,2,1:2:0:0:
189,251,46561,1,2,1:2:0:0:
44,157,46726,1,10,0:2:0:0:
154,333,46891,1,2,0:2:0:0:
257,152,47056,1,2,1:2:0:0:
112,235,47221,1,2,1:2:0:0:
287,328,47385,1,10,0:2:0:0:
169,151,47550,6,0,P|189:99|296:77,1,170.999994781494,2|2,1:2|1:2,0:0:0:0:
207,245,48045,1,8,0:2:0:0:
370,109,48210,2,0,P|359:150|349:191,1,85.4999973907472,2|0,0:2|1:2,0:0:0:0:
405,355,48539,1,2,1:2:0:0:
256,187,48704,1,8,0:2:0:0:
438,239,48869,1,2,0:2:0:0:
234,341,49034,5,2,1:2:0:0:
349,191,49199,2,0,P|359:232|369:273,1,85.4999973907472,2|10,1:2|0:2,0:0:0:0:
468,155,49528,1,10,0:2:0:0:
303,58,49693,2,0,P|292:99|282:140,1,85.4999973907472,2|0,1:2|1:2,0:0:0:0:
379,301,50023,1,8,0:2:0:0:
209,154,50188,6,0,B|167:130|126:166|141:179|89:210|49:182,1,170.999994781494,6|2,1:2|1:2,0:0:0:0:
147,279,50682,1,8,0:2:0:0:
3,120,50847,2,0,P|14:162|26:213,1,85.4999973907472,2|0,0:2|1:2,0:0:0:0:
229,71,51177,2,0,P|218:113|206:164,1,85.4999973907472,2|8,1:2|0:2,0:0:0:0:
10,26,51506,6,0,P|30:110|50:200,1,170.999994781494,2|0,0:2|1:2,0:0:0:0:
166,304,52001,2,0,P|215:298|244:266,1,85.4999973907472,8|0,0:2|0:0,0:0:0:0:
327,105,52330,1,2,1:2:0:0:
175,208,52495,1,2,1:2:0:0:
349,312,52660,1,8,0:2:0:0:
217,113,52825,6,0,P|178:123|135:137,1,85.4999973907472,6|0,1:2|0:0,0:0:0:0:
44,314,53155,2,0,P|82:324|126:338,1,85.4999973907472,2|8,1:2|0:2,0:0:0:0:
278,172,53484,2,0,P|289:217|300:266,1,85.4999973907472,6|0,1:2|0:0,0:0:0:0:
116,108,53814,2,0,P|104:153|94:202,1,85.4999973907472,2|8,1:2|0:2,0:0:0:0:
210,42,54144,6,0,P|241:14|282:18,1,85.4999973907472,6|0,1:2|0:0,0:0:0:0:
348,223,54473,2,0,P|306:227|275:199,1,85.4999973907472,2|8,1:2|0:2,0:0:0:0:
468,91,54803,2,0,P|457:134|446:185,1,85.4999973907472,6|0,1:2|0:0,0:0:0:0:
276,354,55133,1,2,1:2:0:0:
421,268,55297,1,8,0:2:0:0:
421,268,55627,6,0,P|411:308|401:355,1,85.4999973907472,6|0,1:2|1:2,0:0:0:0:
275,199,55957,1,0,1:2:0:0:
448,81,56122,2,0,P|457:122|467:164,1,85.4999973907472,8|2,0:2|1:2,0:0:0:0:
253,271,56451,1,0,1:2:0:0:
344,104,56616,1,8,0:2:0:0:
445,289,56781,1,0,1:2:0:0:
245,105,56946,6,0,P|204:115|153:128,1,85.4999973907472,14|0,0:2|1:2,0:0:0:0:
345,251,57275,1,0,1:2:0:0:
308,29,57440,2,0,P|266:18|225:8,1,85.4999973907472,8|2,0:2|1:2,0:0:0:0:
44,204,57770,1,0,1:2:0:0:
129,27,57935,1,8,0:2:0:0:
129,27,58264,5,14,1:2:0:0:
133,47,58346,1,8,1:2:0:0:
138,68,58428,1,8,1:2:0:0:
143,89,58511,1,8,1:2:0:0:
147,109,58594,2,0,P|169:110|187:99,1,42.7499986953736,10|8,1:2|1:2,0:0:0:0:
379,123,58759,5,10,1:2:0:0:
373,146,58841,1,8,1:2:0:0:
367,172,58923,1,8,1:2:0:0:
361,197,59006,1,8,1:2:0:0:
356,221,59089,2,0,P|334:221|316:210,1,42.7499986953736,8|8,1:2|1:2,0:0:0:0:
211,378,59253,5,8,1:2:0:0:
416,333,59418,2,0,P|434:296|413:260,1,85.4999973907472,2|2,1:2|0:2,0:0:0:0:
416,333,60572,1,8,0:2:0:0:
302,162,60737,6,0,B|239:135|200:179|217:191|159:245|107:201,1,209.000006378174,6|0,1:2|1:2,0:0:0:0:
0,36,61232,2,0,P|18:91|35:153,1,104.500003189087,10|0,0:2|0:0,0:0:0:0:
195,324,61561,1,2,1:2:0:0:
25,210,61726,1,0,1:2:0:0:
224,97,61891,1,10,0:2:0:0:
117,325,62056,6,0,B|79:279|79:279|133:123,1,209.000006378174,2|0,1:2|1:2,0:0:0:0:
297,221,62550,1,10,0:2:0:0:
249,20,62715,2,0,P|196:14|160:48,1,104.500003189087,2|0,0:2|1:2,0:0:0:0:
25,210,63045,2,0,P|63:243|113:236,1,104.500003189087,2|8,1:2|0:2,0:0:0:0:
248,109,63374,6,0,P|346:113|377:206,1,209.000006378174,2|0,1:2|1:2,0:0:0:0:
270,342,63869,1,10,0:2:0:0:
480,150,64034,2,0,P|468:200|456:253,1,104.500003189087,2|0,0:2|1:2,0:0:0:0:
280,316,64363,2,0,P|269:265|257:214,1,104.500003189087,2|8,1:2|0:2,0:0:0:0:
322,81,64693,6,0,P|272:95|218:112,1,104.500003189087,2|0,1:2|0:0,0:0:0:0:
92,276,65022,1,2,1:2:0:0:
6,45,65188,2,0,P|55:59|110:76,1,104.500003189087,8|0,0:2|0:0,0:0:0:0:
275,287,65517,1,2,1:2:0:0:
138,170,65682,1,2,1:2:0:0:
289,69,65847,1,10,0:2:0:0:
182,309,66012,6,0,P|120:303|88:270,1,104.500003189087,6|0,1:2|0:0,0:0:0:0:
73,78,66341,2,0,P|112:45|163:44,1,104.500003189087,2|8,1:2|0:2,0:0:0:0:
241,213,66671,2,0,B|297:241|344:194|323:184|370:129|433:164,1,209.000006378174,2|0,0:2|1:2,0:0:0:0:
264,94,67166,1,10,0:2:0:0:
419,273,67330,6,0,P|429:228|450:158,1,104.500003189087,6|0,1:2|0:0,0:0:0:0:
276,14,67660,2,0,P|290:64|302:115,1,104.500003189087,2|10,1:2|0:2,0:0:0:0:
344,301,67990,2,0,P|295:287|234:273,1,104.500003189087,2|2,0:2|1:2,0:0:0:0:
86,144,68319,1,2,1:2:0:0:
181,337,68484,1,8,0:2:0:0:
260,118,68649,6,0,P|201:121|165:157,1,104.500003189087,6|0,1:2|0:0,0:0:0:0:
10,289,68979,2,0,P|49:321|101:320,1,104.500003189087,2|8,1:2|0:2,0:0:0:0:
37,88,69308,2,0,P|49:144|60:193,1,104.500003189087,6|0,1:2|0:0,0:0:0:0:
259,318,69638,2,0,P|269:266|281:215,1,104.500003189087,2|8,1:2|0:2,0:0:0:0:
380,20,69968,6,0,P|331:32|275:47,1,104.500003189087,6|0,1:2|0:0,0:0:0:0:
151,206,70297,2,0,P|199:218|256:233,1,104.500003189087,2|8,1:2|0:2,0:0:0:0:
415,380,70627,2,0,P|426:329|439:278,1,104.500003189087,6|0,1:2|0:0,0:0:0:0:
508,115,70957,1,8,1:2:0:0:
477,91,71039,1,8,1:2:0:0:
439,91,71121,1,8,1:2:0:0:
409,115,71204,1,8,1:2:0:0:
401,153,71286,6,0,B|348:182|298:133|319:120|263:73|207:106,1,209.000006378174,6|0,1:2|1:2,0:0:0:0:
154,279,71781,2,0,P|213:277|251:230,1,104.500003189087,10|0,0:2|0:0,0:0:0:0:
50,104,72111,1,2,1:2:0:0:
208,174,72275,1,0,1:2:0:0:
47,299,72440,1,10,0:2:0:0:
155,94,72605,6,0,P|214:81|299:206,1,209.000006378174,2|0,1:2|1:2,0:0:0:0:
405,63,73100,1,10,0:2:0:0:
244,289,73264,2,0,P|297:271|352:255,1,104.500003189087,2|0,0:2|1:2,0:0:0:0:
509,125,73594,2,0,P|455:107|401:91,1,104.500003189087,2|8,1:2|0:2,0:0:0:0:
199,16,73924,6,0,B|248:37|248:37|198:200,1,209.000006378174,2|0,1:2|1:2,0:0:0:0:
274,313,74418,1,10,0:2:0:0:
124,172,74583,2,0,P|68:171|26:211,1,104.500003189087,2|0,0:2|1:2,0:0:0:0:
172,367,74913,1,2,1:2:0:0:
275,164,75078,1,8,0:2:0:0:
377,352,75243,6,0,P|361:303|342:242,1,104.500003189087,2|0,1:2|0:0,0:0:0:0:
440,121,75572,1,2,1:2:0:0:
232,290,75737,2,0,P|247:241|267:180,1,104.500003189087,8|0,0:2|0:0,0:0:0:0:
165,33,76067,1,2,1:2:0:0:
326,152,76232,1,2,1:2:0:0:
151,230,76396,1,10,0:2:0:0:
279,33,76561,6,0,P|329:35|362:73,1,104.500003189087,6|0,1:2|0:0,0:0:0:0:
402,259,76891,2,0,P|368:296|317:298,1,104.500003189087,2|8,1:2|0:2,0:0:0:0:
167,122,77221,2,0,P|97:114|60:248,1,209.000006378174,2|0,0:2|1:2,0:0:0:0:
27,52,77715,1,10,0:2:0:0:
141,210,77880,6,0,P|190:194|240:179,1,104.500003189087,6|0,1:2|0:0,0:0:0:0:
387,55,78210,2,0,P|337:39|287:24,1,104.500003189087,2|8,1:2|0:2,0:0:0:0:
372,223,78539,2,0,P|483:211|506:129,1,209.000006378174,2|0,0:2|1:2,0:0:0:0:
268,197,79034,1,10,0:2:0:0:
412,31,79199,6,0,P|398:79|383:143,1,104.500003189087,6|0,1:2|0:0,0:0:0:0:
209,273,79528,2,0,P|196:222|182:171,1,104.500003189087,2|8,1:2|0:2,0:0:0:0:
372,351,79858,2,0,P|323:361|276:324,1,104.500003189087,6|0,1:2|0:0,0:0:0:0:
199,142,80188,2,0,P|240:112|290:122,1,104.500003189087,2|8,1:2|0:2,0:0:0:0:
58,299,80517,6,0,P|70:249|88:183,1,104.500003189087,6|0,1:2|0:0,0:0:0:0:
174,41,80847,2,0,P|187:91|199:142,1,104.500003189087,2|8,1:2|0:2,0:0:0:0:
269,309,81177,2,0,P|216:294|165:281,1,104.500003189087,6|0,1:2|0:0,0:0:0:0:
51,85,81506,1,2,1:2:0:0:
163,203,81671,1,8,0:2:0:0:
305,15,82001,6,0,P|324:109|344:216,1,190,6|10,1:2|0:2,0:0:0:0:
430,350,82495,1,0,0:0:0:0:
430,350,82578,1,8,0:3:0:0:
430,350,82660,1,2,1:2:0:0:
246,214,82825,1,0,1:2:0:0:
436,143,82990,2,0,P|422:190|408:247,1,95,10|0,0:2|0:0,0:0:0:0:
369,293,83237,5,8,0:3:0:0:
369,293,83319,1,0,1:2:0:0:
254,132,83484,2,0,P|201:137|171:174,1,95,2|8,0:2|0:2,0:0:0:0:
90,339,83814,1,2,0:2:0:0:
246,214,83979,1,2,1:2:0:0:
84,150,84144,1,2,1:2:0:0:
204,312,84308,1,10,0:2:0:0:
12,107,84473,6,0,B|62:86|106:124|90:136|140:176|183:147,1,190,4|0,1:2|1:2,0:0:0:0:
332,28,84968,1,10,0:2:0:0:
379,244,85133,1,0,0:0:0:0:
379,244,85215,1,8,0:3:0:0:
379,244,85297,1,2,1:2:0:0:
232,97,85462,1,0,1:2:0:0:
439,50,85627,1,10,0:2:0:0:
233,238,85792,5,0,0:0:0:0:
233,238,85874,1,8,0:3:0:0:
233,238,85957,1,0,1:2:0:0:
137,36,86122,2,0,L|244:69,1,95,2|8,0:2|0:2,0:0:0:0:
426,244,86451,1,2,0:2:0:0:
426,244,86534,1,8,0:3:0:0:
426,244,86616,1,2,1:2:0:0:
330,81,86781,1,2,1:2:0:0:
241,261,86946,1,10,0:2:0:0:
475,125,87111,6,0,B|516:164|516:164|488:294,1,190,4|0,1:2|1:2,0:0:0:0:
246,364,87605,1,10,0:2:0:0:
426,244,87770,1,0,0:0:0:0:
426,244,87852,1,8,0:3:0:0:
426,244,87935,1,2,1:2:0:0:
255,144,88100,1,0,1:2:0:0:
324,370,88264,2,0,P|338:324|357:267,1,95,10|0,0:2|0:0,0:0:0:0:
324,217,88512,5,8,0:3:0:0:
324,217,88594,1,0,1:2:0:0:
154,315,88759,2,0,P|139:269|121:212,1,95,2|8,0:2|0:2,0:0:0:0:
256,62,89089,1,2,0:2:0:0:
256,62,89171,1,8,0:3:0:0:
256,62,89253,1,2,1:2:0:0:
64,172,89418,1,2,1:2:0:0:
257,268,89583,1,10,0:2:0:0:
158,58,89748,6,0,P|144:109|133:162,1,95,6|0,1:2|0:0,0:0:0:0:
347,310,90078,2,0,P|336:263|324:217,1,95,2|8,1:2|0:2,0:0:0:0:
198,362,90407,2,0,P|150:367|117:334,1,95,6|0,1:2|0:0,0:0:0:0:
30,175,90737,2,0,P|64:144|109:149,1,95,2|8,1:2|0:2,0:0:0:0:
209,285,91067,6,0,P|222:240|242:182,1,95,6|0,1:2|0:0,0:0:0:0:
346,42,91396,2,0,P|360:87|374:132,1,95,2|8,1:2|0:2,0:0:0:0:
430,320,91726,2,0,P|385:304|327:286,1,95,6|0,1:2|0:0,0:0:0:0:
168,122,92056,2,0,P|212:106|258:91,1,95,6|0,1:2|0:0,0:0:0:0:
57,298,92550,5,10,0:2:0:0:
145,101,92715,1,2,1:2:0:0:
232,337,92880,1,0,1:2:0:0:
74,199,93045,5,10,0:2:0:0:
290,72,93210,1,2,1:2:0:0:
55,210,93374,1,2,1:2:0:0:
300,288,93539,5,10,0:2:0:0:
191,3,93704,1,10,0:2:0:0:
