osu file format v14

[General]
AudioFilename: audio.ogg
AudioLeadIn: 0
PreviewTime: 199273
Countdown: 0
SampleSet: Soft
StackLeniency: 0.7
Mode: 3
LetterboxInBreaks: 0
SpecialStyle: 0
WidescreenStoryboard: 1

[Editor]
DistanceSpacing: 1
BeatDivisor: 4
GridSize: 32
TimelineZoom: 1.7

[Metadata]
Title:BLACK MEMORY
TitleUnicode:BLACK MEMORY
Artist:THE ORAL CIGARETTES
ArtistUnicode:THE ORAL CIGARETTES
Creator:-[ Peachy ]-
Version:Ping's Hard
Source:亜人
Tags:-kurumii div [ping] ajin demi human japanese live action la anime kisses and kills before it's too late 映画 主題歌 ost original soundtrack jp j-rock jrock rock alternative toc cigs takuya yamanaka 山中 拓也 akira akirakani あきらかにあきら shigenobu suzuki 鈴木 重伸 masaya nakanishi 中西 雅哉 mifuru みふる single azcs-2068 a-sketch
BeatmapID:4425426
BeatmapSetID:2105488

[Difficulty]
HPDrainRate:7.5
CircleSize:4
OverallDifficulty:7.5
ApproachRate:5
SliderMultiplier:1.3
SliderTickRate:1

[Events]
//Background and Video events
0,0,"BGMIFURU.jpg",0,0
//Break Periods
//Storyboard Layer 0 (Background)
//Storyboard Layer 1 (Fail)
//Storyboard Layer 2 (Pass)
//Storyboard Layer 3 (Foreground)
//Storyboard Layer 4 (Overlay)
//Storyboard Sound Samples
Sample,22736,0,"HHOpen.wav",50
Sample,25373,0,"HHOpen.wav",50
Sample,28011,0,"HHOpen.wav",50
Sample,33286,0,"HHOpen.wav",50
Sample,35923,0,"HHOpen.wav",50
Sample,38560,0,"HHOpen.wav",50
Sample,93945,0,"HHOpen.wav",50
Sample,96582,0,"HHOpen.wav",50
Sample,99220,0,"HHOpen.wav",50
Sample,104494,0,"HHOpen.wav",50
Sample,107132,0,"HHOpen.wav",50
Sample,109769,0,"HHOpen.wav",50
Sample,170428,0,"HHOpen.wav",50
Sample,173066,0,"HHOpen.wav",50
Sample,175703,0,"HHOpen.wav",50
Sample,188890,0,"Rim.wav",50
Sample,223176,0,"HHOpen.wav",50
Sample,225813,0,"HHOpen.wav",50
Sample,228450,0,"HHOpen.wav",50
Sample,233725,0,"HHOpen.wav",50
Sample,236362,0,"HHOpen.wav",50

[TimingPoints]
319,329.67032967033,4,2,1,50,1,0
71362,-100,4,2,1,50,0,1
81582,-100,4,2,1,50,0,0
81912,-100,4,2,1,50,0,1
92132,-100,4,2,1,50,0,0
134659,-100,4,2,1,50,0,1
144879,-100,4,2,1,50,0,0
145209,-100,4,2,1,50,0,1
155593,-100,4,2,1,50,0,0
200593,-100,4,2,1,50,0,1
210813,-100,4,2,1,50,0,0
211143,-100,4,2,1,50,0,1
221527,-100,4,2,1,50,0,0

[HitObjects]
64,192,319,5,2,0:0:0:0:
64,192,483,1,2,0:0:0:0:
320,192,648,1,8,0:0:0:0:
448,192,648,1,0,0:0:0:0:
192,192,813,1,0,0:0:0:50:tom3.wav
448,192,895,1,0,0:0:0:50:tom2.wav
64,192,978,1,2,0:0:0:0:
64,192,1143,1,2,0:0:0:0:
320,192,1308,1,8,0:0:0:0:
448,192,1308,1,0,0:0:0:0:
192,192,1472,1,0,0:0:0:50:tom3.wav
448,192,1555,1,0,0:0:0:50:tom2.wav
64,192,1637,1,2,0:0:0:0:
64,192,1802,1,2,0:0:0:0:
320,192,1967,1,8,0:0:0:0:
448,192,1967,1,0,0:0:0:0:
192,192,2132,1,0,0:0:0:50:tom3.wav
448,192,2214,1,0,0:0:0:50:tom2.wav
64,192,2297,1,2,0:0:0:0:
64,192,2461,1,2,0:0:0:0:
320,192,2626,1,8,0:0:0:0:
448,192,2626,1,0,0:0:0:0:
192,192,2791,1,0,0:0:0:50:tom3.wav
64,192,2873,1,0,0:0:0:50:tom2.wav
448,192,2956,1,2,0:0:0:0:
448,192,3121,1,2,0:0:0:0:
64,192,3286,1,8,0:0:0:0:
192,192,3286,1,0,0:0:0:0:
320,192,3450,1,0,0:0:0:50:tom3.wav
64,192,3533,1,0,0:0:0:50:tom2.wav
448,192,3615,1,2,0:0:0:0:
448,192,3780,1,2,0:0:0:0:
64,192,3945,1,8,0:0:0:0:
192,192,3945,1,0,0:0:0:0:
320,192,4110,1,0,0:0:0:50:tom3.wav
64,192,4192,1,0,0:0:0:50:tom2.wav
448,192,4275,1,2,0:0:0:0:
448,192,4439,1,2,0:0:0:0:
64,192,4604,1,8,0:0:0:0:
192,192,4604,1,0,0:0:0:0:
320,192,4769,1,0,0:0:0:50:tom3.wav
64,192,4851,1,0,0:0:0:50:tom2.wav
448,192,4934,1,2,0:0:0:0:
448,192,5099,1,2,0:0:0:0:
64,192,5264,1,8,0:0:0:0:
192,192,5264,1,0,0:0:0:0:
320,192,5428,1,0,0:0:0:50:tom3.wav
448,192,5511,1,0,0:0:0:50:tom2.wav
192,192,5593,1,2,0:0:0:0:
192,192,5758,1,2,0:0:0:0:
320,192,5923,1,8,0:0:0:0:
448,192,5923,1,0,0:0:0:0:
64,192,6088,1,0,0:0:0:50:tom3.wav
448,192,6170,1,0,0:0:0:50:tom2.wav
192,192,6253,1,2,0:0:0:0:
192,192,6417,1,2,0:0:0:0:
320,192,6582,1,8,0:0:0:0:
448,192,6582,1,0,0:0:0:0:
64,192,6747,1,0,0:0:0:50:tom3.wav
448,192,6829,1,0,0:0:0:50:tom2.wav
192,192,6912,1,2,0:0:0:0:
192,192,7077,1,2,0:0:0:0:
320,192,7242,1,8,0:0:0:0:
448,192,7242,1,0,0:0:0:0:
64,192,7406,1,0,0:0:0:50:tom3.wav
448,192,7489,1,0,0:0:0:50:tom2.wav
192,192,7571,1,2,0:0:0:0:
192,192,7736,1,2,0:0:0:0:
320,192,7901,1,8,0:0:0:0:
448,192,7901,1,0,0:0:0:0:
192,192,8066,1,0,0:0:0:50:tom3.wav
64,192,8148,1,0,0:0:0:50:tom2.wav
320,192,8231,1,2,0:0:0:0:
320,192,8395,1,2,0:0:0:0:
64,192,8560,1,8,0:0:0:0:
192,192,8560,1,0,0:0:0:0:
448,192,8725,1,0,0:0:0:50:tom3.wav
64,192,8808,1,0,0:0:0:50:tom2.wav
320,192,8890,1,2,0:0:0:0:
320,192,9055,1,2,0:0:0:0:
64,192,9220,1,8,0:0:0:0:
192,192,9220,1,0,0:0:0:0:
448,192,9384,1,0,0:0:0:50:tom3.wav
64,192,9467,1,0,0:0:0:50:tom2.wav
320,192,9549,1,2,0:0:0:0:
320,192,9714,1,2,0:0:0:0:
64,192,9879,1,8,0:0:0:0:
192,192,9879,1,0,0:0:0:0:
448,192,10044,1,0,0:0:0:50:tom3.wav
64,192,10126,1,0,0:0:0:50:tom2.wav
320,192,10209,1,2,0:0:0:0:
320,192,10373,128,2,10703:0:0:0:0:
64,192,10538,1,8,0:0:0:0:
192,192,10538,128,0,10703:0:0:0:0:
448,192,10703,1,0,0:0:0:50:tom3.wav
192,192,10786,1,0,0:0:0:50:tom2.wav
64,192,10868,1,2,0:0:0:0:
320,192,10868,1,4,0:0:0:0:
448,192,10868,1,0,0:0:0:0:
320,192,11033,1,2,0:0:0:0:
64,192,11198,1,8,0:0:0:0:
192,192,11198,1,0,0:0:0:0:
448,192,11362,1,0,0:0:0:50:tom3.wav
64,192,11445,1,0,0:0:0:50:tom2.wav
320,192,11527,1,2,0:0:0:0:
448,192,11527,1,0,0:0:0:0:
192,192,11692,1,2,0:0:0:0:
320,192,11692,1,0,0:0:0:0:
64,192,11857,128,8,12104:0:0:0:0:
192,192,11857,1,0,0:0:0:0:
320,192,12022,1,0,0:0:0:50:tom3.wav
192,192,12104,1,0,0:0:0:50:tom2.wav
64,192,12187,1,2,0:0:0:0:
320,192,12351,1,2,0:0:0:0:
448,192,12351,1,0,0:0:0:0:
64,192,12516,1,8,0:0:0:0:
320,192,12516,1,0,0:0:0:0:
192,192,12681,1,0,0:0:0:50:tom3.wav
448,192,12681,1,0,0:0:0:0:
320,192,12764,1,0,0:0:0:50:tom2.wav
64,192,12846,1,2,0:0:0:0:
192,192,12846,1,0,0:0:0:0:
64,192,13011,1,2,0:0:0:0:
320,192,13011,1,0,0:0:0:0:
64,192,13176,1,8,0:0:0:0:
448,192,13176,1,0,0:0:0:0:
320,192,13340,1,0,0:0:0:50:tom3.wav
192,192,13423,1,0,0:0:0:50:tom2.wav
320,192,13505,1,2,0:0:0:0:
320,192,13670,1,2,0:0:0:0:
192,192,13835,1,8,0:0:0:0:
448,192,13835,1,0,0:0:0:0:
64,192,14000,1,0,0:0:0:50:tom3.wav
320,192,14082,1,0,0:0:0:50:tom2.wav
64,192,14165,1,2,0:0:0:0:
192,192,14165,1,0,0:0:0:0:
192,192,14329,1,2,0:0:0:0:
320,192,14329,1,0,0:0:0:0:
320,192,14494,1,8,0:0:0:0:
448,192,14494,128,0,14742:0:0:0:0:
192,192,14659,1,0,0:0:0:50:tom3.wav
320,192,14742,1,0,0:0:0:50:tom2.wav
448,192,14824,1,2,0:0:0:0:
64,192,14989,1,2,0:0:0:0:
192,192,14989,1,0,0:0:0:0:
192,192,15154,1,8,0:0:0:0:
448,192,15154,1,0,0:0:0:0:
64,192,15319,1,0,0:0:0:50:tom3.wav
320,192,15319,1,0,0:0:0:0:
192,192,15401,1,0,0:0:0:50:tom2.wav
320,192,15483,1,2,0:0:0:0:
448,192,15483,1,0,0:0:0:0:
192,192,15648,1,2,0:0:0:0:
448,192,15648,1,0,0:0:0:0:
64,192,15813,1,8,0:0:0:0:
448,192,15813,1,0,0:0:0:0:
192,192,15978,1,0,0:0:0:50:tom3.wav
320,192,16060,1,0,0:0:0:50:tom2.wav
64,192,16143,1,2,0:0:0:0:
192,192,16143,1,4,0:0:0:0:
448,192,16143,1,0,0:0:0:0:
192,192,16308,1,2,0:0:0:0:
64,192,16472,1,8,0:0:0:0:
320,192,16472,1,0,0:0:0:0:
448,192,16637,1,0,0:0:0:50:tom3.wav
192,192,16720,1,0,0:0:0:50:tom2.wav
320,192,16802,1,2,0:0:0:0:
448,192,16802,1,0,0:0:0:0:
192,192,16967,1,2,0:0:0:0:
320,192,16967,1,0,0:0:0:0:
64,192,17132,128,8,17379:0:0:0:0:
192,192,17132,1,0,0:0:0:0:
320,192,17297,1,0,0:0:0:50:tom3.wav
192,192,17379,1,0,0:0:0:50:tom2.wav
64,192,17461,1,2,0:0:0:0:
192,192,17626,1,2,0:0:0:0:
320,192,17626,1,0,0:0:0:0:
192,192,17791,1,8,0:0:0:0:
448,192,17791,1,0,0:0:0:0:
64,192,17956,1,0,0:0:0:50:tom3.wav
320,192,17956,1,0,0:0:0:0:
192,192,18038,1,0,0:0:0:50:tom2.wav
320,192,18121,1,2,0:0:0:0:
448,192,18121,1,0,0:0:0:0:
192,192,18286,1,2,0:0:0:0:
448,192,18286,1,0,0:0:0:0:
64,192,18450,1,8,0:0:0:0:
448,192,18450,1,0,0:0:0:0:
192,192,18615,1,0,0:0:0:50:tom3.wav
320,192,18698,1,0,0:0:0:50:tom2.wav
192,192,18780,1,2,0:0:0:0:
192,192,18945,1,2,0:0:0:0:
320,192,19110,1,8,0:0:0:0:
448,192,19110,1,0,0:0:0:0:
64,192,19275,1,0,0:0:0:50:tom3.wav
320,192,19357,1,0,0:0:0:50:tom2.wav
64,192,19439,1,2,0:0:0:0:
192,192,19439,1,0,0:0:0:0:
192,192,19604,1,2,0:0:0:0:
320,192,19604,1,0,0:0:0:0:
320,192,19769,1,8,0:0:0:0:
448,192,19769,128,0,20099:0:0:0:0:
64,192,19934,128,2,20099:0:0:0:0:
192,192,19934,1,0,0:0:0:50:HHOpen.wav
64,192,20264,1,0,0:0:0:0:
448,192,20264,1,0,0:0:0:0:
448,192,20428,1,0,0:0:0:0:
64,192,20593,1,0,0:0:0:0:
320,192,20593,1,0,0:0:0:0:
64,192,20758,1,0,0:0:0:0:
448,192,20758,1,0,0:0:0:0:
192,192,20923,1,0,0:0:0:0:
448,192,20923,1,0,0:0:0:0:
64,192,21088,1,8,0:0:0:0:
320,192,21088,1,0,0:0:0:50:tom3.wav
192,192,21253,128,2,21417:0:0:0:0:
320,192,21253,1,4,0:0:0:0:
448,192,21253,1,0,0:0:0:0:
192,192,21582,1,2,0:0:0:0:
64,192,21747,1,8,0:0:0:0:
448,192,21747,1,0,0:0:0:50:HHOpen.wav
320,192,21912,1,0,0:0:0:0:
64,192,21994,1,8,0:0:0:0:
320,192,22077,1,2,0:0:0:0:
448,192,22077,1,0,0:0:0:50:HHOpen.wav
192,192,22242,1,2,0:0:0:0:
448,192,22242,1,0,0:0:0:0:
192,192,22406,1,8,0:0:0:0:
320,192,22406,1,0,0:0:0:50:HHOpen.wav
64,192,22571,1,0,0:0:0:0:
320,192,22571,1,0,0:0:0:0:
448,192,22654,1,8,0:0:0:0:
192,192,22736,1,2,0:0:0:0:
192,192,22901,1,2,0:0:0:0:
448,192,22901,1,0,0:0:0:0:
64,192,23066,1,8,0:0:0:0:
320,192,23066,1,0,0:0:0:50:HHOpen.wav
192,192,23231,1,0,0:0:0:0:
448,192,23231,1,0,0:0:0:0:
64,192,23313,1,8,0:0:0:0:
320,192,23395,1,2,0:0:0:0:
448,192,23395,1,0,0:0:0:50:HHOpen.wav
192,192,23560,1,2,0:0:0:0:
320,192,23560,1,0,0:0:0:0:
64,192,23725,1,8,0:0:0:0:
192,192,23725,1,0,0:0:0:0:
64,192,23890,1,2,0:0:0:0:
320,192,23890,128,4,24055:0:0:0:0:
448,192,23890,1,0,0:0:0:0:
320,192,24220,1,2,0:0:0:0:
64,192,24384,1,8,0:0:0:0:
448,192,24384,1,0,0:0:0:50:HHOpen.wav
320,192,24549,1,0,0:0:0:0:
64,192,24632,1,8,0:0:0:0:
320,192,24714,1,2,0:0:0:0:
448,192,24714,1,0,0:0:0:50:HHOpen.wav
192,192,24879,1,2,0:0:0:0:
448,192,24879,1,0,0:0:0:0:
192,192,25044,1,8,0:0:0:0:
320,192,25044,1,0,0:0:0:50:HHOpen.wav
64,192,25209,1,0,0:0:0:0:
320,192,25209,1,0,0:0:0:0:
448,192,25291,1,8,0:0:0:0:
192,192,25373,1,2,0:0:0:0:
64,192,25538,1,2,0:0:0:0:
192,192,25538,1,0,0:0:0:0:
320,192,25703,1,8,0:0:0:0:
448,192,25703,1,0,0:0:0:50:HHOpen.wav
320,192,25868,1,8,0:0:0:0:
448,192,25868,1,0,0:0:0:0:
64,192,26033,1,2,0:0:0:0:
192,192,26033,1,0,0:0:0:50:HHOpen.wav
192,192,26198,1,2,0:0:0:0:
320,192,26198,1,0,0:0:0:0:
320,192,26362,1,8,0:0:0:0:
448,192,26362,1,0,0:0:0:0:
64,192,26527,128,2,26692:0:0:0:0:
192,192,26527,1,4,0:0:0:0:
448,192,26527,1,0,0:0:0:0:
64,192,26857,1,2,0:0:0:0:
192,192,27022,1,8,0:0:0:0:
448,192,27022,1,0,0:0:0:50:HHOpen.wav
320,192,27187,1,0,0:0:0:0:
64,192,27269,1,8,0:0:0:0:
320,192,27351,1,2,0:0:0:0:
448,192,27351,1,0,0:0:0:50:HHOpen.wav
192,192,27516,1,2,0:0:0:0:
448,192,27516,1,0,0:0:0:0:
192,192,27681,1,8,0:0:0:0:
320,192,27681,1,0,0:0:0:50:HHOpen.wav
64,192,27846,1,0,0:0:0:0:
320,192,27846,1,0,0:0:0:0:
448,192,27928,1,8,0:0:0:0:
192,192,28011,1,2,0:0:0:0:
192,192,28176,1,2,0:0:0:0:
448,192,28176,1,0,0:0:0:0:
64,192,28340,1,8,0:0:0:0:
320,192,28340,1,0,0:0:0:50:HHOpen.wav
192,192,28505,1,0,0:0:0:0:
448,192,28505,1,0,0:0:0:0:
64,192,28588,1,8,0:0:0:0:
320,192,28670,1,2,0:0:0:0:
448,192,28670,1,0,0:0:0:50:HHOpen.wav
192,192,28835,1,2,0:0:0:0:
320,192,28835,1,0,0:0:0:0:
64,192,29000,1,8,0:0:0:0:
192,192,29000,1,0,0:0:0:0:
64,192,29165,128,2,29412:0:0:0:0:
320,192,29165,1,0,0:0:0:50:HHOpen.wav
64,192,29494,128,2,29659:0:0:0:0:
192,192,29494,1,0,0:0:0:50:HHOpen.wav
320,192,29659,1,8,0:0:0:0:
448,192,29659,1,0,0:0:0:0:
64,192,29824,128,2,30071:0:0:0:0:
320,192,29824,1,0,0:0:0:50:HHOpen.wav
64,192,30154,128,2,30319:0:0:0:0:
192,192,30154,1,0,0:0:0:50:HHOpen.wav
320,192,30319,1,8,0:0:0:0:
448,192,30319,1,0,0:0:0:0:
192,192,30483,1,2,0:0:0:0:
448,192,30483,128,0,30731:0:0:0:50:HHOpen.wav
320,192,30813,1,2,0:0:0:0:
448,192,30813,128,0,30978:0:0:0:50:HHOpen.wav
64,192,30978,1,8,0:0:0:0:
192,192,30978,1,0,0:0:0:0:
192,192,31143,128,2,31472:0:0:0:0:
320,192,31143,1,4,0:0:0:0:
448,192,31143,1,0,0:0:0:0:
64,192,31472,1,8,0:0:0:0:
448,192,31472,1,0,0:0:0:0:
192,192,31555,1,8,0:0:0:0:
320,192,31637,1,8,0:0:0:0:
64,192,31720,1,8,0:0:0:0:
192,192,31802,1,2,0:0:0:0:
320,192,31802,128,4,31967:0:0:0:0:
448,192,31802,1,0,0:0:0:0:
320,192,32132,1,2,0:0:0:0:
64,192,32297,1,8,0:0:0:0:
448,192,32297,1,0,0:0:0:50:HHOpen.wav
320,192,32461,1,0,0:0:0:0:
64,192,32544,1,8,0:0:0:0:
320,192,32626,1,2,0:0:0:0:
448,192,32626,1,0,0:0:0:50:HHOpen.wav
192,192,32791,1,2,0:0:0:0:
448,192,32791,1,0,0:0:0:0:
192,192,32956,1,8,0:0:0:0:
320,192,32956,1,0,0:0:0:50:HHOpen.wav
64,192,33121,1,0,0:0:0:0:
320,192,33121,1,0,0:0:0:0:
448,192,33203,1,8,0:0:0:0:
192,192,33286,1,2,0:0:0:0:
64,192,33450,1,2,0:0:0:0:
192,192,33450,1,0,0:0:0:0:
320,192,33615,1,8,0:0:0:0:
448,192,33615,1,0,0:0:0:50:HHOpen.wav
64,192,33780,1,0,0:0:0:0:
320,192,33780,1,0,0:0:0:0:
448,192,33862,1,8,0:0:0:0:
64,192,33945,1,2,0:0:0:0:
192,192,33945,1,0,0:0:0:50:HHOpen.wav
192,192,34110,1,2,0:0:0:0:
320,192,34110,1,0,0:0:0:0:
320,192,34275,1,8,0:0:0:0:
448,192,34275,1,0,0:0:0:0:
64,192,34439,1,2,0:0:0:0:
192,192,34439,128,4,34604:0:0:0:0:
448,192,34439,1,0,0:0:0:0:
192,192,34769,1,2,0:0:0:0:
64,192,34934,1,8,0:0:0:0:
448,192,34934,1,0,0:0:0:50:HHOpen.wav
320,192,35099,1,0,0:0:0:0:
64,192,35181,1,8,0:0:0:0:
320,192,35264,1,2,0:0:0:0:
448,192,35264,1,0,0:0:0:50:HHOpen.wav
192,192,35428,1,2,0:0:0:0:
448,192,35428,1,0,0:0:0:0:
192,192,35593,1,8,0:0:0:0:
320,192,35593,1,0,0:0:0:50:HHOpen.wav
64,192,35758,1,0,0:0:0:0:
320,192,35758,1,0,0:0:0:0:
448,192,35840,1,8,0:0:0:0:
192,192,35923,1,2,0:0:0:0:
192,192,36088,1,2,0:0:0:0:
448,192,36088,1,0,0:0:0:0:
64,192,36253,1,8,0:0:0:0:
320,192,36253,1,0,0:0:0:50:HHOpen.wav
64,192,36417,1,8,0:0:0:0:
320,192,36417,1,0,0:0:0:0:
192,192,36582,1,0,0:0:0:50:tom1.wav
448,192,36582,1,0,0:0:0:0:
320,192,36747,1,0,0:0:0:50:tom2.wav
448,192,36747,1,0,0:0:0:0:
64,192,36912,1,0,0:0:0:50:tom3.wav
192,192,36912,1,0,0:0:0:0:
64,192,37077,128,2,37242:0:0:0:0:
320,192,37077,1,4,0:0:0:0:
448,192,37077,1,0,0:0:0:0:
64,192,37406,1,2,0:0:0:0:
192,192,37571,1,8,0:0:0:0:
448,192,37571,1,0,0:0:0:50:HHOpen.wav
320,192,37736,1,0,0:0:0:0:
64,192,37819,1,8,0:0:0:0:
320,192,37901,1,2,0:0:0:0:
448,192,37901,1,0,0:0:0:50:HHOpen.wav
192,192,38066,1,2,0:0:0:0:
448,192,38066,1,0,0:0:0:0:
192,192,38231,1,8,0:0:0:0:
320,192,38231,1,0,0:0:0:50:HHOpen.wav
64,192,38395,1,0,0:0:0:0:
320,192,38395,1,0,0:0:0:0:
448,192,38478,1,8,0:0:0:0:
192,192,38560,1,2,0:0:0:0:
192,192,38725,1,2,0:0:0:0:
448,192,38725,1,0,0:0:0:0:
64,192,38890,1,8,0:0:0:0:
320,192,38890,1,0,0:0:0:50:HHOpen.wav
192,192,39055,1,0,0:0:0:0:
448,192,39055,1,0,0:0:0:0:
64,192,39137,1,8,0:0:0:0:
320,192,39220,1,2,0:0:0:0:
448,192,39220,1,0,0:0:0:50:HHOpen.wav
192,192,39384,1,2,0:0:0:0:
320,192,39384,1,0,0:0:0:0:
64,192,39549,1,8,0:0:0:0:
192,192,39549,1,0,0:0:0:0:
64,192,39714,128,2,39961:0:0:0:0:
320,192,39714,1,0,0:0:0:50:HHOpen.wav
64,192,40044,128,2,40209:0:0:0:0:
192,192,40044,1,0,0:0:0:50:HHOpen.wav
320,192,40209,1,8,0:0:0:0:
448,192,40209,1,0,0:0:0:0:
64,192,40373,128,2,40621:0:0:0:0:
320,192,40373,1,0,0:0:0:50:HHOpen.wav
64,192,40703,128,2,40868:0:0:0:0:
192,192,40703,1,0,0:0:0:50:HHOpen.wav
320,192,40868,1,8,0:0:0:0:
448,192,40868,1,0,0:0:0:0:
192,192,41033,1,2,0:0:0:0:
448,192,41033,128,0,41280:0:0:0:50:HHOpen.wav
320,192,41362,1,2,0:0:0:0:
448,192,41362,128,0,41527:0:0:0:50:HHOpen.wav
64,192,41527,1,8,0:0:0:0:
192,192,41527,1,0,0:0:0:0:
192,192,41692,128,2,41939:0:0:0:0:
448,192,41692,1,0,0:0:0:50:HHOpen.wav
192,192,42022,1,2,0:0:0:0:
320,192,42022,128,0,42351:0:0:0:50:HHOpen.wav
64,192,42516,1,8,0:0:0:0:
320,192,42516,1,4,0:0:0:0:
448,192,42516,1,0,0:0:0:0:
64,192,42681,1,2,0:0:0:0:
320,192,42846,1,8,0:0:0:0:
448,192,42846,1,0,0:0:0:50:HHOpen.wav
192,192,43011,1,2,0:0:0:0:
64,192,43176,1,8,0:0:0:0:
192,192,43176,1,0,0:0:0:50:HHOpen.wav
448,192,43340,1,2,0:0:0:0:
64,192,43505,1,8,0:0:0:0:
448,192,43505,128,0,43753:0:0:0:50:HHOpen.wav
192,192,43670,1,2,0:0:0:0:
320,192,43835,1,8,0:0:0:0:
448,192,43835,1,0,0:0:0:50:HHOpen.wav
64,192,44000,1,2,0:0:0:0:
64,192,44165,1,8,0:0:0:0:
448,192,44165,1,0,0:0:0:50:HHOpen.wav
448,192,44329,1,0,0:0:0:0:
64,192,44494,1,8,0:0:0:0:
192,192,44494,1,0,0:0:0:0:
64,192,44659,1,8,0:0:0:0:
192,192,44659,1,0,0:0:0:0:
320,192,44824,1,8,0:0:0:0:
448,192,44824,1,0,0:0:0:0:
64,192,44989,1,2,0:0:0:0:
320,192,44989,1,4,0:0:0:0:
448,192,44989,1,0,0:0:0:0:
64,192,45319,1,2,0:0:0:0:
192,192,45319,1,0,0:0:0:0:
320,192,45483,1,8,0:0:0:0:
448,192,45483,1,0,0:0:0:0:
64,192,45648,1,0,0:0:0:0:
192,192,45648,1,0,0:0:0:0:
64,192,45813,1,2,0:0:0:0:
320,192,45813,1,0,0:0:0:0:
192,192,45978,1,2,0:0:0:0:
448,192,45978,1,0,0:0:0:0:
320,192,46143,1,8,0:0:0:0:
448,192,46143,1,0,0:0:0:0:
192,192,46308,1,0,0:0:0:0:
448,192,46308,1,0,0:0:0:0:
64,192,46472,1,2,0:0:0:0:
192,192,46472,1,0,0:0:0:0:
320,192,46637,1,2,0:0:0:0:
192,192,46802,1,8,0:0:0:0:
448,192,46802,1,0,0:0:0:0:
320,192,46967,1,0,0:0:0:0:
64,192,47132,1,2,0:0:0:0:
192,192,47132,1,0,0:0:0:0:
64,192,47297,1,2,0:0:0:0:
192,192,47297,1,0,0:0:0:0:
320,192,47461,1,8,0:0:0:0:
448,192,47461,1,0,0:0:0:0:
64,192,47626,1,2,0:0:0:0:
320,192,47626,128,0,47791:0:0:0:50:HHOpen.wav
320,192,47956,1,2,0:0:0:0:
448,192,47956,1,0,0:0:0:0:
64,192,48121,1,8,0:0:0:0:
192,192,48121,1,0,0:0:0:0:
64,192,48286,1,0,0:0:0:0:
448,192,48286,1,0,0:0:0:0:
320,192,48450,1,2,0:0:0:0:
64,192,48615,1,2,0:0:0:0:
192,192,48615,1,0,0:0:0:0:
64,192,48780,1,8,0:0:0:0:
320,192,48780,1,0,0:0:0:0:
64,192,48945,1,0,0:0:0:0:
192,192,48945,1,0,0:0:0:0:
320,192,49110,1,2,0:0:0:0:
448,192,49110,1,0,0:0:0:0:
64,192,49275,1,2,0:0:0:0:
448,192,49275,1,0,0:0:0:0:
192,192,49439,1,8,0:0:0:0:
320,192,49439,1,0,0:0:0:0:
192,192,49604,1,8,0:0:0:0:
320,192,49604,1,0,0:0:0:0:
64,192,49769,1,2,0:0:0:0:
448,192,49769,1,0,0:0:0:0:
320,192,49934,1,2,0:0:0:0:
192,192,50099,1,8,0:0:0:0:
320,192,50099,1,0,0:0:0:0:
64,192,50264,128,2,50428:0:0:0:0:
320,192,50264,1,0,0:0:0:50:Splash.wav
64,192,50593,1,2,0:0:0:0:
192,192,50593,1,0,0:0:0:0:
320,192,50758,1,8,0:0:0:0:
448,192,50758,1,0,0:0:0:0:
64,192,50923,1,0,0:0:0:0:
448,192,50923,1,0,0:0:0:0:
192,192,51088,1,2,0:0:0:0:
320,192,51253,1,2,0:0:0:0:
448,192,51253,1,0,0:0:0:0:
192,192,51417,1,8,0:0:0:0:
448,192,51417,1,0,0:0:0:0:
320,192,51582,1,0,0:0:0:0:
448,192,51582,1,0,0:0:0:0:
64,192,51747,1,2,0:0:0:0:
64,192,51912,1,2,0:0:0:0:
320,192,52077,1,8,0:0:0:0:
448,192,52077,1,0,0:0:0:0:
192,192,52242,1,0,0:0:0:0:
64,192,52406,1,2,0:0:0:0:
448,192,52406,1,0,0:0:0:0:
64,192,52571,1,2,0:0:0:0:
448,192,52571,1,0,0:0:0:0:
192,192,52736,1,8,0:0:0:0:
320,192,52736,1,0,0:0:0:0:
320,192,52901,128,2,53148:0:0:0:0:
448,192,52901,1,0,0:0:0:50:HHOpen.wav
320,192,53231,1,2,0:0:0:0:
448,192,53231,1,0,0:0:0:50:HHOpen.wav
64,192,53395,1,8,0:0:0:0:
192,192,53395,1,0,0:0:0:0:
64,192,53560,1,2,0:0:0:0:
320,192,53560,128,0,53808:0:0:0:50:HHOpen.wav
320,192,53890,1,2,0:0:0:0:
448,192,53890,1,0,0:0:0:50:HHOpen.wav
64,192,54055,1,8,0:0:0:0:
192,192,54055,1,0,0:0:0:0:
192,192,54220,1,2,0:0:0:0:
320,192,54220,128,0,54467:0:0:0:50:HHOpen.wav
64,192,54549,1,2,0:0:0:0:
320,192,54549,1,0,0:0:0:50:HHOpen.wav
192,192,54714,1,8,0:0:0:0:
448,192,54714,1,0,0:0:0:0:
64,192,54879,1,0,0:0:0:50:Splash.wav
192,192,54879,128,0,55126:0:0:0:0:
320,192,55044,1,0,0:0:0:50:tom1.wav
192,192,55209,1,0,0:0:0:50:tom2.wav
448,192,55209,1,0,0:0:0:0:
64,192,55373,1,0,0:0:0:50:tom3.wav
64,192,55538,1,2,0:0:0:0:
320,192,55538,1,4,0:0:0:0:
448,192,55538,1,0,0:0:0:0:
192,192,55868,1,2,0:0:0:0:
448,192,55868,1,0,0:0:0:0:
192,192,56033,1,8,0:0:0:0:
320,192,56033,1,0,0:0:0:0:
64,192,56198,1,0,0:0:0:0:
320,192,56198,1,0,0:0:0:0:
192,192,56362,1,2,0:0:0:0:
64,192,56527,1,2,0:0:0:0:
320,192,56527,1,0,0:0:0:0:
64,192,56692,1,8,0:0:0:0:
192,192,56692,1,0,0:0:0:0:
320,192,56857,1,0,0:0:0:0:
448,192,56857,1,0,0:0:0:0:
64,192,57022,1,2,0:0:0:0:
192,192,57022,1,0,0:0:0:0:
64,192,57187,1,2,0:0:0:0:
320,192,57187,1,0,0:0:0:0:
192,192,57351,1,8,0:0:0:0:
320,192,57351,1,0,0:0:0:0:
192,192,57516,1,0,0:0:0:0:
448,192,57516,1,0,0:0:0:0:
64,192,57681,1,2,0:0:0:0:
320,192,57681,1,0,0:0:0:0:
192,192,57846,1,2,0:0:0:0:
448,192,57846,1,0,0:0:0:0:
320,192,58011,1,8,0:0:0:0:
448,192,58011,1,0,0:0:0:0:
64,192,58176,1,2,0:0:0:0:
192,192,58176,128,0,58340:0:0:0:50:HHOpen.wav
192,192,58505,1,2,0:0:0:0:
448,192,58505,1,0,0:0:0:0:
192,192,58670,1,8,0:0:0:0:
320,192,58670,1,0,0:0:0:0:
64,192,58835,1,0,0:0:0:0:
320,192,58835,1,0,0:0:0:0:
192,192,59000,1,2,0:0:0:0:
64,192,59165,1,2,0:0:0:0:
320,192,59165,1,0,0:0:0:0:
64,192,59329,1,8,0:0:0:0:
192,192,59329,1,0,0:0:0:0:
320,192,59494,1,0,0:0:0:0:
448,192,59494,1,0,0:0:0:0:
64,192,59659,1,2,0:0:0:0:
192,192,59659,1,0,0:0:0:0:
64,192,59824,1,2,0:0:0:0:
192,192,59824,1,0,0:0:0:0:
320,192,59989,1,8,0:0:0:0:
448,192,59989,1,0,0:0:0:0:
64,192,60154,1,8,0:0:0:0:
320,192,60154,1,0,0:0:0:0:
64,192,60319,1,2,0:0:0:0:
448,192,60319,1,0,0:0:0:0:
192,192,60483,1,2,0:0:0:0:
320,192,60648,1,8,0:0:0:0:
448,192,60648,1,0,0:0:0:0:
192,192,60813,1,2,0:0:0:0:
320,192,60813,128,0,60978:0:0:0:50:Splash.wav
320,192,61143,1,2,0:0:0:0:
448,192,61143,1,0,0:0:0:0:
192,192,61308,1,8,0:0:0:0:
448,192,61308,1,0,0:0:0:0:
192,192,61472,1,0,0:0:0:0:
320,192,61472,1,0,0:0:0:0:
320,192,61637,1,2,0:0:0:0:
64,192,61802,1,2,0:0:0:0:
192,192,61802,1,0,0:0:0:0:
320,192,61967,1,8,0:0:0:0:
448,192,61967,1,0,0:0:0:0:
64,192,62132,1,0,0:0:0:0:
192,192,62132,1,0,0:0:0:0:
64,192,62297,1,2,0:0:0:0:
192,192,62461,1,2,0:0:0:0:
64,192,62626,1,8,0:0:0:0:
320,192,62626,1,0,0:0:0:0:
448,192,62791,1,0,0:0:0:0:
64,192,62956,1,2,0:0:0:0:
192,192,62956,1,0,0:0:0:0:
64,192,63121,1,2,0:0:0:0:
448,192,63121,1,0,0:0:0:0:
192,192,63286,1,8,0:0:0:0:
320,192,63286,1,0,0:0:0:0:
320,192,63450,128,2,63698:0:0:0:0:
448,192,63450,1,0,0:0:0:50:HHOpen.wav
320,192,63780,1,2,0:0:0:0:
448,192,63780,1,0,0:0:0:50:HHOpen.wav
64,192,63945,1,8,0:0:0:0:
192,192,63945,1,0,0:0:0:0:
64,192,64110,1,2,0:0:0:0:
320,192,64110,128,0,64357:0:0:0:50:HHOpen.wav
320,192,64439,1,2,0:0:0:0:
448,192,64439,1,0,0:0:0:50:HHOpen.wav
64,192,64604,1,8,0:0:0:0:
192,192,64604,1,0,0:0:0:0:
192,192,64769,1,2,0:0:0:0:
320,192,64769,128,0,65016:0:0:0:50:HHOpen.wav
64,192,65099,1,2,0:0:0:0:
320,192,65099,1,0,0:0:0:50:HHOpen.wav
320,192,65264,1,8,0:0:0:0:
448,192,65264,1,0,0:0:0:0:
64,192,65428,1,2,0:0:0:0:
192,192,65428,128,0,65676:0:0:0:50:HHOpen.wav
192,192,65758,1,2,0:0:0:0:
320,192,65758,1,0,0:0:0:0:
64,192,65923,1,8,0:0:0:0:
448,192,65923,1,0,0:0:0:0:
64,192,66253,1,8,0:0:0:0:
192,192,66253,1,4,0:0:0:0:
448,192,66253,1,0,0:0:0:0:
320,192,66417,1,2,0:0:0:0:
192,192,66582,1,2,0:0:0:0:
192,192,66747,1,8,0:0:0:0:
448,192,66747,1,0,0:0:0:50:HHOpen.wav
320,192,66912,1,2,0:0:0:0:
192,192,67077,1,2,0:0:0:0:
192,192,67242,1,8,0:0:0:0:
448,192,67242,1,0,0:0:0:50:HHOpen.wav
64,192,67406,1,2,0:0:0:0:
320,192,67406,1,0,0:0:0:0:
64,192,67571,1,8,0:0:0:0:
192,192,67571,1,4,0:0:0:0:
320,192,67571,1,0,0:0:0:0:
448,192,67736,1,2,0:0:0:0:
320,192,67901,1,2,0:0:0:0:
192,192,68066,1,8,0:0:0:0:
320,192,68066,1,0,0:0:0:50:HHOpen.wav
192,192,68231,128,2,68560:0:0:0:0:
448,192,68231,1,0,0:0:0:0:
64,192,68395,1,2,0:0:0:0:
64,192,68560,1,8,0:0:0:0:
320,192,68560,128,4,68890:0:0:0:0:
448,192,68560,1,0,0:0:0:0:
64,192,68890,1,2,0:0:0:0:
192,192,68890,1,8,0:0:0:0:
320,192,68972,1,8,0:0:0:0:
448,192,69055,1,8,0:0:0:0:
192,192,69137,1,8,0:0:0:0:
448,192,69220,1,8,0:0:0:0:
64,192,69302,1,8,0:0:0:0:
192,192,69384,1,10,0:0:0:0:
320,192,69384,1,4,0:0:0:0:
448,192,69467,1,8,0:0:0:0:
64,192,69549,1,8,0:0:0:0:
320,192,69632,1,8,0:0:0:0:
64,192,69714,1,8,0:0:0:0:
192,192,69797,1,8,0:0:0:0:
320,192,69879,1,2,0:0:0:0:
448,192,69879,1,0,0:0:0:50:HHOpen.wav
320,192,70044,1,2,0:0:0:0:
448,192,70044,1,0,0:0:0:50:LR_Hat Synth.wav
320,192,70209,1,0,0:0:0:0:
448,192,70209,1,0,0:0:0:0:
192,192,70538,1,0,0:0:0:0:
192,192,70703,128,0,70868:0:0:0:0:
192,192,71033,128,0,71198:0:0:0:0:
320,192,71198,1,8,0:0:0:0:
448,192,71198,1,0,0:0:0:50:tom3.wav
64,192,71362,1,2,0:0:0:0:
192,192,71362,1,4,0:0:0:0:
448,192,71362,128,0,71692:0:0:0:0:
320,192,71527,1,0,0:0:0:0:
64,192,71692,1,2,0:0:0:0:
320,192,71857,1,8,0:0:0:0:
448,192,71857,1,0,0:0:0:0:
192,192,72022,1,0,0:0:0:0:
64,192,72187,1,2,0:0:0:0:
320,192,72187,1,0,0:0:0:0:
320,192,72351,1,2,0:0:0:0:
64,192,72516,1,8,0:0:0:0:
192,192,72516,1,0,0:0:0:0:
64,192,72681,1,2,0:0:0:0:
320,192,72681,128,0,73011:0:0:0:0:
448,192,72846,1,0,0:0:0:0:
64,192,73011,1,2,0:0:0:0:
192,192,73176,1,8,0:0:0:0:
448,192,73176,1,0,0:0:0:0:
320,192,73340,1,0,0:0:0:0:
448,192,73340,1,0,0:0:0:0:
192,192,73505,1,2,0:0:0:0:
192,192,73670,1,2,0:0:0:0:
448,192,73670,1,0,0:0:0:0:
64,192,73835,1,8,0:0:0:0:
320,192,73835,1,0,0:0:0:0:
64,192,74000,128,2,74329:0:0:0:0:
192,192,74000,1,0,0:0:0:0:
448,192,74165,1,0,0:0:0:0:
192,192,74329,1,2,0:0:0:0:
64,192,74494,1,8,0:0:0:0:
320,192,74494,1,0,0:0:0:0:
192,192,74659,1,0,0:0:0:0:
320,192,74659,1,0,0:0:0:0:
448,192,74824,1,2,0:0:0:0:
64,192,74989,1,2,0:0:0:0:
192,192,74989,1,0,0:0:0:0:
320,192,75154,1,8,0:0:0:0:
448,192,75154,1,0,0:0:0:0:
64,192,75319,1,2,0:0:0:0:
192,192,75319,128,0,75483:0:0:0:0:
320,192,75483,1,0,0:0:0:0:
192,192,75566,1,0,0:0:0:0:
64,192,75648,1,2,0:0:0:0:
448,192,75648,1,0,0:0:0:0:
320,192,75813,1,8,0:0:0:0:
448,192,75813,1,0,0:0:0:0:
320,192,75978,1,0,0:0:0:0:
192,192,76143,1,2,0:0:0:0:
448,192,76143,1,0,0:0:0:0:
64,192,76308,1,2,0:0:0:0:
192,192,76308,1,0,0:0:0:0:
320,192,76472,1,8,0:0:0:0:
448,192,76472,1,0,0:0:0:0:
64,192,76637,128,2,76802:0:0:0:0:
192,192,76637,1,4,0:0:0:0:
320,192,76637,1,0,0:0:0:0:
64,192,76967,1,2,0:0:0:0:
320,192,76967,128,0,77132:0:0:0:0:
192,192,77132,1,8,0:0:0:0:
448,192,77132,1,0,0:0:0:0:
192,192,77297,128,0,77626:0:0:0:0:
320,192,77297,1,0,0:0:0:0:
64,192,77461,128,2,77626:0:0:0:0:
448,192,77626,1,2,0:0:0:0:
320,192,77791,1,8,0:0:0:0:
448,192,77791,1,0,0:0:0:0:
64,192,77956,128,2,78121:0:0:0:0:
192,192,77956,1,4,0:0:0:0:
320,192,77956,1,0,0:0:0:0:
64,192,78286,1,2,0:0:0:0:
320,192,78286,128,0,78450:0:0:0:0:
192,192,78450,1,8,0:0:0:0:
448,192,78450,1,0,0:0:0:0:
320,192,78615,1,0,0:0:0:0:
448,192,78615,128,0,78780:0:0:0:0:
192,192,78780,1,2,0:0:0:0:
192,192,78945,1,2,0:0:0:0:
320,192,78945,1,0,0:0:0:0:
64,192,79110,1,8,0:0:0:0:
320,192,79110,1,0,0:0:0:0:
64,192,79275,128,2,79522:0:0:0:0:
192,192,79275,1,0,0:0:0:50:HHOpen.wav
64,192,79604,1,2,0:0:0:0:
448,192,79604,1,0,0:0:0:50:HHOpen.wav
192,192,79769,1,8,0:0:0:0:
320,192,79769,1,0,0:0:0:0:
64,192,79934,128,2,80181:0:0:0:0:
192,192,79934,1,0,0:0:0:50:HHOpen.wav
64,192,80264,1,2,0:0:0:0:
320,192,80264,1,0,0:0:0:50:HHOpen.wav
192,192,80428,1,8,0:0:0:0:
448,192,80428,1,0,0:0:0:0:
320,192,80593,1,2,0:0:0:0:
448,192,80593,128,0,80840:0:0:0:50:HHOpen.wav
192,192,80923,1,2,0:0:0:0:
448,192,80923,1,0,0:0:0:50:HHOpen.wav
192,192,81088,1,8,0:0:0:0:
320,192,81088,1,0,0:0:0:0:
64,192,81253,1,2,0:0:0:0:
320,192,81253,1,4,0:0:0:0:
448,192,81253,128,0,81500:0:0:0:0:
64,192,81582,1,8,0:0:0:0:
448,192,81582,1,0,0:0:0:0:
320,192,81665,1,8,0:0:0:0:
192,192,81747,1,8,0:0:0:0:
448,192,81829,1,8,0:0:0:0:
64,192,81912,128,2,82242:0:0:0:0:
192,192,81912,1,4,0:0:0:0:
320,192,81912,1,0,0:0:0:0:
448,192,82077,1,0,0:0:0:0:
192,192,82242,1,2,0:0:0:0:
320,192,82406,1,8,0:0:0:0:
448,192,82406,1,0,0:0:0:0:
192,192,82571,1,0,0:0:0:0:
64,192,82736,1,2,0:0:0:0:
320,192,82736,1,0,0:0:0:0:
320,192,82901,1,2,0:0:0:0:
64,192,83066,1,8,0:0:0:0:
192,192,83066,1,0,0:0:0:0:
192,192,83231,128,2,83560:0:0:0:0:
448,192,83231,1,0,0:0:0:0:
64,192,83395,1,0,0:0:0:0:
320,192,83560,1,2,0:0:0:0:
192,192,83725,1,8,0:0:0:0:
448,192,83725,1,0,0:0:0:0:
320,192,83890,1,0,0:0:0:0:
448,192,83890,1,0,0:0:0:0:
64,192,84055,1,2,0:0:0:0:
64,192,84220,1,2,0:0:0:0:
448,192,84220,1,0,0:0:0:0:
192,192,84384,1,8,0:0:0:0:
320,192,84384,1,0,0:0:0:0:
64,192,84549,1,2,0:0:0:0:
448,192,84549,128,0,84879:0:0:0:0:
320,192,84714,1,0,0:0:0:0:
192,192,84879,1,2,0:0:0:0:
320,192,85044,1,8,0:0:0:0:
448,192,85044,1,0,0:0:0:0:
192,192,85209,1,0,0:0:0:0:
448,192,85209,1,0,0:0:0:0:
64,192,85373,1,2,0:0:0:0:
64,192,85538,1,2,0:0:0:0:
320,192,85538,1,0,0:0:0:0:
192,192,85703,1,8,0:0:0:0:
448,192,85703,1,0,0:0:0:0:
320,192,85868,128,2,86033:0:0:0:0:
448,192,85868,1,0,0:0:0:0:
64,192,86033,1,0,0:0:0:0:
320,192,86115,1,0,0:0:0:0:
64,192,86198,1,2,0:0:0:0:
192,192,86198,1,0,0:0:0:0:
320,192,86362,1,8,0:0:0:0:
448,192,86362,1,0,0:0:0:0:
448,192,86527,1,0,0:0:0:0:
64,192,86692,1,2,0:0:0:0:
320,192,86692,1,0,0:0:0:0:
320,192,86857,1,2,0:0:0:0:
448,192,86857,1,0,0:0:0:0:
64,192,87022,1,8,0:0:0:0:
192,192,87022,1,0,0:0:0:0:
64,192,87187,128,2,87351:0:0:0:0:
320,192,87187,1,4,0:0:0:0:
448,192,87187,1,0,0:0:0:0:
64,192,87516,1,2,0:0:0:0:
320,192,87516,128,0,87681:0:0:0:0:
192,192,87681,1,8,0:0:0:0:
448,192,87681,1,0,0:0:0:0:
192,192,87846,128,0,88176:0:0:0:0:
320,192,87846,1,0,0:0:0:0:
64,192,88011,128,2,88176:0:0:0:0:
448,192,88176,1,2,0:0:0:0:
64,192,88340,1,8,0:0:0:0:
192,192,88340,1,0,0:0:0:0:
64,192,88505,128,2,88670:0:0:0:0:
320,192,88505,1,4,0:0:0:0:
448,192,88505,1,0,0:0:0:0:
64,192,88835,1,2,0:0:0:0:
320,192,88835,128,0,89000:0:0:0:0:
192,192,89000,1,8,0:0:0:0:
448,192,89000,1,0,0:0:0:0:
192,192,89165,128,0,89494:0:0:0:0:
320,192,89165,1,0,0:0:0:0:
64,192,89329,128,2,89494:0:0:0:0:
448,192,89494,1,2,0:0:0:0:
64,192,89659,1,8,0:0:0:0:
192,192,89659,1,0,0:0:0:0:
192,192,89824,1,2,0:0:0:0:
320,192,89824,128,0,90071:0:0:0:50:HHOpen.wav
64,192,90154,128,2,90319:0:0:0:0:
320,192,90154,1,0,0:0:0:50:HHOpen.wav
192,192,90319,1,8,0:0:0:0:
448,192,90319,1,0,0:0:0:0:
320,192,90483,128,2,90731:0:0:0:0:
448,192,90483,1,0,0:0:0:50:HHOpen.wav
64,192,90813,128,2,90978:0:0:0:0:
320,192,90813,1,0,0:0:0:50:HHOpen.wav
192,192,90978,1,8,0:0:0:0:
448,192,90978,1,0,0:0:0:0:
64,192,91143,1,2,0:0:0:0:
448,192,91143,128,0,91390:0:0:0:50:HHOpen.wav
320,192,91472,128,2,91637:0:0:0:0:
448,192,91472,1,0,0:0:0:50:HHOpen.wav
64,192,91637,1,8,0:0:0:0:
192,192,91637,1,0,0:0:0:0:
64,192,91802,128,2,92049:0:0:0:0:
320,192,91802,1,0,0:0:0:50:HHOpen.wav
64,192,92132,1,2,0:0:0:0:
448,192,92132,128,0,92461:0:0:0:50:HHOpen.wav
192,192,92297,128,0,92544:0:0:0:0:
64,192,92626,1,2,0:0:0:0:
192,192,92626,1,4,0:0:0:0:
448,192,92626,1,0,0:0:0:0:
192,192,92791,1,2,0:0:0:0:
64,192,92956,1,8,0:0:0:0:
448,192,92956,1,0,0:0:0:50:HHOpen.wav
320,192,93121,1,0,0:0:0:0:
64,192,93203,1,8,0:0:0:0:
320,192,93286,1,2,0:0:0:0:
448,192,93286,1,0,0:0:0:50:HHOpen.wav
192,192,93450,1,2,0:0:0:0:
448,192,93450,1,0,0:0:0:0:
192,192,93615,1,8,0:0:0:0:
320,192,93615,1,0,0:0:0:50:HHOpen.wav
64,192,93780,1,0,0:0:0:0:
320,192,93780,1,0,0:0:0:0:
448,192,93862,1,8,0:0:0:0:
192,192,93945,1,2,0:0:0:0:
192,192,94110,1,2,0:0:0:0:
448,192,94110,1,0,0:0:0:0:
64,192,94275,1,8,0:0:0:0:
320,192,94275,1,0,0:0:0:50:HHOpen.wav
192,192,94439,1,0,0:0:0:0:
448,192,94439,1,0,0:0:0:0:
64,192,94522,1,8,0:0:0:0:
320,192,94604,1,2,0:0:0:0:
448,192,94604,1,0,0:0:0:50:HHOpen.wav
192,192,94769,1,2,0:0:0:0:
320,192,94769,1,0,0:0:0:0:
64,192,94934,1,8,0:0:0:0:
192,192,94934,1,0,0:0:0:0:
64,192,95099,1,2,0:0:0:0:
320,192,95099,128,4,95264:0:0:0:0:
448,192,95099,1,0,0:0:0:0:
320,192,95428,1,2,0:0:0:0:
64,192,95593,1,8,0:0:0:0:
192,192,95593,1,0,0:0:0:50:HHOpen.wav
320,192,95758,1,0,0:0:0:0:
64,192,95840,1,8,0:0:0:0:
320,192,95923,1,2,0:0:0:0:
448,192,95923,1,0,0:0:0:50:HHOpen.wav
192,192,96088,1,2,0:0:0:0:
448,192,96088,1,0,0:0:0:0:
192,192,96253,1,8,0:0:0:0:
320,192,96253,1,0,0:0:0:50:HHOpen.wav
64,192,96417,1,0,0:0:0:0:
320,192,96417,1,0,0:0:0:0:
448,192,96500,1,8,0:0:0:0:
192,192,96582,1,2,0:0:0:0:
64,192,96747,1,2,0:0:0:0:
192,192,96747,1,0,0:0:0:0:
320,192,96912,1,8,0:0:0:0:
448,192,96912,1,0,0:0:0:50:HHOpen.wav
320,192,97077,1,8,0:0:0:0:
448,192,97077,1,0,0:0:0:0:
64,192,97242,1,2,0:0:0:0:
192,192,97242,1,0,0:0:0:50:HHOpen.wav
64,192,97406,1,2,0:0:0:0:
320,192,97406,1,0,0:0:0:0:
320,192,97571,1,8,0:0:0:0:
448,192,97571,1,0,0:0:0:0:
64,192,97736,128,2,97901:0:0:0:0:
192,192,97736,1,4,0:0:0:0:
448,192,97736,1,0,0:0:0:0:
64,192,98066,1,2,0:0:0:0:
192,192,98231,1,8,0:0:0:0:
448,192,98231,1,0,0:0:0:50:HHOpen.wav
320,192,98395,1,0,0:0:0:0:
64,192,98478,1,8,0:0:0:0:
320,192,98560,1,2,0:0:0:0:
448,192,98560,1,0,0:0:0:50:HHOpen.wav
192,192,98725,1,2,0:0:0:0:
448,192,98725,1,0,0:0:0:0:
192,192,98890,1,8,0:0:0:0:
320,192,98890,1,0,0:0:0:50:HHOpen.wav
64,192,99055,1,0,0:0:0:0:
320,192,99055,1,0,0:0:0:0:
448,192,99137,1,8,0:0:0:0:
192,192,99220,1,2,0:0:0:0:
192,192,99384,1,2,0:0:0:0:
448,192,99384,1,0,0:0:0:0:
64,192,99549,1,8,0:0:0:0:
320,192,99549,1,0,0:0:0:50:HHOpen.wav
320,192,99714,1,0,0:0:0:0:
448,192,99714,1,0,0:0:0:0:
64,192,99797,1,8,0:0:0:0:
192,192,99879,1,2,0:0:0:0:
448,192,99879,1,0,0:0:0:50:HHOpen.wav
64,192,100044,1,2,0:0:0:0:
320,192,100044,1,0,0:0:0:0:
192,192,100209,1,8,0:0:0:0:
448,192,100209,1,0,0:0:0:0:
64,192,100373,128,2,100621:0:0:0:0:
448,192,100373,1,0,0:0:0:50:HHOpen.wav
64,192,100703,128,2,100868:0:0:0:0:
192,192,100703,1,0,0:0:0:50:HHOpen.wav
320,192,100868,1,8,0:0:0:0:
448,192,100868,1,0,0:0:0:0:
64,192,101033,128,2,101280:0:0:0:0:
320,192,101033,1,0,0:0:0:50:HHOpen.wav
64,192,101362,128,2,101527:0:0:0:0:
192,192,101362,1,0,0:0:0:50:HHOpen.wav
320,192,101527,1,8,0:0:0:0:
448,192,101527,1,0,0:0:0:0:
192,192,101692,1,2,0:0:0:0:
448,192,101692,128,0,101939:0:0:0:50:HHOpen.wav
320,192,102022,1,2,0:0:0:0:
448,192,102022,128,0,102187:0:0:0:50:HHOpen.wav
64,192,102187,1,8,0:0:0:0:
192,192,102187,1,0,0:0:0:0:
192,192,102351,128,2,102681:0:0:0:0:
320,192,102351,1,4,0:0:0:0:
448,192,102351,1,0,0:0:0:0:
64,192,102681,1,8,0:0:0:0:
448,192,102681,1,0,0:0:0:0:
320,192,102764,1,8,0:0:0:0:
192,192,102846,1,8,0:0:0:0:
448,192,102928,1,8,0:0:0:0:
64,192,103011,1,2,0:0:0:0:
192,192,103011,1,4,0:0:0:0:
320,192,103011,128,0,103176:0:0:0:0:
320,192,103340,1,2,0:0:0:0:
64,192,103505,1,8,0:0:0:0:
448,192,103505,1,0,0:0:0:50:HHOpen.wav
320,192,103670,1,0,0:0:0:0:
64,192,103753,1,8,0:0:0:0:
320,192,103835,1,2,0:0:0:0:
448,192,103835,1,0,0:0:0:50:HHOpen.wav
192,192,104000,1,2,0:0:0:0:
448,192,104000,1,0,0:0:0:0:
192,192,104165,1,8,0:0:0:0:
320,192,104165,1,0,0:0:0:50:HHOpen.wav
64,192,104329,1,0,0:0:0:0:
320,192,104329,1,0,0:0:0:0:
448,192,104412,1,8,0:0:0:0:
192,192,104494,1,2,0:0:0:0:
192,192,104659,1,2,0:0:0:0:
320,192,104659,1,0,0:0:0:0:
64,192,104824,1,8,0:0:0:0:
448,192,104824,1,0,0:0:0:50:HHOpen.wav
320,192,104989,1,0,0:0:0:0:
64,192,105071,1,8,0:0:0:0:
320,192,105154,1,2,0:0:0:0:
448,192,105154,1,0,0:0:0:50:HHOpen.wav
192,192,105319,1,2,0:0:0:0:
448,192,105319,1,0,0:0:0:0:
64,192,105483,1,8,0:0:0:0:
320,192,105483,1,0,0:0:0:0:
64,192,105648,1,2,0:0:0:0:
192,192,105648,128,4,105813:0:0:0:0:
448,192,105648,1,0,0:0:0:0:
192,192,105978,1,2,0:0:0:0:
64,192,106143,1,8,0:0:0:0:
448,192,106143,1,0,0:0:0:50:HHOpen.wav
320,192,106308,1,0,0:0:0:0:
64,192,106390,1,8,0:0:0:0:
320,192,106472,1,2,0:0:0:0:
448,192,106472,1,0,0:0:0:50:HHOpen.wav
192,192,106637,1,2,0:0:0:0:
448,192,106637,1,0,0:0:0:0:
192,192,106802,1,8,0:0:0:0:
320,192,106802,1,0,0:0:0:50:HHOpen.wav
64,192,106967,1,0,0:0:0:0:
320,192,106967,1,0,0:0:0:0:
448,192,107049,1,8,0:0:0:0:
192,192,107132,1,2,0:0:0:0:
64,192,107297,1,2,0:0:0:0:
192,192,107297,1,0,0:0:0:0:
320,192,107461,1,8,0:0:0:0:
448,192,107461,1,0,0:0:0:50:HHOpen.wav
320,192,107626,1,8,0:0:0:0:
448,192,107626,1,0,0:0:0:0:
64,192,107791,1,0,0:0:0:50:tom1.wav
192,192,107791,1,0,0:0:0:0:
192,192,107956,1,0,0:0:0:50:tom2.wav
448,192,107956,1,0,0:0:0:0:
64,192,108121,1,0,0:0:0:50:tom3.wav
320,192,108121,1,0,0:0:0:0:
64,192,108286,128,2,108450:0:0:0:0:
192,192,108286,1,4,0:0:0:0:
448,192,108286,1,0,0:0:0:0:
64,192,108615,1,2,0:0:0:0:
192,192,108780,1,8,0:0:0:0:
448,192,108780,1,0,0:0:0:50:HHOpen.wav
192,192,108945,1,0,0:0:0:0:
64,192,109027,1,8,0:0:0:0:
320,192,109110,1,2,0:0:0:0:
448,192,109110,1,0,0:0:0:50:HHOpen.wav
192,192,109275,1,2,0:0:0:0:
448,192,109275,1,0,0:0:0:0:
192,192,109439,1,8,0:0:0:0:
320,192,109439,1,0,0:0:0:50:HHOpen.wav
64,192,109604,1,0,0:0:0:0:
320,192,109604,1,0,0:0:0:0:
448,192,109687,1,8,0:0:0:0:
192,192,109769,1,2,0:0:0:0:
192,192,109934,1,2,0:0:0:0:
448,192,109934,1,0,0:0:0:0:
320,192,110099,1,8,0:0:0:0:
448,192,110099,1,0,0:0:0:50:HHOpen.wav
64,192,110264,1,0,0:0:0:0:
192,192,110264,1,0,0:0:0:0:
448,192,110346,1,8,0:0:0:0:
64,192,110428,1,2,0:0:0:0:
192,192,110428,1,0,0:0:0:50:HHOpen.wav
320,192,110593,1,2,0:0:0:0:
448,192,110593,1,0,0:0:0:0:
64,192,110758,1,8,0:0:0:0:
192,192,110758,1,0,0:0:0:0:
64,192,110923,128,2,111170:0:0:0:0:
320,192,110923,1,0,0:0:0:50:HHOpen.wav
64,192,111253,128,2,111417:0:0:0:0:
192,192,111253,1,0,0:0:0:50:HHOpen.wav
320,192,111417,1,8,0:0:0:0:
448,192,111417,1,0,0:0:0:0:
64,192,111582,128,2,111829:0:0:0:0:
320,192,111582,1,0,0:0:0:50:HHOpen.wav
64,192,111912,128,2,112077:0:0:0:0:
192,192,111912,1,0,0:0:0:50:HHOpen.wav
320,192,112077,1,8,0:0:0:0:
448,192,112077,1,0,0:0:0:0:
192,192,112242,1,2,0:0:0:0:
448,192,112242,128,0,112489:0:0:0:50:HHOpen.wav
64,192,112571,1,2,0:0:0:0:
448,192,112571,128,0,112736:0:0:0:50:HHOpen.wav
192,192,112736,1,8,0:0:0:0:
320,192,112736,1,0,0:0:0:0:
64,192,112901,1,0,0:0:0:50:Splash.wav
192,192,112901,128,0,113066:0:0:0:0:
448,192,113066,1,0,0:0:0:50:tom1.wav
192,192,113148,1,0,0:0:0:0:
320,192,113231,128,0,113395:0:0:0:50:tom2.wav
64,192,113395,1,8,0:0:0:0:
448,192,113395,1,0,0:0:0:50:tom3.wav
64,192,113560,1,2,0:0:0:0:
320,192,113560,1,4,0:0:0:0:
448,192,113560,1,0,0:0:0:0:
320,192,115703,1,8,0:0:0:0:
448,192,115703,1,0,0:0:0:50:tom3.wav
320,192,115868,1,8,0:0:0:0:
448,192,115868,1,0,0:0:0:50:tom3.wav
64,192,116033,1,0,0:0:0:0:
64,192,116198,1,2,0:0:0:0:
192,192,116198,1,4,0:0:0:0:
448,192,116198,1,0,0:0:0:0:
320,192,116527,1,2,0:0:0:0:
448,192,116527,1,0,0:0:0:0:
64,192,116692,1,8,0:0:0:0:
192,192,116692,1,0,0:0:0:0:
192,192,116857,1,0,0:0:0:50:tom3.wav
448,192,116857,1,0,0:0:0:0:
64,192,116939,1,0,0:0:0:50:tom2.wav
320,192,117022,1,2,0:0:0:0:
448,192,117022,1,0,0:0:0:0:
64,192,117187,1,2,0:0:0:0:
320,192,117187,1,0,0:0:0:0:
192,192,117351,1,8,0:0:0:0:
448,192,117351,1,0,0:0:0:0:
64,192,117516,1,0,0:0:0:50:tom3.wav
320,192,117516,1,0,0:0:0:0:
448,192,117599,1,0,0:0:0:50:tom2.wav
64,192,117681,1,2,0:0:0:0:
192,192,117681,1,0,0:0:0:0:
64,192,117846,1,2,0:0:0:0:
192,192,117846,1,0,0:0:0:0:
320,192,118011,1,8,0:0:0:0:
448,192,118011,1,0,0:0:0:0:
64,192,118176,1,0,0:0:0:50:tom3.wav
192,192,118176,1,0,0:0:0:0:
448,192,118258,1,0,0:0:0:50:tom2.wav
192,192,118340,1,2,0:0:0:0:
320,192,118340,1,0,0:0:0:0:
320,192,118505,1,2,0:0:0:0:
64,192,118670,1,8,0:0:0:0:
448,192,118670,1,0,0:0:0:0:
64,192,118835,1,2,0:0:0:0:
192,192,118835,1,4,0:0:0:0:
448,192,118835,1,0,0:0:0:0:
192,192,119165,1,2,0:0:0:0:
320,192,119165,1,0,0:0:0:0:
192,192,119329,1,8,0:0:0:0:
448,192,119329,1,0,0:0:0:0:
320,192,119494,1,0,0:0:0:50:tom3.wav
448,192,119494,1,0,0:0:0:0:
64,192,119577,1,0,0:0:0:50:tom2.wav
192,192,119659,1,2,0:0:0:0:
64,192,119824,1,2,0:0:0:0:
192,192,119824,1,0,0:0:0:0:
320,192,119989,1,8,0:0:0:0:
448,192,119989,1,0,0:0:0:0:
320,192,120154,1,0,0:0:0:50:tom3.wav
192,192,120236,1,0,0:0:0:50:tom2.wav
448,192,120319,1,2,0:0:0:0:
448,192,120483,1,2,0:0:0:0:
64,192,120648,1,8,0:0:0:0:
192,192,120648,1,0,0:0:0:0:
320,192,120813,1,0,0:0:0:50:tom3.wav
64,192,120895,1,0,0:0:0:50:tom2.wav
192,192,120978,1,2,0:0:0:0:
320,192,120978,1,0,0:0:0:0:
64,192,121143,1,2,0:0:0:0:
192,192,121143,1,0,0:0:0:0:
320,192,121308,1,8,0:0:0:0:
448,192,121308,1,0,0:0:0:0:
192,192,121472,128,2,121720:0:0:0:0:
448,192,121472,1,0,0:0:0:50:HHOpen.wav
64,192,121802,1,2,0:0:0:0:
192,192,121802,128,0,121967:0:0:0:50:HHOpen.wav
320,192,121967,1,8,0:0:0:0:
448,192,121967,1,0,0:0:0:0:
192,192,122132,128,2,122379:0:0:0:0:
448,192,122132,1,0,0:0:0:50:HHOpen.wav
64,192,122461,1,2,0:0:0:0:
192,192,122461,128,0,122626:0:0:0:50:HHOpen.wav
320,192,122626,1,8,0:0:0:0:
448,192,122626,1,0,0:0:0:0:
320,192,122791,128,2,123038:0:0:0:0:
448,192,122791,1,0,0:0:0:50:HHOpen.wav
320,192,123121,128,2,123286:0:0:0:0:
448,192,123121,1,0,0:0:0:50:HHOpen.wav
64,192,123286,1,8,0:0:0:0:
192,192,123286,1,0,0:0:0:0:
64,192,123450,1,2,0:0:0:0:
320,192,123450,128,0,123698:0:0:0:50:HHOpen.wav
320,192,123780,128,2,123945:0:0:0:0:
448,192,123780,1,0,0:0:0:50:HHOpen.wav
64,192,123945,1,8,0:0:0:0:
192,192,123945,1,0,0:0:0:0:
64,192,124110,1,4,0:0:0:0:
320,192,124110,1,2,0:0:0:0:
448,192,124110,1,0,0:0:0:0:
192,192,124439,1,0,0:0:0:0:
320,192,124604,1,0,0:0:0:0:
448,192,124769,1,0,0:0:0:0:
320,192,124934,1,0,0:0:0:0:
192,192,125099,1,0,0:0:0:0:
448,192,125264,1,0,0:0:0:0:
64,192,125428,1,0,0:0:0:0:
320,192,125593,1,0,0:0:0:50:LR_Drum Whistle.wav
320,192,125758,1,0,0:0:0:50:LR_Drum Whistle.wav
64,192,125923,128,0,126253:0:0:0:50:Splash.wav
448,192,126088,1,0,0:0:0:0:
192,192,126253,1,0,0:0:0:50:tom3.wav
320,192,126253,1,0,0:0:0:0:
192,192,126417,1,0,0:0:0:50:tom3.wav
448,192,126417,1,0,0:0:0:0:
192,192,126582,1,0,0:0:0:50:tom3.wav
64,192,126747,1,2,0:0:0:0:
320,192,126747,128,4,126912:0:0:0:0:
448,192,126747,1,0,0:0:0:0:
320,192,127077,1,2,0:0:0:0:
192,192,127242,1,8,0:0:0:0:
448,192,127242,1,0,0:0:0:50:HHOpen.wav
64,192,127406,1,0,0:0:0:0:
320,192,127406,1,0,0:0:0:0:
448,192,127489,1,8,0:0:0:0:
64,192,127571,1,2,0:0:0:0:
192,192,127571,1,0,0:0:0:50:HHOpen.wav
192,192,127736,1,2,0:0:0:0:
448,192,127736,1,0,0:0:0:0:
320,192,127901,1,8,0:0:0:0:
448,192,127901,1,0,0:0:0:50:HHOpen.wav
320,192,128066,1,0,0:0:0:0:
192,192,128148,1,8,0:0:0:0:
64,192,128231,1,2,0:0:0:0:
448,192,128231,1,0,0:0:0:50:HHOpen.wav
64,192,128395,1,2,0:0:0:0:
320,192,128395,1,0,0:0:0:0:
320,192,128560,1,8,0:0:0:0:
448,192,128560,1,0,0:0:0:50:HHOpen.wav
64,192,128725,1,0,0:0:0:0:
192,192,128725,1,0,0:0:0:0:
448,192,128808,1,8,0:0:0:0:
64,192,128890,1,2,0:0:0:0:
320,192,128890,1,0,0:0:0:50:HHOpen.wav
320,192,129055,1,2,0:0:0:0:
192,192,129220,1,8,0:0:0:0:
320,192,129220,1,0,0:0:0:0:
64,192,129384,1,2,0:0:0:0:
192,192,129384,1,4,0:0:0:0:
448,192,129384,1,0,0:0:0:0:
320,192,129714,1,0,0:0:0:0:
64,192,129879,1,2,0:0:0:0:
448,192,129879,1,8,0:0:0:0:
192,192,130044,1,8,0:0:0:0:
448,192,130126,1,8,0:0:0:0:
192,192,130209,1,10,0:0:0:0:
64,192,130291,1,8,0:0:0:0:
320,192,130373,1,8,0:0:0:0:
192,192,130456,1,8,0:0:0:0:
320,192,130538,1,10,0:0:0:0:
448,192,130621,1,8,0:0:0:0:
192,192,130703,1,8,0:0:0:0:
320,192,130786,1,8,0:0:0:0:
192,192,130868,1,10,0:0:0:0:
448,192,130950,1,8,0:0:0:0:
320,192,131033,1,8,0:0:0:0:
64,192,131115,1,8,0:0:0:0:
192,192,131198,1,10,0:0:0:0:
448,192,131280,1,8,0:0:0:0:
64,192,131362,1,8,0:0:0:0:
320,192,131445,1,8,0:0:0:0:
64,192,131527,1,10,0:0:0:0:
192,192,131610,1,8,0:0:0:0:
320,192,131692,1,8,0:0:0:0:
448,192,131775,1,8,0:0:0:0:
192,192,131857,1,10,0:0:0:0:
320,192,131939,1,8,0:0:0:0:
192,192,132022,1,8,0:0:0:0:
320,192,132104,1,8,0:0:0:0:
64,192,132187,128,2,132351:0:0:0:0:
192,192,132187,128,0,132351:0:0:0:50:HHOpen.wav
64,192,132681,128,2,132846:0:0:0:0:
192,192,132681,128,0,132846:0:0:0:50:HHOpen.wav
448,192,132846,1,0,0:0:0:0:
64,192,133176,128,2,133340:0:0:0:0:
192,192,133176,128,0,133340:0:0:0:50:HHOpen.wav
320,192,133340,1,0,0:0:0:0:
448,192,133505,1,0,0:0:0:0:
192,192,133835,1,0,0:0:0:0:
192,192,134000,128,0,134165:0:0:0:0:
320,192,134165,1,8,0:0:0:0:
448,192,134165,1,0,0:0:0:50:tom3.wav
192,192,134329,128,8,134494:0:0:0:0:
448,192,134329,1,0,0:0:0:50:tom3.wav
64,192,134659,1,2,0:0:0:0:
320,192,134659,1,4,0:0:0:0:
448,192,134659,128,0,134989:0:0:0:0:
192,192,134824,1,0,0:0:0:0:
64,192,134989,1,2,0:0:0:0:
320,192,134989,1,0,0:0:0:0:
320,192,135154,1,8,0:0:0:0:
448,192,135154,1,0,0:0:0:0:
192,192,135319,1,0,0:0:0:0:
448,192,135401,1,8,0:0:0:0:
64,192,135483,1,2,0:0:0:0:
192,192,135483,1,0,0:0:0:0:
64,192,135648,1,2,0:0:0:0:
320,192,135813,1,8,0:0:0:0:
448,192,135813,1,0,0:0:0:0:
64,192,135978,1,2,0:0:0:0:
192,192,135978,128,0,136308:0:0:0:0:
448,192,136143,1,0,0:0:0:0:
320,192,136308,1,2,0:0:0:0:
192,192,136472,1,8,0:0:0:0:
448,192,136472,1,0,0:0:0:0:
320,192,136637,1,0,0:0:0:0:
448,192,136637,1,0,0:0:0:0:
64,192,136802,1,2,0:0:0:0:
192,192,136967,1,2,0:0:0:0:
448,192,136967,1,0,0:0:0:0:
64,192,137132,1,8,0:0:0:0:
192,192,137132,1,0,0:0:0:0:
320,192,137297,128,2,137626:0:0:0:0:
448,192,137297,1,0,0:0:0:0:
64,192,137461,1,0,0:0:0:0:
448,192,137626,1,2,0:0:0:0:
64,192,137791,1,8,0:0:0:0:
192,192,137791,1,0,0:0:0:0:
192,192,137956,1,0,0:0:0:0:
320,192,137956,1,0,0:0:0:0:
64,192,138121,1,2,0:0:0:0:
64,192,138286,1,2,0:0:0:0:
320,192,138286,1,0,0:0:0:0:
320,192,138450,1,8,0:0:0:0:
448,192,138450,1,0,0:0:0:0:
64,192,138615,128,2,138780:0:0:0:0:
192,192,138615,1,0,0:0:0:0:
448,192,138780,1,0,0:0:0:0:
64,192,138862,1,0,0:0:0:0:
320,192,138945,1,2,0:0:0:0:
448,192,138945,1,0,0:0:0:0:
64,192,139110,1,8,0:0:0:0:
192,192,139110,1,0,0:0:0:0:
448,192,139275,1,0,0:0:0:0:
64,192,139439,1,2,0:0:0:0:
320,192,139439,1,0,0:0:0:0:
192,192,139604,1,2,0:0:0:0:
320,192,139604,1,0,0:0:0:0:
192,192,139769,1,8,0:0:0:0:
448,192,139769,1,0,0:0:0:0:
64,192,139934,128,2,140099:0:0:0:0:
320,192,139934,1,4,0:0:0:0:
448,192,139934,1,0,0:0:0:0:
64,192,140264,1,2,0:0:0:0:
448,192,140264,128,0,140428:0:0:0:0:
192,192,140428,1,8,0:0:0:0:
320,192,140428,1,0,0:0:0:0:
320,192,140593,128,0,140923:0:0:0:0:
64,192,140758,128,2,140923:0:0:0:0:
192,192,140923,1,2,0:0:0:0:
320,192,141088,1,8,0:0:0:0:
448,192,141088,1,0,0:0:0:0:
64,192,141253,128,2,141417:0:0:0:0:
192,192,141253,1,4,0:0:0:0:
320,192,141253,1,0,0:0:0:0:
192,192,141582,128,2,141747:0:0:0:0:
448,192,141582,1,0,0:0:0:0:
64,192,141747,1,8,0:0:0:0:
320,192,141747,1,0,0:0:0:0:
320,192,141912,1,0,0:0:0:0:
448,192,141912,128,0,142077:0:0:0:0:
64,192,142077,1,2,0:0:0:0:
64,192,142242,1,2,0:0:0:0:
320,192,142242,1,0,0:0:0:0:
320,192,142406,1,8,0:0:0:0:
448,192,142406,1,0,0:0:0:0:
64,192,142571,128,2,142819:0:0:0:0:
192,192,142571,1,0,0:0:0:50:HHOpen.wav
64,192,142901,1,2,0:0:0:0:
448,192,142901,1,0,0:0:0:50:HHOpen.wav
320,192,143066,1,8,0:0:0:0:
448,192,143066,1,0,0:0:0:0:
64,192,143231,128,2,143478:0:0:0:0:
192,192,143231,1,0,0:0:0:50:HHOpen.wav
64,192,143560,1,2,0:0:0:0:
320,192,143560,1,0,0:0:0:50:HHOpen.wav
192,192,143725,1,8,0:0:0:0:
448,192,143725,1,0,0:0:0:0:
320,192,143890,1,2,0:0:0:0:
448,192,143890,128,0,144137:0:0:0:50:HHOpen.wav
64,192,144220,1,2,0:0:0:0:
448,192,144220,1,0,0:0:0:50:HHOpen.wav
192,192,144384,1,8,0:0:0:0:
320,192,144384,1,0,0:0:0:0:
64,192,144549,1,2,0:0:0:0:
192,192,144549,1,4,0:0:0:0:
448,192,144549,128,0,144797:0:0:0:0:
64,192,144879,1,8,0:0:0:0:
448,192,144879,1,0,0:0:0:0:
320,192,144961,1,8,0:0:0:0:
192,192,145044,1,8,0:0:0:0:
448,192,145126,1,8,0:0:0:0:
64,192,145209,128,2,145538:0:0:0:0:
192,192,145209,1,4,0:0:0:0:
320,192,145209,1,0,0:0:0:0:
448,192,145373,1,0,0:0:0:0:
192,192,145538,1,2,0:0:0:0:
64,192,145703,1,8,0:0:0:0:
448,192,145703,1,0,0:0:0:0:
320,192,145868,1,0,0:0:0:0:
64,192,146033,1,2,0:0:0:0:
448,192,146033,1,0,0:0:0:0:
64,192,146198,1,2,0:0:0:0:
320,192,146362,1,8,0:0:0:0:
448,192,146362,1,0,0:0:0:0:
192,192,146527,1,2,0:0:0:0:
320,192,146527,128,0,146857:0:0:0:0:
64,192,146692,1,0,0:0:0:0:
448,192,146857,1,2,0:0:0:0:
192,192,147022,1,8,0:0:0:0:
320,192,147022,1,0,0:0:0:0:
192,192,147187,1,0,0:0:0:0:
448,192,147187,1,0,0:0:0:0:
320,192,147351,1,2,0:0:0:0:
64,192,147516,1,2,0:0:0:0:
192,192,147516,1,0,0:0:0:0:
320,192,147681,1,8,0:0:0:0:
448,192,147681,1,0,0:0:0:0:
64,192,147846,1,2,0:0:0:0:
192,192,147846,128,0,148176:0:0:0:0:
320,192,148176,1,2,0:0:0:0:
64,192,148340,1,8,0:0:0:0:
448,192,148340,1,0,0:0:0:0:
192,192,148505,1,0,0:0:0:0:
448,192,148505,1,0,0:0:0:0:
320,192,148670,1,2,0:0:0:0:
192,192,148835,1,2,0:0:0:0:
448,192,148835,1,0,0:0:0:0:
64,192,149000,1,8,0:0:0:0:
192,192,149000,1,0,0:0:0:0:
320,192,149165,1,2,0:0:0:0:
448,192,149165,128,0,149329:0:0:0:0:
64,192,149329,1,0,0:0:0:0:
448,192,149412,1,0,0:0:0:0:
64,192,149494,1,2,0:0:0:0:
192,192,149494,1,0,0:0:0:0:
320,192,149659,1,8,0:0:0:0:
448,192,149659,1,0,0:0:0:0:
192,192,149824,1,0,0:0:0:0:
64,192,149989,1,2,0:0:0:0:
320,192,149989,1,0,0:0:0:0:
320,192,150154,1,2,0:0:0:0:
448,192,150154,1,0,0:0:0:0:
64,192,150319,1,8,0:0:0:0:
448,192,150319,1,0,0:0:0:0:
64,192,150483,128,2,150648:0:0:0:0:
192,192,150483,1,4,0:0:0:0:
320,192,150483,1,0,0:0:0:0:
64,192,150813,1,2,0:0:0:0:
448,192,150813,128,0,150978:0:0:0:0:
192,192,150978,1,8,0:0:0:0:
320,192,150978,1,0,0:0:0:0:
320,192,151143,128,0,151472:0:0:0:0:
64,192,151308,128,2,151472:0:0:0:0:
192,192,151472,1,2,0:0:0:0:
320,192,151637,1,8,0:0:0:0:
448,192,151637,1,0,0:0:0:0:
64,192,151802,128,2,151967:0:0:0:0:
192,192,151802,1,4,0:0:0:0:
320,192,151802,1,0,0:0:0:0:
64,192,152132,1,2,0:0:0:0:
448,192,152132,128,0,152297:0:0:0:0:
192,192,152297,1,8,0:0:0:0:
320,192,152297,1,0,0:0:0:0:
320,192,152461,128,0,152791:0:0:0:0:
64,192,152626,128,2,152791:0:0:0:0:
192,192,152791,1,2,0:0:0:0:
320,192,152956,1,8,0:0:0:0:
448,192,152956,1,0,0:0:0:0:
192,192,153121,128,2,153368:0:0:0:0:
320,192,153121,1,0,0:0:0:50:HHOpen.wav
64,192,153450,128,2,153615:0:0:0:0:
192,192,153450,1,0,0:0:0:50:HHOpen.wav
320,192,153615,1,8,0:0:0:0:
448,192,153615,1,0,0:0:0:0:
192,192,153780,128,2,154027:0:0:0:0:
448,192,153780,1,0,0:0:0:50:HHOpen.wav
64,192,154110,128,2,154275:0:0:0:0:
192,192,154110,1,0,0:0:0:50:HHOpen.wav
320,192,154275,1,8,0:0:0:0:
448,192,154275,1,0,0:0:0:0:
192,192,154439,1,2,0:0:0:0:
448,192,154439,128,0,154687:0:0:0:50:HHOpen.wav
320,192,154769,128,2,154934:0:0:0:0:
448,192,154769,1,0,0:0:0:50:HHOpen.wav
64,192,154934,1,8,0:0:0:0:
192,192,154934,1,0,0:0:0:0:
64,192,155099,128,2,155346:0:0:0:0:
320,192,155099,1,0,0:0:0:50:HHOpen.wav
64,192,155428,1,2,0:0:0:0:
320,192,155428,128,0,155593:0:0:0:50:HHOpen.wav
192,192,155593,1,8,0:0:0:0:
448,192,155593,1,0,0:0:0:0:
64,192,155758,1,2,0:0:0:0:
320,192,155758,1,4,0:0:0:0:
448,192,155758,1,0,0:0:0:0:
64,192,155923,128,0,157736:0:0:0:0:
64,192,157901,1,8,0:0:0:0:
192,192,157901,1,0,0:0:0:50:tom3.wav
64,192,158066,1,8,0:0:0:0:
192,192,158066,1,0,0:0:0:50:tom3.wav
64,192,158395,1,2,0:0:0:0:
320,192,158395,1,4,0:0:0:0:
448,192,158395,128,0,158560:0:0:0:0:
320,192,158725,1,2,0:0:0:0:
448,192,158725,1,0,0:0:0:0:
192,192,158890,1,8,0:0:0:0:
448,192,158890,1,0,0:0:0:0:
64,192,158972,1,0,0:0:0:0:
320,192,159055,1,0,0:0:0:0:
192,192,159220,1,2,0:0:0:0:
448,192,159220,1,0,0:0:0:0:
192,192,159384,1,2,0:0:0:0:
320,192,159467,1,0,0:0:0:0:
64,192,159549,1,8,0:0:0:0:
448,192,159549,1,0,0:0:0:0:
64,192,159714,128,0,159879:0:0:0:0:
192,192,159714,1,0,0:0:0:0:
320,192,159879,1,2,0:0:0:0:
64,192,160044,1,2,0:0:0:0:
320,192,160044,1,0,0:0:0:0:
192,192,160209,1,8,0:0:0:0:
448,192,160209,1,0,0:0:0:0:
320,192,160291,1,0,0:0:0:0:
192,192,160373,1,0,0:0:0:0:
64,192,160456,1,0,0:0:0:0:
320,192,160538,1,2,0:0:0:0:
448,192,160538,1,0,0:0:0:0:
192,192,160621,1,0,0:0:0:0:
320,192,160703,1,2,0:0:0:0:
192,192,160868,1,8,0:0:0:0:
448,192,160868,1,0,0:0:0:0:
64,192,161033,128,2,161198:0:0:0:0:
320,192,161033,1,4,0:0:0:0:
448,192,161033,1,0,0:0:0:0:
64,192,161362,1,2,0:0:0:0:
320,192,161362,1,0,0:0:0:0:
192,192,161527,1,8,0:0:0:0:
448,192,161527,1,0,0:0:0:0:
320,192,161610,1,0,0:0:0:0:
192,192,161692,1,0,0:0:0:0:
64,192,161775,1,0,0:0:0:0:
320,192,161857,1,2,0:0:0:0:
448,192,161857,1,0,0:0:0:0:
192,192,162022,1,2,0:0:0:0:
448,192,162022,1,0,0:0:0:0:
64,192,162187,1,8,0:0:0:0:
320,192,162187,1,0,0:0:0:0:
64,192,162351,128,0,162516:0:0:0:0:
192,192,162351,1,0,0:0:0:0:
320,192,162516,1,2,0:0:0:0:
64,192,162681,1,2,0:0:0:0:
320,192,162681,1,0,0:0:0:0:
192,192,162846,1,8,0:0:0:0:
448,192,162846,1,0,0:0:0:0:
320,192,162928,1,0,0:0:0:0:
64,192,163011,1,0,0:0:0:0:
192,192,163011,1,0,0:0:0:0:
320,192,163176,1,8,0:0:0:0:
448,192,163176,1,0,0:0:0:0:
192,192,163258,1,8,0:0:0:0:
64,192,163340,1,8,0:0:0:0:
320,192,163423,1,8,0:0:0:0:
192,192,163505,1,8,0:0:0:0:
448,192,163588,1,8,0:0:0:0:
64,192,163670,1,2,0:0:0:0:
192,192,163670,128,4,163835:0:0:0:0:
320,192,163670,1,0,0:0:0:0:
64,192,164000,1,2,0:0:0:0:
192,192,164000,1,0,0:0:0:0:
320,192,164082,1,0,0:0:0:0:
192,192,164165,1,8,0:0:0:0:
448,192,164165,1,0,0:0:0:0:
64,192,164329,1,0,0:0:0:0:
192,192,164412,1,0,0:0:0:0:
320,192,164494,1,2,0:0:0:0:
448,192,164494,1,0,0:0:0:0:
192,192,164659,1,2,0:0:0:0:
448,192,164659,1,0,0:0:0:0:
320,192,164742,1,0,0:0:0:0:
64,192,164824,1,8,0:0:0:0:
448,192,164824,1,0,0:0:0:0:
64,192,164989,1,2,0:0:0:0:
192,192,164989,1,0,0:0:0:0:
320,192,165071,1,0,0:0:0:0:
64,192,165154,1,0,0:0:0:0:
320,192,165319,1,2,0:0:0:0:
448,192,165319,1,0,0:0:0:0:
192,192,165401,1,0,0:0:0:0:
320,192,165483,1,8,0:0:0:0:
448,192,165483,1,0,0:0:0:0:
64,192,165648,1,0,0:0:0:0:
320,192,165731,1,0,0:0:0:0:
64,192,165813,1,2,0:0:0:0:
192,192,165813,1,0,0:0:0:0:
192,192,165978,1,2,0:0:0:0:
448,192,165978,1,0,0:0:0:0:
320,192,166143,1,8,0:0:0:0:
448,192,166143,1,0,0:0:0:0:
192,192,166308,128,2,166555:0:0:0:0:
320,192,166308,1,0,0:0:0:50:HHOpen.wav
64,192,166637,128,2,166802:0:0:0:0:
192,192,166637,1,0,0:0:0:50:HHOpen.wav
320,192,166802,1,8,0:0:0:0:
448,192,166802,1,0,0:0:0:0:
64,192,166967,1,2,0:0:0:0:
320,192,166967,128,0,167214:0:0:0:50:HHOpen.wav
192,192,167297,128,2,167461:0:0:0:0:
320,192,167297,1,0,0:0:0:50:HHOpen.wav
64,192,167461,1,8,0:0:0:0:
448,192,167461,1,0,0:0:0:0:
192,192,167626,1,2,0:0:0:0:
448,192,167626,128,0,167873:0:0:0:50:HHOpen.wav
320,192,167956,128,2,168121:0:0:0:0:
448,192,167956,1,0,0:0:0:50:HHOpen.wav
64,192,168121,1,8,0:0:0:0:
192,192,168121,1,0,0:0:0:0:
192,192,168286,128,2,168450:0:0:0:0:
448,192,168286,1,4,0:0:0:0:
64,192,168615,1,8,0:0:0:0:
192,192,168615,1,0,0:0:0:0:
448,192,168698,1,8,0:0:0:0:
320,192,168780,1,8,0:0:0:0:
192,192,168862,1,8,0:0:0:0:
64,192,168945,1,2,0:0:0:0:
320,192,168945,128,4,169110:0:0:0:0:
448,192,168945,1,0,0:0:0:0:
320,192,169275,1,2,0:0:0:0:
64,192,169357,1,0,0:0:0:0:
320,192,169439,1,8,0:0:0:0:
448,192,169439,1,0,0:0:0:50:HHOpen.wav
192,192,169604,1,0,0:0:0:0:
64,192,169687,1,8,0:0:0:0:
320,192,169769,1,2,0:0:0:0:
448,192,169769,1,0,0:0:0:50:HHOpen.wav
192,192,169934,1,2,0:0:0:0:
448,192,169934,1,0,0:0:0:0:
192,192,170099,1,8,0:0:0:0:
320,192,170099,1,0,0:0:0:50:HHOpen.wav
64,192,170264,1,0,0:0:0:0:
320,192,170264,1,0,0:0:0:0:
448,192,170346,1,8,0:0:0:0:
192,192,170428,1,2,0:0:0:0:
64,192,170593,1,2,0:0:0:0:
320,192,170593,1,0,0:0:0:0:
320,192,170758,1,8,0:0:0:0:
448,192,170758,1,0,0:0:0:50:HHOpen.wav
64,192,170923,1,0,0:0:0:0:
192,192,170923,1,0,0:0:0:0:
448,192,171005,1,8,0:0:0:0:
64,192,171088,1,2,0:0:0:0:
192,192,171088,1,0,0:0:0:50:HHOpen.wav
192,192,171253,1,2,0:0:0:0:
320,192,171253,1,0,0:0:0:0:
320,192,171417,1,8,0:0:0:0:
448,192,171417,1,0,0:0:0:0:
64,192,171582,1,2,0:0:0:0:
192,192,171582,1,4,0:0:0:0:
448,192,171582,128,0,171747:0:0:0:0:
448,192,171912,1,2,0:0:0:0:
64,192,172077,1,8,0:0:0:0:
192,192,172077,1,0,0:0:0:50:HHOpen.wav
320,192,172242,1,0,0:0:0:0:
64,192,172324,1,8,0:0:0:0:
320,192,172406,1,2,0:0:0:0:
448,192,172406,1,0,0:0:0:50:HHOpen.wav
192,192,172571,1,2,0:0:0:0:
448,192,172571,1,0,0:0:0:0:
192,192,172736,1,8,0:0:0:0:
320,192,172736,1,0,0:0:0:50:HHOpen.wav
64,192,172901,1,0,0:0:0:0:
320,192,172901,1,0,0:0:0:0:
448,192,172983,1,8,0:0:0:0:
64,192,173066,1,2,0:0:0:0:
192,192,173231,1,2,0:0:0:0:
320,192,173231,1,0,0:0:0:0:
64,192,173395,1,8,0:0:0:0:
320,192,173395,1,0,0:0:0:50:HHOpen.wav
192,192,173560,1,0,0:0:0:0:
448,192,173560,1,0,0:0:0:0:
64,192,173643,1,8,0:0:0:0:
320,192,173725,1,2,0:0:0:0:
448,192,173725,1,0,0:0:0:50:HHOpen.wav
320,192,173890,1,2,0:0:0:0:
448,192,173890,1,0,0:0:0:0:
64,192,174055,1,8,0:0:0:0:
192,192,174055,1,0,0:0:0:0:
64,192,174220,128,2,174384:0:0:0:0:
192,192,174220,1,4,0:0:0:0:
320,192,174220,1,0,0:0:0:0:
64,192,174549,1,2,0:0:0:0:
64,192,174714,1,8,0:0:0:0:
448,192,174714,1,0,0:0:0:50:HHOpen.wav
320,192,174879,1,0,0:0:0:0:
64,192,174961,1,8,0:0:0:0:
320,192,175044,1,2,0:0:0:0:
448,192,175044,1,0,0:0:0:50:HHOpen.wav
192,192,175209,1,2,0:0:0:0:
448,192,175209,1,0,0:0:0:0:
192,192,175373,1,8,0:0:0:0:
320,192,175373,1,0,0:0:0:50:HHOpen.wav
64,192,175538,1,0,0:0:0:0:
320,192,175538,1,0,0:0:0:0:
448,192,175621,1,8,0:0:0:0:
192,192,175703,1,2,0:0:0:0:
320,192,175868,1,2,0:0:0:0:
448,192,175868,1,0,0:0:0:0:
64,192,176033,1,8,0:0:0:0:
192,192,176033,1,0,0:0:0:50:HHOpen.wav
320,192,176198,1,0,0:0:0:0:
448,192,176198,1,0,0:0:0:0:
64,192,176280,1,8,0:0:0:0:
320,192,176362,1,2,0:0:0:0:
448,192,176362,1,0,0:0:0:50:HHOpen.wav
192,192,176527,1,2,0:0:0:0:
320,192,176527,1,0,0:0:0:0:
64,192,176692,1,8,0:0:0:0:
192,192,176692,1,0,0:0:0:0:
64,192,176857,1,2,0:0:0:0:
320,192,176857,128,0,177104:0:0:0:50:HHOpen.wav
448,192,176857,1,0,0:0:0:0:
320,192,177187,128,2,177351:0:0:0:0:
448,192,177187,1,0,0:0:0:50:HHOpen.wav
64,192,177351,1,8,0:0:0:0:
192,192,177351,1,0,0:0:0:0:
192,192,177516,128,2,177764:0:0:0:0:
448,192,177516,1,0,0:0:0:50:HHOpen.wav
64,192,177846,1,2,0:0:0:0:
192,192,177846,128,0,178011:0:0:0:50:HHOpen.wav
320,192,178011,1,8,0:0:0:0:
448,192,178011,1,0,0:0:0:0:
64,192,178176,1,2,0:0:0:0:
448,192,178176,128,0,178423:0:0:0:50:HHOpen.wav
320,192,178505,128,2,178670:0:0:0:0:
448,192,178505,1,0,0:0:0:50:HHOpen.wav
64,192,178670,1,8,0:0:0:0:
192,192,178670,1,0,0:0:0:0:
192,192,178835,128,2,179082:0:0:0:0:
320,192,178835,1,0,0:0:0:50:HHOpen.wav
192,192,179165,1,2,0:0:0:0:
448,192,179165,128,0,179494:0:0:0:50:HHOpen.wav
320,192,179329,128,0,179494:0:0:0:0:
64,192,179659,1,2,0:0:0:0:
320,192,179659,1,0,0:0:0:50:Splash.wav
448,192,179659,1,0,0:0:0:0:
192,192,179824,1,2,0:0:0:0:
64,192,179989,1,0,0:0:0:50:Rim.wav
64,192,180154,1,0,0:0:0:0:
320,192,180154,1,0,0:0:0:0:
192,192,180319,1,0,0:0:0:50:Rim.wav
64,192,180483,1,0,0:0:0:0:
320,192,180648,1,0,0:0:0:50:Rim.wav
448,192,180648,1,0,0:0:0:0:
192,192,180813,1,0,0:0:0:0:
64,192,180978,1,0,0:0:0:50:Rim.wav
192,192,180978,1,0,0:0:0:0:
320,192,181143,1,0,0:0:0:0:
192,192,181308,1,0,0:0:0:50:Rim.wav
448,192,181308,1,0,0:0:0:0:
64,192,181472,1,0,0:0:0:0:
448,192,181472,1,0,0:0:0:0:
320,192,181637,1,0,0:0:0:50:Rim.wav
448,192,181802,1,0,0:0:0:0:
64,192,181967,1,0,0:0:0:50:Rim.wav
192,192,181967,1,0,0:0:0:0:
320,192,182132,1,0,0:0:0:0:
320,192,182297,1,2,0:0:0:0:
448,192,182297,1,0,0:0:0:50:Rim.wav
192,192,182461,1,2,0:0:0:0:
64,192,182626,1,0,0:0:0:50:Rim.wav
64,192,182791,1,0,0:0:0:0:
320,192,182791,1,0,0:0:0:0:
192,192,182956,1,0,0:0:0:50:Rim.wav
64,192,183121,1,0,0:0:0:0:
320,192,183286,1,0,0:0:0:50:Rim.wav
448,192,183286,1,0,0:0:0:0:
192,192,183450,1,0,0:0:0:0:
320,192,183450,1,0,0:0:0:0:
64,192,183615,1,0,0:0:0:50:Rim.wav
192,192,183615,1,0,0:0:0:0:
320,192,183780,1,0,0:0:0:0:
192,192,183945,1,0,0:0:0:50:Rim.wav
448,192,183945,1,0,0:0:0:0:
64,192,184110,1,0,0:0:0:0:
448,192,184110,1,0,0:0:0:0:
320,192,184275,1,0,0:0:0:50:Rim.wav
64,192,184439,1,0,0:0:0:0:
448,192,184439,1,0,0:0:0:0:
192,192,184604,1,0,0:0:0:50:Rim.wav
64,192,184769,1,0,0:0:0:0:
448,192,184769,1,0,0:0:0:0:
64,192,184934,1,2,0:0:0:0:
448,192,184934,1,0,0:0:0:50:Rim.wav
320,192,185099,1,2,0:0:0:0:
192,192,185264,1,0,0:0:0:50:Rim.wav
448,192,185428,1,0,0:0:0:0:
320,192,185593,1,0,0:0:0:50:Rim.wav
192,192,185758,1,0,0:0:0:0:
64,192,185923,1,0,0:0:0:50:Rim.wav
448,192,185923,1,0,0:0:0:0:
320,192,186088,1,0,0:0:0:0:
64,192,186253,1,0,0:0:0:50:Rim.wav
192,192,186253,1,0,0:0:0:0:
448,192,186417,1,0,0:0:0:0:
64,192,186582,1,0,0:0:0:50:Rim.wav
320,192,186582,1,0,0:0:0:0:
64,192,186747,1,0,0:0:0:0:
192,192,186747,1,0,0:0:0:0:
320,192,186912,1,0,0:0:0:50:Rim.wav
448,192,187077,1,0,0:0:0:0:
64,192,187242,1,0,0:0:0:50:Rim.wav
192,192,187242,1,0,0:0:0:0:
448,192,187406,1,0,0:0:0:0:
64,192,187571,1,2,0:0:0:0:
320,192,187571,1,0,0:0:0:50:Rim.wav
64,192,187736,1,2,0:0:0:0:
320,192,187901,1,0,0:0:0:50:Rim.wav
192,192,188066,1,2,0:0:0:0:
448,192,188066,1,0,0:0:0:0:
320,192,188231,1,0,0:0:0:50:Rim.wav
448,192,188231,1,0,0:0:0:0:
192,192,188395,1,2,0:0:0:0:
320,192,188560,1,0,0:0:0:50:Rim.wav
64,192,188725,1,0,0:0:0:0:
448,192,188890,1,2,0:0:0:0:
448,192,189055,1,2,0:0:0:0:
64,192,189220,1,0,0:0:0:50:Splash.wav
192,192,189220,128,0,189549:0:0:0:0:
448,192,189549,1,0,0:0:0:0:
320,192,189632,1,0,0:0:0:0:
64,192,189714,1,0,0:0:0:0:
192,192,189797,1,0,0:0:0:0:
320,192,189879,128,0,190209:0:0:0:50:HHOpen.wav
64,192,190209,1,2,0:0:0:0:
192,192,190209,1,4,0:0:0:0:
448,192,190209,1,0,0:0:0:0:
448,192,190373,1,0,0:0:0:0:
64,192,190538,1,2,0:0:0:0:
192,192,190703,1,8,0:0:0:0:
320,192,190703,1,0,0:0:0:0:
192,192,191198,128,0,191527:0:0:0:50:HHOpen.wav
448,192,191198,1,0,0:0:0:0:
64,192,191527,1,2,0:0:0:0:
320,192,191527,1,0,0:0:0:0:
320,192,191857,1,2,0:0:0:0:
192,192,192022,1,8,0:0:0:0:
448,192,192022,1,0,0:0:0:0:
320,192,192516,1,0,0:0:0:50:tom3.wav
448,192,192516,1,0,0:0:0:0:
192,192,192681,1,0,0:0:0:50:tom3.wav
64,192,192846,1,2,0:0:0:0:
320,192,192846,1,4,0:0:0:0:
448,192,192846,1,0,0:0:0:0:
448,192,193011,1,0,0:0:0:0:
64,192,193176,1,2,0:0:0:0:
192,192,193340,1,8,0:0:0:0:
320,192,193340,1,0,0:0:0:0:
320,192,193670,1,0,0:0:0:50:tom1.wav
64,192,193835,1,0,0:0:0:50:tom2.wav
192,192,193835,1,0,0:0:0:0:
192,192,194000,1,0,0:0:0:50:tom3.wav
320,192,194000,1,0,0:0:0:0:
64,192,194165,1,2,0:0:0:0:
320,192,194165,1,4,0:0:0:0:
448,192,194165,1,0,0:0:0:0:
64,192,194494,1,2,0:0:0:0:
320,192,194494,1,0,0:0:0:0:
192,192,194659,1,8,0:0:0:0:
448,192,194659,1,0,0:0:0:0:
320,192,194989,1,8,0:0:0:0:
448,192,194989,1,0,0:0:0:50:LR_CymbalG.wav
320,192,195154,1,8,0:0:0:0:
448,192,195154,1,0,0:0:0:50:LR_CymbalG.wav
192,192,195319,1,0,0:0:0:0:
64,192,195483,1,2,0:0:0:0:
192,192,195483,1,4,0:0:0:0:
448,192,195483,1,0,0:0:0:0:
320,192,195813,1,2,0:0:0:0:
448,192,195813,1,8,0:0:0:0:
192,192,195895,1,8,0:0:0:0:
64,192,195978,1,8,0:0:0:0:
320,192,196060,1,8,0:0:0:0:
448,192,196143,1,10,0:0:0:0:
192,192,196225,1,8,0:0:0:0:
320,192,196308,1,8,0:0:0:0:
64,192,196390,1,8,0:0:0:0:
448,192,196472,1,10,0:0:0:0:
192,192,196555,1,8,0:0:0:0:
448,192,196637,1,8,0:0:0:0:
320,192,196720,1,8,0:0:0:0:
64,192,196802,1,10,0:0:0:0:
320,192,196884,1,8,0:0:0:0:
448,192,196967,1,8,0:0:0:0:
192,192,197049,1,8,0:0:0:0:
64,192,197132,1,10,0:0:0:0:
320,192,197214,1,8,0:0:0:0:
192,192,197297,1,8,0:0:0:0:
64,192,197379,1,8,0:0:0:0:
320,192,197461,1,10,0:0:0:0:
448,192,197544,1,8,0:0:0:0:
192,192,197626,1,8,0:0:0:0:
320,192,197709,1,8,0:0:0:0:
64,192,197791,1,10,0:0:0:0:
448,192,197873,1,8,0:0:0:0:
64,192,197956,1,8,0:0:0:0:
192,192,198038,1,8,0:0:0:0:
448,192,198121,1,10,0:0:0:0:
320,192,198203,1,8,0:0:0:0:
448,192,198286,1,8,0:0:0:0:
64,192,198368,1,8,0:0:0:0:
192,192,198450,1,10,0:0:0:0:
64,192,198533,1,8,0:0:0:0:
448,192,198615,1,8,0:0:0:0:
320,192,198698,1,8,0:0:0:0:
448,192,198780,1,10,0:0:0:0:
64,192,198862,1,8,0:0:0:0:
192,192,198945,1,8,0:0:0:0:
64,192,199027,1,8,0:0:0:0:
320,192,199110,1,10,0:0:0:0:
448,192,199192,1,8,0:0:0:0:
192,192,199275,1,8,0:0:0:0:
320,192,199357,1,8,0:0:0:0:
64,192,199439,1,2,0:0:0:0:
448,192,199439,1,0,0:0:0:50:HHOpen.wav
320,192,199769,1,0,0:0:0:0:
320,192,199934,128,0,200099:0:0:0:0:
320,192,200264,128,0,200428:0:0:0:0:
64,192,200428,1,8,0:0:0:0:
192,192,200428,1,0,0:0:0:50:tom3.wav
64,192,200593,128,2,200923:0:0:0:0:
320,192,200593,1,4,0:0:0:0:
448,192,200593,1,0,0:0:0:0:
192,192,200758,1,0,0:0:0:0:
448,192,200923,1,2,0:0:0:0:
64,192,201088,1,8,0:0:0:0:
320,192,201088,1,0,0:0:0:0:
192,192,201253,1,0,0:0:0:0:
320,192,201417,1,2,0:0:0:0:
448,192,201417,1,0,0:0:0:0:
320,192,201582,1,2,0:0:0:0:
64,192,201747,1,8,0:0:0:0:
192,192,201747,1,0,0:0:0:0:
64,192,201912,1,2,0:0:0:0:
320,192,201912,128,0,202242:0:0:0:0:
448,192,202077,1,0,0:0:0:0:
64,192,202242,1,2,0:0:0:0:
192,192,202242,1,0,0:0:0:0:
192,192,202406,1,8,0:0:0:0:
448,192,202406,1,0,0:0:0:0:
320,192,202571,1,0,0:0:0:0:
448,192,202571,1,0,0:0:0:0:
64,192,202736,1,2,0:0:0:0:
64,192,202901,1,2,0:0:0:0:
192,192,202901,1,0,0:0:0:0:
320,192,203066,1,8,0:0:0:0:
448,192,203066,1,0,0:0:0:0:
64,192,203231,1,2,0:0:0:0:
192,192,203231,128,0,203560:0:0:0:0:
448,192,203395,1,0,0:0:0:0:
64,192,203560,1,2,0:0:0:0:
192,192,203725,1,8,0:0:0:0:
320,192,203725,1,0,0:0:0:0:
192,192,203890,1,0,0:0:0:0:
448,192,203890,1,0,0:0:0:0:
320,192,204055,1,2,0:0:0:0:
64,192,204220,1,2,0:0:0:0:
320,192,204220,1,0,0:0:0:0:
192,192,204384,1,8,0:0:0:0:
448,192,204384,1,0,0:0:0:0:
320,192,204549,1,2,0:0:0:0:
448,192,204549,128,0,204714:0:0:0:0:
64,192,204714,1,0,0:0:0:0:
448,192,204797,1,0,0:0:0:0:
64,192,204879,1,2,0:0:0:0:
192,192,204879,1,0,0:0:0:0:
320,192,205044,1,8,0:0:0:0:
448,192,205044,1,0,0:0:0:0:
192,192,205209,1,0,0:0:0:0:
64,192,205373,1,2,0:0:0:0:
320,192,205373,1,0,0:0:0:0:
320,192,205538,1,2,0:0:0:0:
192,192,205621,1,0,0:0:0:0:
64,192,205703,1,8,0:0:0:0:
448,192,205703,1,0,0:0:0:0:
64,192,205868,128,2,206033:0:0:0:0:
192,192,205868,1,4,0:0:0:0:
320,192,205868,1,0,0:0:0:0:
64,192,206198,1,2,0:0:0:0:
320,192,206198,128,0,206362:0:0:0:0:
192,192,206362,1,8,0:0:0:0:
448,192,206362,1,0,0:0:0:0:
192,192,206527,128,0,206857:0:0:0:0:
64,192,206692,128,2,206857:0:0:0:0:
448,192,206857,1,2,0:0:0:0:
320,192,207022,1,8,0:0:0:0:
448,192,207022,1,0,0:0:0:0:
64,192,207187,128,2,207351:0:0:0:0:
192,192,207187,1,4,0:0:0:0:
320,192,207187,1,0,0:0:0:0:
64,192,207516,1,2,0:0:0:0:
320,192,207516,128,0,207681:0:0:0:0:
192,192,207681,1,8,0:0:0:0:
448,192,207681,1,0,0:0:0:0:
320,192,207846,1,0,0:0:0:0:
448,192,207846,128,0,208011:0:0:0:0:
64,192,208011,1,2,0:0:0:0:
64,192,208176,1,2,0:0:0:0:
448,192,208176,1,0,0:0:0:0:
192,192,208340,1,8,0:0:0:0:
448,192,208340,1,0,0:0:0:0:
64,192,208505,128,2,208753:0:0:0:0:
320,192,208505,1,0,0:0:0:50:HHOpen.wav
64,192,208835,1,2,0:0:0:0:
448,192,208835,1,0,0:0:0:50:HHOpen.wav
320,192,209000,1,8,0:0:0:0:
448,192,209000,1,0,0:0:0:0:
64,192,209165,128,2,209412:0:0:0:0:
192,192,209165,1,0,0:0:0:50:HHOpen.wav
64,192,209494,1,2,0:0:0:0:
320,192,209494,1,0,0:0:0:50:HHOpen.wav
192,192,209659,1,8,0:0:0:0:
320,192,209659,1,0,0:0:0:0:
192,192,209824,1,2,0:0:0:0:
448,192,209824,128,0,210071:0:0:0:50:HHOpen.wav
64,192,210154,1,2,0:0:0:0:
448,192,210154,1,0,0:0:0:50:HHOpen.wav
192,192,210319,1,8,0:0:0:0:
320,192,210319,1,0,0:0:0:0:
64,192,210483,1,2,0:0:0:0:
192,192,210483,1,4,0:0:0:0:
448,192,210483,128,0,210731:0:0:0:0:
64,192,210813,1,8,0:0:0:0:
448,192,210813,1,0,0:0:0:0:
192,192,210895,1,8,0:0:0:0:
320,192,210978,1,8,0:0:0:0:
64,192,211060,1,8,0:0:0:0:
192,192,211143,1,2,0:0:0:0:
320,192,211143,128,4,211472:0:0:0:0:
448,192,211143,1,0,0:0:0:0:
64,192,211308,1,0,0:0:0:0:
448,192,211472,1,2,0:0:0:0:
64,192,211637,1,8,0:0:0:0:
192,192,211637,1,0,0:0:0:0:
448,192,211802,1,0,0:0:0:0:
192,192,211967,1,2,0:0:0:0:
320,192,211967,1,0,0:0:0:0:
320,192,212132,1,2,0:0:0:0:
64,192,212297,1,8,0:0:0:0:
192,192,212297,1,0,0:0:0:0:
192,192,212461,128,2,212791:0:0:0:0:
320,192,212461,1,0,0:0:0:0:
448,192,212626,1,0,0:0:0:0:
64,192,212791,1,2,0:0:0:0:
192,192,212956,1,8,0:0:0:0:
448,192,212956,1,0,0:0:0:0:
320,192,213121,1,0,0:0:0:0:
448,192,213121,1,0,0:0:0:0:
192,192,213286,1,2,0:0:0:0:
192,192,213450,1,2,0:0:0:0:
448,192,213450,1,0,0:0:0:0:
64,192,213615,1,8,0:0:0:0:
320,192,213615,1,0,0:0:0:0:
192,192,213780,1,2,0:0:0:0:
448,192,213780,128,0,214110:0:0:0:0:
320,192,213945,1,0,0:0:0:0:
64,192,214110,1,2,0:0:0:0:
192,192,214275,1,8,0:0:0:0:
320,192,214275,1,0,0:0:0:0:
320,192,214439,1,0,0:0:0:0:
448,192,214439,1,0,0:0:0:0:
64,192,214604,1,2,0:0:0:0:
64,192,214769,1,2,0:0:0:0:
448,192,214769,1,0,0:0:0:0:
192,192,214934,1,8,0:0:0:0:
320,192,214934,1,0,0:0:0:0:
64,192,215099,128,2,215264:0:0:0:0:
448,192,215099,1,0,0:0:0:0:
320,192,215264,1,0,0:0:0:0:
64,192,215346,1,0,0:0:0:0:
320,192,215428,1,2,0:0:0:0:
448,192,215428,1,0,0:0:0:0:
64,192,215593,1,8,0:0:0:0:
192,192,215593,1,0,0:0:0:0:
448,192,215758,1,0,0:0:0:0:
192,192,215923,1,2,0:0:0:0:
320,192,215923,1,0,0:0:0:0:
192,192,216088,1,2,0:0:0:0:
320,192,216088,1,0,0:0:0:0:
320,192,216253,1,8,0:0:0:0:
448,192,216253,1,0,0:0:0:0:
64,192,216417,128,2,216582:0:0:0:0:
192,192,216417,1,4,0:0:0:0:
448,192,216417,1,0,0:0:0:0:
64,192,216747,1,2,0:0:0:0:
320,192,216747,128,0,216912:0:0:0:0:
192,192,216912,1,8,0:0:0:0:
448,192,216912,1,0,0:0:0:0:
192,192,217077,128,0,217406:0:0:0:0:
64,192,217242,128,2,217406:0:0:0:0:
448,192,217406,1,2,0:0:0:0:
64,192,217571,1,8,0:0:0:0:
192,192,217571,1,0,0:0:0:0:
64,192,217736,128,2,217901:0:0:0:0:
320,192,217736,1,4,0:0:0:0:
448,192,217736,1,0,0:0:0:0:
64,192,218066,1,2,0:0:0:0:
320,192,218066,128,0,218231:0:0:0:0:
192,192,218231,1,8,0:0:0:0:
448,192,218231,1,0,0:0:0:0:
192,192,218395,128,0,218725:0:0:0:0:
64,192,218560,128,2,218725:0:0:0:0:
448,192,218560,1,0,0:0:0:0:
64,192,218890,1,8,0:0:0:0:
192,192,218890,1,0,0:0:0:0:
64,192,219055,1,2,0:0:0:0:
448,192,219055,128,0,219302:0:0:0:50:HHOpen.wav
64,192,219384,128,2,219549:0:0:0:0:
448,192,219384,1,0,0:0:0:50:HHOpen.wav
192,192,219549,1,8,0:0:0:0:
320,192,219549,1,0,0:0:0:0:
192,192,219714,1,2,0:0:0:0:
448,192,219714,128,0,219961:0:0:0:50:HHOpen.wav
64,192,220044,128,2,220209:0:0:0:0:
448,192,220044,1,0,0:0:0:50:HHOpen.wav
192,192,220209,1,8,0:0:0:0:
320,192,220209,1,0,0:0:0:0:
320,192,220373,128,2,220621:0:0:0:0:
448,192,220373,1,0,0:0:0:50:HHOpen.wav
192,192,220703,128,2,220868:0:0:0:0:
320,192,220703,1,0,0:0:0:50:HHOpen.wav
64,192,220868,1,8,0:0:0:0:
448,192,220868,1,0,0:0:0:0:
64,192,221033,128,2,221280:0:0:0:0:
192,192,221033,1,0,0:0:0:50:HHOpen.wav
64,192,221362,1,2,0:0:0:0:
448,192,221362,128,0,221527:0:0:0:50:HHOpen.wav
192,192,221527,1,8,0:0:0:0:
320,192,221527,1,0,0:0:0:0:
64,192,221692,1,0,0:0:0:0:
64,192,221857,1,2,0:0:0:0:
320,192,221857,1,4,0:0:0:0:
448,192,221857,1,0,0:0:0:0:
320,192,222022,1,2,0:0:0:0:
64,192,222187,1,8,0:0:0:0:
448,192,222187,1,0,0:0:0:50:HHOpen.wav
320,192,222351,1,0,0:0:0:0:
64,192,222434,1,8,0:0:0:0:
320,192,222516,1,2,0:0:0:0:
448,192,222516,1,0,0:0:0:50:HHOpen.wav
192,192,222681,1,2,0:0:0:0:
448,192,222681,1,0,0:0:0:0:
192,192,222846,1,8,0:0:0:0:
320,192,222846,1,0,0:0:0:50:HHOpen.wav
64,192,223011,1,0,0:0:0:0:
320,192,223011,1,0,0:0:0:0:
448,192,223093,1,8,0:0:0:0:
192,192,223176,1,2,0:0:0:0:
192,192,223340,1,2,0:0:0:0:
448,192,223340,1,0,0:0:0:0:
64,192,223505,1,8,0:0:0:0:
320,192,223505,1,0,0:0:0:50:HHOpen.wav
320,192,223670,1,0,0:0:0:0:
448,192,223670,1,0,0:0:0:0:
64,192,223753,1,8,0:0:0:0:
192,192,223835,1,2,0:0:0:0:
448,192,223835,1,0,0:0:0:50:HHOpen.wav
192,192,224000,1,2,0:0:0:0:
320,192,224000,1,0,0:0:0:0:
64,192,224165,1,8,0:0:0:0:
320,192,224165,1,0,0:0:0:0:
64,192,224329,1,2,0:0:0:0:
192,192,224329,128,4,224494:0:0:0:0:
448,192,224329,1,0,0:0:0:0:
192,192,224659,1,2,0:0:0:0:
64,192,224824,1,8,0:0:0:0:
448,192,224824,1,0,0:0:0:50:HHOpen.wav
320,192,224989,1,0,0:0:0:0:
64,192,225071,1,8,0:0:0:0:
320,192,225154,1,2,0:0:0:0:
448,192,225154,1,0,0:0:0:50:HHOpen.wav
192,192,225319,1,2,0:0:0:0:
448,192,225319,1,0,0:0:0:0:
192,192,225483,1,8,0:0:0:0:
320,192,225483,1,0,0:0:0:50:HHOpen.wav
64,192,225648,1,0,0:0:0:0:
320,192,225648,1,0,0:0:0:0:
448,192,225731,1,8,0:0:0:0:
192,192,225813,1,2,0:0:0:0:
64,192,225978,1,2,0:0:0:0:
192,192,225978,1,0,0:0:0:0:
320,192,226143,1,8,0:0:0:0:
448,192,226143,1,0,0:0:0:50:HHOpen.wav
64,192,226308,1,0,0:0:0:0:
192,192,226308,1,0,0:0:0:0:
320,192,226390,1,8,0:0:0:0:
64,192,226472,1,2,0:0:0:0:
448,192,226472,1,0,0:0:0:50:HHOpen.wav
192,192,226637,1,2,0:0:0:0:
448,192,226637,1,0,0:0:0:0:
192,192,226802,1,8,0:0:0:0:
320,192,226802,1,0,0:0:0:0:
64,192,226967,128,2,227132:0:0:0:0:
320,192,226967,1,4,0:0:0:0:
448,192,226967,1,0,0:0:0:0:
64,192,227297,1,2,0:0:0:0:
192,192,227461,1,8,0:0:0:0:
448,192,227461,1,0,0:0:0:50:HHOpen.wav
320,192,227626,1,0,0:0:0:0:
64,192,227709,1,8,0:0:0:0:
320,192,227791,1,2,0:0:0:0:
448,192,227791,1,0,0:0:0:50:HHOpen.wav
192,192,227956,1,2,0:0:0:0:
448,192,227956,1,0,0:0:0:0:
192,192,228121,1,8,0:0:0:0:
320,192,228121,1,0,0:0:0:50:HHOpen.wav
64,192,228286,1,0,0:0:0:0:
320,192,228286,1,0,0:0:0:0:
448,192,228368,1,8,0:0:0:0:
192,192,228450,1,2,0:0:0:0:
192,192,228615,1,2,0:0:0:0:
448,192,228615,1,0,0:0:0:0:
320,192,228780,1,8,0:0:0:0:
448,192,228780,1,0,0:0:0:50:HHOpen.wav
64,192,228945,1,0,0:0:0:0:
192,192,228945,1,0,0:0:0:0:
448,192,229027,1,8,0:0:0:0:
64,192,229110,1,2,0:0:0:0:
320,192,229110,1,0,0:0:0:50:HHOpen.wav
192,192,229275,1,2,0:0:0:0:
320,192,229275,1,0,0:0:0:0:
192,192,229439,1,8,0:0:0:0:
448,192,229439,1,0,0:0:0:0:
64,192,229604,128,2,229851:0:0:0:0:
448,192,229604,1,0,0:0:0:50:HHOpen.wav
64,192,229934,128,2,230099:0:0:0:0:
192,192,229934,1,0,0:0:0:50:HHOpen.wav
320,192,230099,1,8,0:0:0:0:
448,192,230099,1,0,0:0:0:0:
64,192,230264,128,2,230511:0:0:0:0:
320,192,230264,1,0,0:0:0:50:HHOpen.wav
64,192,230593,128,2,230758:0:0:0:0:
192,192,230593,1,0,0:0:0:50:HHOpen.wav
320,192,230758,1,8,0:0:0:0:
448,192,230758,1,0,0:0:0:0:
64,192,230923,1,2,0:0:0:0:
448,192,230923,128,0,231170:0:0:0:50:HHOpen.wav
320,192,231253,1,2,0:0:0:0:
448,192,231253,128,0,231417:0:0:0:50:HHOpen.wav
64,192,231417,1,8,0:0:0:0:
192,192,231417,1,0,0:0:0:0:
192,192,231582,128,2,231912:0:0:0:0:
320,192,231582,1,4,0:0:0:0:
448,192,231582,1,0,0:0:0:0:
64,192,231912,1,8,0:0:0:0:
448,192,231912,1,0,0:0:0:0:
192,192,231994,1,8,0:0:0:0:
320,192,232077,1,8,0:0:0:0:
64,192,232159,1,8,0:0:0:0:
192,192,232242,128,2,232406:0:0:0:0:
320,192,232242,1,4,0:0:0:0:
448,192,232242,1,0,0:0:0:0:
192,192,232571,1,2,0:0:0:0:
64,192,232736,1,8,0:0:0:0:
448,192,232736,1,0,0:0:0:50:HHOpen.wav
320,192,232901,1,0,0:0:0:0:
64,192,232983,1,8,0:0:0:0:
320,192,233066,1,2,0:0:0:0:
448,192,233066,1,0,0:0:0:50:HHOpen.wav
192,192,233231,1,2,0:0:0:0:
448,192,233231,1,0,0:0:0:0:
192,192,233395,1,8,0:0:0:0:
320,192,233395,1,0,0:0:0:50:HHOpen.wav
64,192,233560,1,0,0:0:0:0:
320,192,233560,1,0,0:0:0:0:
448,192,233643,1,8,0:0:0:0:
192,192,233725,1,2,0:0:0:0:
192,192,233890,1,2,0:0:0:0:
448,192,233890,1,0,0:0:0:0:
320,192,234055,1,8,0:0:0:0:
448,192,234055,1,0,0:0:0:50:HHOpen.wav
64,192,234220,1,0,0:0:0:0:
192,192,234220,1,0,0:0:0:0:
64,192,234384,1,2,0:0:0:0:
448,192,234384,1,0,0:0:0:50:HHOpen.wav
192,192,234549,1,2,0:0:0:0:
448,192,234549,1,0,0:0:0:0:
192,192,234714,1,8,0:0:0:0:
320,192,234714,1,0,0:0:0:0:
64,192,234879,1,2,0:0:0:0:
320,192,234879,128,4,235044:0:0:0:0:
448,192,234879,1,0,0:0:0:0:
320,192,235209,1,2,0:0:0:0:
64,192,235373,1,8,0:0:0:0:
448,192,235373,1,0,0:0:0:50:HHOpen.wav
320,192,235538,1,0,0:0:0:0:
64,192,235621,1,8,0:0:0:0:
320,192,235703,1,2,0:0:0:0:
448,192,235703,1,0,0:0:0:50:HHOpen.wav
192,192,235868,1,2,0:0:0:0:
448,192,235868,1,0,0:0:0:0:
192,192,236033,1,8,0:0:0:0:
320,192,236033,1,0,0:0:0:50:HHOpen.wav
64,192,236198,1,0,0:0:0:0:
320,192,236198,1,0,0:0:0:0:
448,192,236280,1,8,0:0:0:0:
192,192,236362,1,2,0:0:0:0:
64,192,236527,1,2,0:0:0:0:
192,192,236527,1,0,0:0:0:0:
320,192,236692,1,8,0:0:0:0:
448,192,236692,1,0,0:0:0:50:HHOpen.wav
320,192,236857,1,8,0:0:0:0:
448,192,236857,1,0,0:0:0:0:
64,192,237022,1,0,0:0:0:50:tom1.wav
192,192,237022,1,0,0:0:0:0:
192,192,237187,1,0,0:0:0:50:tom2.wav
448,192,237187,1,0,0:0:0:0:
64,192,237351,1,0,0:0:0:50:tom3.wav
320,192,237351,1,0,0:0:0:0:
64,192,237516,128,2,237681:0:0:0:0:
192,192,237516,1,4,0:0:0:0:
448,192,237516,1,0,0:0:0:0:
64,192,237846,1,2,0:0:0:0:
192,192,238011,1,8,0:0:0:0:
448,192,238011,1,0,0:0:0:50:HHOpen.wav
320,192,238176,1,0,0:0:0:0:
64,192,238258,1,8,0:0:0:0:
320,192,238340,1,2,0:0:0:0:
448,192,238340,1,0,0:0:0:50:HHOpen.wav
192,192,238505,1,2,0:0:0:0:
448,192,238505,1,0,0:0:0:0:
192,192,238670,1,8,0:0:0:0:
320,192,238670,1,0,0:0:0:50:HHOpen.wav
64,192,238835,1,0,0:0:0:0:
320,192,238835,1,0,0:0:0:0:
448,192,238917,1,8,0:0:0:0:
64,192,239000,1,2,0:0:0:0:
192,192,239000,1,0,0:0:0:50:HHOpen.wav
192,192,239165,1,2,0:0:0:0:
320,192,239165,1,0,0:0:0:0:
64,192,239329,1,8,0:0:0:0:
320,192,239329,1,0,0:0:0:50:HHOpen.wav
192,192,239494,1,0,0:0:0:0:
448,192,239494,1,0,0:0:0:0:
64,192,239577,1,8,0:0:0:0:
320,192,239659,1,2,0:0:0:0:
448,192,239659,1,0,0:0:0:50:HHOpen.wav
192,192,239824,1,2,0:0:0:0:
320,192,239824,1,0,0:0:0:0:
64,192,239989,1,8,0:0:0:0:
192,192,239989,1,0,0:0:0:0:
64,192,240154,128,2,240401:0:0:0:0:
320,192,240154,1,0,0:0:0:50:HHOpen.wav
64,192,240483,128,2,240648:0:0:0:0:
192,192,240483,1,0,0:0:0:50:HHOpen.wav
320,192,240648,1,8,0:0:0:0:
448,192,240648,1,0,0:0:0:0:
64,192,240813,128,2,241060:0:0:0:0:
448,192,240813,1,0,0:0:0:50:HHOpen.wav
64,192,241143,128,2,241308:0:0:0:0:
192,192,241143,1,0,0:0:0:50:HHOpen.wav
320,192,241308,1,8,0:0:0:0:
448,192,241308,1,0,0:0:0:0:
64,192,241472,1,2,0:0:0:0:
448,192,241472,128,0,241720:0:0:0:50:HHOpen.wav
320,192,241802,1,2,0:0:0:0:
448,192,241802,128,0,241967:0:0:0:50:HHOpen.wav
64,192,241967,1,8,0:0:0:0:
192,192,241967,1,0,0:0:0:0:
192,192,242132,128,2,242379:0:0:0:0:
320,192,242132,1,0,0:0:0:50:HHOpen.wav
192,192,242461,1,2,0:0:0:0:
320,192,242461,128,0,242791:0:0:0:50:HHOpen.wav
64,192,242956,1,8,0:0:0:0:
192,192,242956,1,4,0:0:0:0:
320,192,242956,1,0,0:0:0:0:
320,192,243121,1,2,0:0:0:0:
192,192,243286,1,2,0:0:0:0:
64,192,243450,1,8,0:0:0:0:
320,192,243450,1,4,0:0:0:0:
448,192,243450,1,0,0:0:0:0:
64,192,243615,1,2,0:0:0:0:
448,192,243780,1,2,0:0:0:0:
192,192,243945,1,8,0:0:0:0:
448,192,243945,1,0,0:0:0:50:tom3.wav
192,192,244110,1,8,0:0:0:0:
448,192,244110,1,0,0:0:0:50:tom3.wav
