osu file format v14

[General]
AudioFilename: audio.ogg
AudioLeadIn: 0
PreviewTime: 199273
Countdown: 0
SampleSet: Soft
StackLeniency: 0.7
Mode: 3
LetterboxInBreaks: 0
SpecialStyle: 0
WidescreenStoryboard: 1

[Editor]
DistanceSpacing: 1
BeatDivisor: 2
GridSize: 32
TimelineZoom: 2.699999

[Metadata]
Title:BLACK MEMORY
TitleUnicode:BLACK MEMORY
Artist:THE ORAL CIGARETTES
ArtistUnicode:THE ORAL CIGARETTES
Creator:-[ Peachy ]-
Version:Kuru's Easy
Source:亜人
Tags:-kurumii div [ping] ajin demi human japanese live action la anime kisses and kills before it's too late 映画 主題歌 ost original soundtrack jp j-rock jrock rock alternative toc cigs takuya yamanaka 山中 拓也 akira akirakani あきらかにあきら shigenobu suzuki 鈴木 重伸 masaya nakanishi 中西 雅哉 mifuru みふる single azcs-2068 a-sketch
BeatmapID:4430244
BeatmapSetID:2105488

[Difficulty]
HPDrainRate:6.5
CircleSize:4
OverallDifficulty:6.5
ApproachRate:5
SliderMultiplier:1.3
SliderTickRate:1

[Events]
//Background and Video events
0,0,"BGMIFURU.jpg",0,0
//Break Periods
//Storyboard Layer 0 (Background)
//Storyboard Layer 1 (Fail)
//Storyboard Layer 2 (Pass)
//Storyboard Layer 3 (Foreground)
//Storyboard Layer 4 (Overlay)
//Storyboard Sound Samples
Sample,21088,0,"tom3.wav",50
Sample,22077,0,"HHOpen.wav",50
Sample,22406,0,"HHOpen.wav",50
Sample,23395,0,"HHOpen.wav",50
Sample,24714,0,"HHOpen.wav",50
Sample,26033,0,"HHOpen.wav",50
Sample,27351,0,"HHOpen.wav",50
Sample,28670,0,"HHOpen.wav",50
Sample,29165,0,"HHOpen.wav",50
Sample,29494,0,"HHOpen.wav",50
Sample,29824,0,"HHOpen.wav",50
Sample,30154,0,"HHOpen.wav",50
Sample,30483,0,"HHOpen.wav",50
Sample,30813,0,"HHOpen.wav",50
Sample,32626,0,"HHOpen.wav",50
Sample,33945,0,"HHOpen.wav",50
Sample,35264,0,"HHOpen.wav",50
Sample,37901,0,"HHOpen.wav",50
Sample,39220,0,"HHOpen.wav",50
Sample,39714,0,"HHOpen.wav",50
Sample,40044,0,"HHOpen.wav",50
Sample,40373,0,"HHOpen.wav",50
Sample,40703,0,"HHOpen.wav",50
Sample,41033,0,"HHOpen.wav",50
Sample,41362,0,"HHOpen.wav",50
Sample,41692,0,"HHOpen.wav",50
Sample,42022,0,"HHOpen.wav",50
Sample,42846,0,"HHOpen.wav",50
Sample,43176,0,"HHOpen.wav",50
Sample,43505,0,"HHOpen.wav",50
Sample,43835,0,"HHOpen.wav",50
Sample,44165,0,"HHOpen.wav",50
Sample,47626,0,"HHOpen.wav",50
Sample,52901,0,"HHOpen.wav",50
Sample,53231,0,"HHOpen.wav",50
Sample,53560,0,"HHOpen.wav",50
Sample,53890,0,"HHOpen.wav",50
Sample,54220,0,"HHOpen.wav",50
Sample,54549,0,"HHOpen.wav",50
Sample,58176,0,"HHOpen.wav",50
Sample,63450,0,"HHOpen.wav",50
Sample,63780,0,"HHOpen.wav",50
Sample,64110,0,"HHOpen.wav",50
Sample,64439,0,"HHOpen.wav",50
Sample,64769,0,"HHOpen.wav",50
Sample,65099,0,"HHOpen.wav",50
Sample,65428,0,"HHOpen.wav",50
Sample,69879,0,"HHOpen.wav",50
Sample,70044,0,"LR_Hat Synth.wav",50
Sample,79275,0,"HHOpen.wav",50
Sample,79604,0,"HHOpen.wav",50
Sample,79934,0,"HHOpen.wav",50
Sample,80264,0,"HHOpen.wav",50
Sample,80593,0,"HHOpen.wav",50
Sample,80923,0,"HHOpen.wav",50
Sample,89824,0,"HHOpen.wav",50
Sample,90154,0,"HHOpen.wav",50
Sample,90483,0,"HHOpen.wav",50
Sample,90813,0,"HHOpen.wav",50
Sample,91143,0,"HHOpen.wav",50
Sample,91472,0,"HHOpen.wav",50
Sample,91802,0,"HHOpen.wav",50
Sample,92132,0,"HHOpen.wav",50
Sample,93286,0,"HHOpen.wav",50
Sample,93615,0,"HHOpen.wav",50
Sample,94604,0,"HHOpen.wav",50
Sample,95923,0,"HHOpen.wav",50
Sample,97242,0,"HHOpen.wav",50
Sample,98560,0,"HHOpen.wav",50
Sample,99879,0,"HHOpen.wav",50
Sample,100373,0,"HHOpen.wav",50
Sample,100703,0,"HHOpen.wav",50
Sample,101033,0,"HHOpen.wav",50
Sample,101362,0,"HHOpen.wav",50
Sample,101692,0,"HHOpen.wav",50
Sample,102022,0,"HHOpen.wav",50
Sample,103835,0,"HHOpen.wav",50
Sample,105154,0,"HHOpen.wav",50
Sample,106472,0,"HHOpen.wav",50
Sample,109110,0,"HHOpen.wav",50
Sample,110428,0,"HHOpen.wav",50
Sample,110923,0,"HHOpen.wav",50
Sample,111253,0,"HHOpen.wav",50
Sample,111582,0,"HHOpen.wav",50
Sample,111912,0,"HHOpen.wav",50
Sample,112242,0,"HHOpen.wav",50
Sample,112571,0,"HHOpen.wav",50
Sample,113395,0,"tom3.wav",50
Sample,115703,0,"tom3.wav",50
Sample,115868,0,"tom3.wav",50
Sample,121472,0,"HHOpen.wav",50
Sample,121802,0,"HHOpen.wav",50
Sample,122132,0,"HHOpen.wav",50
Sample,122461,0,"HHOpen.wav",50
Sample,122791,0,"HHOpen.wav",50
Sample,123121,0,"HHOpen.wav",50
Sample,123450,0,"HHOpen.wav",50
Sample,123780,0,"HHOpen.wav",50
Sample,128231,0,"HHOpen.wav",50
Sample,128890,0,"HHOpen.wav",50
Sample,134329,0,"tom3.wav",50
Sample,142571,0,"HHOpen.wav",50
Sample,142901,0,"HHOpen.wav",50
Sample,143231,0,"HHOpen.wav",50
Sample,143560,0,"HHOpen.wav",50
Sample,143890,0,"HHOpen.wav",50
Sample,144220,0,"HHOpen.wav",50
Sample,153121,0,"HHOpen.wav",50
Sample,153450,0,"HHOpen.wav",50
Sample,153780,0,"HHOpen.wav",50
Sample,154110,0,"HHOpen.wav",50
Sample,154439,0,"HHOpen.wav",50
Sample,154769,0,"HHOpen.wav",50
Sample,155099,0,"HHOpen.wav",50
Sample,155428,0,"HHOpen.wav",50
Sample,157901,0,"tom3.wav",50
Sample,166308,0,"HHOpen.wav",50
Sample,166637,0,"HHOpen.wav",50
Sample,166967,0,"HHOpen.wav",50
Sample,167297,0,"HHOpen.wav",50
Sample,167626,0,"HHOpen.wav",50
Sample,167956,0,"HHOpen.wav",50
Sample,169769,0,"HHOpen.wav",50
Sample,170099,0,"HHOpen.wav",50
Sample,171088,0,"HHOpen.wav",50
Sample,172406,0,"HHOpen.wav",50
Sample,173725,0,"HHOpen.wav",50
Sample,174714,0,"HHOpen.wav",50
Sample,175044,0,"HHOpen.wav",50
Sample,176362,0,"HHOpen.wav",50
Sample,176857,0,"HHOpen.wav",50
Sample,177187,0,"HHOpen.wav",50
Sample,177516,0,"HHOpen.wav",50
Sample,177846,0,"HHOpen.wav",50
Sample,178176,0,"HHOpen.wav",50
Sample,178505,0,"HHOpen.wav",50
Sample,178835,0,"HHOpen.wav",50
Sample,179165,0,"HHOpen.wav",50
Sample,182297,0,"Rim.wav",50
Sample,184934,0,"Rim.wav",50
Sample,187571,0,"Rim.wav",50
Sample,188890,0,"Rim.wav",50
Sample,199439,0,"HHOpen.wav",50
Sample,208505,0,"HHOpen.wav",50
Sample,208835,0,"HHOpen.wav",50
Sample,209165,0,"HHOpen.wav",50
Sample,209494,0,"HHOpen.wav",50
Sample,209824,0,"HHOpen.wav",50
Sample,210154,0,"HHOpen.wav",50
Sample,219055,0,"HHOpen.wav",50
Sample,219384,0,"HHOpen.wav",50
Sample,219714,0,"HHOpen.wav",50
Sample,220044,0,"HHOpen.wav",50
Sample,220373,0,"HHOpen.wav",50
Sample,220703,0,"HHOpen.wav",50
Sample,221033,0,"HHOpen.wav",50
Sample,221362,0,"HHOpen.wav",50
Sample,222516,0,"HHOpen.wav",50
Sample,222846,0,"HHOpen.wav",50
Sample,223835,0,"HHOpen.wav",50
Sample,225154,0,"HHOpen.wav",50
Sample,226472,0,"HHOpen.wav",50
Sample,227791,0,"HHOpen.wav",50
Sample,229110,0,"HHOpen.wav",50
Sample,229604,0,"HHOpen.wav",50
Sample,229934,0,"HHOpen.wav",50
Sample,230264,0,"HHOpen.wav",50
Sample,230593,0,"HHOpen.wav",50
Sample,230923,0,"HHOpen.wav",50
Sample,231253,0,"HHOpen.wav",50
Sample,233066,0,"HHOpen.wav",50
Sample,234384,0,"HHOpen.wav",50
Sample,235703,0,"HHOpen.wav",50
Sample,238340,0,"HHOpen.wav",50
Sample,239659,0,"HHOpen.wav",50
Sample,240154,0,"HHOpen.wav",50
Sample,240483,0,"HHOpen.wav",50
Sample,240813,0,"HHOpen.wav",50
Sample,241143,0,"HHOpen.wav",50
Sample,241472,0,"HHOpen.wav",50
Sample,241802,0,"HHOpen.wav",50
Sample,242132,0,"HHOpen.wav",50
Sample,242461,0,"HHOpen.wav",50
Sample,243945,0,"tom3.wav",50

[TimingPoints]
319,329.67032967033,4,2,1,50,1,0
71362,-100,4,2,1,50,0,1
81582,-100,4,2,1,50,0,0
81912,-100,4,2,1,50,0,1
92132,-100,4,2,1,50,0,0
134659,-100,4,2,1,50,0,1
144879,-100,4,2,1,50,0,0
145209,-100,4,2,1,50,0,1
155593,-100,4,2,1,50,0,0
200593,-100,4,2,1,50,0,1
210813,-100,4,2,1,50,0,0
211143,-100,4,2,1,50,0,1
221527,-100,4,2,1,50,0,0

[HitObjects]
192,192,319,5,2,0:0:0:0:
64,192,648,1,8,0:0:0:0:
320,192,978,1,2,0:0:0:0:
448,192,1308,1,8,0:0:0:0:
192,192,1637,1,2,0:0:0:0:
64,192,1967,1,8,0:0:0:0:
320,192,2297,1,2,0:0:0:0:
448,192,2626,1,8,0:0:0:0:
64,192,2956,1,2,0:0:0:0:
320,192,3286,1,8,0:0:0:0:
448,192,3615,1,2,0:0:0:0:
192,192,3945,1,8,0:0:0:0:
64,192,4275,1,2,0:0:0:0:
320,192,4604,1,8,0:0:0:0:
448,192,4934,1,2,0:0:0:0:
192,192,5264,1,8,0:0:0:0:
64,192,5593,1,2,0:0:0:0:
448,192,5923,1,8,0:0:0:0:
448,192,6253,1,2,0:0:0:0:
64,192,6582,1,8,0:0:0:0:
64,192,6912,1,2,0:0:0:0:
448,192,7242,1,8,0:0:0:0:
448,192,7571,1,2,0:0:0:0:
64,192,7901,1,8,0:0:0:0:
320,192,8231,1,2,0:0:0:0:
192,192,8560,1,8,0:0:0:0:
448,192,8890,1,2,0:0:0:0:
320,192,9220,1,8,0:0:0:0:
192,192,9549,1,2,0:0:0:0:
320,192,9879,1,8,0:0:0:0:
64,192,10209,1,2,0:0:0:0:
192,192,10538,1,8,0:0:0:0:
320,192,10868,1,2,0:0:0:0:
448,192,10868,128,4,11198:0:0:0:0:
64,192,11362,128,0,11692:0:0:0:50:tom3.wav
192,192,11857,128,8,12187:0:0:0:0:
448,192,12351,128,2,12681:0:0:0:0:
64,192,12681,1,0,0:0:0:50:tom3.wav
320,192,12846,128,2,13176:0:0:0:0:
192,192,13176,1,8,0:0:0:0:
64,192,13505,128,2,13835:0:0:0:0:
448,192,14000,128,0,14329:0:0:0:50:tom3.wav
320,192,14494,128,8,14824:0:0:0:0:
64,192,14989,128,2,15319:0:0:0:0:
448,192,15319,1,0,0:0:0:50:tom3.wav
192,192,15483,128,2,15813:0:0:0:0:
320,192,15813,1,8,0:0:0:0:
64,192,16143,1,2,0:0:0:0:
448,192,16143,128,4,16472:0:0:0:0:
192,192,16637,128,0,16967:0:0:0:50:tom3.wav
320,192,17132,128,8,17461:0:0:0:0:
64,192,17626,128,2,17956:0:0:0:0:
448,192,17956,1,0,0:0:0:50:tom3.wav
192,192,18121,128,2,18450:0:0:0:0:
320,192,18450,1,8,0:0:0:0:
64,192,18780,128,2,19110:0:0:0:0:
448,192,19275,128,0,19604:0:0:0:50:tom3.wav
64,192,19769,1,8,0:0:0:0:
320,192,19934,1,2,0:0:0:0:
448,192,19934,1,0,0:0:0:50:HHOpen.wav
192,192,20264,128,0,21088:0:0:0:0:
448,192,21088,1,8,0:0:0:0:
64,192,21253,1,2,0:0:0:0:
320,192,21253,1,4,0:0:0:0:
320,192,21747,1,8,0:0:0:0:
448,192,21747,1,0,0:0:0:50:HHOpen.wav
448,192,22077,128,2,22406:0:0:0:0:
64,192,22406,128,8,22736:0:0:0:0:
448,192,22901,1,2,0:0:0:0:
448,192,23231,1,0,0:0:0:0:
64,192,23395,128,2,23725:0:0:0:0:
448,192,23725,1,8,0:0:0:0:
192,192,23890,1,2,0:0:0:0:
320,192,23890,1,4,0:0:0:0:
320,192,24384,1,8,0:0:0:0:
448,192,24384,1,0,0:0:0:50:HHOpen.wav
320,192,24714,128,2,25044:0:0:0:0:
64,192,25044,1,8,0:0:0:0:
192,192,25044,128,0,25373:0:0:0:50:HHOpen.wav
320,192,25538,1,2,0:0:0:0:
320,192,25868,1,8,0:0:0:0:
192,192,26033,128,2,26362:0:0:0:0:
320,192,26362,1,8,0:0:0:0:
64,192,26527,1,2,0:0:0:0:
448,192,26527,1,4,0:0:0:0:
192,192,27022,1,8,0:0:0:0:
448,192,27022,1,0,0:0:0:50:HHOpen.wav
192,192,27351,128,2,27681:0:0:0:0:
320,192,27681,1,8,0:0:0:0:
448,192,27681,128,0,28011:0:0:0:50:HHOpen.wav
192,192,28176,1,2,0:0:0:0:
192,192,28505,1,0,0:0:0:0:
448,192,28670,128,2,29000:0:0:0:0:
64,192,29000,1,8,0:0:0:0:
192,192,29000,1,0,0:0:0:0:
320,192,29165,128,2,29494:0:0:0:0:
64,192,29494,1,2,0:0:0:0:
320,192,29824,128,2,30154:0:0:0:0:
64,192,30154,1,2,0:0:0:0:
192,192,30483,128,2,30813:0:0:0:0:
448,192,30813,1,2,0:0:0:0:
64,192,31143,128,6,31472:0:0:0:0:
320,192,31472,128,8,31802:0:0:0:0:
64,192,31802,1,2,0:0:0:0:
192,192,31802,1,4,0:0:0:0:
64,192,32297,1,8,0:0:0:0:
448,192,32297,1,0,0:0:0:50:HHOpen.wav
448,192,32626,128,2,32956:0:0:0:0:
64,192,32956,1,8,0:0:0:0:
192,192,32956,128,0,33286:0:0:0:50:HHOpen.wav
448,192,33450,1,2,0:0:0:0:
448,192,33780,1,0,0:0:0:0:
192,192,33945,128,2,34275:0:0:0:0:
448,192,34275,1,8,0:0:0:0:
64,192,34439,1,2,0:0:0:0:
320,192,34439,1,4,0:0:0:0:
320,192,34934,1,8,0:0:0:0:
448,192,34934,1,0,0:0:0:50:HHOpen.wav
320,192,35264,128,2,35593:0:0:0:0:
64,192,35593,128,8,35923:0:0:0:0:
192,192,35593,1,0,0:0:0:50:HHOpen.wav
320,192,36088,1,2,0:0:0:0:
320,192,36417,1,8,0:0:0:0:
64,192,36582,128,0,36912:0:0:0:50:tom1.wav
320,192,36912,1,0,0:0:0:50:tom3.wav
192,192,37077,1,2,0:0:0:0:
448,192,37077,1,4,0:0:0:0:
64,192,37571,1,8,0:0:0:0:
448,192,37571,1,0,0:0:0:50:HHOpen.wav
64,192,37901,128,2,38231:0:0:0:0:
320,192,38231,1,8,0:0:0:0:
448,192,38231,128,0,38560:0:0:0:50:HHOpen.wav
64,192,38725,1,2,0:0:0:0:
64,192,39055,1,0,0:0:0:0:
448,192,39220,128,2,39549:0:0:0:0:
64,192,39549,1,8,0:0:0:0:
192,192,39549,1,0,0:0:0:0:
320,192,39714,128,2,40044:0:0:0:0:
64,192,40044,1,2,0:0:0:0:
320,192,40373,128,2,40703:0:0:0:0:
64,192,40703,1,2,0:0:0:0:
192,192,41033,128,2,41362:0:0:0:0:
448,192,41362,1,2,0:0:0:0:
64,192,41692,128,2,42022:0:0:0:0:
448,192,42022,128,2,42516:0:0:0:0:
64,192,42516,1,8,0:0:0:0:
192,192,42516,1,4,0:0:0:0:
320,192,42846,1,8,0:0:0:0:
64,192,43176,1,8,0:0:0:0:
448,192,43505,1,8,0:0:0:0:
192,192,43835,1,8,0:0:0:0:
448,192,44165,128,8,44494:0:0:0:0:
64,192,44494,1,8,0:0:0:0:
192,192,44659,1,8,0:0:0:0:
320,192,44824,1,8,0:0:0:0:
64,192,44989,128,2,45319:0:0:0:0:
448,192,44989,1,4,0:0:0:0:
320,192,45319,1,2,0:0:0:0:
192,192,45648,1,0,0:0:0:0:
448,192,45813,128,2,46143:0:0:0:0:
64,192,46143,1,8,0:0:0:0:
192,192,46143,1,0,0:0:0:0:
320,192,46472,128,2,46802:0:0:0:0:
192,192,46802,128,8,47132:0:0:0:0:
448,192,46802,1,0,0:0:0:0:
64,192,47132,1,2,0:0:0:0:
320,192,47461,1,8,0:0:0:0:
448,192,47461,1,0,0:0:0:0:
64,192,47626,128,2,47956:0:0:0:0:
448,192,47956,1,2,0:0:0:0:
192,192,48286,1,0,0:0:0:0:
192,192,48615,1,2,0:0:0:0:
448,192,48945,1,0,0:0:0:0:
64,192,49110,128,2,49439:0:0:0:0:
320,192,49439,1,8,0:0:0:0:
448,192,49439,128,0,49769:0:0:0:0:
192,192,49769,128,2,50264:0:0:0:0:
320,192,50264,1,2,0:0:0:0:
448,192,50264,1,0,0:0:0:50:Splash.wav
64,192,50593,128,2,50923:0:0:0:0:
192,192,50923,128,0,51253:0:0:0:0:
448,192,51253,128,2,51582:0:0:0:0:
320,192,51582,128,0,52077:0:0:0:0:
64,192,52077,1,8,0:0:0:0:
192,192,52077,1,0,0:0:0:0:
448,192,52406,1,2,0:0:0:0:
64,192,52571,1,2,0:0:0:0:
192,192,52736,1,8,0:0:0:0:
320,192,52901,128,2,53231:0:0:0:0:
64,192,53231,1,2,0:0:0:0:
448,192,53560,128,2,53890:0:0:0:0:
64,192,53890,1,2,0:0:0:0:
192,192,54220,128,2,54549:0:0:0:0:
448,192,54549,1,2,0:0:0:0:
64,192,54879,128,0,55209:0:0:0:50:Splash.wav
320,192,55209,128,0,55538:0:0:0:50:tom2.wav
64,192,55538,1,2,0:0:0:0:
192,192,55538,128,4,55868:0:0:0:0:
448,192,55868,1,2,0:0:0:0:
320,192,56198,128,0,56527:0:0:0:0:
64,192,56527,1,2,0:0:0:0:
192,192,56692,1,8,0:0:0:0:
448,192,56692,1,0,0:0:0:0:
320,192,57022,1,2,0:0:0:0:
64,192,57351,1,8,0:0:0:0:
448,192,57351,1,0,0:0:0:0:
192,192,57681,1,2,0:0:0:0:
64,192,58011,1,8,0:0:0:0:
320,192,58011,1,0,0:0:0:0:
448,192,58176,128,2,58505:0:0:0:0:
64,192,58505,1,2,0:0:0:0:
192,192,58835,128,0,59165:0:0:0:0:
448,192,59165,1,2,0:0:0:0:
64,192,59329,1,8,0:0:0:0:
320,192,59329,1,0,0:0:0:0:
192,192,59659,1,2,0:0:0:0:
320,192,59989,1,8,0:0:0:0:
448,192,59989,1,0,0:0:0:0:
64,192,60319,128,2,60813:0:0:0:0:
320,192,60813,1,2,0:0:0:0:
448,192,60813,128,0,61143:0:0:0:50:Splash.wav
192,192,61143,1,2,0:0:0:0:
320,192,61472,128,0,61802:0:0:0:0:
64,192,61802,1,2,0:0:0:0:
192,192,62132,128,0,62626:0:0:0:0:
320,192,62626,1,8,0:0:0:0:
448,192,62626,1,0,0:0:0:0:
64,192,62956,1,2,0:0:0:0:
320,192,63286,1,8,0:0:0:0:
448,192,63286,1,0,0:0:0:0:
192,192,63450,128,2,63780:0:0:0:0:
448,192,63780,1,2,0:0:0:0:
64,192,64110,128,2,64439:0:0:0:0:
448,192,64439,1,2,0:0:0:0:
320,192,64769,128,2,65099:0:0:0:0:
64,192,65099,1,2,0:0:0:0:
448,192,65428,128,2,65758:0:0:0:0:
64,192,65758,1,2,0:0:0:0:
192,192,65923,1,8,0:0:0:0:
320,192,65923,1,0,0:0:0:0:
64,192,66253,128,8,66912:0:0:0:0:
448,192,66253,1,4,0:0:0:0:
448,192,66912,128,2,67242:0:0:0:0:
64,192,67242,1,8,0:0:0:0:
192,192,67242,1,0,0:0:0:50:HHOpen.wav
320,192,67571,128,8,67901:0:0:0:0:
448,192,67571,1,4,0:0:0:0:
64,192,67901,1,2,0:0:0:0:
192,192,68231,128,2,68560:0:0:0:0:
320,192,68560,1,8,0:0:0:0:
448,192,68560,1,4,0:0:0:0:
64,192,68890,128,2,69384:0:0:0:0:
320,192,68890,1,8,0:0:0:0:
192,192,69384,1,10,0:0:0:0:
448,192,69384,128,4,69879:0:0:0:0:
64,192,69879,1,2,0:0:0:0:
192,192,70044,1,2,0:0:0:0:
320,192,70209,1,0,0:0:0:0:
64,192,70538,1,0,0:0:0:0:
448,192,70703,128,0,71033:0:0:0:0:
192,192,71033,128,0,71362:0:0:0:0:
320,192,71362,128,2,71857:0:0:0:0:
448,192,71362,1,4,0:0:0:0:
64,192,71857,1,8,0:0:0:0:
192,192,71857,1,0,0:0:0:0:
64,192,72187,1,2,0:0:0:0:
320,192,72516,1,8,0:0:0:0:
448,192,72516,1,0,0:0:0:0:
192,192,72681,128,2,73176:0:0:0:0:
64,192,73176,1,8,0:0:0:0:
320,192,73176,1,0,0:0:0:0:
448,192,73340,1,0,0:0:0:0:
64,192,73670,1,2,0:0:0:0:
192,192,74000,128,2,74494:0:0:0:0:
320,192,74494,1,8,0:0:0:0:
448,192,74494,1,0,0:0:0:0:
64,192,74659,128,0,74989:0:0:0:0:
448,192,74989,128,2,75319:0:0:0:0:
320,192,75319,128,2,75648:0:0:0:0:
192,192,75648,128,2,75978:0:0:0:0:
64,192,76143,1,2,0:0:0:0:
320,192,76308,1,2,0:0:0:0:
448,192,76472,1,8,0:0:0:0:
64,192,76637,128,2,76967:0:0:0:0:
192,192,76637,1,4,0:0:0:0:
320,192,76967,128,2,77297:0:0:0:0:
192,192,77297,128,0,77626:0:0:0:0:
448,192,77791,1,8,0:0:0:0:
64,192,77956,128,2,78286:0:0:0:0:
192,192,77956,1,4,0:0:0:0:
320,192,78286,128,2,78615:0:0:0:0:
448,192,78615,128,0,78945:0:0:0:0:
64,192,78945,1,2,0:0:0:0:
192,192,79110,1,8,0:0:0:0:
320,192,79275,128,2,79604:0:0:0:0:
64,192,79604,1,2,0:0:0:0:
320,192,79934,128,2,80264:0:0:0:0:
64,192,80264,1,2,0:0:0:0:
192,192,80593,128,2,80923:0:0:0:0:
448,192,80923,1,2,0:0:0:0:
192,192,81253,128,6,81582:0:0:0:0:
448,192,81582,128,8,81912:0:0:0:0:
64,192,81912,128,2,82406:0:0:0:0:
192,192,81912,1,4,0:0:0:0:
320,192,82406,1,8,0:0:0:0:
448,192,82406,1,0,0:0:0:0:
448,192,82736,1,2,0:0:0:0:
64,192,83066,1,8,0:0:0:0:
192,192,83066,1,0,0:0:0:0:
320,192,83231,128,2,83725:0:0:0:0:
64,192,83725,1,8,0:0:0:0:
448,192,83725,1,0,0:0:0:0:
192,192,83890,1,0,0:0:0:0:
448,192,84220,1,2,0:0:0:0:
320,192,84549,128,2,85044:0:0:0:0:
64,192,85044,1,8,0:0:0:0:
192,192,85044,1,0,0:0:0:0:
448,192,85209,128,0,85538:0:0:0:0:
64,192,85538,128,2,85868:0:0:0:0:
320,192,85868,128,2,86198:0:0:0:0:
192,192,86198,128,2,86527:0:0:0:0:
448,192,86692,1,2,0:0:0:0:
320,192,86857,1,2,0:0:0:0:
64,192,87022,1,8,0:0:0:0:
320,192,87187,128,2,87516:0:0:0:0:
448,192,87187,1,4,0:0:0:0:
64,192,87516,128,2,87846:0:0:0:0:
448,192,87846,128,0,88176:0:0:0:0:
192,192,88340,1,8,0:0:0:0:
320,192,88505,128,2,88835:0:0:0:0:
448,192,88505,1,4,0:0:0:0:
64,192,88835,128,2,89165:0:0:0:0:
448,192,89165,128,0,89494:0:0:0:0:
64,192,89659,1,8,0:0:0:0:
192,192,89659,1,0,0:0:0:0:
320,192,89824,128,2,90154:0:0:0:0:
64,192,90154,1,2,0:0:0:0:
448,192,90483,128,2,90813:0:0:0:0:
64,192,90813,1,2,0:0:0:0:
192,192,91143,128,2,91472:0:0:0:0:
320,192,91472,1,2,0:0:0:0:
64,192,91802,128,2,92132:0:0:0:0:
448,192,92132,128,2,92626:0:0:0:0:
64,192,92626,1,2,0:0:0:0:
192,192,92626,1,4,0:0:0:0:
64,192,92956,1,8,0:0:0:0:
320,192,92956,1,0,0:0:0:50:HHOpen.wav
320,192,93286,128,2,93615:0:0:0:0:
192,192,93615,128,8,93945:0:0:0:0:
320,192,94110,1,2,0:0:0:0:
320,192,94439,1,0,0:0:0:0:
192,192,94604,128,2,94934:0:0:0:0:
320,192,94934,1,8,0:0:0:0:
64,192,95099,1,2,0:0:0:0:
448,192,95099,1,4,0:0:0:0:
320,192,95593,1,8,0:0:0:0:
448,192,95593,1,0,0:0:0:50:HHOpen.wav
448,192,95923,128,2,96253:0:0:0:0:
64,192,96253,128,8,96582:0:0:0:0:
192,192,96253,1,0,0:0:0:50:HHOpen.wav
448,192,96747,1,2,0:0:0:0:
448,192,97077,1,8,0:0:0:0:
64,192,97242,128,2,97571:0:0:0:0:
448,192,97571,1,8,0:0:0:0:
192,192,97736,1,2,0:0:0:0:
320,192,97736,1,4,0:0:0:0:
64,192,98231,1,8,0:0:0:0:
192,192,98231,1,0,0:0:0:50:HHOpen.wav
192,192,98560,128,2,98890:0:0:0:0:
320,192,98890,1,8,0:0:0:0:
448,192,98890,128,0,99220:0:0:0:50:HHOpen.wav
192,192,99384,1,2,0:0:0:0:
192,192,99714,1,0,0:0:0:0:
448,192,99879,128,2,100209:0:0:0:0:
64,192,100209,1,8,0:0:0:0:
192,192,100209,1,0,0:0:0:0:
320,192,100373,128,2,100703:0:0:0:0:
64,192,100703,1,2,0:0:0:0:
320,192,101033,128,2,101362:0:0:0:0:
64,192,101362,1,2,0:0:0:0:
192,192,101692,128,2,102022:0:0:0:0:
448,192,102022,1,2,0:0:0:0:
64,192,102351,128,6,102681:0:0:0:0:
320,192,102681,128,8,103011:0:0:0:0:
64,192,103011,1,2,0:0:0:0:
192,192,103011,1,4,0:0:0:0:
320,192,103505,1,8,0:0:0:0:
448,192,103505,1,0,0:0:0:50:HHOpen.wav
448,192,103835,128,2,104165:0:0:0:0:
64,192,104165,128,8,104494:0:0:0:0:
192,192,104165,1,0,0:0:0:50:HHOpen.wav
448,192,104659,1,2,0:0:0:0:
448,192,104989,1,0,0:0:0:0:
64,192,105154,128,2,105483:0:0:0:0:
448,192,105483,1,8,0:0:0:0:
192,192,105648,1,2,0:0:0:0:
320,192,105648,1,4,0:0:0:0:
320,192,106143,1,8,0:0:0:0:
448,192,106143,1,0,0:0:0:50:HHOpen.wav
320,192,106472,128,2,106802:0:0:0:0:
64,192,106802,1,8,0:0:0:0:
192,192,106802,128,0,107132:0:0:0:50:HHOpen.wav
320,192,107297,1,2,0:0:0:0:
320,192,107626,1,8,0:0:0:0:
192,192,107791,128,0,108121:0:0:0:50:tom1.wav
320,192,108121,1,0,0:0:0:50:tom3.wav
64,192,108286,1,2,0:0:0:0:
448,192,108286,1,4,0:0:0:0:
64,192,108780,1,8,0:0:0:0:
320,192,108780,1,0,0:0:0:50:HHOpen.wav
64,192,109110,128,2,109439:0:0:0:0:
320,192,109439,1,8,0:0:0:0:
448,192,109439,128,0,109769:0:0:0:50:HHOpen.wav
64,192,109934,1,2,0:0:0:0:
64,192,110264,1,0,0:0:0:0:
448,192,110428,128,2,110758:0:0:0:0:
64,192,110758,1,8,0:0:0:0:
192,192,110758,1,0,0:0:0:0:
320,192,110923,128,2,111253:0:0:0:0:
64,192,111253,1,2,0:0:0:0:
320,192,111582,128,2,111912:0:0:0:0:
64,192,111912,1,2,0:0:0:0:
192,192,112242,128,2,112571:0:0:0:0:
448,192,112571,1,2,0:0:0:0:
64,192,112901,128,0,113231:0:0:0:50:Splash.wav
448,192,113231,1,0,0:0:0:50:tom2.wav
320,192,113395,1,8,0:0:0:0:
64,192,113560,1,2,0:0:0:0:
192,192,113560,1,4,0:0:0:0:
448,192,113890,128,0,114220:0:0:0:0:
64,192,114220,1,0,0:0:0:0:
192,192,114384,1,0,0:0:0:0:
320,192,114549,1,0,0:0:0:0:
448,192,114879,1,0,0:0:0:0:
64,192,115044,128,0,115373:0:0:0:0:
192,192,115373,128,0,115703:0:0:0:0:
448,192,115703,1,8,0:0:0:0:
320,192,115868,1,8,0:0:0:0:
64,192,116033,1,0,0:0:0:0:
192,192,116198,1,2,0:0:0:0:
448,192,116198,128,4,116527:0:0:0:0:
320,192,116527,128,2,116857:0:0:0:0:
64,192,117022,1,2,0:0:0:0:
320,192,117351,1,8,0:0:0:0:
448,192,117351,1,0,0:0:0:0:
192,192,117681,128,2,118011:0:0:0:0:
64,192,118011,128,8,118340:0:0:0:0:
448,192,118011,1,0,0:0:0:0:
320,192,118340,128,2,118835:0:0:0:0:
64,192,118835,1,2,0:0:0:0:
192,192,118835,128,4,119165:0:0:0:0:
448,192,119165,128,2,119494:0:0:0:0:
64,192,119494,128,0,119824:0:0:0:50:tom3.wav
320,192,119824,128,2,120154:0:0:0:0:
192,192,120154,128,0,120648:0:0:0:50:tom3.wav
320,192,120648,1,8,0:0:0:0:
448,192,120648,1,0,0:0:0:0:
64,192,120978,1,2,0:0:0:0:
320,192,121308,1,8,0:0:0:0:
448,192,121308,1,0,0:0:0:0:
192,192,121472,128,2,121802:0:0:0:0:
448,192,121802,1,2,0:0:0:0:
192,192,122132,128,2,122461:0:0:0:0:
448,192,122461,1,2,0:0:0:0:
320,192,122791,128,2,123121:0:0:0:0:
64,192,123121,1,2,0:0:0:0:
320,192,123450,128,2,123780:0:0:0:0:
64,192,123780,128,2,124110:0:0:0:0:
192,192,124110,1,4,0:0:0:0:
448,192,124110,128,2,124439:0:0:0:0:
320,192,124439,1,0,0:0:0:0:
64,192,124769,128,0,125099:0:0:0:0:
320,192,125099,1,0,0:0:0:0:
448,192,125264,1,0,0:0:0:0:
192,192,125428,1,0,0:0:0:0:
320,192,125593,1,0,0:0:0:50:LR_Drum Whistle.wav
64,192,125923,1,0,0:0:0:50:Splash.wav
448,192,125923,1,0,0:0:0:0:
320,192,126253,1,0,0:0:0:50:tom3.wav
192,192,126417,1,0,0:0:0:50:tom3.wav
448,192,126582,1,0,0:0:0:50:tom3.wav
64,192,126747,1,2,0:0:0:0:
320,192,126747,128,4,127077:0:0:0:0:
192,192,127077,1,2,0:0:0:0:
64,192,127406,128,0,127736:0:0:0:0:
448,192,127736,1,2,0:0:0:0:
192,192,127901,128,8,128231:0:0:0:0:
320,192,127901,1,0,0:0:0:50:HHOpen.wav
448,192,128231,1,2,0:0:0:0:
64,192,128560,1,8,0:0:0:0:
320,192,128560,1,0,0:0:0:50:HHOpen.wav
192,192,128890,128,2,129384:0:0:0:0:
320,192,129384,1,2,0:0:0:0:
448,192,129384,128,4,129714:0:0:0:0:
64,192,129714,128,0,130044:0:0:0:0:
192,192,130044,128,8,130373:0:0:0:0:
448,192,130373,128,8,130703:0:0:0:0:
64,192,130703,128,8,131198:0:0:0:0:
448,192,131362,1,8,0:0:0:0:
192,192,131527,128,10,131857:0:0:0:0:
448,192,131857,128,10,132187:0:0:0:0:
64,192,132187,1,2,0:0:0:0:
192,192,132187,128,0,132681:0:0:0:50:HHOpen.wav
320,192,132681,1,2,0:0:0:0:
448,192,132681,1,0,0:0:0:50:HHOpen.wav
64,192,132846,128,0,133176:0:0:0:0:
320,192,133176,1,2,0:0:0:0:
448,192,133176,1,0,0:0:0:50:HHOpen.wav
192,192,133340,1,0,0:0:0:0:
448,192,133505,1,0,0:0:0:0:
64,192,133835,1,0,0:0:0:0:
320,192,134000,128,0,134329:0:0:0:0:
64,192,134329,128,8,134659:0:0:0:0:
320,192,134659,1,2,0:0:0:0:
448,192,134659,128,4,135154:0:0:0:0:
64,192,135154,1,8,0:0:0:0:
192,192,135154,1,0,0:0:0:0:
192,192,135483,1,2,0:0:0:0:
64,192,135813,1,8,0:0:0:0:
448,192,135813,1,0,0:0:0:0:
320,192,135978,128,2,136472:0:0:0:0:
64,192,136472,1,8,0:0:0:0:
192,192,136472,1,0,0:0:0:0:
448,192,136637,128,0,136967:0:0:0:0:
192,192,136967,1,2,0:0:0:0:
320,192,137297,128,2,137791:0:0:0:0:
64,192,137791,1,8,0:0:0:0:
192,192,137791,1,0,0:0:0:0:
448,192,137956,128,0,138286:0:0:0:0:
64,192,138286,128,2,138615:0:0:0:0:
320,192,138615,128,2,138945:0:0:0:0:
192,192,138945,128,2,139275:0:0:0:0:
448,192,139439,1,2,0:0:0:0:
64,192,139604,1,2,0:0:0:0:
320,192,139769,1,8,0:0:0:0:
64,192,139934,128,2,140264:0:0:0:0:
192,192,139934,1,4,0:0:0:0:
320,192,140264,128,2,140593:0:0:0:0:
192,192,140593,128,0,140923:0:0:0:0:
448,192,141088,1,8,0:0:0:0:
64,192,141253,128,2,141582:0:0:0:0:
192,192,141253,1,4,0:0:0:0:
320,192,141582,128,2,141912:0:0:0:0:
448,192,141912,128,0,142242:0:0:0:0:
64,192,142242,1,2,0:0:0:0:
192,192,142406,1,8,0:0:0:0:
320,192,142571,128,2,142901:0:0:0:0:
64,192,142901,1,2,0:0:0:0:
320,192,143231,128,2,143560:0:0:0:0:
64,192,143560,1,2,0:0:0:0:
192,192,143890,128,2,144220:0:0:0:0:
448,192,144220,1,2,0:0:0:0:
192,192,144549,128,6,144879:0:0:0:0:
448,192,144879,128,8,145209:0:0:0:0:
64,192,145209,128,2,145703:0:0:0:0:
192,192,145209,1,4,0:0:0:0:
320,192,145703,1,8,0:0:0:0:
448,192,145703,1,0,0:0:0:0:
320,192,146033,1,2,0:0:0:0:
64,192,146362,1,8,0:0:0:0:
192,192,146362,1,0,0:0:0:0:
448,192,146527,128,2,147022:0:0:0:0:
64,192,147022,1,8,0:0:0:0:
192,192,147022,1,0,0:0:0:0:
320,192,147187,128,0,147516:0:0:0:0:
64,192,147516,1,2,0:0:0:0:
192,192,147846,128,2,148340:0:0:0:0:
320,192,148340,1,8,0:0:0:0:
448,192,148340,1,0,0:0:0:0:
64,192,148505,128,0,148835:0:0:0:0:
192,192,148835,128,2,149165:0:0:0:0:
448,192,149165,128,2,149494:0:0:0:0:
320,192,149494,128,2,149824:0:0:0:0:
192,192,149989,1,2,0:0:0:0:
320,192,150154,1,2,0:0:0:0:
64,192,150319,1,8,0:0:0:0:
320,192,150483,128,2,150813:0:0:0:0:
448,192,150483,1,4,0:0:0:0:
64,192,150813,128,2,151143:0:0:0:0:
448,192,151143,128,0,151472:0:0:0:0:
64,192,151637,1,8,0:0:0:0:
320,192,151802,128,2,152132:0:0:0:0:
448,192,151802,1,4,0:0:0:0:
192,192,152132,128,2,152461:0:0:0:0:
448,192,152461,128,0,152791:0:0:0:0:
64,192,152956,1,8,0:0:0:0:
192,192,152956,1,0,0:0:0:0:
320,192,153121,128,2,153450:0:0:0:0:
64,192,153450,1,2,0:0:0:0:
448,192,153780,128,2,154110:0:0:0:0:
192,192,154110,1,2,0:0:0:0:
64,192,154439,128,2,154769:0:0:0:0:
320,192,154769,1,2,0:0:0:0:
192,192,155099,128,2,155428:0:0:0:0:
448,192,155428,1,2,0:0:0:0:
64,192,155758,1,2,0:0:0:0:
192,192,155758,1,4,0:0:0:0:
320,192,155923,128,0,157901:0:0:0:0:
192,192,157901,1,8,0:0:0:0:
64,192,158066,1,8,0:0:0:0:
448,192,158066,1,0,0:0:0:50:tom3.wav
192,192,158395,1,2,0:0:0:0:
320,192,158395,1,4,0:0:0:0:
64,192,158890,1,8,0:0:0:0:
448,192,158890,1,0,0:0:0:0:
192,192,159220,1,2,0:0:0:0:
320,192,159549,1,8,0:0:0:0:
448,192,159549,1,0,0:0:0:0:
64,192,159879,1,2,0:0:0:0:
192,192,160209,1,8,0:0:0:0:
448,192,160209,1,0,0:0:0:0:
320,192,160538,1,2,0:0:0:0:
64,192,160868,1,8,0:0:0:0:
320,192,161033,1,2,0:0:0:0:
448,192,161033,1,4,0:0:0:0:
64,192,161527,1,8,0:0:0:0:
192,192,161527,1,0,0:0:0:0:
448,192,161857,1,2,0:0:0:0:
64,192,162187,1,8,0:0:0:0:
320,192,162187,1,0,0:0:0:0:
192,192,162516,1,2,0:0:0:0:
320,192,162846,1,8,0:0:0:0:
448,192,162846,1,0,0:0:0:0:
64,192,163176,128,8,163670:0:0:0:0:
320,192,163670,1,2,0:0:0:0:
448,192,163670,1,4,0:0:0:0:
64,192,164165,1,8,0:0:0:0:
448,192,164165,1,0,0:0:0:0:
192,192,164494,1,2,0:0:0:0:
320,192,164824,1,8,0:0:0:0:
448,192,164824,1,0,0:0:0:0:
192,192,165154,1,0,0:0:0:0:
64,192,165483,1,8,0:0:0:0:
448,192,165483,1,0,0:0:0:0:
320,192,165813,1,2,0:0:0:0:
64,192,166143,1,8,0:0:0:0:
192,192,166143,1,0,0:0:0:0:
448,192,166308,128,2,166637:0:0:0:0:
192,192,166637,1,2,0:0:0:0:
320,192,166967,128,2,167297:0:0:0:0:
192,192,167297,1,2,0:0:0:0:
64,192,167626,128,2,167956:0:0:0:0:
320,192,167956,1,2,0:0:0:0:
64,192,168286,1,2,0:0:0:0:
192,192,168286,128,4,168615:0:0:0:0:
320,192,168615,128,8,168945:0:0:0:0:
64,192,168945,1,2,0:0:0:0:
448,192,168945,1,4,0:0:0:0:
64,192,169439,1,8,0:0:0:0:
192,192,169439,1,0,0:0:0:50:HHOpen.wav
64,192,169769,128,2,170099:0:0:0:0:
320,192,170099,128,8,170428:0:0:0:0:
64,192,170593,1,2,0:0:0:0:
64,192,170923,1,0,0:0:0:0:
320,192,171088,128,2,171417:0:0:0:0:
64,192,171417,1,8,0:0:0:0:
192,192,171582,1,2,0:0:0:0:
448,192,171582,1,4,0:0:0:0:
64,192,172077,1,8,0:0:0:0:
448,192,172077,1,0,0:0:0:50:HHOpen.wav
448,192,172406,128,2,172736:0:0:0:0:
64,192,172736,1,8,0:0:0:0:
192,192,172736,128,0,173066:0:0:0:50:HHOpen.wav
448,192,173231,1,2,0:0:0:0:
448,192,173560,1,0,0:0:0:0:
192,192,173725,128,2,174055:0:0:0:0:
448,192,174055,1,8,0:0:0:0:
64,192,174220,1,2,0:0:0:0:
320,192,174220,1,4,0:0:0:0:
320,192,174714,1,8,0:0:0:0:
320,192,175044,128,2,175373:0:0:0:0:
64,192,175373,128,8,175703:0:0:0:0:
448,192,175373,1,0,0:0:0:50:HHOpen.wav
320,192,175868,1,2,0:0:0:0:
320,192,176198,1,0,0:0:0:0:
64,192,176362,128,2,176692:0:0:0:0:
192,192,176692,1,8,0:0:0:0:
448,192,176692,1,0,0:0:0:0:
320,192,176857,128,2,177187:0:0:0:0:
64,192,177187,1,2,0:0:0:0:
448,192,177516,128,2,177846:0:0:0:0:
64,192,177846,1,2,0:0:0:0:
192,192,178176,128,2,178505:0:0:0:0:
448,192,178505,1,2,0:0:0:0:
64,192,178835,128,2,179165:0:0:0:0:
320,192,179165,128,2,179659:0:0:0:0:
64,192,179659,1,2,0:0:0:0:
192,192,179659,1,0,0:0:0:50:Splash.wav
448,192,179824,1,2,0:0:0:0:
64,192,179989,1,0,0:0:0:50:Rim.wav
64,192,180319,1,0,0:0:0:50:Rim.wav
64,192,180648,1,0,0:0:0:50:Rim.wav
64,192,180978,1,0,0:0:0:50:Rim.wav
64,192,181308,1,0,0:0:0:50:Rim.wav
64,192,181637,1,0,0:0:0:50:Rim.wav
64,192,181967,1,0,0:0:0:50:Rim.wav
448,192,182297,1,2,0:0:0:0:
64,192,182461,1,2,0:0:0:0:
448,192,182626,1,0,0:0:0:50:Rim.wav
448,192,182956,1,0,0:0:0:50:Rim.wav
448,192,183286,1,0,0:0:0:50:Rim.wav
448,192,183615,1,0,0:0:0:50:Rim.wav
448,192,183945,1,0,0:0:0:50:Rim.wav
448,192,184275,1,0,0:0:0:50:Rim.wav
448,192,184604,1,0,0:0:0:50:Rim.wav
192,192,184934,1,2,0:0:0:0:
320,192,185099,1,2,0:0:0:0:
192,192,185264,1,0,0:0:0:50:Rim.wav
192,192,185593,1,0,0:0:0:50:Rim.wav
192,192,185923,1,0,0:0:0:50:Rim.wav
192,192,186253,1,0,0:0:0:50:Rim.wav
192,192,186582,1,0,0:0:0:50:Rim.wav
192,192,186912,1,0,0:0:0:50:Rim.wav
192,192,187242,1,0,0:0:0:50:Rim.wav
320,192,187571,1,2,0:0:0:0:
192,192,187736,1,2,0:0:0:0:
320,192,187901,1,0,0:0:0:50:Rim.wav
320,192,188231,1,0,0:0:0:50:Rim.wav
320,192,188560,1,0,0:0:0:50:Rim.wav
320,192,188890,1,2,0:0:0:0:
192,192,189055,1,2,0:0:0:0:
64,192,189220,1,0,0:0:0:50:Splash.wav
448,192,189220,1,0,0:0:0:0:
320,192,189549,128,0,189879:0:0:0:0:
64,192,189879,1,0,0:0:0:50:HHOpen.wav
320,192,190209,1,2,0:0:0:0:
448,192,190209,128,4,190703:0:0:0:0:
64,192,190703,128,8,191198:0:0:0:0:
192,192,190703,1,0,0:0:0:0:
320,192,191198,128,0,191527:0:0:0:50:HHOpen.wav
192,192,191527,128,2,192022:0:0:0:0:
64,192,192022,1,8,0:0:0:0:
448,192,192022,128,0,192351:0:0:0:0:
192,192,192516,128,0,192846:0:0:0:50:tom3.wav
320,192,192846,128,2,193340:0:0:0:0:
448,192,192846,1,4,0:0:0:0:
64,192,193340,128,8,193670:0:0:0:0:
192,192,193340,1,0,0:0:0:0:
448,192,193835,1,0,0:0:0:50:tom2.wav
320,192,194000,1,0,0:0:0:50:tom3.wav
64,192,194165,1,2,0:0:0:0:
192,192,194165,128,4,194494:0:0:0:0:
320,192,194494,1,2,0:0:0:0:
64,192,194659,128,8,194989:0:0:0:0:
448,192,194659,1,0,0:0:0:0:
320,192,194989,1,8,0:0:0:0:
448,192,194989,128,0,195319:0:0:0:50:LR_CymbalG.wav
192,192,195319,128,0,195813:0:0:0:0:
320,192,195813,1,10,0:0:0:0:
64,192,196143,1,10,0:0:0:0:
320,192,196472,1,10,0:0:0:0:
64,192,196802,1,10,0:0:0:0:
448,192,197132,1,10,0:0:0:0:
192,192,197461,1,10,0:0:0:0:
448,192,197791,1,10,0:0:0:0:
192,192,198121,1,10,0:0:0:0:
320,192,198450,1,10,0:0:0:0:
64,192,198780,1,10,0:0:0:0:
320,192,199110,1,10,0:0:0:0:
64,192,199439,1,2,0:0:0:0:
192,192,199769,1,0,0:0:0:0:
448,192,199934,128,0,200264:0:0:0:0:
64,192,200264,128,0,200593:0:0:0:0:
320,192,200593,1,2,0:0:0:0:
448,192,200593,128,4,201088:0:0:0:0:
64,192,201088,1,8,0:0:0:0:
192,192,201088,1,0,0:0:0:0:
320,192,201417,1,2,0:0:0:0:
64,192,201747,1,8,0:0:0:0:
448,192,201747,1,0,0:0:0:0:
192,192,201912,128,2,202406:0:0:0:0:
320,192,202406,1,8,0:0:0:0:
448,192,202406,1,0,0:0:0:0:
64,192,202571,128,0,202901:0:0:0:0:
448,192,202901,1,2,0:0:0:0:
320,192,203231,128,2,203725:0:0:0:0:
64,192,203725,1,8,0:0:0:0:
192,192,203725,1,0,0:0:0:0:
448,192,203890,128,0,204220:0:0:0:0:
192,192,204220,128,2,204549:0:0:0:0:
320,192,204549,128,2,204879:0:0:0:0:
64,192,204879,128,2,205209:0:0:0:0:
448,192,205373,1,2,0:0:0:0:
192,192,205703,1,8,0:0:0:0:
320,192,205868,1,2,0:0:0:0:
448,192,205868,128,4,206198:0:0:0:0:
64,192,206198,128,2,206527:0:0:0:0:
320,192,206527,128,0,206857:0:0:0:0:
64,192,207022,1,8,0:0:0:0:
320,192,207187,1,2,0:0:0:0:
448,192,207187,128,4,207516:0:0:0:0:
64,192,207516,128,2,207846:0:0:0:0:
192,192,207846,128,0,208176:0:0:0:0:
448,192,208176,1,2,0:0:0:0:
320,192,208340,1,8,0:0:0:0:
64,192,208505,128,2,208835:0:0:0:0:
320,192,208835,1,2,0:0:0:0:
64,192,209165,128,2,209494:0:0:0:0:
320,192,209494,1,2,0:0:0:0:
448,192,209824,128,2,210154:0:0:0:0:
192,192,210154,1,2,0:0:0:0:
448,192,210483,128,6,210813:0:0:0:0:
192,192,210813,128,8,211143:0:0:0:0:
320,192,211143,128,2,211637:0:0:0:0:
448,192,211143,1,4,0:0:0:0:
64,192,211637,1,8,0:0:0:0:
192,192,211637,1,0,0:0:0:0:
64,192,211967,1,2,0:0:0:0:
320,192,212297,1,8,0:0:0:0:
448,192,212297,1,0,0:0:0:0:
192,192,212461,128,2,212956:0:0:0:0:
320,192,212956,1,8,0:0:0:0:
448,192,212956,1,0,0:0:0:0:
64,192,213121,128,0,213450:0:0:0:0:
320,192,213450,1,2,0:0:0:0:
448,192,213780,128,2,214275:0:0:0:0:
64,192,214275,1,8,0:0:0:0:
320,192,214275,1,0,0:0:0:0:
192,192,214439,128,0,214769:0:0:0:0:
320,192,214769,128,2,215099:0:0:0:0:
448,192,215099,128,2,215428:0:0:0:0:
192,192,215428,128,2,215758:0:0:0:0:
448,192,215923,1,2,0:0:0:0:
64,192,216088,1,2,0:0:0:0:
320,192,216253,1,8,0:0:0:0:
64,192,216417,1,2,0:0:0:0:
192,192,216417,128,4,216747:0:0:0:0:
448,192,216747,128,2,217077:0:0:0:0:
320,192,217077,128,0,217406:0:0:0:0:
64,192,217571,1,8,0:0:0:0:
320,192,217736,128,2,218066:0:0:0:0:
448,192,217736,1,4,0:0:0:0:
64,192,218066,128,2,218395:0:0:0:0:
192,192,218395,128,0,218725:0:0:0:0:
320,192,218890,1,8,0:0:0:0:
448,192,218890,1,0,0:0:0:0:
64,192,219055,128,2,219384:0:0:0:0:
320,192,219384,1,2,0:0:0:0:
192,192,219714,128,2,220044:0:0:0:0:
320,192,220044,1,2,0:0:0:0:
448,192,220373,128,2,220703:0:0:0:0:
192,192,220703,1,2,0:0:0:0:
320,192,221033,128,2,221362:0:0:0:0:
64,192,221362,1,2,0:0:0:0:
192,192,221527,1,8,0:0:0:0:
448,192,221527,1,0,0:0:0:0:
64,192,221857,1,2,0:0:0:0:
192,192,221857,1,4,0:0:0:0:
320,192,222187,1,8,0:0:0:0:
448,192,222187,1,0,0:0:0:50:HHOpen.wav
448,192,222516,128,2,222846:0:0:0:0:
64,192,222846,128,8,223176:0:0:0:0:
448,192,223340,1,2,0:0:0:0:
448,192,223670,1,0,0:0:0:0:
64,192,223835,128,2,224165:0:0:0:0:
448,192,224165,1,8,0:0:0:0:
192,192,224329,1,2,0:0:0:0:
320,192,224329,1,4,0:0:0:0:
64,192,224824,1,8,0:0:0:0:
320,192,224824,1,0,0:0:0:50:HHOpen.wav
320,192,225154,128,2,225483:0:0:0:0:
64,192,225483,1,8,0:0:0:0:
192,192,225483,128,0,225813:0:0:0:50:HHOpen.wav
320,192,225978,1,2,0:0:0:0:
320,192,226308,1,0,0:0:0:0:
192,192,226472,128,2,226802:0:0:0:0:
320,192,226802,1,8,0:0:0:0:
64,192,226967,1,2,0:0:0:0:
448,192,226967,1,4,0:0:0:0:
64,192,227461,1,8,0:0:0:0:
320,192,227461,1,0,0:0:0:50:HHOpen.wav
64,192,227791,128,2,228121:0:0:0:0:
320,192,228121,1,8,0:0:0:0:
448,192,228121,128,0,228450:0:0:0:50:HHOpen.wav
64,192,228615,1,2,0:0:0:0:
64,192,228945,1,0,0:0:0:0:
448,192,229110,128,2,229439:0:0:0:0:
64,192,229439,1,8,0:0:0:0:
192,192,229439,1,0,0:0:0:0:
320,192,229604,128,2,229934:0:0:0:0:
64,192,229934,1,2,0:0:0:0:
320,192,230264,128,2,230593:0:0:0:0:
64,192,230593,1,2,0:0:0:0:
192,192,230923,128,2,231253:0:0:0:0:
448,192,231253,1,2,0:0:0:0:
64,192,231582,128,6,231912:0:0:0:0:
320,192,231912,128,8,232242:0:0:0:0:
64,192,232242,1,2,0:0:0:0:
192,192,232242,1,4,0:0:0:0:
192,192,232736,1,8,0:0:0:0:
448,192,232736,1,0,0:0:0:50:HHOpen.wav
448,192,233066,128,2,233395:0:0:0:0:
64,192,233395,1,8,0:0:0:0:
192,192,233395,128,0,233725:0:0:0:50:HHOpen.wav
448,192,233890,1,2,0:0:0:0:
448,192,234220,1,0,0:0:0:0:
192,192,234384,128,2,234714:0:0:0:0:
448,192,234714,1,8,0:0:0:0:
64,192,234879,1,2,0:0:0:0:
320,192,234879,1,4,0:0:0:0:
64,192,235373,1,8,0:0:0:0:
448,192,235373,1,0,0:0:0:50:HHOpen.wav
64,192,235703,128,2,236033:0:0:0:0:
192,192,236033,1,8,0:0:0:0:
320,192,236033,128,0,236362:0:0:0:50:HHOpen.wav
64,192,236527,1,2,0:0:0:0:
64,192,236857,1,8,0:0:0:0:
320,192,237022,128,0,237351:0:0:0:50:tom1.wav
64,192,237351,1,0,0:0:0:50:tom3.wav
192,192,237516,1,2,0:0:0:0:
448,192,237516,1,4,0:0:0:0:
192,192,238011,1,8,0:0:0:0:
320,192,238011,1,0,0:0:0:50:HHOpen.wav
192,192,238340,128,2,238670:0:0:0:0:
320,192,238670,1,8,0:0:0:0:
448,192,238670,128,0,239000:0:0:0:50:HHOpen.wav
192,192,239165,1,2,0:0:0:0:
192,192,239494,1,0,0:0:0:0:
448,192,239659,128,2,239989:0:0:0:0:
64,192,239989,1,8,0:0:0:0:
192,192,239989,1,0,0:0:0:0:
320,192,240154,128,2,240483:0:0:0:0:
64,192,240483,1,2,0:0:0:0:
320,192,240813,128,2,241143:0:0:0:0:
64,192,241143,1,2,0:0:0:0:
192,192,241472,128,2,241802:0:0:0:0:
448,192,241802,1,2,0:0:0:0:
64,192,242132,128,2,242461:0:0:0:0:
448,192,242461,128,2,242956:0:0:0:0:
64,192,242956,1,8,0:0:0:0:
192,192,242956,1,4,0:0:0:0:
192,192,243286,1,2,0:0:0:0:
320,192,243450,1,8,0:0:0:0:
448,192,243450,1,4,0:0:0:0:
320,192,243780,1,2,0:0:0:0:
64,192,243945,1,8,0:0:0:0:
320,192,244110,1,8,0:0:0:0:
448,192,244110,1,0,0:0:0:50:tom3.wav
