osu file format v14

[General]
AudioFilename: audio.mp3
AudioLeadIn: 0
PreviewTime: 84758
Countdown: 0
SampleSet: Soft
StackLeniency: 0.3
Mode: 0
LetterboxInBreaks: 0
WidescreenStoryboard: 0

[Editor]
Bookmarks: 775,857,940,1022,1105,11654,22203,43302,64401,85500,106599,130335,151434,172368,193632,204181,214731,235830,256929,278028,288577,288659,288742,288824,288907
DistanceSpacing: 1.5
BeatDivisor: 4
GridSize: 32
TimelineZoom: 1.7

[Metadata]
Title:Amy
TitleUnicode:エイミー
Artist:THE ORAL CIGARETTES
ArtistUnicode:THE ORAL CIGARETTES
Creator:malxsant
Version:Memories
Source:
Tags:jrock japanese Fixion before it's too late mifuru Flake
BeatmapID:2030283
BeatmapSetID:970166

[Difficulty]
HPDrainRate:6
CircleSize:3.8
OverallDifficulty:9
ApproachRate:9.3
SliderMultiplier:1.7
SliderTickRate:1

[Events]
//Background and Video events
0,0,"amy.jpg",0,0
//Break Periods
//Storyboard Layer 0 (Background)
//Storyboard Layer 1 (Fail)
//Storyboard Layer 2 (Pass)
//Storyboard Layer 3 (Foreground)
//Storyboard Layer 4 (Overlay)
//Storyboard Sound Samples

[TimingPoints]
1105,329.67032967033,4,2,1,70,1,0
1105,-142.857142857143,4,2,1,50,0,0
1352,-142.857142857143,4,2,1,5,0,0
1434,-142.857142857143,4,2,1,50,0,0
3989,-142.857142857143,4,2,1,5,0,0
4072,-142.857142857143,4,2,1,50,0,0
11654,-100,4,2,1,70,0,0
19813,-100,4,2,1,5,0,0
19896,-100,4,2,1,70,0,0
22203,-111.111111111111,4,2,1,70,0,0
22286,-111.111111111111,4,2,1,60,0,0
22451,-111.111111111111,4,2,1,5,0,0
22533,-111.111111111111,4,2,1,60,0,0
35637,-111.111111111111,4,2,1,5,0,0
35720,-111.111111111111,4,2,1,60,0,0
39429,-111.111111111111,4,2,1,5,0,0
39511,-111.111111111111,4,2,1,60,0,0
43302,-105.263157894737,4,2,1,65,0,0
43550,-105.263157894737,4,2,1,5,0,0
43632,-105.263157894737,4,2,1,65,0,0
45857,-105.263157894737,4,2,1,5,0,0
45940,-105.263157894737,4,2,1,65,0,0
48495,-105.263157894737,4,2,1,5,0,0
48577,-105.263157894737,4,2,1,65,0,0
51132,-105.263157894737,4,2,1,5,0,0
51214,-105.263157894737,4,2,1,65,0,0
85500,-83.3333333333333,4,2,2,75,0,1
85583,-83.3333333333333,4,2,1,75,0,0
88055,-83.3333333333333,4,2,1,5,0,0
88137,-83.3333333333333,4,2,1,75,0,0
106599,-83.3333333333333,4,2,2,75,0,1
106681,-83.3333333333333,4,2,1,75,0,0
122670,-83.3333333333333,4,2,1,5,0,0
122753,-83.3333333333333,4,2,1,75,0,0
127698,-83.3333333333333,4,2,1,65,0,0
129346,-83.3333333333333,4,2,2,65,0,0
129511,-83.3333333333333,4,2,1,65,0,0
130006,-133.333333333333,4,2,1,65,0,0
130253,-133.333333333333,4,2,1,5,0,0
130335,-100,4,2,2,70,0,0
130583,-100,4,2,2,5,0,0
130665,-100,4,2,1,70,0,0
133220,-100,4,2,1,5,0,0
133302,-100,4,2,1,70,0,0
135857,-100,4,2,1,5,0,0
135940,-100,4,2,1,70,0,0
140390,-100,4,2,2,70,0,0
140885,-100,4,2,1,70,0,0
146407,-100,4,2,1,5,0,0
146489,-100,4,2,1,70,0,0
149044,-100,4,2,1,5,0,0
149126,-100,4,2,1,70,0,0
164621,-100,4,2,2,70,0,0
164786,-100,4,2,1,70,0,0
169896,-100,4,2,2,70,0,0
170061,-100,4,2,1,70,0,0
172368,-100,4,2,1,65,0,0
172615,-100,4,2,1,5,0,0
172698,-100,4,2,1,65,0,0
182423,-100,4,2,2,65,0,0
182588,-100,4,2,1,65,0,0
190335,-100,4,2,2,65,0,0
190500,-100,4,2,1,65,0,0
190665,-100,4,2,2,65,0,0
190830,-100,4,2,1,65,0,0
192313,-100,4,2,2,65,0,0
192478,-100,4,2,1,65,0,0
193632,-142.857142857143,4,2,1,65,0,0
193714,-142.857142857143,4,2,1,40,0,0
203028,-100,4,2,1,45,0,0
204181,-142.857142857143,4,2,1,55,0,0
212094,-100,4,2,1,65,0,0
214072,-125,4,2,1,65,0,0
214319,-125,4,2,1,5,0,0
214401,-125,4,2,1,65,0,0
214648,-125,4,2,1,5,0,0
214731,-83.3333333333333,4,2,2,75,0,1
214813,-83.3333333333333,4,2,1,75,0,0
217286,-83.3333333333333,4,2,1,5,0,0
217368,-83.3333333333333,4,2,1,75,0,0
227835,-83.3333333333333,4,2,1,5,0,0
227918,-83.3333333333333,4,2,1,75,0,0
230802,-83.3333333333333,4,2,1,5,0,0
230885,-83.3333333333333,4,2,1,75,0,0
235830,-76.9230769230769,4,2,2,85,0,1
235995,-76.9230769230769,4,2,1,85,0,1
241352,-76.9230769230769,4,2,1,5,0,1
241434,-76.9230769230769,4,2,1,85,0,1
251901,-76.9230769230769,4,2,1,5,0,1
251984,-76.9230769230769,4,2,1,85,0,1
254539,-76.9230769230769,4,2,1,5,0,1
254621,-76.9230769230769,4,2,1,85,0,1
256929,-90.9090909090909,4,2,2,75,0,0
257258,-90.9090909090909,4,2,1,75,0,0
266984,-90.9090909090909,4,2,2,75,0,0
267478,-90.9090909090909,4,2,1,75,0,0
272753,-90.9090909090909,4,2,2,75,0,0
273083,-90.9090909090909,4,2,1,75,0,0
278028,-111.111111111111,4,2,1,70,0,0

[Colours]
Combo1 : 255,0,128
Combo2 : 88,174,255
Combo3 : 255,128,192
Combo4 : 255,128,64

[HitObjects]
375,125,1105,6,0,P|388:159|364:211,1,89.2499972763062,6|0,0:0|0:0,0:0:0:0:
369,206,1434,2,0,L|290:201,1,59.4999981842042,10|0,0:0|0:0,0:0:0:0:
207,155,1764,1,2,0:0:0:0:
207,155,1929,2,0,L|202:234,1,59.4999981842042,2|8,0:0|0:0,0:0:0:0:
305,301,2258,6,0,B|351:303|351:303|371:311|371:311|427:312,1,118.999996368408,2|0,0:0|0:0,0:0:0:0:
340,213,2753,1,10,0:0:0:0:
218,338,2918,2,0,L|139:333,1,59.4999981842042,2|0,0:0|0:0,0:0:0:0:
99,259,3247,1,2,0:0:0:0:
193,246,3412,1,10,0:0:0:0:
64,347,3577,1,0,0:0:0:0:
135,177,3742,6,0,P|170:152|214:158,1,89.2499972763062,2|0,2:0|2:0,2:0:0:0:
212,157,4072,2,0,L|205:71,1,59.4999981842042,10|0,0:0|0:0,0:0:0:0:
287,233,4401,1,2,0:0:0:0:
193,246,4566,1,2,0:0:0:0:
308,151,4731,1,8,0:0:0:0:
448,308,4896,6,0,B|451:229|451:229|435:188,1,118.999996368408,2|0,0:0|0:0,0:0:0:0:
381,103,5390,1,10,0:0:0:0:
276,240,5555,2,0,L|190:234,1,59.4999981842042,2|0,0:0|0:0,0:0:0:0:
435,168,5885,1,2,0:0:0:0:
419,260,6050,1,10,0:0:0:0:
347,200,6214,1,0,0:0:0:0:
243,324,6379,6,0,B|212:330|212:330|157:318,1,59.4999981842042,6|0,0:0|0:0,0:0:0:0:
89,220,6709,2,0,L|148:215,1,59.4999981842042,10|0,0:0|0:0,0:0:0:0:
272,219,7039,1,2,0:0:0:0:
102,308,7203,1,2,0:0:0:0:
168,223,7368,1,8,0:0:0:0:
254,328,7533,6,0,P|307:353|374:339,1,118.999996368408,2|0,0:0|0:0,0:0:0:0:
465,306,8028,1,10,0:0:0:0:
330,192,8192,2,0,L|321:250,1,59.4999981842042,2|0,0:0|0:0,0:0:0:0:
458,208,8522,1,0,0:0:0:0:
458,208,8687,2,0,L|449:149,1,59.4999981842042,10|0,0:0|0:0,0:0:0:0:
369,79,9017,5,2,0:0:0:0:
337,197,9181,1,0,0:0:0:0:
233,26,9346,1,10,0:0:0:0:
265,144,9511,1,0,0:0:0:0:
316,14,9676,1,2,0:0:0:0:
175,157,9841,2,0,L|116:162,1,59.4999981842042,2|8,0:0|0:0,0:0:0:0:
337,197,10170,5,2,0:0:0:0:
337,197,10335,2,0,L|342:256,1,59.4999981842042,2|0,0:0|0:0,0:0:0:0:
252,304,10665,2,0,L|247:363,1,59.4999981842042,10|0,0:0|0:0,0:0:0:0:
159,255,10995,5,10,0:0:0:0:
166,232,11077,1,8,0:0:0:0:
167,208,11159,1,8,0:0:0:0:
163,185,11242,1,8,0:0:0:0:
155,163,11324,5,10,0:3:0:0:
121,187,11406,1,8,0:3:0:0:
80,192,11488,1,8,0:3:0:0:
42,178,11571,1,8,0:3:0:0:
14,147,11654,6,0,P|55:76|135:87,1,170,6|8,0:0|0:0,0:0:0:0:
159,255,12148,1,2,0:0:0:0:
282,142,12313,2,0,L|367:151,1,85
414,265,12643,1,10,0:0:0:0:
294,328,12808,6,0,B|249:316|211:336|211:336|173:355|126:345,1,170
50,253,13302,2,0,P|37:212|39:170,1,85,10|0,0:0|0:0,0:0:0:0:
166,261,13632,1,0,0:0:0:0:
166,261,13797,1,0,0:0:0:0:
238,165,13962,2,0,P|280:166|320:153,1,85,10|0,0:0|0:0,0:0:0:0:
409,44,14291,6,0,B|420:169|420:169|406:224,1,170,2|8,0:0|0:0,0:0:0:0:
298,290,14786,1,2,0:0:0:0:
212,185,14951,2,0,L|125:193,2,85,0|0|10,0:0|0:0|0:0,0:0:0:0:
120,289,15445,6,0,P|61:265|34:152,1,170
131,28,15940,2,0,L|123:115,1,85,10|0,0:0|0:0,0:0:0:0:
232,263,16269,1,2,0:0:0:0:
220,62,16434,1,0,0:0:0:0:
115,202,16599,1,10,0:0:0:0:
312,150,16764,5,0,0:0:0:0:
312,150,16846,1,0,0:0:0:0:
312,150,16929,2,0,P|361:170|435:147,1,127.5,6|0,0:0|0:0,0:0:0:0:
430,150,17258,2,0,P|440:107|434:57,1,85,10|0,0:0|0:0,0:0:0:0:
371,210,17588,2,0,L|375:295,1,85,2|2,0:0|0:0,0:0:0:0:
494,235,17918,1,8,0:0:0:0:
341,322,18083,6,0,P|260:321|198:248,1,170,2|0,0:0|0:0,0:0:0:0:
203,115,18577,1,10,0:0:0:0:
294,237,18742,1,2,0:0:0:0:
151,187,18907,2,0,L|67:194,1,85
182,301,19236,1,10,0:0:0:0:
292,125,19401,5,0,0:0:0:0:
292,125,19484,1,0,0:0:0:0:
292,125,19566,2,0,P|344:133|395:190,1,127.5,6|0,0:0|0:0,0:0:0:0:
393,185,19896,2,0,L|398:283,1,85,10|0,0:0|0:0,0:0:0:0:
256,271,20225,1,2,0:0:0:0:
299,362,20390,1,2,0:0:0:0:
314,203,20555,1,8,0:0:0:0:
198,339,20720,6,0,P|114:345|47:277,1,170,2|0,0:0|0:0,0:0:0:0:
75,124,21214,2,0,L|171:134,1,85,10|0,0:0|0:0,0:0:0:0:
325,167,21544,1,2,0:0:0:0:
162,225,21709,1,10,0:0:0:0:
257,61,21874,1,8,0:0:0:0:
292,266,22039,1,8,0:0:0:0:
387,102,22203,6,0,B|427:85|479:98|479:98|451:119,1,114.749996498108,6|0,0:0|0:0,0:0:0:0:
462,110,22533,2,0,L|466:194,1,76.4999976654053,10|0,0:0|0:0,0:0:0:0:
365,305,22863,2,0,L|368:228,1,76.4999976654053,2|0,0:0|0:0,0:0:0:0:
371,144,23192,1,0,0:0:0:0:
288,228,23357,2,0,P|219:264|142:247,1,152.999995330811,10|0,0:0|0:0,0:0:0:0:
87,171,23852,2,0,P|63:200|52:236,1,76.4999976654053,10|0,0:0|0:0,0:0:0:0:
186,129,24181,2,0,P|223:135|260:126,1,76.4999976654053,2|0,0:0|0:0,0:0:0:0:
100,65,24511,2,0,P|86:29|60:1,1,76.4999976654053,10|0,0:0|0:0,0:0:0:0:
163,207,24841,5,0,0:0:0:0:
163,207,25170,2,0,L|240:211,1,76.4999976654053,10|0,0:0|0:0,0:0:0:0:
323,219,25500,1,2,0:0:0:0:
274,288,25665,1,0,0:0:0:0:
288,137,25830,1,0,0:0:0:0:
406,268,25995,2,0,P|468:215|455:130,1,152.999995330811,10|0,0:0|0:0,0:0:0:0:
327,100,26489,2,0,L|250:104,1,76.4999976654053,10|0,0:0|0:0,0:0:0:0:
322,259,26819,1,2,0:0:0:0:
371,190,26984,1,0,0:0:0:0:
238,250,27148,2,0,L|161:246,1,76.4999976654053,10|0,0:0|0:0,0:0:0:0:
109,116,27478,5,0,0:0:0:0:
109,116,27808,2,0,P|100:155|105:193,1,76.4999976654053,10|0,0:0|0:0,0:0:0:0:
131,270,28137,1,2,0:0:0:0:
186,205,28302,1,0,0:0:0:0:
49,254,28467,1,0,0:0:0:0:
213,286,28632,2,0,L|367:278,1,152.999995330811,10|0,0:0|0:0,0:0:0:0:
453,199,29126,2,0,P|447:162|429:128,1,76.4999976654053,10|0,0:0|0:0,0:0:0:0:
281,170,29456,2,0,P|316:184|354:185,1,76.4999976654053,2|0,0:0|0:0,0:0:0:0:
393,36,29786,2,0,P|363:59|343:92,1,76.4999976654053,10|0,0:0|0:0,0:0:0:0:
365,278,30115,5,0,0:0:0:0:
365,278,30445,2,0,P|329:291|291:292,1,76.4999976654053,10|0,0:0|0:0,0:0:0:0:
197,216,30775,2,0,L|193:139,1,76.4999976654053,2|0,0:0|0:0,0:0:0:0:
179,336,31105,1,0,0:0:0:0:
83,258,31269,2,0,B|77:147|77:147|114:186,1,152.999995330811,10|0,0:0|0:0,0:0:0:0:
245,286,31764,1,10,0:0:0:0:
193,139,31929,1,0,0:0:0:0:
179,336,32094,2,0,P|143:349|105:350,1,76.4999976654053,2|0,0:0|0:0,0:0:0:0:
105,177,32423,1,10,0:0:0:0:
252,293,32588,1,8,0:0:0:0:
252,293,32670,1,8,0:0:0:0:
252,293,32753,6,0,L|248:216,1,76.4999976654053,4|0,0:0|0:0,0:0:0:0:
171,118,33083,1,8,0:0:0:0:
171,118,33412,6,0,P|158:154|157:192,1,76.4999976654053
199,294,33742,1,2,0:0:0:0:
266,205,33907,2,0,L|274:51,1,152.999995330811,8|0,0:0|0:0,0:0:0:0:
379,83,34401,2,0,L|383:160,1,76.4999976654053,10|0,0:0|0:0,0:0:0:0:
466,233,34731,2,0,L|470:156,1,76.4999976654053,2|0,0:0|0:0,0:0:0:0:
296,156,35061,2,0,L|292:233,1,76.4999976654053,10|0,0:0|0:0,0:0:0:0:
256,366,35390,6,0,P|196:360|149:322,1,114.749996498108
125,298,35720,1,8,0:0:0:0:
124,297,36050,5,2,0:0:0:0:
224,237,36214,2,0,P|263:238|298:251,1,76.4999976654053,0|2,0:0|0:0,0:0:0:0:
427,340,36544,2,0,P|472:280|470:204,1,152.999995330811,8|0,0:0|0:0,0:0:0:0:
371,81,37039,2,0,P|333:82|298:95,1,76.4999976654053,10|0,0:0|0:0,0:0:0:0:
237,165,37368,2,0,P|199:164|164:151,1,76.4999976654053,2|0,0:0|0:0,0:0:0:0:
103,81,37698,2,0,P|65:82|30:95,1,76.4999976654053,10|0,0:0|0:0,0:0:0:0:
129,237,38028,6,0,B|124:314|124:314|147:345,1,114.749996498108
173,376,38357,1,10,0:0:0:0:
173,376,38687,5,2,0:0:0:0:
310,265,38852,1,2,0:0:0:0:
210,281,39017,1,0,0:0:0:0:
273,360,39181,2,0,P|330:366|386:333,1,114.749996498108,10|0,0:0|0:0,0:0:0:0:
404,306,39511,1,0,0:0:0:0:
347,170,39676,1,8,0:0:0:0:
347,170,40006,2,0,L|319:246,1,76.4999976654053,2|0,0:0|0:0,0:0:0:0:
453,160,40335,2,0,L|426:88,1,76.4999976654053,10|0,0:0|0:0,0:0:0:0:
315,59,40665,6,0,L|256:63|256:63|228:78|228:78|166:76,1,152.999995330811,2|10,0:0|0:0,0:0:0:0:
283,140,41159,1,2,0:0:0:0:
210,3,41324,1,0,0:0:0:0:
128,135,41489,1,2,0:0:0:0:
321,64,41654,1,8,0:0:0:0:
200,195,41819,6,0,P|198:270|243:330,1,152.999995330811,2|2,0:0|0:0,0:0:0:0:
289,239,42313,1,8,0:0:0:0:
119,310,42478,1,2,0:0:0:0:
284,340,42643,2,0,L|361:336,1,76.4999976654053
369,183,42973,1,10,0:0:0:0:
326,186,43055,1,8,0:0:0:0:
285,189,43137,1,8,0:3:0:0:
242,192,43220,1,8,0:3:0:0:
200,195,43302,6,0,P|161:148|160:88,1,121.124996765614,4|2,0:0|0:0,0:0:0:0:
159,90,43632,2,0,L|242:93,1,80.7499978437424,10|0,0:0|0:0,0:0:0:0:
436,97,43962,2,0,L|355:101,1,80.7499978437424,2|0,0:0|0:0,0:0:0:0:
285,189,44291,1,8,0:0:0:0:
394,320,44456,6,0,P|445:257|446:178,1,161.499995687485,2|0,0:0|0:0,0:0:0:0:
281,102,44951,1,10,0:0:0:0:
363,229,45115,1,0,0:0:0:0:
205,146,45280,2,0,L|123:150,1,80.7499978437424,2|0,0:0|0:0,0:0:0:0:
222,269,45610,2,0,P|282:286|345:244,1,121.124996765614,10|0,0:0|0:0,0:0:0:0:
363,229,45940,5,0,0:0:0:0:
363,229,46269,2,0,L|367:310,1,80.7499978437424,10|0,0:0|0:0,0:0:0:0:
298,162,46599,1,2,0:0:0:0:
453,206,46764,1,0,0:0:0:0:
273,252,46929,1,8,0:0:0:0:
388,139,47094,6,0,B|394:28|394:28|357:67,1,161.499995687485,2|0,0:0|0:0,0:0:0:0:
298,162,47588,1,10,0:0:0:0:
478,116,47753,1,0,0:0:0:0:
323,72,47918,1,2,0:0:0:0:
363,229,48083,1,0,0:0:0:0:
413,49,48247,2,0,L|289:55,1,121.124996765614,10|0,0:0|0:0,0:0:0:0:
247,60,48577,5,0,0:0:0:0:
247,60,48907,2,0,P|249:100|262:137,1,80.7499978437424,10|0,0:0|0:0,0:0:0:0:
195,279,49236,2,0,P|193:238|179:201,1,80.7499978437424,2|0,0:0|0:0,0:0:0:0:
127,94,49566,1,8,0:0:0:0:
292,219,49731,6,0,P|369:231|424:176,1,161.499995687485,2|0,0:0|0:0,0:0:0:0:
353,81,50225,2,0,P|311:83|274:96,1,80.7499978437424,10|0,0:0|0:0,0:0:0:0:
210,189,50555,1,2,0:0:0:0:
198,48,50720,1,0,0:0:0:0:
331,161,50885,2,0,B|411:175|411:175|465:158,1,121.124996765614,10|0,0:0|0:0,0:0:0:0:
489,145,51214,5,0,0:0:0:0:
489,145,51544,2,0,L|494:238,1,80.7499978437424,10|0,0:0|0:0,0:0:0:0:
387,262,51874,1,2,0:0:0:0:
321,152,52039,2,0,L|228:157,1,80.7499978437424,0|8,0:0|0:0,0:0:0:0:
91,232,52368,6,0,P|146:286|222:274,1,161.499995687485,2|0,0:0|0:0,0:0:0:0:
331,161,52863,1,10,0:0:0:0:
176,202,53028,1,0,0:0:0:0:
312,249,53192,2,0,L|392:244,1,80.7499978437424,2|0,0:0|0:0,0:0:0:0:
236,110,53522,1,10,0:0:0:0:
222,274,53687,1,0,0:0:0:0:
341,170,53852,6,0,B|355:125|355:125|348:10,1,161.499995687485,6|8,0:0|0:0,0:0:0:0:
261,27,54346,2,0,B|177:9|189:65|103:46,1,161.499995687485,2|0,0:0|0:0,0:0:0:0:
36,106,54841,2,0,L|32:187,1,80.7499978437424,10|0,0:0|0:0,0:0:0:0:
56,335,55170,2,0,P|96:335|132:318,1,80.7499978437424
270,211,55500,1,8,0:0:0:0:
160,154,55665,1,0,0:0:0:0:
220,277,55830,2,0,P|258:294|316:286,1,80.7499978437424,2|0,0:0|0:0,0:0:0:0:
406,188,56159,2,0,P|368:171|310:179,1,80.7499978437424,10|0,0:0|0:0,0:0:0:0:
435,362,56489,6,0,P|489:307|477:231,1,161.499995687485,2|8,0:0|0:0,0:0:0:0:
402,279,56984,2,0,B|317:260|329:316|245:298,1,161.499995687485,2|0,0:0|0:0,0:0:0:0:
165,261,57478,2,0,L|161:180,1,80.7499978437424,10|0,0:0|0:0,0:0:0:0:
286,301,57808,1,0,0:0:0:0:
233,119,57973,1,0,0:0:0:0:
89,232,58137,2,0,P|48:232|11:218,1,80.7499978437424,10|0,0:0|0:0,0:0:0:0:
159,95,58467,2,0,P|198:98|233:119,1,80.7499978437424,2|0,0:0|0:0,0:0:0:0:
165,261,58797,1,10,0:0:0:0:
74,114,58962,1,0,0:0:0:0:
250,204,59126,6,0,B|358:195|358:195|414:211,1,161.499995687485,4|10,0:0|0:0,0:0:0:0:
348,294,59621,1,0,0:0:0:0:
315,158,59786,2,0,L|311:77,1,80.7499978437424,2|0,0:0|0:0,0:0:0:0:
259,289,60115,1,8,0:0:0:0:
201,137,60280,2,0,P|134:119|61:172,1,161.499995687485,2|0,0:0|0:0,0:0:0:0:
54,298,60775,1,10,0:0:0:0:
147,216,60940,1,0,0:0:0:0:
207,351,61105,2,0,P|245:368|303:360,1,80.7499978437424,2|0,0:0|0:0,0:0:0:0:
252,204,61434,1,10,0:0:0:0:
139,298,61599,1,0,0:0:0:0:
349,319,61764,6,0,B|363:267|363:267|354:159,1,161.499995687485,4|10,0:0|0:0,0:0:0:0:
241,82,62258,1,0,0:0:0:0:
167,219,62423,2,0,L|247:215,1,80.7499978437424,2|0,0:0|0:0,0:0:0:0:
333,73,62753,1,8,0:0:0:0:
149,91,62918,2,0,P|88:125|74:214,1,161.499995687485,2|0,0:0|0:0,0:0:0:0:
139,298,63412,2,0,L|219:301,1,80.7499978437424,10|0,0:0|0:0,0:0:0:0:
327,170,63742,5,10,0:0:0:0:
167,219,63907,1,10,0:0:0:0:
407,244,64072,1,10,0:0:0:0:
247,195,64236,1,10,0:0:0:0:
362,346,64401,6,0,P|401:356|442:349,1,80.7499978437424,6|0,0:0|0:0,0:0:0:0:
264,295,64731,1,8,0:0:0:0:
327,170,64896,2,0,P|365:160|405:166,1,80.7499978437424,2|0,0:0|0:0,0:0:0:0:
228,221,65225,1,0,0:0:0:0:
396,248,65390,1,10,0:0:0:0:
253,299,65555,6,0,B|173:312|173:312|88:293,1,161.499995687485
54,187,66050,1,8,0:0:0:0:
175,256,66214,1,2,0:0:0:0:
81,291,66379,1,2,0:0:0:0:
148,152,66544,1,2,0:0:0:0:
269,221,66709,2,0,P|276:263|271:304,1,80.7499978437424,10|0,0:0|0:0,0:0:0:0:
242,117,67039,6,0,L|336:123,1,80.7499978437424,2|0,0:0|0:0,0:0:0:0:
388,210,67368,1,8,0:0:0:0:
249,221,67533,2,0,L|155:227,1,80.7499978437424,2|0,0:0|0:0,0:0:0:0:
329,336,67863,1,0,0:0:0:0:
315,171,68028,1,10,0:0:0:0:
422,302,68192,6,0,P|479:258|476:168,1,161.499995687485
406,71,68687,2,0,L|312:77,1,80.7499978437424,10|0,0:0|0:0,0:0:0:0:
214,134,69017,1,2,0:0:0:0:
341,165,69181,1,0,0:0:0:0:
142,188,69346,1,10,0:0:0:0:
286,80,69511,1,0,0:0:0:0:
269,219,69676,6,0,L|275:313,1,80.7499978437424,2|0,0:0|0:0,0:0:0:0:
214,134,70006,1,8,0:0:0:0:
142,188,70170,2,0,L|136:282,1,80.7499978437424,2|0,0:0|0:0,0:0:0:0:
87,103,70500,1,0,0:0:0:0:
220,137,70665,1,10,0:0:0:0:
70,242,70830,1,0,0:0:0:0:
187,57,70995,6,0,B|271:39|259:95|344:76,1,161.499995687485,2|8,0:0|0:0,0:0:0:0:
457,138,71489,2,0,P|458:179|444:218,1,80.7499978437424,2|0,0:0|0:0,0:0:0:0:
315,277,71819,1,0,0:0:0:0:
326,146,71984,1,10,0:0:0:0:
446,269,72148,1,0,0:0:0:0:
260,202,72313,6,0,P|219:202|182:216,1,80.7499978437424,2|0,0:0|0:0,0:0:0:0:
64,288,72643,1,10,0:0:0:0:
216,353,72808,2,0,B|331:359|331:359|396:334,1,161.499995687485,2|0,0:0|0:0,0:0:0:0:
446,269,73302,2,0,L|451:182,1,80.7499978437424,10|0,0:0|0:0,0:0:0:0:
373,62,73632,5,0,0:0:0:0:
335,222,73797,1,0,0:0:0:0:
255,104,73962,2,0,L|168:99,1,80.7499978437424,8|2,0:0|0:0,0:0:0:0:
48,94,74291,1,0,0:0:0:0:
130,212,74456,1,2,0:0:0:0:
130,212,74539,1,2,0:0:0:0:
130,212,74621,2,0,B|173:220|218:207|218:207|252:220,1,121.124996765614,10|0,0:0|0:0,0:0:0:0:
287,239,74951,6,0,P|298:196|291:151,1,80.7499978437424,6|0,0:0|0:0,0:0:0:0:
161,114,75280,1,8,0:0:0:0:
190,288,75445,2,0,P|236:351|316:354,1,161.499995687485,2|0,0:0|0:0,0:0:0:0:
351,197,75940,1,10,0:0:0:0:
174,201,76105,1,2,0:0:0:0:
174,201,76434,5,0,0:0:0:0:
288,126,76599,1,8,0:0:0:0:
275,275,76764,1,2,0:0:0:0:
154,190,76929,2,0,L|68:194,1,80.7499978437424,2|0,0:0|0:0,0:0:0:0:
173,279,77258,1,10,0:0:0:0:
192,101,77423,1,0,0:0:0:0:
348,228,77588,6,0,L|434:232,1,80.7499978437424,2|0,0:0|0:0,0:0:0:0:
251,196,77918,1,8,0:0:0:0:
400,103,78083,2,0,L|480:99,1,80.7499978437424,2|0,0:0|0:0,0:0:0:0:
302,135,78412,1,0,0:0:0:0:
428,231,78577,1,10,0:0:0:0:
303,57,78742,1,0,0:0:0:0:
303,57,79072,5,2,0:0:0:0:
437,135,79236,1,2,0:0:0:0:
235,96,79401,1,0,0:0:0:0:
371,18,79566,5,10,0:0:0:0:
301,213,79731,1,10,0:0:0:0:
235,17,79896,1,14,0:0:0:0:
235,17,80225,6,0,B|195:25|154:12|154:12|122:36|76:42,1,161.499995687485,6|8,0:0|0:0,0:0:0:0:
309,65,80720,1,0,0:0:0:0:
248,177,80885,2,0,P|185:223|110:203,1,161.499995687485,2|8,0:0|0:0,0:0:0:0:
167,92,81379,1,0,0:0:0:0:
391,150,81544,6,0,B|397:265|397:265|372:330,1,161.499995687485,6|8,0:0|0:0,0:0:0:0:
248,177,82039,1,0,0:0:0:0:
338,51,82203,2,0,P|413:30|476:76,1,161.499995687485,2|8,0:0|0:0,0:0:0:0:
391,150,82698,1,0,0:0:0:0:
221,98,82863,6,0,B|137:80|149:136|64:117,1,161.499995687485,6|8,0:0|0:0,0:0:0:0:
90,38,83357,1,2,0:0:0:0:
195,177,83522,1,0,0:0:0:0:
21,107,83687,1,2,0:0:0:0:
247,19,83852,2,0,P|261:65|260:102,1,80.7499978437424,10|2,0:0|0:0,0:0:0:0:
113,193,84181,5,4,0:0:0:0:
168,9,84346,1,0,0:0:0:0:
196,183,84511,1,12,0:0:0:0:
85,19,84676,1,4,0:0:0:0:
293,165,84841,5,8,0:0:0:0:
322,178,84923,1,8,0:0:0:0:
354,181,85006,1,8,0:0:0:0:
385,172,85088,1,8,0:0:0:0:
411,152,85170,1,8,0:0:0:0:
432,196,85253,1,8,0:0:0:0:
439,243,85335,1,8,0:0:0:0:
429,291,85418,1,8,0:0:0:0:
405,333,85500,6,0,P|354:343|301:327,1,101.999996887207,6|0,0:0|0:0,0:0:0:0:
197,235,85830,2,0,P|148:222|98:232,1,101.999996887207,14|0,0:0|0:0,0:0:0:0:
333,187,86159,1,2,0:0:0:0:
170,377,86324,1,0,0:0:0:0:
86,140,86489,2,0,L|194:146,1,101.999996887207,10|0,0:0|0:0,0:0:0:0:
295,275,86819,5,2,0:0:0:0:
268,86,86984,1,0,0:0:0:0:
454,191,87148,2,0,L|346:197,1,101.999996887207,10|0,0:0|0:0,0:0:0:0:
201,202,87478,1,2,0:0:0:0:
366,100,87643,1,0,0:0:0:0:
401,277,87808,2,0,B|307:289|307:289|245:276,1,152.999995330811,10|0,0:0|0:0,0:0:0:0:
250,277,88137,6,0,P|199:283|157:311,1,101.999996887207,2|0,0:0|0:0,0:0:0:0:
386,364,88467,1,10,0:0:0:0:
285,152,88632,1,0,0:0:0:0:
295,354,88797,1,2,0:0:0:0:
426,201,88962,1,0,0:0:0:0:
212,200,89126,6,0,B|113:227|113:227|8:200,1,203.999993774414,10|0,0:0|0:0,0:0:0:0:
199,77,89621,1,0,0:0:0:0:
371,132,89786,2,0,L|479:140,1,101.999996887207,10|0,0:0|0:0,0:0:0:0:
366,274,90115,2,0,L|264:281,1,101.999996887207,2|0,0:0|0:0,0:0:0:0:
267,124,90445,1,10,0:0:0:0:
436,195,90610,1,0,0:0:0:0:
436,195,90692,1,0,0:0:0:0:
436,195,90775,6,0,P|438:95|357:39,1,203.999993774414,2|10,0:0|0:0,0:0:0:0:
313,201,91269,1,0,0:0:0:0:
191,97,91434,2,0,L|89:104,1,101.999996887207,2|0,0:0|0:0,0:0:0:0:
165,265,91764,6,0,B|269:241|254:313|362:290,1,203.999993774414,10|0,0:0|0:0,0:0:0:0:
275,122,92258,1,0,0:0:0:0:
123,200,92423,2,0,L|21:193,1,101.999996887207,10|0,0:0|0:0,0:0:0:0:
213,354,92753,1,2,0:0:0:0:
199,161,92918,1,2,0:0:0:0:
47,239,93083,2,0,P|34:288|44:338,1,101.999996887207,10|0,0:0|0:0,0:0:0:0:
289,315,93412,6,0,P|270:215|296:117,1,203.999993774414,2|8,0:0|0:0,0:0:0:0:
429,221,93907,1,0,0:0:0:0:
238,203,94072,2,0,L|136:196,1,101.999996887207,2|0,0:0|0:0,0:0:0:0:
382,301,94401,1,8,0:0:0:0:
485,124,94566,6,0,P|510:221|491:321,1,203.999993774414,2|0,0:0|0:0,0:0:0:0:
334,213,95061,2,0,L|341:111,1,101.999996887207,10|0,0:0|0:0,0:0:0:0:
421,17,95390,1,2,0:0:0:0:
429,221,95555,1,0,0:0:0:0:
242,108,95720,2,0,P|291:98|340:111,1,101.999996887207,10|0,0:0|0:0,0:0:0:0:
169,214,96050,6,0,L|154:9,1,203.999993774414,6|10,0:0|0:0,0:0:0:0:
48,142,96544,1,0,0:0:0:0:
124,294,96709,2,0,P|173:303|222:290,1,101.999996887207,2|0,0:0|0:0,0:0:0:0:
285,128,97039,2,0,L|183:135,1,101.999996887207,10|0,0:0|0:0,0:0:0:0:
353,228,97368,5,2,0:0:0:0:
353,28,97533,1,0,0:0:0:0:
183,134,97698,2,0,P|173:183|186:232,1,101.999996887207,8|0,0:0|0:0,0:0:0:0:
353,126,98028,1,2,0:0:0:0:
235,37,98192,1,0,0:0:0:0:
353,228,98357,2,0,L|455:235,1,101.999996887207,10|0,0:0|0:0,0:0:0:0:
235,134,98687,6,0,B|400:122|400:122|371:154,1,203.999993774414,2|10,0:0|0:0,0:0:0:0:
192,219,99181,1,0,0:0:0:0:
278,49,99346,1,2,0:0:0:0:
288,214,99511,1,0,0:0:0:0:
139,139,99676,2,0,P|129:90|142:41,1,101.999996887207,10|0,0:0|0:0,0:0:0:0:
331,129,100006,5,2,0:0:0:0:
245,299,100170,1,0,0:0:0:0:
139,139,100335,2,0,P|187:126|237:136,1,101.999996887207,8|0,0:0|0:0,0:0:0:0:
374,261,100665,1,2,0:0:0:0:
331,129,100830,1,0,0:0:0:0:
245,299,100995,2,0,L|143:306,1,101.999996887207,10|0,0:0|0:0,0:0:0:0:
154,108,101324,6,0,B|162:185|162:185|136:236|136:236|143:310,1,203.999993774414,6|10,0:0|0:0,0:0:0:0:
241,187,101819,1,0,0:0:0:0:
55,226,101984,1,2,0:0:0:0:
245,299,102148,2,0,L|347:306,1,101.999996887207,0|8,0:0|0:0,0:0:0:0:
292,116,102478,6,0,B|191:100|191:100|90:116,1,203.999993774414,2|0,0:0|0:0,0:0:0:0:
327,195,102973,1,10,0:0:0:0:
323,35,103137,1,0,0:0:0:0:
241,187,103302,2,0,P|227:235|237:285,1,101.999996887207,2|0,0:0|0:0,0:0:0:0:
440,207,103632,1,10,0:0:0:0:
292,116,103797,1,0,0:0:0:0:
292,116,103879,1,0,0:0:0:0:
292,116,103962,6,0,P|217:95|142:117,1,152.999995330811,6|0,0:0|0:0,0:0:0:0:
146,114,104291,2,0,L|139:216,1,101.999996887207,10|0,0:0|0:0,0:0:0:0:
132,362,104621,1,0,0:0:0:0:
219,178,104786,1,8,0:0:0:0:
289,270,104951,1,0,0:0:0:0:
139,215,105115,1,0,0:0:0:0:
238,83,105280,5,8,0:0:0:0:
200,273,105445,1,0,0:0:0:0:
330,52,105610,5,8,0:0:0:0:
368,242,105775,1,0,0:0:0:0:
219,178,105940,6,0,L|168:181,1,50.9999984436036,10|0,0:0|0:0,0:0:0:0:
349,147,106105,2,0,L|401:151,1,50.9999984436036,8|0,0:0|0:0,0:0:0:0:
273,340,106269,1,10,0:0:0:0:
231,366,106352,1,8,0:0:0:0:
181,368,106434,1,8,0:0:0:0:
135,347,106517,1,8,0:0:0:0:
106,304,106599,6,0,P|100:247|121:206,1,101.999996887207,6|0,0:0|0:0,0:0:0:0:
216,62,106929,2,0,P|236:107|229:157,1,101.999996887207,14|0,0:0|0:0,0:0:0:0:
199,264,107258,1,2,0:0:0:0:
117,102,107423,1,0,0:0:0:0:
303,184,107588,6,0,B|396:224|396:224|497:209,1,203.999993774414,10|0,0:0|0:0,0:0:0:0:
412,79,108083,1,0,0:0:0:0:
393,246,108247,2,0,L|399:353,1,101.999996887207,8|0,0:0|0:0,0:0:0:0:
322,94,108577,1,2,0:0:0:0:
497,209,108742,1,0,0:0:0:0:
303,184,108907,2,0,L|201:189,1,101.999996887207,10|0,0:0|0:0,0:0:0:0:
80,41,109236,6,0,B|103:149|31:134|55:238,1,203.999993774414,2|10,0:0|0:0,0:0:0:0:
93,367,109731,1,0,0:0:0:0:
201,188,109896,1,2,0:0:0:0:
54,237,110061,1,0,0:0:0:0:
240,318,110225,6,0,P|313:266|320:153,1,203.999993774414,10|0,0:0|0:0,0:0:0:0:
219,203,110720,1,0,0:0:0:0:
407,123,110885,2,0,L|413:230,1,101.999996887207,10|0,0:0|0:0,0:0:0:0:
422,360,111214,1,2,0:0:0:0:
322,158,111379,1,0,0:0:0:0:
504,251,111544,1,10,0:0:0:0:
298,239,111709,1,0,0:0:0:0:
298,239,111791,1,0,0:0:0:0:
298,239,111874,6,0,B|197:224|197:224|104:264,1,203.999993774414,6|10,0:0|0:0,0:0:0:0:
213,345,112368,1,0,0:0:0:0:
185,141,112533,2,0,L|173:38,1,101.999996887207,2|0,0:0|0:0,0:0:0:0:
336,151,112863,6,0,P|434:163|507:96,1,203.999993774414,10|0,0:0|0:0,0:0:0:0:
328,56,113357,1,0,0:0:0:0:
234,204,113522,2,0,P|189:224|139:217,1,101.999996887207,10|0,0:0|0:0,0:0:0:0:
251,104,113852,2,0,P|300:96|346:116,1,101.999996887207,2|2,0:0|0:0,0:0:0:0:
338,305,114181,1,8,0:0:0:0:
254,110,114346,1,0,0:0:0:0:
238,286,114511,6,0,B|139:303|139:303|30:287,1,203.999993774414,2|8,0:0|0:0,0:0:0:0:
41,140,115006,1,0,0:0:0:0:
196,194,115170,2,0,L|302:198,1,101.999996887207,2|0,0:0|0:0,0:0:0:0:
456,203,115500,1,8,0:0:0:0:
328,97,115665,6,0,P|295:195|314:294,1,203.999993774414,2|0,0:0|0:0,0:0:0:0:
456,203,116159,2,0,L|460:97,1,101.999996887207,10|0,0:0|0:0,0:0:0:0:
418,308,116489,1,2,0:0:0:0:
418,308,116654,1,0,0:0:0:0:
297,197,116819,2,0,P|247:189|201:209,1,101.999996887207,10|0,0:0|0:0,0:0:0:0:
165,246,117066,1,0,0:0:0:0:
130,283,117148,6,0,P|83:303|34:295,1,101.999996887207,6|0,0:0|0:0,0:0:0:0:
64,100,117478,2,0,L|73:202,1,101.999996887207,10|0,0:0|0:0,0:0:0:0:
89,356,117808,1,2,0:0:0:0:
149,146,117973,1,0,0:0:0:0:
258,270,118137,2,0,L|360:279,1,101.999996887207,10|0,0:0|0:0,0:0:0:0:
250,137,118467,6,0,L|148:146,1,101.999996887207,2|0,0:0|0:0,0:0:0:0:
362,281,118797,2,0,P|402:251|421:204,1,101.999996887207,8|0,0:0|0:0,0:0:0:0:
317,84,119126,1,2,0:0:0:0:
437,321,119291,1,0,0:0:0:0:
493,124,119456,2,0,L|391:133,1,101.999996887207,10|0,0:0|0:0,0:0:0:0:
362,281,119786,6,0,P|289:347|190:335,1,203.999993774414,0|10,0:0|0:0,0:0:0:0:
53,221,120280,1,0,0:0:0:0:
198,136,120445,2,0,L|321:147,1,101.999996887207,0|2,0:0|0:0,0:0:0:0:
186,253,120775,1,10,0:0:0:0:
92,121,120940,1,0,0:0:0:0:
150,336,121105,6,0,P|199:343|246:323,1,101.999996887207,2|0,0:0|0:0,0:0:0:0:
355,156,121434,1,8,0:0:0:0:
339,335,121599,1,0,0:0:0:0:
258,142,121764,2,0,P|208:134|162:154,1,101.999996887207,2|0,0:0|0:0,0:0:0:0:
295,271,122094,1,10,0:0:0:0:
385,103,122258,1,0,0:0:0:0:
385,103,122341,1,0,0:0:0:0:
385,103,122423,6,0,B|389:202|389:202|371:256,1,152.999995330811,6|0,0:0|0:0,0:0:0:0:
371,253,122753,2,0,P|324:272|275:264,1,101.999996887207,10|0,0:0|0:0,0:0:0:0:
162,153,123083,1,2,0:0:0:0:
305,42,123247,2,0,L|311:163,1,101.999996887207,0|10,0:0|0:0,0:0:0:0:
321,350,123577,6,0,P|416:332|461:238,1,203.999993774414,2|0,0:0|0:0,0:0:0:0:
357,120,124072,2,0,L|351:241,1,101.999996887207,10|0,0:0|0:0,0:0:0:0:
203,40,124401,5,8,0:0:0:0:
254,276,124566,1,8,0:0:0:0:
280,80,124731,1,8,0:0:0:0:
177,316,124896,1,8,0:0:0:0:
357,120,125061,6,0,L|462:125,1,101.999996887207,6|0,0:0|0:0,0:0:0:0:
361,242,125390,5,10,0:0:0:0:
302,29,125555,1,0,0:0:0:0:
279,261,125720,5,8,0:0:0:0:
384,48,125885,1,2,0:0:0:0:
443,223,126050,5,8,0:0:0:0:
220,48,126214,1,2,0:0:0:0:
337,323,126379,5,8,0:0:0:0:
466,67,126544,1,0,0:0:0:0:
419,304,126709,5,10,0:0:0:0:
326,109,126874,1,2,0:0:0:0:
255,342,127039,5,8,0:0:0:0:
408,128,127203,1,2,0:0:0:0:
394,384,127368,5,8,0:0:0:0:
350,189,127533,1,2,0:0:0:0:
197,280,127698,6,0,P|148:296|98:290,1,101.999996887207,8|0,0:0|0:0,0:0:0:0:
408,128,128028,2,0,P|458:122|506:138,1,101.999996887207,8|0,0:0|0:0,0:0:0:0:
350,311,128357,5,8,0:0:0:0:
197,156,128522,1,0,0:0:0:0:
408,249,128688,5,8,0:0:0:0:
139,218,128852,1,0,0:0:0:0:
350,189,129017,5,8,0:0:0:0:
197,280,129181,1,0,0:0:0:0:
350,311,129346,5,14,0:0:0:0:
197,156,129511,1,0,0:0:0:0:
408,128,129676,5,10,0:3:0:0:
359,137,129758,1,8,0:3:0:0:
318,167,129841,1,8,0:3:0:0:
293,211,129923,1,8,0:3:0:0:
291,261,130006,2,0,P|246:284|189:276,1,95.6250036478044,2|0,0:0|0:0,0:0:0:0:
202,281,130335,6,0,L|196:150,1,127.5,6|0,0:0|0:0,0:0:0:0:
196,153,130665,2,0,P|154:146|116:164,1,85,14|0,0:0|0:0,0:0:0:0:
43,278,130995,1,2,0:0:0:0:
97,84,131159,1,2,0:0:0:0:
123,245,131324,1,8,0:0:0:0:
250,142,131489,6,0,P|333:128|409:165,1,170,2|0,0:0|0:0,0:0:0:0:
411,325,131984,1,10,0:0:0:0:
321,209,132148,1,2,0:0:0:0:
236,340,132313,2,0,L|137:344,1,85,0|2,0:0|0:0,0:0:0:0:
239,217,132643,1,10,0:0:0:0:
309,384,132808,1,2,0:0:0:0:
432,249,132973,6,0,P|434:199|400:119,1,127.5,2|0,0:0|0:0,0:0:0:0:
408,128,133302,2,0,L|309:132,1,85,10|0,0:0|0:0,0:0:0:0:
306,234,133632,1,2,0:0:0:0:
274,54,133797,1,2,0:0:0:0:
395,211,133962,1,8,0:0:0:0:
217,257,134126,6,0,P|181:190|205:103,1,170,2|0,0:0|0:0,0:0:0:0:
313,240,134621,2,0,L|317:339,1,85,10|0,0:0|0:0,0:0:0:0:
408,128,134951,2,0,L|404:227,1,85,2|0,0:0|0:0,0:0:0:0:
313,16,135280,1,10,0:0:0:0:
260,176,135445,1,2,0:0:0:0:
260,176,135528,1,2,0:0:0:0:
260,176,135610,6,0,P|208:203|141:185,1,127.5,2|0,0:0|0:0,0:0:0:0:
143,187,135940,2,0,P|128:230|134:277,1,85,10|0,0:0|0:0,0:0:0:0:
157,349,136269,1,2,0:0:0:0:
214,285,136434,1,2,0:0:0:0:
48,251,136599,1,8,0:0:0:0:
240,366,136764,6,0,P|293:297|267:219,1,170,2|0,0:0|0:0,0:0:0:0:
131,268,137258,2,0,P|97:292|74:327,1,85,10|0,0:0|0:0,0:0:0:0:
193,204,137588,1,2,0:0:0:0:
240,365,137753,1,0,0:0:0:0:
356,244,137918,2,0,P|397:236|438:245,1,85,10|0,0:0|0:0,0:0:0:0:
297,301,138247,5,2,0:0:0:0:
335,163,138412,1,2,0:0:0:0:
214,285,138577,1,8,0:0:0:0:
179,129,138742,1,0,0:0:0:0:
356,244,138907,1,2,0:0:0:0:
314,82,139072,1,2,0:0:0:0:
193,204,139236,1,8,0:0:0:0:
418,179,139401,5,0,0:0:0:0:
418,179,139566,2,0,P|439:217|437:270,1,85,2|0,0:0|0:0,0:0:0:0:
271,181,139896,2,0,P|228:182|192:203,1,85,10|0,0:0|0:0,0:0:0:0:
297,301,140225,1,2,0:0:0:0:
314,82,140390,1,12,0:0:0:0:
440,257,140555,1,14,0:0:0:0:
440,257,140885,6,0,B|354:237|366:297|276:278,1,170,4|8,0:0|0:0,0:0:0:0:
144,239,141379,1,2,0:0:0:0:
295,149,141544,2,0,L|380:154,1,85
276,278,141874,1,10,0:0:0:0:
185,112,142039,6,0,P|103:103|32:162,1,170
96,353,142533,2,0,L|101:268,1,85,10|0,0:0|0:0,0:0:0:0:
104,103,142863,1,0,0:0:0:0:
193,273,143028,1,0,0:0:0:0:
301,117,143192,2,0,P|343:112|386:122,1,85,10|0,0:0|0:0,0:0:0:0:
456,273,143522,6,0,B|384:269|384:269|352:288|352:288|291:284,1,170,2|8,0:0|0:0,0:0:0:0:
189,190,144017,2,0,L|104:195,2,85,2|0|0,0:0|0:0|0:0,0:0:0:0:
321,148,144511,1,10,0:0:0:0:
291,284,144676,6,0,P|225:334|142:325,1,170
91,194,145170,2,0,L|85:109,1,85,10|0,0:0|0:0,0:0:0:0:
11,272,145500,1,2,0:0:0:0:
170,115,145665,1,0,0:0:0:0:
225,334,145830,1,10,0:0:0:0:
359,177,145995,5,2,0:0:0:0:
359,177,146077,1,2,0:0:0:0:
359,177,146159,6,0,P|296:147|237:159,1,127.5,6|0,0:0|0:0,0:0:0:0:
241,156,146489,2,0,P|210:185|160:197,1,85,10|0,0:0|0:0,0:0:0:0:
23,175,146819,1,2,0:0:0:0:
118,60,146984,2,0,P|158:71|189:100,1,85,2|8,0:0|0:0,0:0:0:0:
293,212,147313,6,0,P|367:251|451:239,1,170,2|0,0:0|0:0,0:0:0:0:
386,99,147808,2,0,P|346:111|315:140,1,85,10|0,0:0|0:0,0:0:0:0:
271,284,148137,1,0,0:0:0:0:
385,178,148302,1,2,0:0:0:0:
238,113,148467,1,10,0:0:0:0:
378,276,148632,1,0,0:0:0:0:
378,276,148714,1,0,0:0:0:0:
378,276,148797,6,0,P|430:267|481:182,1,127.5,6|0,0:0|0:0,0:0:0:0:
476,212,149126,2,0,L|470:111,1,85,10|0,0:0|0:0,0:0:0:0:
486,338,149456,1,2,0:0:0:0:
390,187,149621,1,0,0:0:0:0:
366,365,149786,1,10,0:0:0:0:
304,162,149951,6,0,P|222:137|140:157,1,170,2|0,0:0|0:0,0:0:0:0:
43,242,150445,2,0,L|37:326,1,85,10|0,0:0|0:0,0:0:0:0:
231,284,150775,5,10,0:0:0:0:
174,101,150940,1,8,0:0:0:0:
137,263,151105,1,10,0:3:0:0:
108,171,151269,1,8,0:0:0:0:
202,192,151434,6,0,L|300:215,2,85,6|2|0,0:0|0:0|0:0,0:0:0:0:
108,171,151929,1,0,0:0:0:0:
174,101,152094,2,0,L|272:124,1,85,10|0,0:0|0:0,0:0:0:0:
367,192,152423,6,0,L|269:215,2,85,2|10|0,0:0|0:0|0:0,0:0:0:0:
461,171,152918,1,8,0:0:0:0:
395,101,153083,2,0,L|297:124,1,85,2|0,0:0|0:0,0:0:0:0:
202,192,153412,5,10,0:0:0:0:
284,211,153577,1,2,0:0:0:0:
157,263,153742,1,8,0:0:0:0:
221,110,153907,1,8,0:0:0:0:
341,273,154072,6,0,P|381:274|429:257,2,85,2|2|0,0:0|0:0|0:0,0:0:0:0:
284,211,154566,1,0,0:0:0:0:
356,109,154731,2,0,P|369:148|367:191,1,85,14|0,0:0|0:0,0:0:0:0:
227,273,155061,6,0,P|186:274|138:257,2,85,2|10|0,0:0|0:0|0:0,0:0:0:0:
284,211,155555,1,8,0:0:0:0:
201,192,155720,2,0,P|160:178|118:180,1,85,2|0,0:0|0:0,0:0:0:0:
341,273,156050,5,10,0:0:0:0:
284,211,156214,1,2,0:0:0:0:
280,331,156379,1,8,0:0:0:0:
341,149,156544,1,8,0:0:0:0:
398,335,156709,6,0,L|486:340,1,85,2|0,0:0|0:0,0:0:0:0:
284,211,157039,1,0,0:0:0:0:
284,335,157203,1,2,0:0:0:0:
398,211,157368,2,0,L|486:216,1,85,12|0,0:0|0:0,0:0:0:0:
284,335,157698,1,2,0:0:0:0:
170,211,157863,6,0,L|85:206,1,85,10|0,0:0|0:0,0:0:0:0:
341,149,158192,1,10,0:0:0:0:
170,87,158357,2,0,L|85:82,1,85
284,211,158687,1,10,0:0:0:0:
284,87,158852,1,0,0:0:0:0:
345,277,159017,1,8,0:3:0:0:
345,277,159181,1,8,0:3:0:0:
193,263,159346,5,6,0:0:0:0:
284,211,159511,1,0,0:0:0:0:
195,158,159676,1,0,0:0:0:0:
213,276,159841,5,2,0:0:0:0:
287,203,160006,1,8,0:0:0:0:
188,174,160170,1,0,0:0:0:0:
236,284,160335,5,2,0:0:0:0:
289,194,160500,1,8,0:0:0:0:
186,193,160665,1,0,0:0:0:0:
261,286,160830,5,10,0:0:0:0:
289,185,160995,1,0,0:0:0:0:
188,211,161159,1,0,0:0:0:0:
285,282,161324,5,10,0:0:0:0:
286,177,161489,1,0,0:0:0:0:
196,227,161654,1,8,0:0:0:0:
375,232,161819,1,8,0:0:0:0:
197,122,161984,6,0,P|156:108|106:117,1,85,6|0,0:0|0:0,0:0:0:0:
182,264,162313,1,0,0:0:0:0:
67,180,162478,1,2,0:0:0:0:
230,197,162643,2,0,P|269:210|311:205,1,85,12|0,0:0|0:0,0:0:0:0:
278,130,162973,5,2,0:0:0:0:
182,264,163137,1,8,0:0:0:0:
148,188,163302,1,0,0:0:0:0:
264,273,163467,1,8,0:0:0:0:
100,255,163632,2,0,P|59:241|9:250,1,85
134,331,163962,1,10,0:0:0:0:
264,273,164126,1,0,0:0:0:0:
148,188,164291,1,8,0:3:0:0:
216,340,164456,1,8,0:3:0:0:
312,206,164621,6,0,L|316:101,1,85,6|0,0:0|0:0,0:0:0:0:
236,247,164951,1,2,0:0:0:0:
385,252,165115,1,2,0:0:0:0:
239,160,165280,1,12,0:0:0:0:
309,293,165445,1,2,0:0:0:0:
388,165,165610,5,2,0:0:0:0:
458,298,165775,2,0,P|428:326|387:339,1,85,8|0,0:0|0:0,0:0:0:0:
312,206,166105,1,10,0:0:0:0:
462,213,166269,2,0,L|458:297,1,85
391,78,166599,1,10,0:0:0:0:
464,124,166764,1,0,0:0:0:0:
316,210,166929,1,8,0:3:0:0:
316,210,167094,1,8,0:0:0:0:
467,37,167258,5,6,0:0:0:0:
388,165,167423,1,0,0:0:0:0:
318,32,167588,1,0,0:0:0:0:
239,160,167753,5,2,0:0:0:0:
391,78,167918,1,8,0:0:0:0:
385,252,168083,1,0,0:0:0:0:
242,73,168247,5,2,0:0:0:0:
388,165,168412,1,8,0:0:0:0:
236,247,168577,1,0,0:0:0:0:
315,119,168742,5,10,0:0:0:0:
309,293,168907,1,0,0:0:0:0:
163,201,169072,1,0,0:0:0:0:
388,165,169236,5,10,0:0:0:0:
236,247,169401,1,0,0:0:0:0:
242,73,169566,2,0,P|282:79|326:104,1,85,0|8,0:0|0:0,0:0:0:0:
393,339,169896,5,6,0:0:0:0:
306,198,170061,1,0,0:0:0:0:
229,344,170226,1,0,0:0:0:0:
142,203,170391,5,2,0:0:0:0:
309,293,170556,1,12,0:0:0:0:
302,102,170721,1,0,0:0:0:0:
145,299,170885,5,10,0:0:0:0:
306,198,171050,1,0,0:0:0:0:
138,108,171215,1,8,0:0:0:0:
225,248,171380,5,10,0:3:0:0:
219,57,171545,1,8,0:3:0:0:
58,158,171710,1,8,0:3:0:0:
306,198,171874,5,10,0:0:0:0:
135,13,172039,1,10,0:0:0:0:
145,299,172203,1,10,0:0:0:0:
273,104,172368,6,0,B|194:95|194:95|144:111,1,127.5,4|0,0:0|0:0,0:0:0:0:
148,109,172698,1,0,0:0:0:0:
102,224,172863,2,0,L|106:322,1,85,8|0,0:0|0:0,0:0:0:0:
324,273,173192,6,0,P|248:280|192:214,1,170,2|8,0:0|0:0,0:0:0:0:
338,62,173852,2,0,P|413:54|469:120,1,170,2|8,0:0|0:0,0:0:0:0:
457,331,174511,2,0,L|371:336,1,85,2|0,0:0|0:0,0:0:0:0:
383,135,174841,1,10,0:0:0:0:
297,260,175006,6,0,B|219:296|219:296|139:261,1,170,6|0,0:0|0:0,0:0:0:0:
50,141,175500,2,0,L|45:229,1,85,10|0,0:0|0:0,0:0:0:0:
35,352,175830,1,0,0:0:0:0:
35,352,175995,1,0,0:0:0:0:
149,297,176159,2,0,P|188:285|235:298,1,85,10|0,0:0|0:0,0:0:0:0:
344,350,176489,5,2,0:0:0:0:
334,223,176654,1,2,0:0:0:0:
262,370,176819,1,8,0:0:0:0:
416,243,176984,2,0,P|452:262|474:298,1,85,2|0,0:0|0:0,0:0:0:0:
252,203,177313,1,2,0:0:0:0:
344,350,177478,1,8,0:0:0:0:
311,142,177643,6,0,B|306:20|306:20|273:70,1,170,6|0,0:0|0:0,0:0:0:0:
182,170,178137,2,0,P|143:182|96:169,1,85,8|0,0:0|0:0,0:0:0:0:
19,27,178467,6,0,L|26:118,1,85,2|0,0:0|0:0,0:0:0:0:
38,260,178797,1,8,0:0:0:0:
216,151,179126,2,0,L|209:242,1,85,2|0,0:0|0:0,0:0:0:0:
197,384,179456,1,8,0:0:0:0:
370,267,179786,2,0,L|363:182,1,85,2|0,0:0|0:0,0:0:0:0:
351,34,180115,1,8,0:0:0:0:
216,151,180280,6,0,B|151:145|151:145|111:153|111:153|40:149,1,170,6|0,0:0|0:0,0:0:0:0:
178,251,180775,2,0,L|282:258,1,85,8|0,0:0|0:0,0:0:0:0:
390,268,181105,1,0,0:0:0:0:
390,268,181269,1,0,0:0:0:0:
302,158,181434,2,0,L|217:152,1,85,8|0,0:0|0:0,0:0:0:0:
354,352,181764,6,0,P|397:358|438:346,1,85,2|0,0:0|0:0,0:0:0:0:
426,184,182094,2,0,P|383:178|341:189,1,85,8|0,0:0|0:0,0:0:0:0:
199,270,182423,2,0,B|156:282|156:282|114:275,1,85,6|8,0:0|0:0,0:0:0:0:
75,263,182670,1,8,0:0:0:0:
53,226,182753,1,8,0:0:0:0:
50,184,182835,1,8,0:0:0:0:
67,146,182918,6,0,B|109:132|155:149|144:157|190:167|234:146,1,170,4|0,0:0|0:0,0:0:0:0:
326,86,183412,2,0,P|366:74|408:78,1,85,12|0,0:0|0:0,0:0:0:0:
441,270,183742,6,0,L|449:174,1,85,2|0,0:0|0:0,0:0:0:0:
305,95,184072,2,0,L|312:179,1,85,8|2,0:0|0:0,0:0:0:0:
207,289,184401,2,0,L|199:204,1,85,2|0,0:0|0:0,0:0:0:0:
71,114,184731,2,0,L|63:198,1,85,8|0,0:0|0:0,0:0:0:0:
54,341,185061,1,2,0:0:0:0:
181,197,185225,1,0,0:0:0:0:
9,260,185390,1,8,0:0:0:0:
195,329,185555,6,0,B|226:331|252:318|252:318|304:353|378:331,1,170,6|0,0:0|0:0,0:0:0:0:
435,252,186050,2,0,P|447:211|442:169,1,85,8|0,0:0|0:0,0:0:0:0:
321,250,186379,1,2,0:0:0:0:
453,336,186544,1,0,0:0:0:0:
353,158,186709,2,0,P|311:153|270:165,1,85,8|2,0:0|0:0,0:0:0:0:
377,312,187039,5,2,0:0:0:0:
442,169,187203,1,0,0:0:0:0:
307,277,187368,2,0,P|265:281|224:269,1,85,8|0,0:0|0:0,0:0:0:0:
276,88,187698,1,2,0:0:0:0:
336,268,187863,1,0,0:0:0:0:
188,180,188028,2,0,L|96:184,1,85,8|2,0:0|0:0,0:0:0:0:
416,195,188357,5,14,0:0:0:0:
182,80,188522,1,0,0:0:0:0:
270,350,188687,1,2,0:0:0:0:
362,106,188852,6,0,P|319:109|272:131,1,85,10|0,0:0|0:0,0:0:0:0:
407,347,189181,1,2,0:0:0:0:
460,128,189346,6,0,L|452:37,1,85,10|0,0:0|0:0,0:0:0:0:
337,275,189676,1,0,0:0:0:0:
288,43,189841,5,8,0:0:0:0:
435,224,190006,1,0,0:0:0:0:
222,180,190170,1,2,0:0:0:0:
368,9,190335,6,0,B|376:53|376:53|365:95,1,85,14|0,0:0|0:0,0:0:0:0:
142,214,190665,2,0,B|134:170|134:170|145:128,1,85,14|0,0:0|0:0,0:0:0:0:
399,239,190995,6,0,B|396:325,1,85,4|0,0:0|0:0,0:0:0:0:
209,83,191324,5,10,0:0:0:0:
472,180,191489,1,0,0:0:0:0:
183,295,191654,5,10,0:0:0:0:
313,33,191819,1,0,0:0:0:0:
329,325,191984,5,10,0:0:0:0:
206,53,192148,1,0,0:0:0:0:
124,350,192313,6,0,P|78:361|43:351,1,85,6|0,0:0|0:0,0:0:0:0:
60,124,192643,5,10,0:0:0:0:
97,104,192725,1,8,0:0:0:0:
139,97,192807,1,8,0:0:0:0:
180,103,192890,1,8,0:0:0:0:
218,122,192972,1,10,0:0:0:0:
239,157,193055,1,8,0:0:0:0:
278,172,193137,1,8,0:0:0:0:
317,160,193220,1,8,0:0:0:0:
340,125,193303,1,10,0:0:0:0:
377,105,193385,1,8,0:0:0:0:
419,98,193467,1,8,0:0:0:0:
460,104,193550,1,8,0:0:0:0:
498,123,193632,6,0,P|504:94|496:65,1,59.4999981842042,6|0,0:0|0:0,0:0:0:0:
417,22,193962,2,0,L|358:23,1,59.4999981842042,2|0,0:0|0:0,0:0:0:0:
312,101,194291,2,0,L|253:99,1,59.4999981842042,2|0,0:0|0:0,0:0:0:0:
207,22,194621,2,0,B|26:28|26:28|80:75,1,237.999992736817,2|0,0:0|0:0,0:0:0:0:
68,65,195610,6,0,L|73:132,1,59.4999981842042,2|0,0:0|0:0,0:0:0:0:
79,213,195940,2,0,B|136:237|197:215|197:215|256:191|320:216,1,237.999992736817,2|2,0:0|0:0,0:0:0:0:
311,213,196929,2,0,L|315:153,1,59.4999981842042,2|2,0:0|0:0,0:0:0:0:
400,128,197258,2,0,B|396:200|396:200|415:232|415:232|411:303,1,178.499994552612,2|0,0:0|0:0,0:0:0:0:
337,351,197918,6,0,P|308:358|279:352,1,59.4999981842042,2|0,0:0|0:0,0:0:0:0:
232,276,198247,2,0,L|228:216,1,59.4999981842042,2|0,0:0|0:0,0:0:0:0:
180,139,198577,2,0,P|151:133|123:141,1,59.4999981842042,2|0,0:0|0:0,0:0:0:0:
75,218,198907,5,0,0:0:0:0:
75,218,199236,2,0,P|103:224|132:216,1,59.4999981842042,2|0,0:0|0:0,0:0:0:0:
180,139,199566,2,0,L|176:79,1,59.4999981842042,2|0,0:0|0:0,0:0:0:0:
223,1,199896,2,0,L|403:13,1,178.499994552612,2|0,0:0|0:0,0:0:0:0:
453,85,200555,6,0,L|449:145,1,59.4999981842042,2|0,0:0|0:0,0:0:0:0:
401,220,200885,2,0,P|372:225|344:219,1,59.4999981842042,2|0,0:0|0:0,0:0:0:0:
268,171,201214,2,0,P|239:165|210:172,1,59.4999981842042,2|0,0:0|0:0,0:0:0:0:
134,220,201544,6,0,P|122:278|136:336,1,118.999996368408,2|0,0:0|0:0,0:0:0:0:
221,361,202039,1,0,0:0:0:0:
221,361,202203,2,0,L|280:360,1,59.4999981842042,2|0,0:0|0:0,0:0:0:0:
342,295,202533,2,0,P|348:266|340:237,2,59.4999981842042,2|0|0,0:0|0:0|0:0,0:0:0:0:
183,277,203028,5,8,0:3:0:0:
183,277,203110,1,8,0:3:0:0:
183,277,203192,1,10,0:3:0:0:
340,237,203357,1,8,0:3:0:0:
207,198,203522,1,10,0:0:0:0:
318,314,203687,1,8,0:0:0:0:
285,177,203852,1,10,0:3:0:0:
240,334,204017,1,8,0:0:0:0:
363,159,204181,6,0,P|388:113|379:43,1,118.999996368408,6|2,0:0|0:0,0:0:0:0:
307,99,204676,1,0,0:0:0:0:
366,162,204841,2,0,L|434:169,1,59.4999981842042,10|2,0:0|0:0,0:0:0:0:
285,177,205170,1,0,0:0:0:0:
327,320,205335,6,0,P|372:345|442:336,1,118.999996368408,10|10,0:0|0:0,0:0:0:0:
349,243,205830,2,0,P|318:241|281:250,1,59.4999981842042,2|0,0:0|0:0,0:0:0:0:
206,296,206159,2,0,P|176:301|147:299,1,59.4999981842042,8|0,0:0|0:0,0:0:0:0:
68,243,206489,1,0,0:0:0:0:
102,378,206654,1,10,0:0:0:0:
167,218,206819,6,0,L|161:90,1,118.999996368408,2|2,0:0|0:0,0:0:0:0:
210,300,207313,1,2,0:0:0:0:
210,300,207478,2,0,P|239:305|268:303,1,59.4999981842042,8|2,0:0|0:0,0:0:0:0:
349,243,207808,1,0,0:0:0:0:
246,147,207973,6,0,B|188:135|188:135|127:147,1,118.999996368408,10|8,0:0|0:0,0:0:0:0:
59,224,208467,2,0,L|55:289,1,59.4999981842042
166,345,208797,2,0,L|170:280,1,59.4999981842042,10|0,0:0|0:0,0:0:0:0:
175,186,209126,1,2,0:0:0:0:
294,267,209291,1,8,0:0:0:0:
219,109,209456,6,0,P|160:101|108:127,1,118.999996368408,6|2,0:0|0:0,0:0:0:0:
211,259,209951,1,2,0:0:0:0:
301,147,210115,2,0,L|378:153,1,59.4999981842042,10|0,0:0|0:0,0:0:0:0:
450,263,210445,1,0,0:0:0:0:
360,375,210610,6,0,L|279:368,1,59.4999981842042,8|0,0:0|0:0,0:0:0:0:
205,258,210940,2,0,L|286:264,1,59.4999981842042,10|0,0:0|0:0,0:0:0:0:
358,145,211269,1,0,0:0:0:0:
361,380,211434,2,0,L|276:373,1,59.4999981842042,10|0,0:0|0:0,0:0:0:0:
455,263,211764,2,0,P|461:234|460:200,1,59.4999981842042
336,60,212094,6,0,B|293:37|250:54|260:62|212:77|169:60,1,170,4|8,0:0|0:0,0:0:0:0:
101,231,212588,1,8,0:0:0:0:
53,68,212753,5,8,0:0:0:0:
169,274,212918,1,8,0:0:0:0:
170,60,213083,5,8,0:0:0:0:
100,312,213247,1,8,0:0:0:0:
287,52,213412,5,8,0:3:0:0:
33,188,213632,1,8,0:3:0:0:
286,327,213852,1,8,0:3:0:0:
170,60,214072,6,0,B|118:54|118:54|58:71,1,102,6|0,0:0|0:0,0:0:0:0:
70,67,214401,2,0,P|64:119|80:176,1,102,2|0,0:0|0:0,0:0:0:0:
153,193,214731,6,0,L|258:200,1,101.999996887207,6|0,0:0|0:0,0:0:0:0:
321,349,215061,2,0,L|219:355,1,101.999996887207,14|0,0:0|0:0,0:0:0:0:
370,176,215390,1,2,0:0:0:0:
453,360,215555,1,0,0:0:0:0:
465,124,215720,2,0,P|435:88|380:68,1,101.999996887207,10|0,0:0|0:0,0:0:0:0:
355,300,216050,5,2,0:0:0:0:
295,124,216214,1,0,0:0:0:0:
459,258,216379,2,0,L|452:366,1,101.999996887207,8|0,0:0|0:0,0:0:0:0:
316,212,216709,2,0,P|265:204|216:214,1,101.999996887207,2|0,0:0|0:0,0:0:0:0:
59,359,217039,2,0,L|49:207,1,152.999995330811,10|0,0:0|0:0,0:0:0:0:
49,207,217368,6,0,P|80:163|124:141,1,101.999996887207,2|0,0:0|0:0,0:0:0:0:
281,245,217698,2,0,L|288:353,1,101.999996887207,10|0,0:0|0:0,0:0:0:0:
141,226,218028,1,2,0:0:0:0:
274,148,218192,1,0,0:0:0:0:
189,337,218357,6,0,B|258:330|258:330|309:356|309:356|386:348,1,203.999993774414,10|0,0:0|0:0,0:0:0:0:
512,338,218852,1,0,0:0:0:0:
368,172,219017,2,0,P|356:224|369:271,1,101.999996887207,10|0,0:0|0:0,0:0:0:0:
477,146,219346,2,0,P|489:97|477:48,1,101.999996887207,2|0,0:0|0:0,0:0:0:0:
458,260,219676,1,10,0:0:0:0:
405,95,219841,1,0,0:0:0:0:
405,95,219923,1,0,0:0:0:0:
405,95,220006,6,0,B|297:72|312:144|208:120,1,203.999993774414,2|10,0:0|0:0,0:0:0:0:
80,78,220500,1,0,0:0:0:0:
235,204,220665,2,0,L|243:318,1,101.999996887207,2|0,0:0|0:0,0:0:0:0:
53,355,220995,6,0,P|18:261|76:181,1,203.999993774414,10|0,0:0|0:0,0:0:0:0:
241,97,221489,1,0,0:0:0:0:
301,277,221654,2,0,P|254:289|187:285,1,101.999996887207,10|0,0:0|0:0,0:0:0:0:
111,116,221984,2,0,L|102:14,1,101.999996887207,2|0,0:0|0:0,0:0:0:0:
201,288,222313,1,10,0:0:0:0:
318,120,222478,1,0,0:0:0:0:
115,222,222643,6,0,B|103:374|103:374|140:333,1,203.999993774414,2|8,0:0|0:0,0:0:0:0:
257,219,223137,1,0,0:0:0:0:
107,117,223302,2,0,P|56:129|22:165,1,101.999996887207,2|2,0:0|0:0,0:0:0:0:
201,288,223632,1,8,0:0:0:0:
251,74,223797,6,0,B|331:69|331:69|368:91|368:91|456:83,1,203.999993774414,2|0,0:0|0:0,0:0:0:0:
338,217,224291,2,0,L|236:210,1,101.999996887207,10|0,0:0|0:0,0:0:0:0:
488,279,224621,1,2,0:0:0:0:
488,279,224786,1,0,0:0:0:0:
337,364,224951,2,0,P|320:316|323:265,1,101.999996887207,10|2,0:0|0:0,0:0:0:0:
338,217,225198,1,2,0:0:0:0:
353,167,225280,6,0,P|356:116|339:68,1,101.999996887207,6|0,0:0|0:0,0:0:0:0:
155,138,225610,2,0,L|260:131,1,101.999996887207,10|0,0:0|0:0,0:0:0:0:
411,111,225940,1,2,0:0:0:0:
252,213,226105,1,0,0:0:0:0:
403,306,226269,2,0,L|504:312,1,101.999996887207,10|0,0:0|0:0,0:0:0:0:
353,206,226599,6,0,L|251:212,1,101.999996887207,2|0,0:0|0:0,0:0:0:0:
463,212,226929,2,0,P|474:162|460:114,1,101.999996887207,8|0,0:0|0:0,0:0:0:0:
300,30,227258,2,0,P|285:78|296:127,1,101.999996887207,2|0,0:0|0:0,0:0:0:0:
409,284,227588,2,0,B|386:304|343:308|343:308|302:279|253:283,1,152.999995330811,10|0,0:0|0:0,0:0:0:0:
266,282,227918,6,0,P|216:293|177:325,1,101.999996887207,2|0,0:0|0:0,0:0:0:0:
376,378,228247,1,10,0:0:0:0:
275,166,228412,1,0,0:0:0:0:
285,368,228577,1,2,0:0:0:0:
410,193,228742,1,0,0:0:0:0:
201,219,228907,2,0,P|186:172|197:110,1,101.999996887207,10|0,0:0|0:0,0:0:0:0:
355,47,229236,5,2,0:0:0:0:
275,166,229401,1,0,0:0:0:0:
150,27,229566,2,0,P|109:57|86:102,1,101.999996887207,8|0,0:0|0:0,0:0:0:0:
78,270,229896,1,2,0:0:0:0:
193,121,230061,1,0,0:0:0:0:
18,178,230225,2,0,P|66:193|116:186,1,101.999996887207,10|2,0:0|0:0,0:0:0:0:
155,152,230473,1,2,0:0:0:0:
192,120,230555,6,0,P|268:110|341:133,1,152.999995330811,6|0,0:0|0:0,0:0:0:0:
340,132,230885,2,0,L|336:238,1,101.999996887207,10|0,0:0|0:0,0:0:0:0:
331,378,231214,1,2,0:0:0:0:
428,189,231379,1,0,0:0:0:0:
244,279,231544,1,8,0:0:0:0:
494,291,231709,6,0,B|512:192|512:192|494:86,1,203.999993774414,2|0,0:0|0:0,0:0:0:0:
307,38,232203,2,0,P|294:88|300:147,1,101.999996887207,10|0,0:0|0:0,0:0:0:0:
368,323,232533,1,2,0:0:0:0:
401,100,232698,1,2,0:0:0:0:
192,183,232863,1,8,0:0:0:0:
438,272,233028,1,0,0:0:0:0:
438,272,233110,1,0,0:0:0:0:
437,272,233192,6,0,P|448:222|434:173,1,101.999996887207,6|0,0:0|0:0,0:0:0:0:
262,47,233522,2,0,L|266:154,1,101.999996887207,14|0,0:0|0:0,0:0:0:0:
273,328,233852,1,0,0:0:0:0:
364,110,234017,1,10,0:0:0:0:
188,299,234181,2,0,P|139:312|90:301,1,101.999996887207
112,93,234511,5,10,0:0:0:0:
137,219,234676,1,0,0:0:0:0:
159,11,234841,2,0,P|109:0|61:13,1,101.999996887207,10|0,0:0|0:0,0:0:0:0:
136,218,235170,6,0,P|158:205|170:183,1,50.9999984436036,10|0,0:0|0:0,0:0:0:0:
112,93,235335,2,0,P|90:105|76:127,1,50.9999984436036,10|0,0:0|0:0,0:0:0:0:
89,300,235500,1,8,0:0:0:0:
137,317,235583,1,8,0:0:0:0:
188,323,235665,1,8,0:0:0:0:
238,316,235747,1,8,0:0:0:0:
286,298,235830,6,0,B|340:283|340:283|396:295,1,110.499994941712,4|0,0:0|0:0,0:0:0:0:
502,358,236159,2,0,P|513:304|499:251,1,110.499994941712,14|0,0:0|0:0,0:0:0:0:
418,152,236489,1,2,0:0:0:0:
411,381,236654,1,0,0:0:0:0:
510,175,236819,1,8,0:0:0:0:
323,220,236984,6,0,L|203:229,1,110.499994941712,2|0,0:0|0:0,0:0:0:0:
322,369,237313,1,0,0:0:0:0:
429,274,237478,2,0,P|440:220|426:167,1,110.499994941712,10|0,0:0|0:0,0:0:0:0:
311,30,237808,2,0,L|320:150,1,110.499994941712
331,288,238137,1,10,0:0:0:0:
408,76,238302,1,0,0:0:0:0:
226,206,238467,6,0,P|172:219|119:208,1,110.499994941712,2|0,0:0|0:0,0:0:0:0:
65,53,238797,1,10,0:0:0:0:
247,126,238962,2,0,B|365:100|348:179|462:153,1,220.999989883423,2|0,0:0|0:0,0:0:0:0:
286,242,239456,2,0,L|166:251,1,110.499994941712,10|0,0:0|0:0,0:0:0:0:
174,34,239786,5,0,0:0:0:0:
231,171,239951,1,0,0:0:0:0:
321,53,240115,2,0,L|441:62,1,110.499994941712,10|0,0:0|0:0,0:0:0:0:
358,200,240445,1,2,0:0:0:0:
241,81,240610,1,2,0:0:0:0:
305,272,240775,2,0,P|358:285|411:274,1,110.499994941712,8|2,0:0|0:0,0:0:0:0:
459,246,241022,1,2,0:0:0:0:
479,194,241105,6,0,B|481:95|481:95|460:32,1,165.749992412568,6|0,0:0|0:0,0:0:0:0:
460,31,241434,2,0,P|406:43|364:77,1,110.499994941712,8|0,0:0|0:0,0:0:0:0:
288,192,241764,1,0,0:0:0:0:
254,23,241929,1,0,0:0:0:0:
446,120,242094,1,10,0:0:0:0:
248,114,242258,6,0,L|128:123,1,110.499994941712,2|0,0:0|0:0,0:0:0:0:
241,264,242588,1,2,0:0:0:0:
381,156,242753,2,0,L|501:165,1,110.499994941712,8|0,0:0|0:0,0:0:0:0:
391,330,243083,2,0,P|337:343|284:332,1,110.499994941712,2|0,0:0|0:0,0:0:0:0:
197,189,243412,1,10,0:0:0:0:
405,245,243577,1,2,0:0:0:0:
405,245,243659,1,2,0:0:0:0:
405,245,243742,6,0,P|415:191|402:138,1,110.499994941712
314,38,244072,1,8,0:0:0:0:
255,223,244236,2,0,P|242:276|252:329,1,110.499994941712,2|0,0:0|0:0,0:0:0:0:
453,274,244566,1,0,0:0:0:0:
310,136,244731,2,0,L|190:145,1,110.499994941712,10|0,0:0|0:0,0:0:0:0:
326,273,245061,5,2,0:0:0:0:
369,55,245225,1,0,0:0:0:0:
453,274,245390,1,10,0:0:0:0:
496,56,245555,1,2,0:0:0:0:
452,281,245720,1,0,0:0:0:0:
310,136,245885,1,2,0:0:0:0:
252,330,246050,2,0,P|198:340|145:327,1,110.499994941712,8|2,0:0|0:0,0:0:0:0:
102,291,246297,1,2,0:0:0:0:
82,239,246379,6,0,L|91:119,1,110.499994941712,6|0,0:0|0:0,0:0:0:0:
269,43,246709,2,0,L|277:153,1,110.499994941712,8|0,0:0|0:0,0:0:0:0:
285,302,247039,1,0,0:0:0:0:
181,124,247203,1,0,0:0:0:0:
373,182,247368,1,10,0:0:0:0:
181,311,247533,6,0,P|131:213|181:123,1,220.999989883423,2|2,0:0|0:0,0:0:0:0:
376,75,248028,2,0,P|386:129|373:182,1,110.499994941712,8|0,0:0|0:0,0:0:0:0:
285,302,248357,1,2,0:0:0:0:
180,123,248522,1,2,0:0:0:0:
372,182,248687,2,0,P|425:192|479:178,1,110.499994941712,8|2,0:0|0:0,0:0:0:0:
500,127,248934,1,2,0:0:0:0:
479,75,249017,6,0,P|425:61|372:72,1,110.499994941712
265,197,249346,1,10,0:0:0:0:
265,197,249511,2,0,L|273:307,1,110.499994941712,2|0,0:0|0:0,0:0:0:0:
432,368,249841,1,0,0:0:0:0:
432,368,250006,2,0,L|440:258,1,110.499994941712,10|0,0:0|0:0,0:0:0:0:
314,118,250335,6,0,P|260:107|206:121,1,110.499994941712
351,242,250665,1,10,0:0:0:0:
391,44,250830,1,0,0:0:0:0:
257,217,250995,2,0,P|203:227|149:213,1,110.499994941712
42,40,251324,2,0,L|162:49,1,110.499994941712,10|2,0:0|0:0,0:0:0:0:
207,52,251572,1,2,0:0:0:0:
262,56,251654,6,0,B|277:137|277:137|257:218,1,165.749992412568,6|0,0:0|0:0,0:0:0:0:
257,217,251984,2,0,L|146:225,1,110.499994941712,8|0,0:0|0:0,0:0:0:0:
152,48,252313,1,0,0:0:0:0:
323,147,252478,1,0,0:0:0:0:
138,130,252643,1,10,0:0:0:0:
337,65,252808,6,0,B|511:52|511:52|480:86,1,220.999989883423,2|2,0:0|0:0,0:0:0:0:
416,225,253302,2,0,P|362:238|308:228,1,110.499994941712,8|2,0:0|0:0,0:0:0:0:
227,80,253632,1,0,0:0:0:0:
358,160,253797,1,0,0:0:0:0:
202,234,253962,1,8,0:0:0:0:
303,44,254126,1,2,0:0:0:0:
303,44,254209,1,2,0:0:0:0:
303,44,254291,6,0,P|384:28|467:48,1,165.749992412568
464,47,254621,2,0,L|455:167,1,110.499994941712,8|0,0:0|0:0,0:0:0:0:
444,317,254951,1,0,0:0:0:0:
376,130,255115,1,0,0:0:0:0:
511,224,255280,1,10,0:0:0:0:
343,305,255445,6,0,B|225:279|242:358|129:332,1,220.999989883423,2|0,0:0|0:0,0:0:0:0:
34,231,255940,2,0,L|25:120,1,110.499994941712,14|0,0:0|0:0,0:0:0:0:
303,44,256269,5,10,0:0:0:0:
339,84,256352,1,8,0:0:0:0:
352,137,256434,1,8,0:0:0:0:
339,190,256517,1,8,0:0:0:0:
302,231,256599,2,0,P|275:237|248:232,1,55.2499974708558,10|8,0:0|0:0,0:0:0:0:
168,151,256764,2,0,P|141:144|114:149,1,55.2499974708558,8|8,0:0|0:0,0:0:0:0:
34,231,256929,6,0,P|17:308|46:384,1,140.25000428009,6|0,0:0|0:0,0:0:0:0:
33,365,257258,2,0,L|128:356,1,93.5000028533936,14|0,0:0|0:0,0:0:0:0:
309,340,257588,1,2,0:0:0:0:
185,171,257753,1,2,0:0:0:0:
222,380,257918,1,8,0:0:0:0:
315,194,258083,6,0,P|405:171|495:194,1,187.000005706787,2|0,0:0|0:0,0:0:0:0:
396,332,258577,2,0,P|351:345|305:338,1,93.5000028533936,10|2,0:0|0:0,0:0:0:0:
213,231,258907,2,0,L|204:136,1,93.5000028533936,0|2,0:0|0:0,0:0:0:0:
192,0,259236,1,10,0:0:0:0:
340,138,259401,1,0,0:0:0:0:
340,138,259484,1,0,0:0:0:0:
340,138,259566,6,0,B|271:155|271:155|204:137,1,140.25000428009,2|0,0:0|0:0,0:0:0:0:
204,137,259896,2,0,P|190:181|197:227,1,93.5000028533936,10|0,0:0|0:0,0:0:0:0:
330,358,260225,1,2,0:0:0:0:
413,200,260390,2,0,L|422:105,1,93.5000028533936,2|8,0:0|0:0,0:0:0:0:
293,31,260720,6,0,B|282:163|282:163|297:215,1,187.000005706787,2|0,0:0|0:0,0:0:0:0:
332,351,261214,1,10,0:0:0:0:
413,200,261379,1,2,0:0:0:0:
247,293,261544,1,0,0:0:0:0:
434,319,261709,1,2,0:0:0:0:
345,142,261874,2,0,P|299:135|254:148,1,93.5000028533936,10|0,0:0|0:0,0:0:0:0:
218,179,262121,1,0,0:0:0:0:
181,209,262203,6,0,P|136:222|91:216,1,93.5000028533936,6|0,0:0|0:0,0:0:0:0:
120,35,262533,2,0,L|128:128,1,93.5000028533936,10|0,0:0|0:0,0:0:0:0:
147,307,262863,1,0,0:0:0:0:
255,149,263028,1,0,0:0:0:0:
63,221,263192,2,0,L|54:314,1,93.5000028533936,10|0,0:0|0:0,0:0:0:0:
255,363,263522,6,0,P|261:317|248:272,1,93.5000028533936,2|0,0:0|0:0,0:0:0:0:
128,128,263852,1,8,0:0:0:0:
54,314,264017,2,0,L|147:322,1,93.5000028533936,2|0,0:0|0:0,0:0:0:0:
338,337,264346,1,0,0:0:0:0:
192,206,264511,1,10,0:0:0:0:
242,384,264676,1,0,0:0:0:0:
349,216,264841,6,0,P|371:126|348:36,1,187.000005706787,2|8,0:0|0:0,0:0:0:0:
183,112,265335,2,0,L|191:205,1,93.5000028533936,2|0,0:0|0:0,0:0:0:0:
198,384,265665,1,0,0:0:0:0:
323,255,265830,2,0,P|368:248|413:261,1,93.5000028533936,10|0,0:0|0:0,0:0:0:0:
311,371,266159,5,0,0:0:0:0:
229,277,266324,1,0,0:0:0:0:
114,374,266489,2,0,P|107:329|120:284,1,93.5000028533936,10|0,0:0|0:0,0:0:0:0:
263,205,266819,1,2,0:0:0:0:
198,384,266984,1,4,0:0:0:0:
161,202,267148,2,0,P|115:195|70:208,1,93.5000028533936,14|0,0:0|0:0,0:0:0:0:
30,234,267396,1,0,0:0:0:0:
14,277,267478,6,0,L|22:370,1,93.5000028533936,6|0,0:0|0:0,0:0:0:0:
218,359,267808,1,8,0:0:0:0:
218,359,267973,2,0,P|225:313|212:268,1,93.5000028533936,2|0,0:0|0:0,0:0:0:0:
101,115,268302,1,0,0:0:0:0:
101,115,268467,2,0,L|110:208,1,93.5000028533936,10|0,0:0|0:0,0:0:0:0:
125,352,268797,5,0,0:0:0:0:
197,182,268962,1,0,0:0:0:0:
298,335,269126,2,0,P|344:342|389:329,1,93.5000028533936,10|0,0:0|0:0,0:0:0:0:
290,173,269456,2,0,L|197:181,1,93.5000028533936
336,264,269786,1,10,0:0:0:0:
403,88,269951,1,0,0:0:0:0:
403,88,270033,1,0,0:0:0:0:
403,88,270115,6,0,P|357:81|312:94,1,93.5000028533936,6|0,0:0|0:0,0:0:0:0:
336,264,270445,1,8,0:0:0:0:
488,167,270610,2,0,L|497:260,1,93.5000028533936,2|0,0:0|0:0,0:0:0:0:
371,383,270940,1,0,0:0:0:0:
259,242,271105,2,0,P|213:234|168:247,1,93.5000028533936,10|0,0:0|0:0,0:0:0:0:
11,315,271434,6,0,L|20:222,1,93.5000028533936
125,85,271764,2,0,L|134:178,1,93.5000028533936,10|0,0:0|0:0,0:0:0:0:
152,352,272094,2,0,P|196:364|242:357,1,93.5000028533936
367,234,272423,2,0,P|322:221|276:228,1,93.5000028533936,10|0,0:0|0:0,0:0:0:0:
239,259,272670,1,0,0:0:0:0:
202,289,272753,6,0,P|184:221|202:154,1,140.25000428009,6|0,0:0|0:0,0:0:0:0:
202,154,273083,2,0,L|295:145,1,93.5000028533936,14|0,0:0|0:0,0:0:0:0:
460,134,273412,1,2,0:0:0:0:
390,288,273577,1,2,0:0:0:0:
347,79,273742,1,8,0:0:0:0:
253,237,273907,6,0,P|163:260|73:237,1,187.000005706787,2|0,0:0|0:0,0:0:0:0:
173,58,274401,2,0,L|266:67,1,93.5000028533936,10|0,0:0|0:0,0:0:0:0:
379,177,274731,1,0,0:0:0:0:
329,1,274896,1,2,0:0:0:0:
216,140,275061,1,10,0:0:0:0:
451,60,275225,1,0,0:0:0:0:
451,60,275308,1,0,0:0:0:0:
451,60,275390,6,0,L|463:207,1,140.25000428009,6|0,0:0|0:0,0:0:0:0:
463,199,275720,2,0,P|417:192|372:205,1,93.5000028533936,10|0,0:0|0:0,0:0:0:0:
256,299,276050,1,2,0:0:0:0:
308,127,276214,1,2,0:0:0:0:
422,277,276379,1,8,0:0:0:0:
224,197,276544,6,0,B|92:186|92:186|40:201,1,187.000005706787,2|0,0:0|0:0,0:0:0:0:
240,280,277039,1,10,0:0:0:0:
209,76,277203,1,2,0:0:0:0:
100,266,277368,1,10,0:0:0:0:
127,52,277533,1,10,0:3:0:0:
166,317,277698,1,8,0:3:0:0:
166,317,278028,6,0,L|323:327,1,152.999995330811,6|0,0:0|0:0,0:0:0:0:
433,337,278522,1,0,0:0:0:0:
433,337,278687,2,0,L|438:258,1,76.4999976654053,8|0,0:0|0:0,0:0:0:0:
437,260,279181,6,0,L|358:255,1,76.4999976654053,8|0,0:0|0:0,0:0:0:0:
259,311,279511,2,0,L|182:315,1,76.4999976654053,8|0,0:0|0:0,0:0:0:0:
81,260,279841,1,0,0:0:0:0:
81,260,280006,2,0,L|86:181,1,76.4999976654053,8|0,0:0|0:0,0:0:0:0:
85,183,280500,1,8,0:0:0:0:
168,103,280665,6,0,L|178:260,1,152.999995330811
189,369,281159,1,0,0:0:0:0:
189,369,281324,2,0,L|268:374,1,76.4999976654053,8|0,0:0|0:0,0:0:0:0:
265,373,281819,6,0,L|270:294,1,76.4999976654053,8|0,0:0|0:0,0:0:0:0:
373,247,282148,2,0,L|368:326,1,76.4999976654053,8|0,0:0|0:0,0:0:0:0:
475,367,282478,1,0,0:0:0:0:
475,367,282643,2,0,L|470:288,1,76.4999976654053,8|0,0:0|0:0,0:0:0:0:
428,182,282973,1,0,0:0:0:0:
358,317,283137,1,0,0:0:0:0:
358,317,283220,1,0,0:0:0:0:
358,317,283302,6,0,L|201:327,1,152.999995330811,6|0,0:0|0:0,0:0:0:0:
90,339,283797,1,0,0:0:0:0:
90,339,283962,2,0,L|85:260,1,76.4999976654053,8|0,0:0|0:0,0:0:0:0:
86,262,284456,6,0,L|165:257,1,76.4999976654053,8|0,0:0|0:0,0:0:0:0:
264,313,284786,2,0,L|341:317,1,76.4999976654053,8|0,0:0|0:0,0:0:0:0:
442,262,285115,1,0,0:0:0:0:
442,262,285280,2,0,L|437:183,1,76.4999976654053,8|0,0:0|0:0,0:0:0:0:
438,185,285775,1,8,0:0:0:0:
355,105,285940,6,0,L|345:262,1,152.999995330811
334,371,286434,1,0,0:0:0:0:
334,371,286599,2,0,L|255:376,1,76.4999976654053,8|0,0:0|0:0,0:0:0:0:
257,375,287094,5,8,0:0:0:0:
349,183,287258,1,8,0:0:0:0:
333,371,287423,1,8,0:0:0:0:
207,229,287588,2,0,L|128:224,1,76.4999976654053,2|0,0:0|0:0,0:0:0:0:
257,375,287918,5,8,0:0:0:0:
256,135,288083,1,8,0:0:0:0:
434,286,288247,1,8,0:0:0:0:
166,326,288412,1,8,0:0:0:0:
