osu file format v14

[General]
AudioFilename: audio.mp3
AudioLeadIn: 0
PreviewTime: -1
Countdown: 0
SampleSet: Soft
StackLeniency: 0.6
Mode: 0
LetterboxInBreaks: 0
WidescreenStoryboard: 0

[Editor]
Bookmarks: 7983,9961,10620,19851,42268,63367,79191,124025,150398,171332,182047,187321,189959,192596,203145,211058,213695,232156,234794,255893,276992,287541
DistanceSpacing: 1.2
BeatDivisor: 4
GridSize: 4
TimelineZoom: 1.8

[Metadata]
Title:Amy
TitleUnicode:Amy
Artist:THE ORAL CIGARETTES
ArtistUnicode:THE ORAL CIGARETTES
Creator:Centaurix
Version:Eternity
Source:
Tags:THE ORAL CIGARETTES J-Rock
BeatmapID:2011118
BeatmapSetID:960598

[Difficulty]
HPDrainRate:6
CircleSize:3.8
OverallDifficulty:8.5
ApproachRate:9.5
SliderMultiplier:1.7
SliderTickRate:2

[Events]
//Background and Video events
0,0,"cute-anime-girl-wallpaper-hd-1.jpg",0,0
//Break Periods
2,192796,202620
//Storyboard Layer 0 (Background)
//Storyboard Layer 1 (Fail)
//Storyboard Layer 2 (Pass)
//Storyboard Layer 3 (Foreground)
//Storyboard Sound Samples

[TimingPoints]
69,329.67032967033,4,2,1,75,1,0
71,-125,4,2,1,70,0,0
2708,-125,4,2,1,70,0,0
5345,-125,4,2,1,70,0,0
6664,-125,4,2,1,70,0,0
7983,-133.333333333333,4,2,1,70,0,0
9301,-125,4,2,1,70,0,0
9961,-125,4,2,1,80,0,0
10620,-100,4,2,1,90,0,1
13257,-100,4,2,1,90,0,1
15895,-100,4,2,1,90,0,1
18532,-100,4,2,1,90,0,1
19851,-111.111111111111,4,2,1,80,0,1
21169,-125,4,2,1,75,0,0
42268,-125,4,2,1,75,0,0
63367,-142.857142857143,4,2,1,60,0,0
79191,-125,4,2,1,65,0,0
80510,-111.111111111111,4,2,1,75,0,0
81829,-105.263157894737,4,2,1,85,0,0
83147,-100,4,2,1,100,0,0
84466,-80,4,2,1,100,0,1
102926,-80,4,2,1,100,0,1
105563,-80,4,2,1,100,0,1
124025,-100,4,2,1,75,0,1
129299,-80,4,2,1,85,0,0
139849,-100,4,2,1,80,0,0
150398,-133.333333333333,4,2,1,60,0,0
155673,-133.333333333333,4,2,1,60,0,0
160948,-117.647058823529,4,2,1,75,0,0
166222,-111.111111111111,4,2,1,85,0,0
168860,-111.111111111111,4,2,1,87,0,0
170178,-125,4,2,1,70,0,0
171332,-66.6666666666667,4,2,1,85,0,0
172156,-125,4,2,1,75,0,0
179409,-111.111111111111,4,2,1,75,0,0
181387,-83.3333333333333,4,2,1,85,0,0
186003,-83.3333333333333,4,2,1,75,0,0
187321,-80,4,2,1,75,0,1
192596,-125,4,2,1,40,0,0
203145,-125,4,2,1,45,0,0
211058,-100,4,2,1,75,0,0
212376,-142.857142857143,4,2,1,75,0,0
213695,-80,4,2,1,75,0,1
232156,-80,4,2,1,85,0,1
234794,-71.4285714285714,4,2,1,100,0,1
255893,-71.4285714285714,4,2,1,90,0,1
263805,-71.4285714285714,4,2,1,95,0,1
276992,329.67032967033,4,2,1,100,1,0
276992,-133.333333333333,4,2,1,100,0,0
286222,-80,4,2,1,100,0,0
286552,-200,4,2,1,100,0,0
286882,-66.6666666666667,4,2,1,100,0,0
287541,-100,4,2,1,100,0,0

[Colours]
Combo1 : 72,182,234
Combo2 : 255,255,0
Combo3 : 0,0,255
Combo4 : 0,255,0
Combo5 : 255,0,0

[HitObjects]
113,83,69,5,2,2:0:0:0:
113,83,398,2,8,L|155:148,1,68
278,188,728,2,8,L|229:131,1,68
368,162,1058,1,2,0:0:0:0:
338,252,1222,1,2,0:0:0:0:
266,153,1387,5,2,0:0:0:0:
241,279,1552,1,2,0:0:0:0:
171,117,1717,1,2,0:0:0:0:
264,216,1882,1,2,0:0:0:0:
256,46,2047,1,2,0:0:0:0:
211,188,2211,1,2,2:0:0:0:
332,100,2376,1,2,0:0:0:0:
180,71,2541,1,6,0:0:0:0:
180,71,2623,1,6,0:0:0:0:
180,71,2706,6,8,L|132:138,1,68
157,243,3036,2,8,L|207:171,1,68
243,103,3365,1,2,0:0:0:0:
243,103,3530,1,2,0:0:0:0:
357,146,3695,2,8,P|321:191|295:198,1,68
256,296,4025,6,8,P|289:283|333:284,1,68
395,217,4354,2,8,P|356:206|322:214,1,68
253,131,4684,2,8,L|291:153,1,34,10|10,0:0|0:0,0:0:0:0:
192,189,4849,1,2,0:0:0:0:
193,35,5014,1,2,0:0:0:0:
172,223,5178,1,2,0:0:0:0:
64,320,5343,6,8,P|51:288|57:232,1,68
113,138,5673,2,8,P|123:170|116:224,1,68
36,74,6003,2,10,L|92:60,1,34
229,90,6167,2,12,L|183:108,1,34
310,161,6332,2,8,P|303:206|307:246,1,68
243,326,6662,5,2,2:0:0:0:
132,247,6827,1,2,2:0:0:0:
331,294,6992,1,2,2:0:0:0:
213,146,7156,1,2,0:0:0:0:
400,237,7321,1,2,0:0:0:0:
155,229,7486,1,2,0:0:0:0:
349,115,7651,1,2,0:0:0:0:
332,340,7816,1,6,0:0:0:0:
112,335,7981,5,2,2:3:0:0:
141,148,8145,1,2,2:3:0:0:
197,330,8310,1,6,2:3:0:0:
121,121,8475,1,2,2:3:0:0:
103,305,8640,1,2,2:3:0:0:
121,121,8805,1,2,2:3:0:0:
196,290,8970,1,6,2:3:0:0:
319,145,9134,1,6,2:3:0:0:
122,228,9299,5,2,2:3:0:0:
54,78,9464,1,2,2:3:0:0:
212,171,9629,1,2,2:3:0:0:
353,61,9794,1,2,2:3:0:0:
459,165,9959,5,2,0:0:0:0:
432,204,10041,1,2,0:0:0:0:
405,243,10123,1,2,0:0:0:0:
361,271,10206,1,2,0:0:0:0:
306,277,10288,1,2,0:0:0:0:
298,224,10371,1,2,0:0:0:0:
270,176,10453,1,6,0:0:0:0:
220,144,10536,1,6,0:0:0:0:
171,167,10618,6,8,L|125:299,1,136
30,127,11112,1,10,0:0:0:0:
30,127,11277,2,8,P|69:97|126:95,1,85
202,196,11607,2,8,P|195:140|277:74,1,170
312,171,12101,5,10,0:0:0:0:
420,120,12266,1,10,0:0:0:0:
363,289,12431,1,10,0:0:0:0:
436,195,12596,1,10,0:0:0:0:
277,255,12761,1,10,0:0:0:0:
220,141,12926,1,12,0:0:0:0:
185,285,13090,1,12,0:0:0:0:
43,189,13255,6,8,L|125:135,1,85
248,155,13585,2,8,L|178:211,1,85
214,49,13915,1,2,0:0:0:0:
214,49,14079,1,2,0:0:0:0:
349,65,14244,2,8,P|348:114|291:220,1,170
292,218,14739,5,2,0:0:0:0:
213,97,14904,1,2,0:0:0:0:
175,320,15069,1,2,0:0:0:0:
225,186,15233,1,2,0:0:0:0:
339,294,15398,1,6,0:0:0:0:
339,294,15481,1,6,0:0:0:0:
339,294,15563,1,6,0:0:0:0:
132,229,15728,1,6,0:0:0:0:
94,83,15893,6,8,P|138:75|185:94,1,85
282,173,16222,2,8,P|229:176|190:162,1,85
293,69,16552,1,2,2:0:0:0:
420,202,16717,2,8,L|257:274,1,170
93,205,17211,5,2,0:0:0:0:
213,117,17376,1,2,0:0:0:0:
174,296,17541,2,8,L|259:268,1,85
356,165,17871,2,8,L|270:199,1,85
366,61,18200,1,2,0:0:0:0:
366,61,18283,1,2,0:0:0:0:
366,61,18365,1,2,0:0:0:0:
208,43,18530,6,8,P|187:112|94:163,1,170
107,161,19025,1,2,0:0:0:0:
223,309,19189,1,2,0:0:0:0:
223,309,19354,2,8,B|248:170|248:170|262:214,1,170
407,271,19849,5,2,0:0:0:0:
386,104,20014,1,2,0:0:0:0:
259,347,20178,1,2,0:0:0:0:
303,177,20343,1,2,0:0:0:0:
100,249,20508,1,6,0:0:0:0:
352,295,20673,1,6,0:0:0:0:
191,100,20838,1,6,0:0:0:0:
154,350,21003,1,6,0:0:0:0:
13,252,21167,6,10,P|59:218|77:189,1,68
86,105,21497,2,10,P|53:107|26:127,1,68
183,141,21827,2,12,P|158:211|192:281,1,136
295,227,22321,1,2,0:0:0:0:
262,81,22486,6,10,L|210:129,1,68
256,258,22816,2,10,L|302:200,1,68
116,207,23145,2,10,L|120:290,1,68
209,113,23475,2,12,L|207:35,1,68
321,220,23805,5,2,0:0:0:0:
164,306,24134,2,8,L|118:233,1,68
143,102,24464,2,10,L|220:226,1,136
214,217,24959,1,2,0:0:0:0:
252,74,25123,6,8,P|312:83|378:151,1,136
367,268,25618,2,8,P|323:235|316:204,1,68
245,354,25948,2,8,P|270:320|273:280,1,68
174,185,26277,1,2,0:0:0:0:
348,92,26442,5,2,0:0:0:0:
144,54,26772,2,8,L|104:112,1,68
130,261,27101,2,8,L|191:134,1,136
188,138,27596,1,2,0:0:0:0:
327,81,27761,5,2,0:0:0:0:
327,81,27926,2,8,L|359:146,1,68
272,277,28255,2,8,L|291:191,1,68
286,210,28585,1,2,0:0:0:0:
286,210,28750,1,2,0:0:0:0:
151,114,28915,1,6,0:0:0:0:
196,304,29079,5,2,0:0:0:0:
51,216,29409,2,8,P|81:184|120:178,1,68
198,175,29739,2,8,P|239:126|183:66,1,136
206,70,30233,1,2,0:0:0:0:
250,260,30398,5,2,0:0:0:0:
250,260,30563,1,2,0:0:0:0:
356,172,30728,2,8,L|362:244,1,68
470,148,31058,2,8,L|462:62,1,68
337,38,31387,1,2,0:0:0:0:
337,38,31470,1,2,0:0:0:0:
337,38,31552,1,2,0:0:0:0:
396,223,31717,5,2,0:0:0:0:
231,102,32047,1,2,0:0:0:0:
109,220,32376,1,2,0:0:0:0:
109,220,32541,1,2,0:0:0:0:
216,320,32706,2,8,P|244:277|244:248,1,68
199,124,33036,6,8,L|182:194,1,68
300,113,33365,2,8,L|320:38,1,68
377,190,33695,2,8,L|292:211,1,68
384,82,34025,2,8,L|472:63,1,68
426,267,34354,5,2,0:0:0:0:
268,138,34684,1,2,0:0:0:0:
217,302,35014,1,2,0:0:0:0:
217,302,35178,2,8,L|154:242,1,68
55,152,35508,1,2,0:0:0:0:
253,196,35673,6,8,P|263:150|252:124,1,68
161,40,36003,2,8,P|154:95|173:125,1,68
112,206,36332,1,2,0:0:0:0:
258,119,36497,1,2,0:0:0:0:
191,329,36662,1,2,0:0:0:0:
303,201,36827,1,2,0:0:0:0:
84,302,36992,5,2,0:0:0:0:
156,110,37321,1,2,0:0:0:0:
310,219,37651,1,2,0:0:0:0:
192,219,37816,1,10,0:0:0:0:
369,299,37981,1,10,0:0:0:0:
366,133,38145,1,10,0:0:0:0:
229,32,38310,5,14,0:0:0:0:
228,192,38475,1,10,0:0:0:0:
59,66,38640,1,10,0:0:0:0:
55,244,38970,2,8,P|94:266|126:265,1,68
192,187,39299,2,8,P|144:181|120:192,1,68
260,302,39629,6,8,P|306:241|297:163,1,136
175,145,40123,1,10,0:0:0:0:
276,34,40288,2,8,P|294:73|286:109,1,68
363,214,40618,2,8,P|356:167|373:130,1,68
410,42,40948,6,8,L|465:101,1,68
410,223,41277,2,8,L|403:136,1,68
302,251,41607,2,8,L|303:346,1,68
240,144,41937,1,2,0:0:0:0:
215,188,42019,1,2,0:0:0:0:
191,233,42101,1,2,0:0:0:0:
172,281,42184,1,2,0:0:0:0:
140,321,42266,6,8,P|92:291|83:205,1,136
122,78,42761,1,2,0:0:0:0:
267,115,42926,2,8,P|231:166|144:177,1,136
213,37,43420,1,2,0:0:0:0:
388,121,43585,5,2,0:0:0:0:
318,277,43750,2,8,L|261:222,1,68
392,218,44079,2,8,L|454:268,1,68
319,329,44409,2,8,P|260:310|249:290,1,68
447,274,44739,1,2,0:0:0:0:
284,169,44904,5,2,0:0:0:0:
27,188,45233,2,8,P|42:232|129:285,1,136
113,283,45728,1,2,0:0:0:0:
182,133,45893,2,8,P|214:164|218:200,1,68
303,302,46222,6,8,P|297:243|350:166,1,136
333,178,46717,1,2,0:0:0:0:
215,52,46882,1,2,0:0:0:0:
125,140,47047,1,2,0:0:0:0:
302,198,47211,1,2,0:0:0:0:
398,83,47376,1,2,0:0:0:0:
416,276,47541,5,2,0:0:0:0:
235,309,47871,2,10,L|201:237,1,68
268,149,48200,2,8,L|273:224,1,68
163,117,48530,2,8,L|160:38,1,68
76,198,48860,5,2,0:0:0:0:
76,198,49025,1,2,0:0:0:0:
157,294,49189,2,8,L|188:232,1,68
308,166,49519,2,8,L|276:235,1,68
243,72,49849,2,8,P|290:58|328:68,1,68
154,180,50178,5,2,0:0:0:0:
294,288,50508,2,8,L|323:221,1,68
421,104,50838,2,8,P|437:145|363:215,1,136
386,213,51332,1,2,0:0:0:0:
250,41,51497,5,2,0:0:0:0:
188,104,51662,1,2,0:0:0:0:
266,170,51827,1,2,0:0:0:0:
203,267,51992,1,2,0:0:0:0:
100,179,52156,1,6,0:0:0:0:
294,174,52321,1,6,0:0:0:0:
149,61,52486,1,6,0:0:0:0:
149,61,52651,1,6,0:0:0:0:
329,53,52816,6,8,P|350:117|319:191,1,136
328,179,53310,2,8,P|268:172|180:195,1,136
195,187,53805,1,2,0:0:0:0:
195,187,53970,1,6,0:0:0:0:
312,332,54134,6,10,P|332:295|333:258,1,68
273,159,54464,2,10,P|257:197|260:238,1,68
372,121,54794,1,10,0:0:0:0:
372,121,54959,1,10,0:0:0:0:
271,41,55123,2,12,P|243:69|230:103,1,68
85,102,55453,6,10,L|201:197,1,136
190,188,55948,2,10,L|331:171,1,136
325,171,56442,1,2,0:0:0:0:
226,61,56607,1,2,0:0:0:0:
76,114,56772,6,8,P|97:155|117:173,1,68
251,212,57101,2,8,P|234:159|206:139,1,68
149,258,57431,2,8,P|178:291|292:314,1,136
264,319,57926,1,2,0:0:0:0:
394,249,58090,6,8,L|418:176,1,68
235,55,58420,2,8,L|270:123,1,68
91,138,58750,2,8,P|72:172|89:268,1,136
268,220,59244,1,2,0:0:0:0:
199,75,59409,6,8,L|123:61,1,68
338,192,59739,2,8,L|418:176,1,68
167,312,60069,1,2,0:0:0:0:
160,116,60233,1,2,0:0:0:0:
322,254,60398,1,6,0:0:0:0:
85,257,60563,1,6,0:0:0:0:
264,166,60728,5,6,0:0:0:0:
264,166,61058,2,8,L|228:230,1,68
378,166,61387,2,8,L|413:98,1,68
438,261,61717,2,8,P|393:306|377:308,1,68
243,267,62047,6,8,P|281:250|319:251,1,68
192,346,62376,2,8,P|145:318|129:291,1,68
179,236,62706,1,2,0:0:0:0:
112,134,62871,1,2,0:0:0:0:
260,155,63036,1,6,0:0:0:0:
347,51,63200,1,6,0:0:0:0:
420,211,63365,5,6,0:0:0:0:
260,322,63530,2,8,P|237:293|241:196,1,118.999996368408
324,109,64025,2,8,P|342:153|314:234,1,118.999996368408
325,220,64519,1,2,0:0:0:0:
240,73,64684,5,2,0:0:0:0:
192,146,64849,1,2,0:0:0:0:
282,195,65014,1,2,0:0:0:0:
242,293,65178,1,2,0:0:0:0:
115,215,65343,1,2,0:0:0:0:
304,172,65508,1,2,0:0:0:0:
121,81,65673,1,6,0:0:0:0:
270,266,65838,1,6,0:0:0:0:
419,234,66003,5,2,0:0:0:0:
419,234,66167,2,8,L|393:161,1,59.4999981842042
272,79,66497,2,8,L|300:152,1,59.4999981842042
293,134,66827,1,2,0:0:0:0:
153,38,66992,1,2,0:0:0:0:
153,38,67156,1,2,0:0:0:0:
81,200,67321,6,10,L|153:203,1,59.4999981842042
274,143,67651,2,8,L|191:142,1,59.4999981842042
360,226,67981,1,2,0:0:0:0:
360,226,68145,1,2,0:0:0:0:
237,332,68310,2,8,P|212:297|207:260,1,59.4999981842042
279,130,68640,6,8,P|304:174|287:246,1,118.999996368408
292,238,69134,2,8,P|236:225|162:240,1,118.999996368408
176,234,69629,1,2,0:0:0:0:
266,124,69794,1,6,0:0:0:0:
82,70,69959,6,8,P|94:106|66:200,1,118.999996368408
78,183,70453,2,8,P|137:172|202:181,1,118.999996368408
195,178,70948,1,2,0:0:0:0:
105,281,71112,1,6,0:0:0:0:
267,341,71277,6,8,L|247:273,1,59.4999981842042
328,183,71607,2,8,L|316:255,1,59.4999981842042
252,131,71937,2,8,L|269:71,1,59.4999981842042
155,22,72266,2,8,L|189:80,1,59.4999981842042
122,148,72596,5,2,0:0:0:0:
122,148,72761,1,2,0:0:0:0:
60,266,72926,2,8,B|110:288|190:272|190:272|178:232|239:182|239:182|269:206|313:207,1,297.499990921021
340,77,73915,5,6,0:0:0:0:
397,207,74079,1,2,0:0:0:0:
397,207,74244,1,2,0:0:0:0:
308,319,74409,1,2,0:0:0:0:
284,177,74574,2,2,P|223:175|173:207,1,118.999996368408
175,204,75069,1,2,0:0:0:0:
106,72,75233,6,8,P|154:62|182:71,1,59.4999981842042
273,154,75563,2,8,P|234:173|202:170,1,59.4999981842042
335,61,75893,1,2,0:0:0:0:
394,132,76058,1,2,0:0:0:0:
356,212,76222,1,2,0:0:0:0:
418,280,76387,1,2,0:0:0:0:
280,338,76552,6,8,L|257:272,1,59.4999981842042
139,203,76882,2,8,L|165:277,1,59.4999981842042
76,132,77211,1,2,0:0:0:0:
267,78,77376,1,2,0:0:0:0:
36,68,77541,1,6,0:0:0:0:
220,145,77706,1,6,0:0:0:0:
422,92,77871,6,8,L|408:165,1,59.4999981842042
291,262,78200,2,8,L|311:183,1,59.4999981842042
426,284,78530,2,10,P|406:331|382:348,1,59.4999981842042
364,187,78860,2,12,P|414:154|430:154,1,59.4999981842042
293,41,79189,6,8,P|264:89|192:128,1,136
286,251,79684,1,2,0:0:0:0:
90,255,79849,2,10,L|132:199,1,68
288,119,80178,2,12,L|241:191,1,68
97,59,80508,6,8,L|137:222,1,152.999995330811,10|10,0:0|0:0,0:0:0:0:
317,255,81003,1,2,0:0:0:0:
250,87,81167,2,8,L|177:109,1,76.4999976654053,0|0,0:0|0:0,0:0:0:0:
339,155,81497,2,8,L|418:128,1,76.4999976654053
332,314,81827,5,2,0:0:0:0:
271,147,81992,1,2,0:0:0:0:
132,249,82156,1,2,0:0:0:0:
185,71,82321,1,2,0:0:0:0:
371,214,82486,1,2,0:0:0:0:
113,163,82651,1,2,0:0:0:0:
338,72,82816,1,2,0:0:0:0:
298,291,82981,1,2,0:0:0:0:
65,328,83145,6,8,L|99:237,1,85
225,120,83475,2,8,L|196:218,1,85
108,104,83805,1,2,0:0:0:0:
152,79,83887,1,2,0:0:0:0:
203,75,83970,1,2,0:0:0:0:
248,98,84052,1,2,0:0:0:0:
256,148,84134,1,2,0:0:0:0:
274,196,84217,1,2,0:0:0:0:
314,234,84299,1,2,0:0:0:0:
371,243,84382,1,2,0:0:0:0:
413,212,84464,6,8,P|408:154|360:106,1,106.25
230,78,84794,2,8,P|237:158|253:186,1,106.25
127,288,85123,1,2,0:0:0:0:
77,131,85288,1,2,0:0:0:0:
217,357,85453,1,2,0:0:0:0:
230,170,85618,1,2,0:0:0:0:
385,300,85783,6,8,L|495:300,1,106.25,10|8,0:0|0:0,0:0:0:0:
314,162,86112,2,8,L|204:161,1,106.25
105,61,86442,1,2,0:0:0:0:
142,222,86607,1,2,0:0:0:0:
282,146,86772,1,2,0:0:0:0:
214,325,86937,1,2,0:0:0:0:
64,194,87101,6,8,L|167:154,1,106.25
329,171,87431,2,10,L|219:219,1,106.25
300,62,87761,2,10,P|377:65|405:98,1,106.25
419,235,88090,2,8,P|367:203|361:151,1,106.25
237,75,88420,6,8,L|285:178,1,106.25
242,282,88750,2,8,L|197:179,1,106.25
308,29,89079,2,8,L|362:126,1,106.25
241,281,89409,1,2,0:0:0:0:
241,281,89492,1,2,0:0:0:0:
241,281,89574,1,2,0:0:0:0:
63,248,89739,6,8,P|110:196|133:52,1,212.5
135,60,90233,1,2,0:0:0:0:
301,103,90398,1,2,0:0:0:0:
104,146,90563,1,2,0:0:0:0:
274,233,90728,2,8,L|228:132,1,106.25
315,39,91058,6,8,L|369:139,1,106.25
337,283,91387,2,8,L|285:180,1,106.25
177,89,91717,1,2,0:0:0:0:
246,245,91882,1,2,0:0:0:0:
60,153,92047,1,6,0:0:0:0:
205,335,92211,1,6,0:0:0:0:
48,235,92376,6,8,P|108:207|136:175,1,106.25
167,39,92706,2,8,P|99:59|76:108,1,106.25
222,148,93036,1,2,0:0:0:0:
222,148,93200,1,2,0:0:0:0:
280,72,93365,1,2,0:0:0:0:
350,179,93530,1,2,0:0:0:0:
165,272,93695,5,2,0:0:0:0:
353,237,93860,1,2,0:0:0:0:
175,152,94025,1,2,0:0:0:0:
249,339,94189,1,2,0:0:0:0:
341,171,94354,2,8,L|344:58,1,106.25
225,217,94684,2,8,L|216:346,1,106.25
76,144,95014,5,2,0:0:0:0:
76,144,95096,1,2,0:0:0:0:
76,144,95178,2,12,P|66:197|89:259,1,106.25
197,144,95508,2,10,P|210:93|199:38,1,106.25
346,97,95838,1,2,0:0:0:0:
215,221,96003,1,2,0:0:0:0:
421,219,96167,1,2,0:0:0:0:
212,337,96332,6,8,P|156:324|113:281,1,106.25
146,139,96662,2,8,P|199:171|220:229,1,106.25
266,44,96992,1,2,0:0:0:0:
266,44,97074,1,2,0:0:0:0:
266,44,97156,1,2,0:0:0:0:
411,104,97321,2,8,L|321:167,1,106.25
97,152,97651,6,8,L|184:86,1,106.25
319,62,97981,2,8,B|318:137|333:172|333:172|311:216|326:285,1,212.5
324,271,98475,1,2,0:0:0:0:
139,205,98640,1,2,0:0:0:0:
343,113,98805,1,6,0:0:0:0:
262,344,98970,5,6,0:0:0:0:
73,319,99134,2,8,P|112:274|124:225,1,106.25
228,100,99464,2,8,P|209:151|217:217,1,106.25
296,320,99794,1,2,0:0:0:0:
431,226,99959,1,2,0:0:0:0:
395,195,100041,1,2,0:0:0:0:
375,152,100123,1,2,0:0:0:0:
379,104,100206,1,2,0:0:0:0:
394,59,100288,6,8,P|321:50|202:113,1,212.5
314,193,100783,1,2,0:0:0:0:
157,132,100948,1,2,0:0:0:0:
219,340,101112,1,2,0:0:0:0:
305,117,101277,1,2,0:0:0:0:
136,254,101442,1,2,0:0:0:0:
347,228,101607,5,2,0:0:0:0:
119,154,101772,1,2,0:0:0:0:
419,250,101937,1,2,0:0:0:0:
186,181,102101,1,2,0:0:0:0:
404,97,102266,1,6,0:0:0:0:
346,324,102431,1,2,0:0:0:0:
217,80,102596,1,6,0:0:0:0:
460,175,102761,1,2,0:0:0:0:
460,175,102843,1,2,0:0:0:0:
460,175,102926,6,8,L|366:229,1,106.25
233,171,103255,2,8,L|338:112,1,106.25
149,58,103585,1,2,0:0:0:0:
149,58,103750,1,2,0:0:0:0:
149,58,103915,1,2,0:0:0:0:
96,228,104079,1,2,0:0:0:0:
288,269,104244,6,8,P|241:229|226:175,1,106.25
316,66,104574,2,8,P|346:118|338:176,1,106.25
223,83,104904,1,10,0:0:0:0:
176,118,104986,1,2,0:0:0:0:
149,171,105069,1,2,0:0:0:0:
141,229,105151,1,2,0:0:0:0:
199,222,105233,1,2,0:0:0:0:
258,226,105316,1,2,0:0:0:0:
311,251,105398,1,2,0:0:0:0:
352,294,105481,1,6,0:0:0:0:
370,347,105563,6,8,L|419:247,1,106.25
372,108,105893,2,8,L|320:203,1,106.25
149,117,106222,1,2,0:0:0:0:
281,49,106387,1,2,0:0:0:0:
197,250,106552,1,2,0:0:0:0:
410,295,106717,1,2,0:0:0:0:
346,91,106882,6,12,L|284:182,1,106.25
349,327,107211,2,10,L|404:220,1,106.25
267,78,107541,1,2,0:0:0:0:
313,258,107706,1,2,0:0:0:0:
103,154,107871,1,2,0:0:0:0:
355,116,108036,1,6,0:0:0:0:
182,318,108200,6,8,L|112:229,1,106.25
329,213,108530,2,8,L|369:113,1,106.25
176,41,108860,2,8,L|266:118,1,106.25
39,145,109189,2,8,L|159:121,1,106.25
160,241,109519,5,6,0:0:0:0:
283,122,109684,1,2,0:0:0:0:
265,329,109849,1,2,0:0:0:0:
180,134,110014,1,2,0:0:0:0:
398,241,110178,1,2,0:0:0:0:
160,298,110343,1,2,0:0:0:0:
332,124,110508,1,2,0:0:0:0:
332,124,110590,1,2,0:0:0:0:
332,124,110673,1,2,0:0:0:0:
121,95,110838,6,8,P|102:154|111:202,1,106.25
216,301,111167,2,8,P|226:215|206:186,1,106.25
309,96,111497,1,2,0:0:0:0:
417,227,111662,1,2,0:0:0:0:
210,177,111827,1,2,0:0:0:0:
111,334,111992,1,2,0:0:0:0:
65,138,112156,6,10,P|143:97|175:97,1,106.25
281,154,112486,2,8,P|224:177|166:175,1,106.25
279,49,112816,2,10,P|337:67|403:199,1,212.5
403,194,113310,1,2,0:0:0:0:
324,324,113475,6,8,L|222:279,1,106.25
210,173,113805,2,8,L|325:220,1,106.25
255,86,114134,1,2,0:0:0:0:
186,265,114299,1,2,0:0:0:0:
108,90,114464,1,2,0:0:0:0:
308,161,114629,1,6,0:0:0:0:
291,319,114794,6,8,L|97:220,1,212.5
106,224,115288,1,2,0:0:0:0:
327,195,115453,1,2,0:0:0:0:
112,102,115618,1,2,0:0:0:0:
218,298,115783,1,2,0:0:0:0:
274,65,115865,1,6,0:0:0:0:
274,65,115948,1,6,0:0:0:0:
450,181,116112,6,8,P|403:238|368:246,1,106.25
242,178,116442,2,8,P|298:154|355:169,1,106.25
289,293,116772,1,2,0:0:0:0:
124,235,116937,1,2,0:0:0:0:
352,186,117101,1,2,0:0:0:0:
81,126,117266,1,2,0:0:0:0:
226,29,117431,6,8,L|264:133,1,106.25
244,269,117761,2,8,L|198:148,1,106.25
89,286,118090,1,2,0:0:0:0:
129,99,118255,1,2,0:0:0:0:
277,202,118420,2,8,P|223:221|158:214,1,106.25
41,109,118750,6,8,P|126:84|247:112,1,212.5
244,110,119244,1,2,0:0:0:0:
371,339,119409,1,2,0:0:0:0:
413,207,119574,1,2,0:0:0:0:
213,249,119739,1,2,0:0:0:0:
137,91,119904,1,2,0:0:0:0:
376,98,120069,6,8,L|338:203,1,106.25
181,296,120398,2,8,L|237:178,1,106.25
159,38,120728,2,8,L|98:152,1,106.25
150,304,121058,1,2,0:0:0:0:
156,249,121140,1,2,0:0:0:0:
178,198,121222,1,2,0:0:0:0:
214,155,121305,1,2,0:0:0:0:
263,129,121387,1,6,0:0:0:0:
369,65,121552,6,10,P|379:147|365:177,1,106.25
300,302,121882,2,10,P|269:246|277:186,1,106.25
195,53,122211,2,8,P|142:100|114:241,1,212.5
112,233,122706,5,10,0:0:0:0:
272,158,122871,1,10,0:0:0:0:
57,158,123036,1,10,0:0:0:0:
248,235,123200,1,10,0:0:0:0:
140,77,123365,1,10,0:0:0:0:
149,263,123530,1,10,0:0:0:0:
312,126,123695,1,10,0:0:0:0:
73,135,123860,1,10,0:0:0:0:
342,327,124025,5,2,0:0:0:0:
435,109,124189,1,8,0:0:0:0:
203,282,124354,5,2,0:0:0:0:
293,43,124519,1,8,0:0:0:0:
64,198,124684,5,2,0:0:0:0:
308,140,124849,1,8,0:0:0:0:
85,55,125014,5,2,0:0:0:0:
173,306,125178,1,8,0:0:0:0:
248,89,125343,5,2,0:0:0:0:
86,258,125508,1,8,0:0:0:0:
335,171,125673,5,2,0:0:0:0:
88,176,125838,1,8,0:0:0:0:
262,45,126003,5,2,0:0:0:0:
307,257,126167,1,8,0:0:0:0:
131,102,126332,5,2,0:0:0:0:
381,131,126497,1,8,0:0:0:0:
220,317,126662,5,2,0:0:0:0:
79,140,126827,1,8,0:0:0:0:
338,238,126992,5,2,0:0:0:0:
326,37,127156,1,8,0:0:0:0:
171,132,127321,5,2,0:0:0:0:
399,182,127486,1,8,0:0:0:0:
92,191,127651,5,2,0:0:0:0:
451,116,127816,1,8,0:0:0:0:
297,305,127981,5,2,0:0:0:0:
172,76,128145,1,2,0:0:0:0:
172,76,128310,1,2,0:0:0:0:
327,55,128640,1,10,0:0:0:0:
351,102,128722,1,10,0:0:0:0:
345,154,128805,1,10,0:0:0:0:
319,201,128887,1,12,0:0:0:0:
299,240,128970,2,12,L|378:310,1,85
81,326,129299,6,8,P|57:261|69:230,1,106.25
190,152,129629,2,8,P|210:221|177:250,1,106.25
221,41,129959,2,8,L|308:106,1,106.25
306,104,130288,1,2,0:0:0:0:
202,288,130453,1,2,0:0:0:0:
357,215,130618,5,2,0:0:0:0:
230,149,130783,1,2,0:0:0:0:
293,335,130948,1,2,0:0:0:0:
330,137,131112,1,2,0:0:0:0:
173,280,131277,1,2,0:0:0:0:
397,209,131442,1,2,0:0:0:0:
93,212,131607,1,2,0:0:0:0:
438,299,131772,1,6,0:0:0:0:
293,60,131937,6,8,L|297:177,1,106.25
211,295,132266,2,8,L|209:178,1,106.25
114,56,132596,1,2,0:0:0:0:
114,56,132761,1,2,0:0:0:0:
37,179,132926,2,8,P|133:205|157:196,1,106.25
253,124,133255,5,2,0:0:0:0:
428,188,133420,1,2,0:0:0:0:
191,158,133585,1,2,0:0:0:0:
378,324,133750,1,2,0:0:0:0:
157,286,133915,2,8,P|191:239|253:234,1,106.25
366,286,134244,1,2,0:0:0:0:
366,286,134409,1,2,0:0:0:0:
429,123,134574,6,8,L|336:180,1,106.25
259,86,134904,2,8,L|157:50,1,106.25
66,153,135233,1,2,0:0:0:0:
66,153,135398,1,2,0:0:0:0:
157,307,135563,2,8,P|199:226|195:204,1,106.25
166,100,135893,5,2,0:0:0:0:
321,169,136058,1,2,0:0:0:0:
128,198,136222,1,2,0:0:0:0:
229,29,136387,1,2,0:0:0:0:
230,297,136552,1,2,0:0:0:0:
155,62,136717,1,2,0:0:0:0:
367,183,136882,1,2,0:0:0:0:
107,239,137047,1,6,0:0:0:0:
252,89,137211,5,2,0:0:0:0:
310,231,137376,1,2,0:0:0:0:
138,109,137541,1,2,0:0:0:0:
138,109,137706,1,2,0:0:0:0:
142,310,137871,2,8,L|224:236,2,106.25
58,161,138365,1,2,0:0:0:0:
183,44,138530,6,2,P|206:104|196:151,1,106.25
89,240,138860,2,2,P|83:149|102:129,1,106.25
222,267,139189,1,2,0:0:0:0:
336,86,139354,1,6,0:0:0:0:
252,311,139519,1,6,0:0:0:0:
81,193,139849,6,10,L|126:102,1,85
245,316,140178,2,10,L|218:222,1,85
339,108,140508,2,8,L|315:205,1,85
171,35,140838,2,10,L|203:124,1,85
72,166,141167,5,2,0:0:0:0:
72,166,141332,1,2,0:0:0:0:
112,311,141497,2,8,P|152:283|174:237,1,85
235,143,141827,2,8,P|231:205|262:236,1,85
330,99,142156,2,8,P|304:54|256:38,1,85
139,51,142486,5,2,0:0:0:0:
139,51,142651,1,2,0:0:0:0:
51,150,142816,2,8,P|93:189|139:195,1,85
242,124,143145,2,8,P|180:112|140:123,1,85
276,227,143475,2,8,L|340:170,1,85
445,294,143805,5,2,0:0:0:0:
262,302,143970,1,2,0:0:0:0:
395,149,144134,1,2,0:0:0:0:
193,240,144299,1,2,0:0:0:0:
268,86,144464,2,8,L|340:154,1,85
171,137,144794,2,8,L|107:66,1,85
101,264,145123,5,2,0:0:0:0:
101,264,145288,1,2,0:0:0:0:
222,328,145453,2,8,P|222:258|241:231,1,85
374,244,145783,1,2,0:0:0:0:
274,91,145948,1,2,0:0:0:0:
420,245,146112,1,6,0:0:0:0:
420,245,146277,1,6,0:0:0:0:
254,309,146442,6,8,P|216:241|219:217,1,85
315,88,146772,2,8,P|318:161|303:182,1,85
181,43,147101,1,2,0:0:0:0:
99,211,147266,1,6,0:0:0:0:
218,35,147431,1,2,0:0:0:0:
207,230,147596,1,6,0:0:0:0:
397,89,147761,6,8,L|290:114,1,85
205,176,148090,2,8,L|299:204,1,85
180,272,148420,1,2,0:0:0:0:
106,166,148585,1,2,0:0:0:0:
286,200,148750,1,2,0:0:0:0:
290,203,148915,1,2,0:0:0:0:
416,300,149079,6,8,L|328:324,1,85
269,247,149409,2,8,L|174:223,1,85
85,311,149739,1,2,0:0:0:0:
124,278,149904,1,2,0:0:0:0:
294,263,150069,1,6,0:0:0:0:
256,298,150233,1,6,0:0:0:0:
96,97,150398,5,2,0:0:0:0:
126,146,150563,1,2,0:0:0:0:
295,181,150728,1,2,0:0:0:0:
254,140,150893,1,2,0:0:0:0:
166,287,151058,1,2,0:0:0:0:
359,251,151222,1,2,0:0:0:0:
183,179,151387,2,8,L|104:200,1,63.7500024318696
248,50,151717,5,2,0:0:0:0:
276,100,151882,1,2,0:0:0:0:
228,233,152047,1,2,0:0:0:0:
196,186,152211,1,2,0:0:0:0:
382,231,152376,1,2,0:0:0:0:
241,330,152541,1,2,0:0:0:0:
304,180,152706,2,8,L|360:128,1,63.7500024318696
245,41,153036,5,2,0:0:0:0:
201,77,153200,1,2,0:0:0:0:
215,255,153365,1,2,0:0:0:0:
249,209,153530,1,2,0:0:0:0:
91,148,153695,1,2,0:0:0:0:
274,122,153860,1,2,0:0:0:0:
144,220,154025,2,8,L|58:245,1,63.7500024318696
226,322,154354,5,2,0:0:0:0:
252,271,154519,1,2,0:0:0:0:
392,194,154684,1,2,0:0:0:0:
416,142,154849,1,2,0:0:0:0:
251,109,155014,2,8,L|286:183,1,63.7500024318696
140,100,155343,2,8,L|105:37,1,63.7500024318696
69,172,155673,5,2,0:0:0:0:
205,207,155838,1,2,0:0:0:0:
117,290,156003,1,2,0:0:0:0:
285,307,156167,1,2,0:0:0:0:
331,181,156332,2,8,L|386:234,1,63.7500024318696
369,97,156662,1,2,0:0:0:0:
287,108,156827,1,2,0:0:0:0:
195,50,156992,5,2,0:0:0:0:
136,112,157156,1,2,0:0:0:0:
192,212,157321,2,8,L|235:148,1,63.7500024318696
286,251,157651,2,8,L|254:319,1,63.7500024318696
357,207,157981,1,2,0:0:0:0:
362,289,158145,1,2,0:0:0:0:
196,333,158310,6,8,L|162:264,1,63.7500024318696
275,206,158640,2,10,L|298:138,1,63.7500024318696
226,66,158970,1,2,0:0:0:0:
173,133,159134,1,2,0:0:0:0:
306,26,159299,1,2,0:0:0:0:
345,110,159464,1,2,0:0:0:0:
259,176,159629,6,8,L|331:217,1,63.7500024318696
322,284,159959,2,8,L|391:319,1,63.7500024318696
244,316,160288,1,2,0:0:0:0:
94,249,160453,2,8,L|133:199,1,63.7500024318696
325,216,160783,1,2,0:0:0:0:
166,63,160948,6,8,L|110:116,1,72.2500013780594
166,244,161277,2,8,L|181:155,1,72.2500013780594
63,236,161607,2,8,L|43:319,1,72.2500013780594
203,340,161937,1,2,0:0:0:0:
203,340,162101,1,2,0:0:0:0:
331,324,162266,6,10,P|311:270|320:237,1,72.2500013780594
396,158,162596,2,8,P|408:214|391:246,1,72.2500013780594
310,118,162926,1,10,0:0:0:0:
431,73,163090,1,10,0:0:0:0:
443,195,163255,1,2,0:0:0:0:
328,37,163420,1,6,0:0:0:0:
163,39,163585,6,10,L|216:102,1,72.2500013780594
194,210,163915,2,8,L|141:143,1,72.2500013780594
156,287,164244,1,2,0:0:0:0:
68,223,164409,1,10,0:0:0:0:
181,197,164574,1,2,0:0:0:0:
203,340,164739,1,6,0:0:0:0:
327,337,164904,6,10,P|308:274|314:250,1,72.2500013780594
399,174,165233,2,8,P|409:227|397:255,1,72.2500013780594
297,159,165563,2,10,P|313:123|342:99,1,72.2500013780594
436,56,165893,1,2,0:0:0:0:
436,56,166058,1,2,0:0:0:0:
207,43,166222,6,10,L|193:121,1,76.4999976654053
66,149,166552,2,8,L|98:225,1,76.4999976654053
187,290,166882,2,8,L|217:209,1,76.4999976654053
69,338,167211,1,2,0:0:0:0:
69,338,167376,1,2,0:0:0:0:
291,346,167541,6,10,P|247:330|230:300,1,76.4999976654053
315,183,167871,2,8,P|332:233|321:266,1,76.4999976654053
197,178,168200,2,10,P|201:127|222:103,1,76.4999976654053
297,35,168530,1,2,0:0:0:0:
297,35,168695,1,2,0:0:0:0:
79,108,168860,6,8,L|162:143,1,76.4999976654053
363,199,169189,2,8,L|282:237,1,76.4999976654053
84,308,169519,2,10,L|161:326,1,76.4999976654053
104,163,169849,2,12,L|24:144,1,76.4999976654053
182,46,170178,5,2,0:0:0:0:
309,122,170343,1,6,0:0:0:0:
192,216,170508,1,2,0:0:0:0:
259,48,170673,1,6,0:0:0:0:
280,299,170838,1,2,0:0:0:0:
218,119,171003,1,6,0:0:0:0:
218,119,171167,1,6,0:0:0:0:
444,199,171332,2,10,P|371:242|208:211,1,255.000009727478
210,212,171827,1,6,0:0:0:0:
66,329,172156,6,8,L|39:257,1,68
161,185,172486,2,8,L|121:264,1,68
62,76,172816,6,2,L|81:144,1,68
155,24,173145,1,2,0:0:0:0:
155,24,173310,1,2,0:0:0:0:
261,83,173475,2,8,L|206:144,1,68
375,95,173805,2,2,L|405:63,1,34
400,215,173970,1,2,0:0:0:0:
325,327,174299,6,8,L|246:289,1,68
225,210,174794,1,10,0:0:0:0:
209,254,174959,1,10,0:0:0:0:
144,136,175123,1,6,0:0:0:0:
156,90,175288,1,6,0:0:0:0:
329,63,175453,5,2,0:0:0:0:
389,154,175618,1,2,0:0:0:0:
352,262,175783,1,2,0:0:0:0:
246,108,175948,1,10,0:0:0:0:
232,348,176112,1,10,0:0:0:0:
330,169,176277,1,10,0:0:0:0:
108,256,176442,1,10,0:0:0:0:
379,279,176607,1,6,0:0:0:0:
173,134,176772,5,2,0:0:0:0:
379,279,176937,1,0,0:0:0:0:
379,279,177101,1,10,0:0:0:0:
176,324,177431,2,8,P|150:280|151:248,1,68
233,163,177761,2,8,P|242:205|226:238,1,68
130,64,178090,5,2,0:0:0:0:
229,88,178255,1,2,0:0:0:0:
208,199,178420,1,8,0:0:0:0:
344,208,178585,1,8,0:0:0:0:
242,344,178750,1,2,0:0:0:0:
245,139,178915,1,2,0:0:0:0:
419,290,179079,1,2,0:0:0:0:
156,284,179244,1,2,0:0:0:0:
83,129,179409,5,2,0:0:0:0:
83,129,179574,2,8,L|162:128,1,76.4999976654053
308,203,179904,2,8,L|212:202,1,76.4999976654053
374,124,180233,2,2,L|469:125,1,76.4999976654053
386,290,180563,1,2,0:0:0:0:
211,333,180728,6,2,P|178:290|172:260,1,76.4999976654053
247,169,181058,2,8,P|255:210|243:261,1,76.4999976654053
101,101,181387,1,2,0:0:0:0:
140,146,181470,1,2,0:0:0:0:
150,204,181552,1,2,0:0:0:0:
139,262,181634,1,2,0:0:0:0:
197,248,181717,1,2,0:0:0:0:
254,261,181799,1,2,0:0:0:0:
293,306,181882,1,2,0:0:0:0:
423,264,182047,5,2,0:0:0:0:
423,264,182211,1,2,0:0:0:0:
397,103,182376,2,8,P|356:143|310:157,1,101.999996887207
239,52,182706,1,2,0:0:0:0:
139,161,182871,1,2,0:0:0:0:
285,243,183036,1,2,0:0:0:0:
285,243,183200,1,2,0:0:0:0:
393,146,183365,6,8,L|318:78,1,101.999996887207
180,49,183695,2,8,L|257:115,1,101.999996887207
86,86,184025,1,2,0:0:0:0:
166,235,184189,1,2,0:0:0:0:
347,178,184354,1,2,0:0:0:0:
315,327,184519,6,8,P|263:281|251:232,1,101.999996887207
334,120,184849,2,8,P|360:165|349:232,1,101.999996887207
226,56,185178,1,2,0:0:0:0:
76,182,185343,2,8,L|187:193,1,101.999996887207
271,319,185673,1,2,0:0:0:0:
446,222,185838,1,2,0:0:0:0:
355,64,186003,5,8,0:0:0:0:
446,222,186167,1,2,0:0:0:0:
237,39,186332,5,8,0:0:0:0:
246,297,186497,1,2,0:0:0:0:
90,127,186662,5,8,0:0:0:0:
329,68,186827,1,2,0:0:0:0:
168,203,186992,5,8,0:0:0:0:
411,248,187156,1,2,0:0:0:0:
241,118,187321,5,8,0:0:0:0:
152,217,187486,1,8,0:0:0:0:
270,278,187651,1,4,0:0:0:0:
166,128,187816,5,8,0:0:0:0:
136,263,187981,1,8,0:0:0:0:
272,249,188145,1,4,0:0:0:0:
134,188,188310,5,8,0:0:0:0:
228,321,188475,1,8,0:0:0:0:
252,159,188640,1,4,0:0:0:0:
143,280,188805,5,8,0:0:0:0:
328,220,188970,1,8,0:0:0:0:
151,143,189134,1,4,0:0:0:0:
298,326,189299,5,8,0:0:0:0:
247,92,189464,1,8,0:0:0:0:
209,329,189629,1,4,0:0:0:0:
146,57,189959,5,2,0:0:0:0:
81,250,190123,1,8,0:0:0:0:
48,63,190288,5,2,0:0:0:0:
276,140,190453,1,8,0:0:0:0:
172,261,190618,5,2,0:0:0:0:
424,221,190783,1,8,0:0:0:0:
183,86,190948,5,2,0:0:0:0:
313,342,191112,1,8,0:0:0:0:
369,139,191277,5,2,0:0:0:0:
169,268,191607,5,2,0:0:0:0:
148,213,191689,1,2,0:0:0:0:
150,153,191772,1,2,0:0:0:0:
201,181,191854,1,2,0:0:0:0:
258,192,191937,1,2,0:0:0:0:
316,190,192019,1,2,0:0:0:0:
371,171,192101,1,2,0:0:0:0:
416,133,192184,1,2,0:0:0:0:
450,86,192266,5,2,0:0:0:0:
489,136,192349,1,2,0:0:0:0:
497,193,192431,1,2,0:0:0:0:
489,252,192514,1,2,0:0:0:0:
474,308,192596,1,4,0:0:0:0:
92,116,203145,6,2,L|159:153,1,68
277,122,203475,2,8,L|204:90,1,68
368,201,203805,2,2,L|434:171,1,68
329,293,204134,1,2,0:0:0:0:
275,206,204299,1,2,0:0:0:0:
154,269,204464,6,8,L|222:324,1,68
178,181,204794,2,4,L|111:137,1,68
302,118,205123,1,2,0:0:0:0:
194,79,205288,1,2,0:0:0:0:
302,45,205453,1,2,0:0:0:0:
402,97,205618,1,2,0:0:0:0:
430,242,205783,6,8,P|380:232|346:243,1,68
266,287,206112,2,8,P|309:308|349:305,1,68
273,204,206442,1,8,0:0:0:0:
192,254,206607,1,2,0:0:0:0:
264,121,206772,1,8,0:0:0:0:
176,61,206937,1,2,0:0:0:0:
93,229,207101,5,2,0:0:0:0:
214,100,207266,1,8,0:0:0:0:
214,100,207431,1,8,0:0:0:0:
321,172,207596,2,8,P|285:207|247:218,1,68
394,218,207926,1,2,0:0:0:0:
345,289,208090,1,2,0:0:0:0:
453,330,208255,1,2,0:0:0:0:
453,330,208338,1,8,0:0:0:0:
453,330,208420,6,2,L|417:263,1,68
449,129,208750,2,2,L|493:202,1,68
291,109,209079,2,8,L|235:39,1,68
240,231,209409,2,8,L|299:291,1,68
116,268,209739,5,2,0:0:0:0:
88,170,209904,1,8,0:0:0:0:
234,101,210069,5,8,0:0:0:0:
194,194,210233,1,2,0:0:0:0:
315,264,210398,5,2,0:0:0:0:
273,171,210563,1,8,0:0:0:0:
364,123,210728,5,8,0:0:0:0:
318,214,210893,1,2,0:0:0:0:
105,308,211058,5,2,0:0:0:0:
71,112,211223,1,8,0:0:0:0:
231,258,211388,5,2,0:0:0:0:
223,39,211552,1,8,0:0:0:0:
361,323,211717,5,8,0:0:0:0:
421,115,211882,1,2,0:0:0:0:
191,176,212047,5,2,0:0:0:0:
459,293,212212,1,8,0:0:0:0:
219,275,212377,5,2,0:0:0:0:
70,260,212541,2,8,L|82:180,2,59.4999981842042
155,132,213036,1,2,0:0:0:0:
255,47,213200,2,2,P|310:83|385:90,1,118.999996368408
422,259,213695,6,8,P|357:231|315:246,1,106.25
242,279,214025,2,8,P|179:281|137:256,1,106.25
203,144,214354,1,2,0:0:0:0:
56,222,214519,1,2,0:0:0:0:
351,91,214684,1,2,0:0:0:0:
142,54,214849,1,2,0:0:0:0:
431,182,215014,6,8,L|328:229,1,106.25
272,146,215343,2,8,L|166:132,1,106.25
340,314,215673,1,2,0:0:0:0:
142,235,215838,1,2,0:0:0:0:
332,141,216003,1,2,0:0:0:0:
262,352,216167,1,2,0:0:0:0:
94,220,216332,6,8,P|117:267|112:324,1,106.25
200,109,216662,2,8,P|172:164|180:228,1,106.25
361,175,216992,1,2,0:0:0:0:
248,34,217156,1,2,0:0:0:0:
210,269,217321,1,2,0:0:0:0:
359,88,217486,1,2,0:0:0:0:
462,240,217651,6,8,P|413:269|357:268,1,106.25
274,250,217981,2,8,P|206:224|157:233,1,106.25
155,68,218310,1,2,0:0:0:0:
203,260,218475,1,2,0:0:0:0:
379,151,218640,1,2,0:0:0:0:
246,356,218805,1,2,0:0:0:0:
246,356,218887,1,2,0:0:0:0:
246,356,218970,6,8,L|338:291,1,106.25
353,146,219299,2,8,L|263:208,1,106.25
113,161,219629,2,8,L|208:91,1,106.25
150,289,219959,1,2,0:0:0:0:
322,165,220123,1,2,0:0:0:0:
161,73,220288,6,8,P|125:135|129:178,1,106.25
149,241,220618,2,8,P|180:302|183:353,1,106.25
338,317,220948,1,2,0:0:0:0:
229,136,221112,1,2,0:0:0:0:
496,138,221277,1,2,0:0:0:0:
228,291,221442,1,2,0:0:0:0:
416,178,221607,6,8,L|392:70,1,106.25
322,214,221937,2,8,L|348:329,1,106.25
216,77,222266,1,2,0:0:0:0:
122,244,222431,1,2,0:0:0:0:
305,27,222596,1,2,0:0:0:0:
369,196,222761,2,8,P|342:259|300:282,2,106.25
319,92,223255,6,8,P|263:112|218:161,1,106.25
183,222,223585,2,8,P|129:268|76:273,1,106.25
59,178,223915,1,2,0:0:0:0:
79,135,223997,1,2,0:0:0:0:
113,102,224079,1,2,0:0:0:0:
159,87,224162,1,2,0:0:0:0:
201,109,224244,6,8,P|190:171|203:229,1,106.25
320,319,224574,2,8,P|319:242|301:201,1,106.25
119,185,224904,1,2,0:0:0:0:
317,108,225069,1,2,0:0:0:0:
46,273,225233,1,2,0:0:0:0:
321,302,225398,1,2,0:0:0:0:
384,108,225563,6,8,L|301:179,1,106.25
176,167,225893,2,8,L|266:93,1,106.25
323,268,226222,1,2,0:0:0:0:
179,84,226387,1,2,0:0:0:0:
136,314,226552,1,2,0:0:0:0:
359,170,226717,1,2,0:0:0:0:
99,113,226882,6,8,P|110:177|143:218,1,106.25
196,254,227211,2,8,P|272:266|307:291,1,106.25
423,227,227541,1,2,0:0:0:0:
221,160,227706,1,2,0:0:0:0:
417,78,227871,1,2,0:0:0:0:
370,296,228036,1,2,0:0:0:0:
190,337,228200,6,8,L|116:257,1,106.25
182,141,228530,1,2,0:0:0:0:
182,141,228695,1,2,0:0:0:0:
262,258,228860,2,8,P|313:228|333:181,1,106.25
299,46,229189,1,2,0:0:0:0:
274,87,229272,1,2,0:0:0:0:
266,134,229354,1,2,0:0:0:0:
277,181,229437,1,2,0:0:0:0:
297,224,229519,6,8,P|324:296|318:341,1,106.25
159,203,229849,2,8,P|143:125|151:89,1,106.25
333,89,230178,1,2,0:0:0:0:
205,259,230343,1,2,0:0:0:0:
436,212,230508,1,2,0:0:0:0:
232,58,230673,1,2,0:0:0:0:
361,195,230838,6,8,P|349:269|362:308,1,106.25
270,141,231167,2,8,P|285:78|271:29,1,106.25
96,154,231497,1,2,0:0:0:0:
287,279,231662,1,2,0:0:0:0:
19,269,231827,1,2,0:0:0:0:
314,161,231992,1,2,0:0:0:0:
151,43,232156,6,8,P|127:97|129:148,1,106.25
155,212,232486,2,8,P|192:283|192:326,1,106.25
66,296,232816,1,2,0:0:0:0:
66,296,232981,1,2,0:0:0:0:
243,221,233145,1,2,0:0:0:0:
262,336,233310,1,2,0:0:0:0:
392,226,233475,5,2,0:0:0:0:
268,80,233640,1,2,0:0:0:0:
186,253,233805,1,2,0:0:0:0:
394,146,233970,1,2,0:0:0:0:
120,158,234134,1,2,0:0:0:0:
452,243,234299,1,2,0:0:0:0:
280,314,234464,1,2,0:0:0:0:
258,271,234547,1,2,0:0:0:0:
250,224,234629,1,2,0:0:0:0:
256,177,234711,1,2,0:0:0:0:
267,124,234794,6,8,P|282:66|271:1,1,118.999996368408
116,112,235123,2,8,P|99:183|108:241,1,118.999996368408
239,297,235453,1,2,0:0:0:0:
239,297,235618,1,2,0:0:0:0:
378,228,235783,2,8,P|333:172|279:161,1,118.999996368408
100,182,236112,5,2,0:0:0:0:
263,73,236277,1,2,0:0:0:0:
179,296,236442,1,2,0:0:0:0:
140,85,236607,1,2,0:0:0:0:
333,225,236772,1,2,0:0:0:0:
102,250,236937,1,2,0:0:0:0:
432,119,237101,1,2,0:0:0:0:
219,88,237266,1,2,0:0:0:0:
264,317,237431,6,8,L|394:317,1,118.999996368408
218,199,237761,2,8,L|96:196,1,118.999996368408
303,73,238090,1,2,0:0:0:0:
303,73,238255,1,2,0:0:0:0:
414,163,238420,2,8,P|370:206|311:213,1,118.999996368408
98,99,238750,5,2,0:0:0:0:
145,275,238915,1,2,0:0:0:0:
270,42,239079,1,2,0:0:0:0:
204,207,239244,1,2,0:0:0:0:
452,44,239409,1,2,0:0:0:0:
280,175,239574,1,2,0:0:0:0:
466,329,239739,1,2,0:0:0:0:
384,67,239904,1,2,0:0:0:0:
384,67,239986,1,2,0:0:0:0:
384,67,240069,6,8,P|395:127|382:186,1,118.999996368408
277,332,240398,2,8,P|249:265|255:211,1,118.999996368408
270,53,240728,1,2,0:0:0:0:
159,143,240893,1,2,0:0:0:0:
313,208,241058,1,2,0:0:0:0:
193,331,241222,1,2,0:0:0:0:
51,212,241387,6,8,P|110:217|173:192,1,118.999996368408
176,50,241717,1,2,0:0:0:0:
356,113,241882,1,2,0:0:0:0:
196,159,242047,1,2,0:0:0:0:
417,226,242211,1,2,0:0:0:0:
219,309,242376,1,2,0:0:0:0:
272,77,242541,1,2,0:0:0:0:
74,159,242706,6,8,L|179:97,1,118.999996368408
308,124,243036,1,2,0:0:0:0:
308,124,243200,1,2,0:0:0:0:
206,259,243365,2,8,L|331:214,2,118.999996368408
94,178,243860,1,2,0:0:0:0:
202,39,244025,6,8,P|246:89|299:105,1,118.999996368408
390,106,244354,2,8,P|460:124|488:170,1,118.999996368408
498,255,244684,2,8,P|429:254|381:235,1,118.999996368408
308,142,245014,1,2,0:0:0:0:
285,190,245096,1,2,0:0:0:0:
270,241,245178,1,2,0:0:0:0:
260,294,245261,1,2,0:0:0:0:
253,347,245343,6,8,P|166:331|121:303,1,118.999996368408
65,181,245673,2,8,P|140:179|192:200,1,118.999996368408
318,94,246003,2,8,P|241:81|196:97,1,118.999996368408
377,209,246332,1,2,0:0:0:0:
377,209,246497,1,2,0:0:0:0:
134,279,246662,6,8,P|172:234|185:176,1,118.999996368408
350,348,246992,2,8,P|297:285|292:233,1,118.999996368408
157,160,247321,2,8,P|205:106|215:54,1,118.999996368408
344,230,247651,2,8,P|306:178|303:117,1,118.999996368408
186,37,247981,6,2,L|120:140,1,118.999996368408
194,263,248310,2,2,L|249:153,1,118.999996368408
386,85,248640,1,2,0:0:0:0:
459,235,248805,1,2,0:0:0:0:
286,329,248970,1,2,0:0:0:0:
358,180,249134,1,2,0:0:0:0:
195,96,249299,6,8,P|168:148|171:216,1,118.999996368408
286,329,249629,2,8,P|298:251|281:205,1,118.999996368408
156,57,249959,2,8,P|116:134|116:181,1,118.999996368408
155,203,250288,1,2,0:0:0:0:
207,188,250371,1,2,0:0:0:0:
260,187,250453,1,2,0:0:0:0:
313,198,250536,1,2,0:0:0:0:
354,232,250618,6,8,P|412:271|475:271,1,118.999996368408
378,76,250948,2,8,P|304:68|249:87,1,118.999996368408
251,266,251277,1,2,0:0:0:0:
85,95,251442,1,2,0:0:0:0:
57,332,251607,1,2,0:0:0:0:
220,158,251772,1,2,0:0:0:0:
375,323,251937,6,8,P|335:279|329:216,1,118.999996368408
389,92,252266,2,8,P|417:162|406:211,1,118.999996368408
311,50,252596,1,2,0:0:0:0:
160,121,252761,1,2,0:0:0:0:
410,140,252926,1,2,0:0:0:0:
203,254,253090,1,2,0:0:0:0:
203,254,253173,1,2,0:0:0:0:
203,254,253255,6,8,P|275:272|324:263,1,118.999996368408
411,165,253585,2,8,P|316:154|285:165,1,118.999996368408
214,55,253915,1,0,0:0:0:0:
73,164,254079,1,0,0:0:0:0:
317,55,254244,1,0,0:0:0:0:
217,205,254409,1,0,0:0:0:0:
407,102,254574,6,8,P|437:161|430:224,1,118.999996368408
345,337,254904,2,8,P|319:282|334:210,1,118.999996368408
283,63,255233,1,2,0:0:0:0:
248,112,255316,1,2,0:0:0:0:
226,167,255398,1,2,0:0:0:0:
216,226,255481,1,2,0:0:0:0:
272,207,255563,1,2,0:0:0:0:
331,200,255645,1,2,0:0:0:0:
391,205,255728,1,2,0:0:0:0:
442,235,255810,1,2,0:0:0:0:
477,284,255893,6,8,P|417:324|360:325,1,118.999996368408
207,255,256222,2,8,P|291:224|343:237,1,118.999996368408
379,81,256552,1,2,0:0:0:0:
379,81,256717,2,8,P|324:130|268:146,1,118.999996368408
160,68,257047,1,2,0:0:0:0:
68,247,257211,5,2,0:0:0:0:
243,144,257376,1,2,0:0:0:0:
202,355,257541,1,2,0:0:0:0:
328,212,257706,1,2,0:0:0:0:
156,105,257871,1,2,0:0:0:0:
320,324,258036,1,2,0:0:0:0:
92,200,258200,1,2,0:0:0:0:
418,170,258365,1,2,0:0:0:0:
219,41,258530,6,8,P|237:101|222:157,1,118.999996368408
187,231,258860,2,8,P|178:296|225:348,1,118.999996368408
351,280,259189,1,2,0:0:0:0:
351,280,259354,2,8,P|354:210|329:164,1,118.999996368408
169,128,259684,1,2,0:0:0:0:
375,49,259849,5,2,0:0:0:0:
433,212,260014,1,2,0:0:0:0:
277,136,260178,1,2,0:0:0:0:
238,323,260343,1,2,0:0:0:0:
128,40,260508,1,2,0:0:0:0:
202,238,260673,1,2,0:0:0:0:
62,118,260838,1,2,0:0:0:0:
51,170,260920,1,2,0:0:0:0:
52,224,261003,1,2,0:0:0:0:
75,272,261085,1,2,0:0:0:0:
120,301,261167,6,8,P|203:295|249:307,1,118.999996368408
374,186,261497,2,8,P|293:177|251:184,1,118.999996368408
151,77,261827,1,2,0:0:0:0:
370,50,261992,1,2,0:0:0:0:
151,77,262156,1,2,0:0:0:0:
225,253,262321,1,2,0:0:0:0:
287,87,262486,6,8,L|368:183,1,118.999996368408
368,301,262816,2,8,L|282:205,1,118.999996368408
107,122,263145,1,2,0:0:0:0:
107,122,263310,2,8,P|96:194|108:246,1,118.999996368408
266,320,263640,1,2,0:0:0:0:
243,83,263805,5,2,0:0:0:0:
296,83,263887,1,2,0:0:0:0:
345,105,263970,1,2,0:0:0:0:
378,147,264052,1,2,0:0:0:0:
397,197,264134,1,2,0:0:0:0:
388,250,264217,1,2,0:0:0:0:
291,289,264299,2,8,L|363:289,1,59.4999981842042
220,180,264464,6,8,L|148:178,1,59.4999981842042
119,144,264629,1,2,0:0:0:0:
114,91,264711,1,2,0:0:0:0:
138,43,264794,1,2,0:0:0:0:
186,66,264876,1,2,0:0:0:0:
240,71,264959,1,2,0:0:0:0:
292,59,265041,1,2,0:0:0:0:
342,41,265123,6,8,P|406:55|449:102,1,118.999996368408
430,198,265453,1,2,0:0:0:0:
384,226,265536,1,2,0:0:0:0:
338,253,265618,1,2,0:0:0:0:
291,278,265700,1,2,0:0:0:0:
244,304,265783,1,2,0:0:0:0:
197,329,265865,1,2,0:0:0:0:
88,291,265948,2,8,L|152:249,1,59.4999981842042
166,111,266112,6,2,L|115:143,1,59.4999981842042
99,191,266277,1,2,0:0:0:0:
156,244,266360,1,2,0:0:0:0:
230,266,266442,6,8,P|252:182|276:151,1,118.999996368408
414,152,266772,1,2,0:0:0:0:
414,152,266937,1,2,0:0:0:0:
224,74,267101,2,8,P|305:62|350:72,1,118.999996368408
234,199,267431,1,2,0:0:0:0:
234,199,267596,1,2,0:0:0:0:
90,74,267761,6,8,L|51:189,1,118.999996368408
180,337,268090,2,8,L|149:211,1,118.999996368408
237,87,268420,1,2,0:0:0:0:
237,87,268585,2,8,P|289:131|312:182,1,118.999996368408
245,317,268915,1,2,0:0:0:0:
245,317,268997,1,2,0:0:0:0:
245,317,269079,6,8,P|166:303|121:274,1,118.999996368408
144,168,269409,1,2,0:0:0:0:
144,168,269574,1,2,0:0:0:0:
279,79,269739,2,8,P|311:141|309:195,1,118.999996368408
401,335,270069,2,8,P|390:267|407:209,1,118.999996368408
357,77,270398,5,2,0:0:0:0:
357,77,270563,1,2,0:0:0:0:
145,79,270728,2,8,P|190:138|201:190,1,118.999996368408
212,261,271058,2,8,P|255:318|308:335,1,118.999996368408
381,337,271387,2,8,P|371:262|383:214,1,118.999996368408
380,220,271634,1,2,0:0:0:0:
380,220,271717,6,8,P|331:174|305:124,1,118.999996368408
205,28,272047,2,8,P|214:109|203:159,1,118.999996368408
83,132,272376,1,2,0:0:0:0:
83,132,272541,2,8,P|86:215|106:253,1,118.999996368408
225,295,272871,1,0,0:0:0:0:
325,95,273036,6,8,P|243:104|207:132,1,118.999996368408
337,217,273365,2,8,P|399:219|449:189,1,118.999996368408
399,68,273695,1,2,0:0:0:0:
304,175,273860,1,2,0:0:0:0:
426,322,274025,1,2,0:0:0:0:
221,204,274189,1,2,0:0:0:0:
221,204,274272,1,2,0:0:0:0:
221,204,274354,6,8,P|263:295|260:321,1,118.999996368408
92,234,274684,2,8,P|79:165|98:119,1,118.999996368408
209,57,275014,1,2,0:0:0:0:
209,57,275178,1,2,0:0:0:0:
353,77,275343,2,8,L|275:176,1,118.999996368408
423,231,275673,5,2,0:0:0:0:
201,274,275838,1,2,0:0:0:0:
354,107,276003,1,2,0:0:0:0:
388,329,276167,1,2,0:0:0:0:
230,49,276332,1,2,0:0:0:0:
299,264,276497,1,2,0:0:0:0:
115,30,276662,1,2,0:0:0:0:
96,255,276827,1,2,0:0:0:0:
235,129,276992,6,8,P|182:171|109:177,1,127.500004863739
124,179,277486,1,2,0:0:0:0:
205,307,277651,2,8,L|252:250,1,63.7500024318696
360,233,277981,2,8,L|322:290,1,63.7500024318696
303,157,278310,6,8,P|327:104|302:27,1,127.500004863739
185,100,278805,1,2,0:0:0:0:
185,100,278970,1,2,0:0:0:0:
32,206,279134,2,8,P|79:251|91:252,1,63.7500024318696
202,219,279464,1,2,0:0:0:0:
373,204,279629,6,8,L|354:284,1,63.7500024318696
294,137,279959,2,8,L|311:57,1,63.7500024318696
207,207,280288,1,2,0:0:0:0:
161,123,280453,1,2,0:0:0:0:
126,285,280618,1,2,0:0:0:0:
84,199,280783,1,2,0:0:0:0:
259,314,280948,6,8,L|340:189,1,127.500004863739
210,105,281442,1,2,0:0:0:0:
210,105,281607,2,8,P|270:77|290:83,1,63.7500024318696
392,130,281937,2,8,P|344:163|325:161,1,63.7500024318696
287,310,282266,6,8,L|258:241,1,63.7500024318696
150,179,282596,2,8,L|180:257,1,63.7500024318696
214,107,282926,1,2,0:0:0:0:
214,107,283090,1,2,0:0:0:0:
103,86,283255,1,2,0:0:0:0:
103,86,283420,1,2,0:0:0:0:
51,182,283585,6,8,P|85:217|115:229,1,63.7500024318696
219,206,283915,2,8,P|183:178|155:172,1,63.7500024318696
212,296,284244,1,2,0:0:0:0:
212,296,284409,1,2,0:0:0:0:
334,258,284574,2,8,P|306:226|299:197,1,63.7500024318696
381,137,284904,5,2,0:0:0:0:
238,106,285068,1,2,0:0:0:0:
463,66,285233,1,2,0:0:0:0:
321,50,285398,1,2,0:0:0:0:
321,50,285563,2,8,L|346:129,1,63.7500024318696
223,272,285893,2,8,L|251:188,1,63.7500024318696
111,63,286222,5,2,0:0:0:0:
39,263,286387,1,2,0:0:0:0:
184,143,286552,2,8,L|194:198,1,42.5
303,91,286882,5,2,0:0:0:0:
393,328,287046,1,2,0:0:0:0:
419,42,287211,5,2,0:0:0:0:
293,296,287376,1,2,0:0:0:0:
