osu file format v14

[General]
AudioFilename: audio.mp3
AudioLeadIn: 0
PreviewTime: 69103
Countdown: 0
SampleSet: Soft
StackLeniency: 0.5
Mode: 0
LetterboxInBreaks: 0
WidescreenStoryboard: 1

[Editor]
Bookmarks: 43556,59885
DistanceSpacing: 1.5
BeatDivisor: 4
GridSize: 32
TimelineZoom: 2.1

[Metadata]
Title:5150
TitleUnicode:5150
Artist:THE ORAL CIGARETTES
ArtistUnicode:THE ORAL CIGARETTES
Creator:Nevo
Version:hyper's Hard
Source:
Tags:sotarks mir ayanokorin yukiyo hypercyte snownino_
BeatmapID:1719454
BeatmapSetID:818778

[Difficulty]
HPDrainRate:4
CircleSize:4
OverallDifficulty:6.5
ApproachRate:8
SliderMultiplier:1.4
SliderTickRate:1

[Events]
//Background and Video events
0,0,"69371129_p0.jpg",0,0
//Break Periods
2,20241,21635
2,22741,24135
//Storyboard Layer 0 (Background)
//Storyboard Layer 1 (Fail)
//Storyboard Layer 2 (Pass)
//Storyboard Layer 3 (Foreground)
//Storyboard Sound Samples

[TimingPoints]
19885,312.5,4,2,22,42,1,0
20197,-100,4,2,22,32,0,0
22385,-100,4,2,22,42,0,0
22697,-100,4,2,22,32,0,0
24885,-100,4,2,22,42,0,0
29572,-133.333333333333,4,2,22,32,0,0
29885,-100,4,2,22,52,0,0
39572,-100,4,2,22,32,0,0
39885,-100,4,2,22,52,0,0
47072,-100,4,2,22,52,0,0
48635,-100,4,2,22,52,0,0
49885,-133.333333333333,4,2,22,42,0,0
58635,-105.263157894737,4,2,22,42,0,0
59885,-117.647058823529,4,2,22,42,0,0
64885,-117.647058823529,4,2,22,52,0,0
67385,-117.647058823529,4,2,22,62,0,0
69260,-117.647058823529,4,2,22,32,0,0
69416,-117.647058823529,4,2,22,5,0,0
69494,-117.647058823529,4,2,22,42,0,0
69650,-117.647058823529,4,2,22,5,0,0
69728,-117.647058823529,4,2,22,42,0,0
69806,-117.647058823529,4,2,22,5,0,0
69885,-90.9090909090909,4,1,22,72,0,1
93635,-90.9090909090909,4,1,22,62,0,1
93713,-90.9090909090909,4,1,22,42,0,1
93947,-90.9090909090909,4,2,22,42,0,1
94572,-90.9090909090909,4,2,22,32,0,1
94885,-100,4,2,22,62,0,0
104572,-100,4,2,22,32,0,0
104885,-100,4,2,22,52,0,0
117385,-100,4,2,22,5,0,0

[Colours]
Combo1 : 255,198,155
Combo2 : 187,187,255
Combo3 : 255,252,147

[HitObjects]
256,192,18635,12,0,19572,0:0:0:0:
256,192,19885,5,10,0:2:0:0:
256,192,20041,1,10,0:2:0:0:
256,192,22385,5,8,0:2:0:0:
256,192,22541,1,8,0:2:0:0:
390,180,24885,6,0,B|364:197|364:197|252:191,1,140,14|0,0:2|1:2,0:0:0:0:
172,138,25353,1,10,0:2:0:0:
172,138,25510,2,0,P|130:162|87:166,1,70,0|0,1:2|0:0,0:0:0:0:
40,235,25822,1,10,0:2:0:0:
40,235,25979,6,0,P|82:259|125:263,1,70,0|0,1:2|1:2,0:0:0:0:
103,360,26291,2,0,P|171:333|199:252,1,140,10|0,0:2|1:2,0:0:0:0:
271,343,26760,2,0,P|282:310|283:264,1,70,12|0,0:2|1:2,0:0:0:0:
373,314,27072,2,0,P|375:272|366:234,1,70,12|0,0:2|0:0,0:0:0:0:
291,146,27385,6,0,P|355:170|421:151,1,140,8|8,1:2|0:2,0:0:0:0:
506,91,27853,2,0,L|491:260,1,140,8|8,1:2|0:2,0:0:0:0:
478,327,28322,2,0,B|410:303|410:303|318:319,1,140,8|10,1:2|0:2,0:0:0:0:
272,246,28791,5,8,1:2:0:0:
214,324,28947,2,0,P|167:297|141:292,1,70,10|8,0:2|0:2,0:0:0:0:
92,214,29260,2,0,P|45:241|19:246,1,70,2|0,1:2|0:0,0:0:0:0:
30,244,29572,1,2,0:2:0:0:
87,56,29885,6,0,P|140:77|180:73,1,70,4|2,1:2|0:2,0:0:0:0:
246,51,30197,2,0,P|299:30|339:34,1,70,10|2,0:2|0:0,0:0:0:0:
398,75,30510,2,0,B|382:126|382:126|395:168|395:168|379:225,1,140,2|10,1:2|0:2,0:0:0:0:
420,299,30978,1,2,0:0:0:0:
417,291,31056,1,10,0:2:0:0:
414,283,31135,6,0,L|331:295,1,70,2|2,1:2|1:2,0:0:0:0:
292,375,31447,2,0,B|226:343|217:392|144:360,1,140,10|2,0:2|1:2,0:0:0:0:
56,368,31916,2,0,B|75:308|75:308|67:270|67:270|93:221,1,140,2|8,1:2|0:2,0:0:0:0:
174,277,32385,6,0,P|186:226|180:194,1,70,0|2,1:2|0:2,0:0:0:0:
105,151,32697,2,0,P|93:100|99:68,1,70,10|2,0:2|0:0,0:0:0:0:
170,20,33010,2,0,P|111:45|30:18,1,140,2|10,1:2|0:2,0:0:0:0:
3,116,33478,1,2,0:0:0:0:
6,108,33556,1,10,0:2:0:0:
9,100,33635,6,0,L|10:189,1,70,2|2,1:2|1:2,0:0:0:0:
99,210,33947,2,0,B|89:257|89:257|105:304|105:304|90:363,1,140,10|10,0:2|1:2,0:0:0:0:
1,384,34416,2,0,P|61:361|158:386,1,140,8|8,0:2|0:0,0:0:0:0:
205,303,34885,6,0,L|276:310,1,70,4|2,1:2|0:2,0:0:0:0:
338,384,35197,2,0,L|409:377,1,70,10|2,0:2|0:0,0:0:0:0:
506,379,35510,2,0,B|488:348|488:348|500:217,1,140,2|10,1:2|0:2,0:0:0:0:
475,148,35978,1,2,0:0:0:0:
472,156,36056,1,10,0:2:0:0:
469,164,36135,6,0,P|419:163|373:155,1,70,2|2,1:2|1:2,0:0:0:0:
333,232,36447,2,0,P|283:233|174:245,1,140,10|2,0:2|1:2,0:0:0:0:
119,306,36916,1,2,1:2:0:0:
41,215,37072,2,0,L|38:250,3,35,10|8|8|8,0:2|0:2|0:2|0:2,0:0:0:0:
26,298,37385,6,0,P|31:342|50:378,1,70,2|2,1:2|0:2,0:0:0:0:
119,306,37697,2,0,P|153:333|192:345,1,70,10|2,0:2|0:0,0:0:0:0:
193,241,38010,2,0,P|237:235|273:216,1,70,2|2,1:2|1:2,0:0:0:0:
204,145,38322,2,0,P|231:110|243:71,1,70,10|2,0:2|0:0,0:0:0:0:
143,72,38635,6,0,P|142:41|132:13,2,35,2|8|10,1:2|0:0|0:0,0:0:0:0:
90,154,38947,2,0,P|57:120|47:86,1,70,2|2,1:2|0:0,0:0:0:0:
53,1,39260,1,10,0:0:0:0:
53,1,39416,1,8,0:0:0:0:
220,243,39885,6,0,L|289:236,1,70,4|2,1:2|0:2,0:0:0:0:
365,298,40197,2,0,L|434:304,1,70,10|2,0:2|0:0,0:0:0:0:
498,230,40510,2,0,B|515:200|515:200|502:78,1,140,2|10,1:2|0:2,0:0:0:0:
423,39,40978,1,2,0:0:0:0:
420,47,41056,1,10,0:2:0:0:
417,55,41135,6,0,L|331:43,1,70,2|2,1:2|1:2,0:0:0:0:
274,110,41447,2,0,B|194:84|193:129|123:105,1,140,10|2,0:2|1:2,0:0:0:0:
49,62,41916,2,0,B|30:94|32:130|49:161|49:161|36:177|22:211,1,140,2|8,1:2|0:2,0:0:0:0:
36,290,42385,6,0,P|79:270|112:272,1,70,0|2,1:2|0:2,0:0:0:0:
181,214,42697,2,0,P|224:234|257:232,1,70,10|2,0:2|0:0,0:0:0:0:
325,176,43010,2,0,B|390:197|395:155|465:171,1,140,2|10,1:2|0:2,0:0:0:0:
509,256,43478,1,2,0:0:0:0:
501,253,43556,1,10,0:2:0:0:
493,250,43635,6,0,P|493:294|503:327,1,70,2|2,1:2|1:2,0:0:0:0:
411,362,43947,2,0,B|371:344|371:344|321:366|321:366|259:343,1,140,10|10,0:2|1:2,0:0:0:0:
232,345,44338,2,0,L|227:387,2,35,8|8|8,0:2|0:2|0:2,0:0:0:0:
203,304,44572,2,0,P|198:258|204:211,1,70,10|8,1:2|0:0,0:0:0:0:
293,203,44885,6,0,P|294:154|279:115,1,70,0|2,1:2|0:2,0:0:0:0:
207,78,45197,2,0,P|204:43|211:9,1,70,10|2,0:2|0:0,0:0:0:0:
301,48,45510,2,0,B|364:39|366:71|455:63,1,140,2|10,1:2|0:2,0:0:0:0:
465,158,45978,1,2,0:0:0:0:
462,150,46056,1,10,0:2:0:0:
459,142,46135,6,0,L|368:144,1,70,2|2,1:2|1:2,0:0:0:0:
320,213,46447,2,0,B|285:194|285:194|157:210,1,140,10|8,0:2|3:0,0:0:0:0:
193,255,46838,1,8,3:0:0:0:
193,255,46916,2,0,B|158:274|158:274|30:258,1,140,8|0,3:0|0:0,0:0:0:0:
39,165,47385,6,0,L|65:86,1,70,10|2,0:2|1:2,0:0:0:0:
153,129,47697,2,0,L|227:91,1,70,2|10,1:2|0:2,0:0:0:0:
290,161,48010,2,0,L|369:187,1,70,2|2,1:2|1:2,0:0:0:0:
319,273,48322,2,0,L|356:347,1,70,10|0,0:2|0:0,0:0:0:0:
448,341,48635,6,0,L|442:390,2,35,8|8|8,0:0|0:0|0:0,0:0:0:0:
497,256,48947,2,0,L|483:158,1,70,0|0,1:0|0:0,0:0:0:0:
502,89,49260,1,8,3:0:0:0:
502,89,49416,2,0,L|510:16,1,70,8|4,3:0|3:0,0:0:0:0:
365,47,49885,6,0,P|316:56|252:38,1,105.000004005432,6|10,1:2|0:2,0:0:0:0:
118,74,50510,1,0,1:2:0:0:
118,74,50666,1,0,1:2:0:0:
134,145,50822,2,0,L|130:216,1,52.5000020027161,10|2,0:2|0:2,0:0:0:0:
83,253,51135,6,0,P|126:240|200:261,1,105.000004005432,0|8,1:2|0:2,0:0:0:0:
267,129,51760,1,2,1:2:0:0:
267,129,51916,1,0,1:2:0:0:
307,190,52072,2,0,P|339:202|370:203,1,52.5000020027161,10|0,0:2|0:0,0:0:0:0:
406,148,52385,6,0,P|399:196|424:272,1,105.000004005432,2|10,1:2|0:2,0:0:0:0:
502,366,53010,2,0,L|508:303,2,52.5000020027161,0|0|10,1:2|1:2|0:2,0:0:0:0:
428,372,53478,6,0,B|375:360|375:360|307:367,1,105.000004005432,2|2,0:2|0:2,0:0:0:0:
250,361,53947,1,8,0:2:0:0:
106,367,54260,1,2,1:2:0:0:
106,367,54416,1,0,1:2:0:0:
153,310,54572,2,0,P|157:282|151:235,1,52.5000020027161,10|0,0:2|0:0,0:0:0:0:
87,230,54885,6,0,P|82:186|91:118,1,105.000004005432,2|10,1:2|0:2,0:0:0:0:
293,42,55510,1,0,1:2:0:0:
292,41,55666,1,0,1:2:0:0:
265,109,55822,2,0,P|268:155|276:182,1,52.5000020027161,10|2,0:2|0:2,0:0:0:0:
236,227,56135,6,0,P|267:198|330:188,1,105.000004005432,0|8,1:2|0:2,0:0:0:0:
437,284,56760,2,0,P|473:263|500:254,2,52.5000020027161,2|2|8,1:2|1:2|0:2,0:0:0:0:
391,341,57228,6,0,B|340:321|332:355|274:343,1,105.000004005432,2|0,0:0|0:0,0:0:0:0:
231,297,57697,1,10,0:2:0:0:
93,349,58010,1,0,1:2:0:0:
93,349,58166,1,2,1:2:0:0:
37,290,58322,2,0,L|43:214,1,52.5000020027161,8|2,0:2|0:0,0:0:0:0:
74,168,58635,5,8,1:2:0:0:
77,160,58713,1,8,0:0:0:0:
80,152,58791,2,0,L|74:112,5,33.2499991121292,10|8|8|8|8|8,0:0|0:0|1:2|0:0|0:0|0:0,0:0:0:0:
97,77,59260,2,0,L|102:40,3,33.2499991121292,4|4|4|4,3:0|3:0|3:0|3:0,0:0:0:0:
77,4,59572,1,14,0:0:0:0:
210,103,59885,6,0,L|274:97,1,59.5000011348725,4|2,1:2|1:2,0:0:0:0:
335,47,60197,1,8,0:2:0:0:
401,97,60353,2,0,P|422:157|417:232,1,119.000002269745,0|0,0:0|1:2,0:0:0:0:
293,318,60978,6,0,B|355:309|347:337|422:325,1,119.000002269745,10|2,0:2|1:2,0:0:0:0:
477,276,61447,1,8,0:2:0:0:
421,211,61603,2,0,B|425:168|425:168|415:135|415:135|424:82,1,119.000002269745,2|2,0:0|1:2,0:0:0:0:
364,33,62072,1,8,0:2:0:0:
260,163,62385,6,0,P|234:150|202:141,1,59.5000011348725,0|2,1:2|1:2,0:0:0:0:
130,179,62697,1,10,0:2:0:0:
58,136,62853,2,0,P|47:185|80:249,1,119.000002269745,2|0,0:0|1:2,0:0:0:0:
158,258,63322,1,0,0:0:0:0:
195,356,63478,6,0,P|144:339|58:349,1,119.000002269745,8|0,0:2|1:2,0:0:0:0:
5,381,63947,1,8,0:2:0:0:
71,227,64260,1,0,1:2:0:0:
71,227,64416,1,0,1:2:0:0:
25,157,64572,2,0,L|35:75,1,59.5000011348725,8|8,0:2|0:2,0:0:0:0:
27,56,64806,1,8,0:2:0:0:
27,56,64885,6,0,P|81:78|161:55,1,119.000002269745,4|10,1:2|0:2,0:0:0:0:
198,9,65353,1,2,1:2:0:0:
251,73,65510,6,0,L|242:152,1,59.5000011348725,8|0,0:2|1:2,0:0:0:0:
327,134,65822,2,0,L|333:193,1,59.5000011348725,10|2,0:2|1:2,0:0:0:0:
199,200,66135,6,0,L|208:279,1,59.5000011348725,8|0,0:2|1:2,0:0:0:0:
123,261,66447,2,0,L|116:320,1,59.5000011348725,10|2,0:2|1:2,0:0:0:0:
289,264,66760,6,0,L|280:343,1,59.5000011348725,8|0,0:2|0:0,0:0:0:0:
365,325,67072,2,0,L|371:384,1,59.5000011348725,8|8,0:0|3:0,0:0:0:0:
464,265,67385,6,0,L|457:392,1,119.000002269745,12|0,0:0|1:0,0:0:0:0:
365,325,67853,2,0,L|373:195,1,119.000002269745,12|0,0:0|1:0,0:0:0:0:
337,130,68322,2,0,L|340:83,2,29.7500005674362,8|8|8,0:0|3:0|3:0,0:0:0:0:
273,184,68635,5,8,0:0:0:0:
221,118,68791,2,0,B|164:112|164:112|100:144,1,119.000002269745,4|4,1:0|1:0,0:0:0:0:
331,68,69885,6,0,P|376:78|410:104,1,77.0000023498536,6|0,0:2|0:0,0:0:0:0:
432,197,70197,1,10,0:2:0:0:
357,274,70353,2,0,B|276:248|283:306|198:280,1,154.000004699707,2|0,0:2|0:0,0:0:0:0:
129,207,70822,1,10,0:2:0:0:
129,207,70978,1,2,0:2:0:0:
213,139,71135,6,0,L|208:61,1,77.0000023498536,0|0,0:0|0:0,0:0:0:0:
109,18,71447,2,0,L|104:96,1,77.0000023498536,8|0,0:2|0:0,0:0:0:0:
129,207,71760,2,0,P|72:179|16:174,2,115.50000352478,2|2|2,0:2|0:2|0:2,0:0:0:0:
148,313,72385,6,0,L|233:298,1,77.0000023498536,6|0,0:2|0:0,0:0:0:0:
269,202,72697,1,10,0:2:0:0:
346,276,72853,2,0,P|391:255|500:243,1,154.000004699707,2|2,0:2|0:2,0:0:0:0:
420,162,73322,2,0,P|380:94|402:14,1,154.000004699707,10|0,0:2|0:0,0:0:0:0:
488,78,73791,1,0,0:0:0:0:
420,162,73947,2,0,L|426:251,1,77.0000023498536,10|0,0:2|0:0,0:0:0:0:
329,290,74260,2,0,L|323:366,1,77.0000023498536,0|0,0:0|0:0,0:0:0:0:
234,306,74572,1,10,0:2:0:0:
140,359,74728,1,0,0:2:0:0:
143,351,74806,1,0,0:2:0:0:
146,344,74885,6,0,L|136:240,1,77.0000023498536,6|0,0:2|0:0,0:0:0:0:
43,217,75197,1,14,0:2:0:0:
43,217,75353,2,0,P|110:164|181:169,1,154.000004699707,2|0,0:2|0:0,0:0:0:0:
267,222,75822,2,0,L|346:206,1,77.0000023498536,10|0,0:2|0:0,0:0:0:0:
447,180,76135,6,0,L|296:149,1,154.000004699707,2|10,0:2|0:2,0:0:0:0:
210,84,76603,2,0,P|170:104|137:109,1,77.0000023498536,2|0,0:2|0:0,0:0:0:0:
41,61,76916,1,2,0:2:0:0:
9,163,77072,2,0,L|24:260,1,77.0000023498536,8|2,0:2|0:2,0:0:0:0:
13,347,77385,6,0,B|86:315|84:361|186:344,1,154.000004699707,4|8,0:0|0:2,0:0:0:0:
234,265,77853,1,0,0:0:0:0:
321,328,78010,1,0,0:0:0:0:
321,328,78166,1,0,0:0:0:0:
402,257,78322,6,0,L|390:174,1,77.0000023498536,8|0,0:2|0:0,0:0:0:0:
294,105,78635,1,0,0:0:0:0:
294,105,78947,6,0,L|305:28,1,77.0000023498536,8|0,0:2|0:0,0:0:0:0:
197,19,79260,2,0,L|203:56,3,38.5000011749268,10|8|8|10,0:2|0:2|0:2|0:2,0:0:0:0:
174,102,79572,2,0,L|167:139,3,38.5000011749268,8|8|10|8,0:2|0:2|0:2|0:2,0:0:0:0:
124,173,79885,6,0,L|132:261,1,77.0000023498536,6|0,0:2|0:0,0:0:0:0:
98,352,80197,1,14,0:2:0:0:
200,319,80353,2,0,B|276:290|277:349|363:314,1,154.000004699707,2|0,0:2|0:0,0:0:0:0:
441,376,80822,2,0,P|457:333|457:302,1,77.0000023498536,10|2,0:2|0:2,0:0:0:0:
387,219,81135,6,0,P|361:150|375:60,1,154.000004699707,0|8,0:0|0:2,0:0:0:0:
460,13,81603,1,0,0:0:0:0:
370,71,81760,2,0,L|245:56,2,115.50000352478,2|2|2,0:2|0:2|0:2,0:0:0:0:
310,161,82385,6,0,L|213:169,1,77.0000023498536,6|0,0:2|0:0,0:0:0:0:
162,248,82697,1,10,0:2:0:0:
64,201,82853,2,0,B|53:250|53:250|69:297|69:297|51:363,1,154.000004699707,2|2,0:2|0:2,0:0:0:0:
163,345,83322,6,0,P|231:343|328:355,1,154.000004699707,10|0,0:2|0:0,0:0:0:0:
418,316,83791,1,0,0:0:0:0:
353,229,83947,2,0,L|360:139,1,77.0000023498536,10|0,0:2|0:0,0:0:0:0:
453,98,84260,2,0,L|446:8,1,77.0000023498536,0|0,0:0|0:0,0:0:0:0:
340,8,84572,1,10,0:2:0:0:
255,74,84728,1,0,0:2:0:0:
252,66,84806,1,0,0:2:0:0:
249,59,84885,6,0,P|210:51|148:55,1,77.0000023498536,6|0,0:2|0:0,0:0:0:0:
66,38,85197,1,14,0:2:0:0:
66,38,85353,2,0,P|106:97|92:197,1,154.000004699707,2|0,0:2|0:0,0:0:0:0:
48,270,85822,2,0,P|103:252|135:247,1,77.0000023498536,10|0,0:2|0:0,0:0:0:0:
218,237,86135,6,0,P|139:225|60:191,1,154.000004699707,2|10,0:2|0:2,0:0:0:0:
155,130,86603,2,0,P|221:101|241:84,1,77.0000023498536,2|0,0:2|0:0,0:0:0:0:
287,10,86916,1,2,0:2:0:0:
382,58,87072,2,0,L|367:155,1,77.0000023498536,8|2,0:2|0:2,0:0:0:0:
408,235,87385,6,0,B|366:227|366:227|306:244|306:244|257:234,1,154.000004699707,4|8,0:0|0:2,0:0:0:0:
176,164,87853,1,0,0:0:0:0:
92,233,88010,1,0,0:0:0:0:
92,233,88166,1,0,0:0:0:0:
18,154,88322,2,0,L|29:66,1,77.0000023498536,8|0,0:2|0:0,0:0:0:0:
121,24,88635,6,0,P|202:59|280:33,1,154.000004699707,2|8,0:2|0:2,0:0:0:0:
362,2,89103,1,0,0:0:0:0:
446,69,89260,2,0,L|497:61,2,38.5000011749268,8|8|8,0:2|3:0|3:0,0:0:0:0:
394,183,89572,1,8,0:2:0:0:
394,183,89885,6,0,L|401:285,1,77.0000023498536,12|0,0:2|0:0,0:0:0:0:
344,352,90197,1,8,0:2:0:0:
249,299,90353,1,0,0:0:0:0:
162,364,90510,6,0,L|69:349,1,77.0000023498536,8|0,0:2|0:0,0:0:0:0:
32,258,90822,1,8,0:2:0:0:
91,168,90978,1,0,0:0:0:0:
48,68,91135,6,0,L|136:54,1,77.0000023498536,8|0,0:2|0:0,0:0:0:0:
206,124,91447,2,0,L|294:138,1,77.0000023498536,8|0,0:2|0:0,0:0:0:0:
368,70,91760,5,8,0:2:0:0:
455,132,91916,1,0,0:0:0:0:
413,231,92072,2,0,P|367:228|326:232,1,77.0000023498536,8|0,0:2|0:0,0:0:0:0:
241,283,92385,6,0,B|166:259|158:313|81:288,1,154.000004699707,12|0,0:2|0:0,0:0:0:0:
3,354,92853,2,0,B|38:334|38:334|62:191,1,154.000004699707,12|0,0:2|0:0,0:0:0:0:
20,119,93322,1,8,0:2:0:0:
20,119,93478,1,8,0:2:0:0:
112,48,93635,5,4,0:2:0:0:
424,328,94885,6,0,P|371:307|331:311,1,70,4|2,1:2|0:2,0:0:0:0:
265,333,95197,2,0,P|212:354|172:350,1,70,10|2,0:2|0:0,0:0:0:0:
109,315,95510,2,0,B|93:264|93:264|106:222|106:222|90:165,1,140,2|10,1:2|0:2,0:0:0:0:
178,131,95978,1,2,0:0:0:0:
181,139,96056,1,10,0:2:0:0:
184,147,96135,6,0,L|267:135,1,70,2|2,1:2|1:2,0:0:0:0:
243,39,96447,2,0,B|181:66|172:17|106:49,1,140,10|2,0:2|1:2,0:0:0:0:
33,114,96916,2,0,B|52:159|52:159|32:212|32:212|48:269,1,140,2|8,1:2|0:2,0:0:0:0:
0,329,97385,6,0,P|33:329|67:340,1,70,0|2,1:2|0:2,0:0:0:0:
144,280,97697,2,0,P|195:292|227:286,1,70,10|2,0:2|0:0,0:0:0:0:
286,353,98010,2,0,P|355:336|426:355,1,140,2|10,1:2|0:2,0:0:0:0:
495,289,98478,1,2,0:0:0:0:
493,295,98556,1,10,0:2:0:0:
491,301,98635,6,0,L|490:212,1,70,2|2,1:2|1:2,0:0:0:0:
406,179,98947,2,0,B|416:132|416:132|400:85|400:85|415:26,1,140,10|10,0:2|1:2,0:0:0:0:
311,46,99416,2,0,P|251:69|154:44,1,140,8|8,0:2|0:0,0:0:0:0:
81,78,99885,6,0,P|77:117|87:147,1,70,4|2,1:2|0:2,0:0:0:0:
167,200,100197,2,0,P|177:233|172:267,1,70,10|2,0:2|0:0,0:0:0:0:
94,327,100510,2,0,B|125:309|125:309|256:321,1,140,2|10,1:2|0:2,0:0:0:0:
306,377,100978,1,2,0:0:0:0:
309,369,101056,1,10,0:2:0:0:
312,361,101135,6,0,P|362:362|408:370,1,70,2|2,1:2|1:2,0:0:0:0:
478,375,101447,2,0,P|457:323|456:230,1,140,10|2,0:2|1:2,0:0:0:0:
492,149,101916,1,2,1:2:0:0:
394,152,102072,2,0,L|359:149,2,35,10|8|8,0:2|0:2|0:2,0:0:0:0:
297,71,102385,6,0,B|269:56|269:56|230:53,1,70,2|2,1:2|0:2,0:0:0:0:
251,149,102697,2,0,B|221:159|221:159|190:183,1,70,10|2,0:2|0:0,0:0:0:0:
266,247,103010,2,0,B|252:274|252:274|247:313,1,70,2|2,1:2|1:2,0:0:0:0:
345,304,103322,2,0,B|355:333|355:333|379:364,1,70,10|2,0:2|0:0,0:0:0:0:
439,286,103635,6,0,L|442:251,2,35,2|8|10,1:2|0:0|0:0,0:0:0:0:
361,195,103947,2,0,B|387:168|387:168|417:156,1,70,2|0,1:2|0:0,0:0:0:0:
510,123,104260,1,10,0:0:0:0:
510,123,104416,1,8,0:0:0:0:
220,69,104885,6,0,B|195:112|195:112|206:162|206:162|190:214,1,140,14|2,0:2|1:2,0:0:0:0:
169,290,105353,2,0,B|138:273|138:273|84:298|23:289,1,140,10|0,0:2|0:0,0:0:0:0:
28,192,105822,2,0,P|83:200|102:124,1,140,10|2,0:2|1:2,0:0:0:0:
45,53,106291,2,0,P|119:31|185:68,1,140,10|0,0:2|1:2,0:0:0:0:
199,150,106760,2,0,L|282:135,1,70,10|2,0:2|1:2,0:0:0:0:
339,70,107072,2,0,L|422:85,1,70,8|0,0:2|1:2,0:0:0:0:
458,166,107385,6,0,B|426:199|426:199|438:318,1,140,14|2,0:2|1:2,0:0:0:0:
352,345,107853,2,0,L|336:192,1,140,10|0,0:2|0:0,0:0:0:0:
239,202,108322,2,0,P|280:124|346:107,1,140,10|2,0:2|1:2,0:0:0:0:
402,46,108791,2,0,P|348:13|269:25,1,140,8|0,0:2|1:2,0:0:0:0:
182,57,109260,2,0,L|186:91,3,35,10|8|8|8,0:0|3:0|3:0|3:0,0:0:0:0:
210,137,109572,2,0,L|206:215,1,70,12|0,0:0|0:0,0:0:0:0:
91,304,109885,6,0,L|173:315,1,70,14|2,0:2|1:2,0:0:0:0:
137,216,110197,2,0,L|219:205,1,70,10|2,0:2|1:2,0:0:0:0:
256,334,110510,6,0,L|338:345,1,70,10|0,0:2|1:2,0:0:0:0:
302,246,110822,2,0,L|384:235,1,70,10|2,0:2|1:2,0:0:0:0:
420,240,111056,1,2,0:2:0:0:
426,247,111135,6,0,L|521:256,1,70,10|2,0:2|1:2,0:0:0:0:
498,155,111447,2,0,L|422:161,1,70,10|0,0:2|1:2,0:0:0:0:
341,114,111760,5,10,0:2:0:0:
258,166,111916,1,2,1:2:0:0:
175,113,112072,2,0,L|184:31,1,70,8|0,0:2|1:2,0:0:0:0:
85,30,112385,6,0,P|82:84|107:123,1,70,14|2,0:2|1:2,0:0:0:0:
4,149,112697,2,0,P|40:189|85:199,1,70,10|2,0:2|1:2,0:0:0:0:
19,287,113010,6,0,P|73:290|112:265,1,70,10|2,0:2|1:2,0:0:0:0:
132,370,113322,2,0,P|172:333|182:288,1,70,10|2,0:2|0:0,0:0:0:0:
174,221,113635,5,10,1:2:0:0:
174,221,113791,1,10,1:2:0:0:
235,144,113947,1,10,1:2:0:0:
235,144,114103,1,10,1:2:0:0:
296,220,114260,2,0,L|390:209,1,70,10|10,1:2|1:2,0:0:0:0:
429,137,114572,1,10,1:2:0:0:
429,137,114728,1,14,1:2:0:0:
