osu file format v14

[General]
AudioFilename: audio.mp3
AudioLeadIn: 0
PreviewTime: 69103
Countdown: 0
SampleSet: Soft
StackLeniency: 0.5
Mode: 0
LetterboxInBreaks: 0
WidescreenStoryboard: 1

[Editor]
Bookmarks: 43556,59885
DistanceSpacing: 1
BeatDivisor: 4
GridSize: 32
TimelineZoom: 2.1

[Metadata]
Title:5150
TitleUnicode:5150
Artist:THE ORAL CIGARETTES
ArtistUnicode:THE ORAL CIGARETTES
Creator:Nevo
Version:Yukiyo's Insane
Source:
Tags:sotarks mir ayanokorin yukiyo hypercyte snownino_
BeatmapID:1718672
BeatmapSetID:818778

[Difficulty]
HPDrainRate:5
CircleSize:4
OverallDifficulty:8
ApproachRate:9
SliderMultiplier:1.7
SliderTickRate:1

[Events]
//Background and Video events
0,0,"69371129_p0.jpg",0,0
//Break Periods
2,20241,21785
2,22741,24285
//Storyboard Layer 0 (Background)
//Storyboard Layer 1 (Fail)
//Storyboard Layer 2 (Pass)
//Storyboard Layer 3 (Foreground)
//Storyboard Sound Samples

[TimingPoints]
19885,312.5,4,2,22,42,1,0
20197,-100,4,2,22,32,0,0
22385,-100,4,2,22,42,0,0
22697,-100,4,2,22,32,0,0
24885,-100,4,2,22,42,0,0
29572,-133.333333333333,4,2,22,32,0,0
29885,-100,4,2,22,52,0,0
39572,-133.333333333333,4,2,22,32,0,0
39885,-100,4,2,22,52,0,0
47072,-133.333333333333,4,2,22,52,0,0
48635,-100,4,2,22,52,0,0
49885,-133.333333333333,4,2,22,42,0,0
64885,-133.333333333333,4,2,22,52,0,0
67385,-133.333333333333,4,2,22,62,0,0
69260,-133.333333333333,4,2,22,32,0,0
69416,-133.333333333333,4,2,22,5,0,0
69494,-133.333333333333,4,2,22,42,0,0
69650,-133.333333333333,4,2,22,5,0,0
69728,-133.333333333333,4,2,22,42,0,0
69806,-133.333333333333,4,2,22,5,0,0
69885,-100,4,1,22,72,0,1
93635,-100,4,1,22,62,0,1
93713,-100,4,1,22,42,0,1
93947,-100,4,2,22,42,0,1
94572,-100,4,2,22,32,0,1
94885,-100,4,2,22,62,0,0
104572,-100,4,2,22,32,0,0
104885,-100,4,2,22,52,0,0
117385,-100,4,2,22,5,0,0

[Colours]
Combo1 : 255,198,155
Combo2 : 187,187,255
Combo3 : 255,252,147

[HitObjects]
162,12,19885,5,10,0:2:0:0:
199,130,20041,1,10,0:2:0:0:
199,130,22385,5,8,0:2:0:0:
162,248,22541,1,8,0:2:0:0:
162,248,24885,5,14,0:2:0:0:
199,366,25041,1,0,1:2:0:0:
275,280,25197,1,0,1:2:0:0:
115,321,25353,2,0,L|26:303,2,85,10|0|0,0:2|1:2|1:2,0:0:0:0:
285,359,25822,5,10,0:2:0:0:
235,206,25978,1,0,1:2:0:0:
115,321,26135,1,0,1:2:0:0:
275,280,26291,2,0,L|364:262,2,85,10|0|0,0:2|1:2|1:2,0:0:0:0:
162,248,26760,5,12,0:2:0:0:
199,366,26916,1,0,1:2:0:0:
290,146,27072,5,12,0:2:0:0:
245,287,27228,1,0,0:0:0:0:
222,92,27385,6,0,L|216:27,1,42.5,8|8,1:2|0:2,0:0:0:0:
148,132,27541,2,0,L|144:174,3,42.5,8|8|8|8,0:2|0:2|0:2|0:2,0:0:0:0:
219,218,27853,6,0,L|225:153,1,42.5,8|8,1:2|0:2,0:0:0:0:
292,256,28009,2,0,L|295:298,3,42.5,8|8|8|8,0:2|0:2|0:2|0:2,0:0:0:0:
211,305,28322,6,0,L|146:311,1,42.5,8|8,1:2|0:2,0:0:0:0:
249,378,28478,2,0,L|291:381,3,42.5,8|8|10|0,0:2|0:2|0:2|0:0,0:0:0:0:
369,335,28791,6,0,L|411:331,1,42.5,8|8,1:2|0:2,0:0:0:0:
512,263,28947,1,10,0:2:0:0:
490,261,29025,1,8,0:2:0:0:
469,259,29103,1,8,0:2:0:0:
448,257,29181,1,8,0:2:0:0:
427,255,29259,1,2,1:2:0:0:
326,263,29572,6,0,P|373:263|412:237,1,95.6250036478044,2|0,0:2|0:0,0:0:0:0:
349,180,29885,6,0,L|258:198,1,85,4|2,1:2|0:2,0:0:0:0:
203,243,30119,1,2,0:2:0:0:
203,243,30197,2,0,L|112:261,1,85,10|2,0:2|0:0,0:0:0:0:
53,201,30510,2,0,B|96:260|96:260|85:371,1,170,2|10,1:2|0:2,0:0:0:0:
0,258,30978,5,2,0:0:0:0:
0,258,31056,1,10,0:2:0:0:
0,258,31135,2,0,L|16:155,1,85,2|2,1:2|1:2,0:0:0:0:
132,90,31447,2,0,P|93:162|12:173,1,170,10|2,0:2|1:2,0:0:0:0:
74,45,31916,2,0,B|131:90|131:90|226:73,1,170,2|8,1:2|0:2,0:0:0:0:
319,8,32385,6,0,P|302:47|304:89,1,85,0|2,1:2|0:2,0:0:0:0:
354,151,32619,1,2,0:2:0:0:
354,151,32697,2,0,P|370:190|368:232,1,85,10|2,0:2|0:0,0:0:0:0:
265,282,33010,2,0,B|325:257|325:257|428:274,1,170,2|10,1:2|0:2,0:0:0:0:
281,371,33478,5,2,0:0:0:0:
281,371,33556,1,10,0:2:0:0:
281,371,33635,2,0,P|240:368|204:346,1,85,2|2,1:2|1:2,0:0:0:0:
242,205,33947,2,0,P|265:239|264:282,1,85,10|0,0:2|0:0,0:0:0:0:
145,253,34260,2,0,L|187:261,1,42.5,10|8,1:2|0:2,0:0:0:0:
84,198,34416,2,0,L|42:205,5,42.5,8|8|10|8|8|8,0:2|0:2|1:2|0:0|0:0|0:0,0:0:0:0:
149,87,34885,6,0,L|156:171,1,85,4|2,1:2|0:2,0:0:0:0:
239,151,35119,1,2,0:2:0:0:
238,151,35197,2,0,P|279:140|321:147,1,85,10|2,0:2|0:0,0:0:0:0:
345,215,35510,2,0,B|322:147|322:147|358:55,1,170,2|10,1:2|0:2,0:0:0:0:
480,125,35978,5,2,0:0:0:0:
480,125,36056,1,10,0:2:0:0:
480,125,36135,2,0,P|431:149|376:143,1,85,2|2,1:2|1:2,0:0:0:0:
211,66,36447,2,0,P|287:96|357:54,1,170,10|2,0:2|1:2,0:0:0:0:
279,0,36916,6,0,B|212:66|212:66|136:54,1,170,2|8,1:2|0:2,0:0:0:0:
73,117,37385,6,0,L|66:75,3,42.5,2|0|2|0,1:2|0:0|0:2|0:2,0:0:0:0:
157,135,37697,2,0,L|150:176,3,42.5,10|0|2|8,0:2|0:0|0:0|0:2,0:0:0:0:
81,239,38010,2,0,L|74:197,3,42.5,2|0|2|0,1:2|0:0|1:2|0:0,0:0:0:0:
165,257,38322,2,0,L|158:298,3,42.5,10|0|2|8,0:2|0:0|0:0|0:2,0:0:0:0:
82,326,38635,5,2,1:2:0:0:
98,354,38713,1,8,0:0:0:0:
124,373,38791,1,10,0:0:0:0:
154,381,38869,1,8,0:0:0:0:
186,377,38947,2,0,B|228:363|228:363|262:370|262:370|336:349,1,127.5,2|0,1:2|0:0,0:0:0:0:
337,345,39260,5,10,0:0:0:0:
165,257,39416,1,8,0:0:0:0:
84,267,39572,6,0,L|197:246,1,95.6250036478044,2|0,0:0|0:0,0:0:0:0:
235,208,39885,6,0,P|227:259|243:303,1,85,4|2,1:2|0:2,0:0:0:0:
316,321,40119,1,2,0:2:0:0:
316,321,40197,2,0,P|347:292|364:254,1,85,10|2,0:2|0:0,0:0:0:0:
317,167,40510,2,0,P|370:230|452:224,1,170,2|10,1:2|0:2,0:0:0:0:
370,109,40978,5,2,0:0:0:0:
370,109,41056,1,10,0:2:0:0:
370,109,41135,2,0,L|248:119,1,85,2|2,1:2|1:2,0:0:0:0:
88,61,41447,2,0,B|165:24|165:24|245:49,1,170,10|2,0:2|1:2,0:0:0:0:
78,145,41916,2,0,P|11:99|14:18,1,170,2|8,1:2|0:2,0:0:0:0:
158,114,42385,6,0,L|163:223,1,85,0|2,1:2|0:2,0:0:0:0:
222,258,42619,1,2,0:2:0:0:
222,258,42697,2,0,L|217:367,1,85,10|2,0:2|0:0,0:0:0:0:
7,349,43010,2,0,B|81:340|81:340|147:270,1,170,2|10,1:2|0:2,0:0:0:0:
29,182,43478,5,2,0:0:0:0:
29,182,43556,1,10,0:2:0:0:
29,182,43635,2,0,L|40:266,1,85,2|2,1:2|1:2,0:0:0:0:
122,122,43947,2,0,L|110:206,1,85,10|0,0:2|0:0,0:0:0:0:
41,65,44260,2,0,L|46:107,1,42.5,10|8,1:2|0:2,0:0:0:0:
120,0,44416,2,0,L|114:42,5,42.5,8|8|10|8|8|8,0:2|0:2|1:2|0:0|0:0|0:0,0:0:0:0:
190,76,44885,6,0,P|230:90|272:86,1,85,0|2,1:2|0:2,0:0:0:0:
338,44,45119,1,2,0:2:0:0:
338,44,45197,2,0,P|379:39|419:53,1,85,10|2,0:2|0:0,0:0:0:0:
428,243,45510,2,0,P|361:197|372:117,1,170,2|10,1:2|0:2,0:0:0:0:
512,148,45978,5,2,0:0:0:0:
512,148,46056,1,10,0:2:0:0:
512,148,46135,2,0,L|428:164,1,85,2|2,1:2|1:2,0:0:0:0:
277,197,46447,2,0,L|360:213,1,85,10|0,0:2|0:0,0:0:0:0:
448,347,46760,1,8,3:0:0:0:
448,325,46838,1,8,3:0:0:0:
442,304,46916,1,8,3:0:0:0:
433,284,46994,1,8,3:0:0:0:
424,270,47072,6,0,P|381:294|330:292,1,95.6250036478044,14|0,0:0|0:0,0:0:0:0:
301,282,47385,5,10,0:2:0:0:
329,131,47541,1,2,1:2:0:0:
360,213,47697,1,2,1:2:0:0:
218,266,47853,5,10,0:2:0:0:
246,115,48009,1,2,1:2:0:0:
277,197,48165,1,2,1:2:0:0:
130,233,48322,5,10,0:2:0:0:
193,182,48478,1,0,0:0:0:0:
151,309,48635,6,0,L|131:373,3,42.5,8|8|8|8,0:0|0:0|0:0|0:0,0:0:0:0:
52,252,48947,2,0,L|72:316,3,42.5,0|0|0|0,1:0|0:0|0:0|0:0,0:0:0:0:
142,192,49260,2,0,L|122:256,3,42.5,8|8|8|8,3:0|3:0|3:0|3:0,0:0:0:0:
52,134,49572,2,0,L|72:198,3,42.5,4|4|4|4,3:0|3:0|3:0|3:0,0:0:0:0:
184,87,49885,6,0,P|158:106|128:114,1,63.7500024318696,6|0,1:2|0:0,0:0:0:0:
121,34,50197,1,10,0:2:0:0:
196,5,50353,2,0,P|249:39|265:99,1,127.500004863739,2|0,0:2|1:2,0:0:0:0:
220,162,50822,1,10,0:2:0:0:
165,218,50978,6,0,P|151:247|147:279,1,63.7500024318696,2|0,0:2|1:2,0:0:0:0:
187,347,51291,1,0,0:0:0:0:
288,260,51447,2,0,L|224:266,1,63.7500024318696,8|0,0:2|0:0,0:0:0:0:
278,341,51760,2,0,L|342:347,1,63.7500024318696,2|0,1:2|1:2,0:0:0:0:
395,221,52072,2,0,P|373:245|363:275,1,63.7500024318696,10|0,0:2|0:0,0:0:0:0:
467,257,52385,6,0,P|471:195|430:148,1,127.500004863739,2|10,1:2|0:2,0:0:0:0:
322,99,52853,2,0,B|370:146|370:146|431:148,1,127.500004863739,2|0,0:2|1:2,0:0:0:0:
404,66,53322,1,10,0:2:0:0:
338,21,53478,6,0,L|261:32,1,63.7500024318696,2|0,0:2|1:2,0:0:0:0:
179,90,53791,2,0,L|256:101,1,63.7500024318696,2|8,0:2|0:2,0:0:0:0:
187,8,54103,1,0,0:0:0:0:
115,42,54260,2,0,P|102:72|102:103,1,63.7500024318696,2|0,1:2|1:2,0:0:0:0:
146,227,54572,2,0,P|158:197|158:166,1,63.7500024318696,10|0,0:2|0:0,0:0:0:0:
76,267,54885,6,0,L|223:287,1,127.500004863739,2|10,1:2|0:2,0:0:0:0:
342,225,55353,2,0,B|267:236|267:236|223:207,1,127.500004863739,2|0,0:2|1:2,0:0:0:0:
324,146,55822,1,10,0:2:0:0:
400,171,55978,6,0,P|417:199|421:230,1,63.7500024318696,2|0,0:2|1:2,0:0:0:0:
380,299,56291,1,0,0:0:0:0:
301,289,56447,2,0,L|221:276,1,63.7500024318696,8|2,0:2|0:2,0:0:0:0:
162,262,56760,1,2,1:2:0:0:
121,349,56916,2,0,L|201:336,1,63.7500024318696,2|8,1:2|0:2,0:0:0:0:
304,185,57228,6,0,P|251:217|238:278,1,127.500004863739,2|0,0:0|0:0,0:0:0:0:
317,265,57697,1,10,0:2:0:0:
381,210,57853,2,0,L|389:146,1,63.7500024318696,2|0,0:0|1:2,0:0:0:0:
459,69,58166,2,0,L|467:132,1,63.7500024318696,2|8,1:2|0:2,0:0:0:0:
466,208,58478,1,2,0:0:0:0:
384,71,58635,6,0,L|331:86,3,31.8750012159348,8|8|10|8,1:2|0:0|0:0|0:0,0:0:0:0:
310,151,58947,2,0,L|279:142,3,31.8750012159348,8|8|8|8,1:2|0:0|0:0|0:0,0:0:0:0:
254,62,59260,2,0,L|223:70,3,31.8750012159348,4|4|4|4,3:0|3:0|3:0|3:0,0:0:0:0:
196,254,59572,2,0,P|187:207|205:164,1,95.6250036478044,14|0,0:0|0:0,0:0:0:0:
268,216,59885,5,4,1:2:0:0:
268,216,60041,1,2,1:2:0:0:
225,329,60197,2,0,P|178:332|137:308,1,95.6250036478044,8|0,0:2|0:0,0:0:0:0:
120,280,60510,1,0,1:2:0:0:
204,164,60666,1,0,1:2:0:0:
204,164,60978,6,0,L|198:100,1,63.7500024318696,10|0,0:2|0:0,0:0:0:0:
132,23,61291,2,0,L|126:86,1,63.7500024318696,2|8,1:2|0:2,0:0:0:0:
331,83,61603,2,0,P|290:107|243:107,1,95.6250036478044,2|0,0:0|0:0,0:0:0:0:
198,100,61916,1,2,1:2:0:0:
362,6,62072,1,8,0:2:0:0:
362,6,62385,6,0,L|366:82,1,63.7500024318696,0|2,1:2|1:2,0:0:0:0:
436,165,62697,2,0,L|439:101,1,63.7500024318696,10|2,0:2|0:0,0:0:0:0:
354,147,63010,1,2,1:2:0:0:
469,248,63166,1,0,1:2:0:0:
469,248,63478,6,0,P|438:239|406:240,1,63.7500024318696,8|0,0:2|0:0,0:0:0:0:
369,311,63791,2,0,P|399:319|431:318,1,63.7500024318696,0|8,1:2|0:2,0:0:0:0:
330,234,64103,2,0,P|289:282|295:344,1,127.500004863739,0|0,0:0|1:2,0:0:0:0:
369,311,64572,1,8,0:2:0:0:
291,164,64728,1,8,0:2:0:0:
291,164,64806,1,8,0:2:0:0:
291,164,64885,6,0,L|253:83,1,63.7500024318696,4|0,1:2|0:0,0:0:0:0:
215,200,65197,5,10,0:2:0:0:
225,33,65353,1,2,1:2:0:0:
300,223,65510,5,8,0:2:0:0:
173,108,65666,1,0,1:2:0:0:
362,168,65822,5,10,0:2:0:0:
202,201,65978,1,2,1:2:0:0:
362,91,66135,5,8,0:2:0:0:
293,232,66291,1,0,1:2:0:0:
311,30,66447,5,10,0:2:0:0:
358,177,66603,1,2,1:2:0:0:
227,2,66760,1,8,0:2:0:0:
227,2,67072,5,8,0:0:0:0:
219,29,67150,1,8,3:0:0:0:
201,51,67228,1,8,3:0:0:0:
179,70,67306,1,8,3:0:0:0:
153,83,67385,5,12,0:0:0:0:
72,113,67541,1,0,1:0:0:0:
137,168,67697,1,0,1:0:0:0:
88,37,67853,5,12,0:0:0:0:
61,190,68010,1,0,1:0:0:0:
213,141,68166,1,0,1:0:0:0:
47,121,68322,5,8,0:0:0:0:
39,151,68400,1,8,3:0:0:0:
35,182,68478,1,8,3:0:0:0:
38,213,68556,1,8,3:0:0:0:
48,243,68635,1,8,0:0:0:0:
140,276,68791,6,0,P|85:274|37:303,1,95.6250036478044,4|0,1:0|0:0,0:0:0:0:
178,342,69103,2,0,L|227:346,1,31.8750012159348,4|0,1:0|0:0,0:0:0:0:
246,348,69260,5,2,0:0:0:0:
439,341,69494,1,2,0:0:0:0:
328,180,69728,1,2,0:0:0:0:
340,261,69885,6,0,P|380:245|403:211,1,85,6|0,0:2|0:0,0:0:0:0:
396,131,70197,1,10,0:2:0:0:
158,197,70353,2,0,L|337:179,1,170,2|0,0:2|0:0,0:0:0:0:
321,96,70822,1,10,0:2:0:0:
100,135,70978,6,0,P|77:213|128:277,1,170,2|0,0:2|0:0,0:0:0:0:
280,220,71447,2,0,P|239:225|205:250,1,85,8|0,0:2|0:0,0:0:0:0:
346,277,71760,2,0,P|362:238|358:196,1,85,2|0,0:2|0:0,0:0:0:0:
232,92,72072,2,0,P|257:126|296:143,1,85,10|2,0:2|0:2,0:0:0:0:
284,24,72385,6,0,P|220:75|139:62,1,170,6|10,0:2|0:2,0:0:0:0:
17,162,72853,2,0,B|69:131|69:131|178:155,1,170,2|2,0:2|0:2,0:0:0:0:
107,354,73322,6,0,P|58:288|87:211,1,170,10|0,0:2|0:0,0:0:0:0:
172,183,73791,1,0,0:0:0:0:
229,263,73947,2,0,L|145:275,1,85,10|0,0:2|0:0,0:0:0:0:
259,177,74260,2,0,L|343:189,1,85,0|0,0:0|0:0,0:0:0:0:
337,348,74572,5,10,0:2:0:0:
325,330,74650,1,8,0:2:0:0:
318,310,74728,1,0,0:2:0:0:
317,289,74806,1,0,0:2:0:0:
320,267,74885,2,0,P|361:269|399:250,1,85,6|0,0:2|0:0,0:0:0:0:
424,170,75197,1,14,0:2:0:0:
315,21,75353,2,0,L|344:195,1,170,2|0,0:2|0:0,0:0:0:0:
407,90,75822,1,10,0:2:0:0:
268,212,75978,1,0,0:0:0:0:
167,108,76135,6,0,B|239:94|239:94|332:118,1,170,2|10,0:2|0:2,0:0:0:0:
179,189,76603,2,0,P|104:160|91:80,1,170,2|2,0:2|0:2,0:0:0:0:
239,94,77072,1,8,0:2:0:0:
221,255,77228,6,0,L|212:342,1,85,2|4,0:2|0:0,0:0:0:0:
316,384,77541,2,0,L|307:299,1,85,2|8,0:2|0:2,0:0:0:0:
296,223,77853,1,0,0:0:0:0:
139,244,78010,2,0,P|178:258|220:254,1,85,0|0,0:0|0:0,0:0:0:0:
343,160,78322,2,0,P|303:145|261:152,1,85,8|0,0:2|0:0,0:0:0:0:
376,232,78635,6,0,L|465:224,1,85,0|0,0:0|0:0,0:0:0:0:
307,299,78947,2,0,L|222:291,1,85,8|0,0:2|0:0,0:0:0:0:
134,351,79260,2,0,L|196:355,2,42.5,10|8|8,0:2|0:2|0:2,0:0:0:0:
57,301,79494,2,0,L|14:303,2,42.5,10|8|8,0:2|0:2|0:2,0:0:0:0:
115,241,79728,2,0,L|157:243,1,42.5,10|8,0:2|0:2,0:0:0:0:
49,86,79885,6,0,P|4:154|42:226,1,170,6|14,0:2|0:2,0:0:0:0:
248,146,80353,2,0,B|152:132|152:132|85:159,1,170,2|0,0:2|0:0,0:0:0:0:
244,227,80822,1,10,0:2:0:0:
260,64,80978,6,0,P|326:111|317:192,1,170,2|0,0:2|0:0,0:0:0:0:
173,268,81447,2,0,P|203:238|243:226,1,85,8|0,0:2|0:0,0:0:0:0:
388,230,81760,2,0,P|358:260|317:272,1,85,2|0,0:2|0:0,0:0:0:0:
250,146,82072,2,0,P|289:160|317:192,1,85,10|2,0:2|0:2,0:0:0:0:
302,360,82385,6,0,P|239:307|243:225,1,170,6|10,0:2|0:2,0:0:0:0:
477,264,82853,2,0,B|416:295|416:295|304:269,1,170,2|2,0:2|0:2,0:0:0:0:
451,95,83322,6,0,L|477:266,1,170,10|0,0:2|0:0,0:0:0:0:
413,316,83791,1,0,0:0:0:0:
394,213,83947,2,0,L|381:128,1,85,10|0,0:2|0:0,0:0:0:0:
316,41,84260,2,0,L|303:125,1,85,0|0,0:0|0:0,0:0:0:0:
172,163,84572,5,10,0:2:0:0:
181,143,84650,1,8,0:2:0:0:
194,127,84728,1,0,0:2:0:0:
211,114,84806,1,0,0:2:0:0:
228,106,84885,2,0,P|228:149|250:184,1,85,6|0,0:2|0:0,0:0:0:0:
332,201,85197,1,14,0:2:0:0:
318,67,85353,2,0,B|242:88|242:88|152:56,1,170,2|0,0:2|0:0,0:0:0:0:
88,20,85822,1,10,0:2:0:0:
246,7,85978,1,0,0:0:0:0:
160,139,86135,6,0,P|89:100|87:19,1,170,2|10,0:2|0:2,0:0:0:0:
237,109,86603,2,0,L|255:310,1,170,2|2,0:2|0:2,0:0:0:0:
258,358,87072,1,8,0:2:0:0:
106,306,87228,6,0,P|147:298|189:315,1,85,2|4,0:2|0:0,0:0:0:0:
141,378,87541,1,2,0:2:0:0:
69,233,87697,2,0,P|25:301|60:375,1,170,8|0,0:2|0:0,0:0:0:0:
186,313,88166,1,0,0:0:0:0:
140,160,88322,2,0,L|147:261,1,85,8|0,0:2|0:0,0:0:0:0:
222,140,88635,6,0,P|165:80|85:93,1,170,2|8,0:2|0:2,0:0:0:0:
56,166,89103,1,0,0:0:0:0:
225,224,89260,1,8,0:2:0:0:
225,224,89338,1,8,3:0:0:0:
225,224,89416,1,8,3:0:0:0:
140,329,89572,2,0,L|145:244,1,85,8|0,0:2|0:0,0:0:0:0:
163,81,89885,6,0,P|142:117|140:160,1,85,12|0,0:2|0:0,0:0:0:0:
285,286,90197,2,0,P|305:249|308:207,1,85,8|0,0:2|0:0,0:0:0:0:
79,218,90510,6,0,P|115:238|157:241,1,85,8|0,0:2|0:0,0:0:0:0:
369,152,90822,2,0,P|332:131|290:128,1,85,8|0,0:2|0:0,0:0:0:0:
222,346,91135,6,0,P|258:366|300:369,1,85,8|0,0:2|0:0,0:0:0:0:
220,63,91447,2,0,P|177:65|141:86,1,85,8|0,0:2|0:0,0:0:0:0:
413,221,91760,6,0,P|442:191|450:150,1,85,8|0,0:2|0:0,0:0:0:0:
80,144,92072,2,0,P|50:173|43:214,1,85,8|0,0:2|0:0,0:0:0:0:
240,214,92385,5,12,0:2:0:0:
294,155,92541,1,0,0:0:0:0:
217,139,92697,1,0,0:0:0:0:
317,230,92853,5,12,0:2:0:0:
265,82,93010,1,0,0:0:0:0:
165,200,93166,1,0,0:0:0:0:
368,170,93322,5,8,0:2:0:0:
191,69,93478,1,8,0:2:0:0:
187,271,93635,1,4,0:2:0:0:
183,278,94885,6,0,L|267:285,1,85,4|2,1:2|0:2,0:0:0:0:
334,239,95119,1,2,0:2:0:0:
334,239,95197,2,0,L|418:231,1,85,10|2,0:2|0:0,0:0:0:0:
431,89,95510,2,0,P|385:155|418:230,1,170,2|10,1:2|0:2,0:0:0:0:
512,126,95978,5,2,0:0:0:0:
512,126,96056,1,10,0:2:0:0:
512,126,96135,2,0,L|496:42,1,85,2|2,1:2|1:2,0:0:0:0:
270,57,96447,2,0,B|339:48|339:48|430:88,1,170,10|2,0:2|1:2,0:0:0:0:
272,138,96916,2,0,P|200:101|199:20,1,170,2|8,1:2|0:2,0:0:0:0:
351,138,97385,6,0,L|344:242,1,85,0|2,1:2|0:2,0:0:0:0:
282,275,97619,1,2,0:2:0:0:
282,275,97697,2,0,L|289:379,1,85,10|2,0:2|0:0,0:0:0:0:
505,243,98010,2,0,B|443:209|443:209|344:221,1,170,2|10,1:2|0:2,0:0:0:0:
394,363,98478,5,2,0:0:0:0:
394,363,98556,1,10,0:2:0:0:
394,363,98635,2,0,P|420:329|427:287,1,85,2|2,1:2|1:2,0:0:0:0:
377,146,98947,2,0,P|351:179|344:221,1,85,10|0,0:2|0:0,0:0:0:0:
465,156,99260,2,0,L|458:96,1,42.5,10|8,1:2|0:2,0:0:0:0:
401,27,99416,2,0,L|396:69,5,42.5,8|8|10|8|8|8,0:2|0:2|1:2|0:0|0:0|0:0,0:0:0:0:
323,87,99885,6,0,P|281:97|239:90,1,85,4|2,1:2|0:2,0:0:0:0:
169,51,100119,1,2,0:2:0:0:
169,51,100197,2,0,P|127:44|85:53,1,85,10|2,0:2|0:0,0:0:0:0:
126,265,100510,2,0,P|168:196|131:124,1,170,2|10,1:2|0:2,0:0:0:0:
6,184,100978,5,2,0:0:0:0:
6,184,101056,1,10,0:2:0:0:
6,184,101135,2,0,L|101:197,1,85,2|2,1:2|1:2,0:0:0:0:
288,275,101447,2,0,B|232:248|232:248|125:265,1,170,10|2,0:2|1:2,0:0:0:0:
264,355,101916,2,0,P|343:338|368:260,1,170,2|8,1:2|0:2,0:0:0:0:
310,156,102385,6,0,L|315:198,3,42.5,2|0|2|0,1:2|0:0|0:2|0:2,0:0:0:0:
397,130,102697,2,0,L|391:172,3,42.5,10|0|2|8,0:2|0:0|0:0|0:2,0:0:0:0:
329,42,103010,2,0,L|334:84,3,42.5,2|0|2|0,1:2|0:0|1:2|0:0,0:0:0:0:
413,4,103322,2,0,L|407:46,3,42.5,10|0|2|8,0:2|0:0|0:0|0:2,0:0:0:0:
260,98,103635,5,2,1:2:0:0:
238,99,103713,1,8,0:0:0:0:
217,101,103791,1,10,0:0:0:0:
196,103,103869,1,8,0:0:0:0:
175,106,103947,2,0,L|81:114,1,85,2|0,1:2|0:0,0:0:0:0:
16,118,104260,1,10,0:0:0:0:
214,22,104416,1,8,0:0:0:0:
214,22,104885,6,0,L|226:132,1,85,14|2,0:2|1:2,0:0:0:0:
289,163,105119,1,2,0:2:0:0:
289,163,105197,2,0,L|277:273,1,85,2|10,1:2|0:2,0:0:0:0:
207,367,105510,2,0,P|208:285|279:246,1,170,2|10,1:2|0:2,0:0:0:0:
360,334,105978,5,2,1:2:0:0:
360,334,106056,1,2,0:2:0:0:
360,334,106135,2,0,L|276:326,1,85,2|10,1:2|0:2,0:0:0:0:
51,272,106447,2,0,B|131:242|131:242|232:281,1,170,2|10,1:2|0:2,0:0:0:0:
37,361,106916,2,0,L|19:191,1,170,2|0,1:2|1:2,0:0:0:0:
52,79,107385,6,0,P|58:121|85:153,1,85,14|2,0:2|1:2,0:0:0:0:
173,151,107619,1,2,0:2:0:0:
173,151,107697,2,0,P|200:119|206:77,1,85,2|10,1:2|0:2,0:0:0:0:
127,19,108010,2,0,B|193:53|193:53|306:24,1,170,2|10,1:2|0:2,0:0:0:0:
298,194,108478,5,2,1:2:0:0:
298,194,108556,1,2,0:2:0:0:
298,194,108635,2,0,L|293:99,1,85,2|0,1:2|0:0,0:0:0:0:
381,224,108947,2,0,L|376:308,1,85,2|0,1:2|1:2,0:0:0:0:
191,284,109260,1,10,0:0:0:0:
217,296,109338,1,8,3:0:0:0:
245,299,109416,1,8,3:0:0:0:
273,294,109494,1,8,3:0:0:0:
298,285,109572,6,0,P|295:327|313:366,1,85,12|0,0:0|0:0,0:0:0:0:
453,288,109885,5,14,0:2:0:0:
375,308,110041,1,2,1:2:0:0:
461,178,110197,5,10,0:2:0:0:
398,229,110353,1,2,1:2:0:0:
418,78,110510,5,10,0:2:0:0:
382,150,110666,1,0,1:2:0:0:
340,0,110822,5,10,0:2:0:0:
337,80,110978,1,2,1:2:0:0:
262,39,111135,5,10,0:2:0:0:
265,119,111291,1,2,1:2:0:0:
184,86,111447,5,10,0:2:0:0:
181,166,111603,1,0,1:2:0:0:
95,154,111760,5,10,0:2:0:0:
126,227,111916,1,2,1:2:0:0:
47,255,112072,5,8,0:2:0:0:
105,308,112228,1,0,1:2:0:0:
227,277,112385,6,0,L|185:284,3,42.5,14|0|2|0,0:2|0:0|1:2|0:0,0:0:0:0:
311,366,112697,2,0,L|270:359,3,42.5,10|0|2|0,0:2|0:0|1:2|0:0,0:0:0:0:
276,192,113010,2,0,L|234:199,3,42.5,10|0|2|0,0:2|0:0|1:2|0:0,0:0:0:0:
360,281,113322,2,0,L|318:273,3,42.5,10|0|2|0,0:2|0:0|0:0|0:0,0:0:0:0:
277,272,113635,5,10,1:2:0:0:
420,224,113791,1,10,1:2:0:0:
312,350,113947,1,10,1:2:0:0:
358,168,114103,1,10,1:2:0:0:
391,354,114260,1,10,1:2:0:0:
277,155,114416,1,10,1:2:0:0:
452,305,114572,1,10,1:2:0:0:
214,213,114728,1,14,1:2:0:0:
