osu file format v14

[General]
AudioFilename: audio.mp3
AudioLeadIn: 0
PreviewTime: 69103
Countdown: 0
SampleSet: Normal
StackLeniency: 0.5
Mode: 0
LetterboxInBreaks: 0
WidescreenStoryboard: 1

[Editor]
DistanceSpacing: 0.3
BeatDivisor: 4
GridSize: 32
TimelineZoom: 2.1

[Metadata]
Title:5150
TitleUnicode:5150
Artist:THE ORAL CIGARETTES
ArtistUnicode:THE ORAL CIGARETTES
Creator:Nevo
Version:Sotarks' Cataclysm
Source:
Tags:sotarks mir ayanokorin yukiyo hypercyte snownino_
BeatmapID:1725588
BeatmapSetID:818778

[Difficulty]
HPDrainRate:5
CircleSize:3.8
OverallDifficulty:9.3
ApproachRate:9.5
SliderMultiplier:1.92
SliderTickRate:1

[Events]
//Background and Video events
0,0,"69371129_p0.jpg",0,0
//Break Periods
//Storyboard Layer 0 (Background)
//Storyboard Layer 1 (Fail)
//Storyboard Layer 2 (Pass)
//Storyboard Layer 3 (Foreground)
//Storyboard Sound Samples

[TimingPoints]
19885,312.5,4,2,22,42,1,0
19885,-89.2857142857143,4,2,22,42,0,0
20197,-100,4,2,22,32,0,0
20353,-138.888888888889,4,2,22,32,0,0
22385,-89.2857142857143,4,2,22,42,0,0
22697,-89.2857142857143,4,2,22,32,0,0
22853,-138.888888888889,4,2,22,32,0,0
24885,-89.2857142857144,4,2,22,42,0,0
29572,-192.307692307693,4,2,22,32,0,0
29885,-98.0392156862745,4,2,22,52,0,0
39572,-192.307692307693,4,2,22,32,0,0
39885,-98.0392156862745,4,2,22,52,0,0
47072,-138.888888888889,4,2,22,52,0,0
48635,-97.8473581213307,4,2,22,52,0,0
49885,-108.459869848156,4,2,22,42,0,0
64885,-108.459869848156,4,2,22,52,0,0
67385,-108.459869848156,4,2,22,62,0,0
69260,-108.459869848156,4,2,22,32,0,0
69416,-108.459869848156,4,2,22,5,0,0
69494,-108.459869848156,4,2,22,42,0,0
69650,-108.459869848156,4,2,22,5,0,0
69728,-108.459869848156,4,2,22,42,0,0
69806,-108.459869848156,4,2,22,5,0,0
69885,-81.9672131147541,4,1,22,72,0,1
93635,-81.9672131147541,4,1,22,62,0,1
93713,-81.9672131147541,4,1,22,42,0,1
93947,-81.9672131147541,4,2,22,42,0,1
94572,-192.307692307692,4,2,22,32,0,1
94885,-98.0392156862745,4,2,22,62,0,0
104572,-192.307692307692,4,2,22,32,0,0
104885,-81.9672131147541,4,2,22,52,0,0
117385,-81.9672131147541,4,2,22,5,0,0

[Colours]
Combo1 : 255,198,155
Combo2 : 187,187,255
Combo3 : 255,252,147

[HitObjects]
235,171,19885,5,10,0:2:0:0:
331,21,20041,2,0,P|349:76|356:137,1,107.5200013125,10|0,0:2|1:2,0:0:0:0:
219,61,20353,1,2,0:2:0:0:
219,61,20510,2,0,P|155:87|136:90,1,69.1200016875,2|0,1:2|0:0,0:0:0:0:
73,151,20822,1,2,1:2:0:0:
73,151,20979,2,0,P|137:177|156:180,1,69.1200016875,2|0,0:2|1:2,0:0:0:0:
226,228,21291,1,2,0:2:0:0:
226,228,21447,2,0,P|212:283|211:322,1,69.1200016875,2|0,1:2|0:0,0:0:0:0:
309,188,21760,2,0,P|319:220|324:255,1,69.1200016875,2|0,1:2|0:0,0:0:0:0:
392,154,22072,1,2,1:2:0:0:
99,351,22385,5,8,0:2:0:0:
328,317,22541,2,0,P|258:279|184:262,1,107.5200013125,8|0,0:2|1:2,0:0:0:0:
128,239,22853,1,2,0:2:0:0:
128,239,23010,2,0,P|109:188|103:152,1,69.1200016875,2|0,1:2|0:0,0:0:0:0:
206,167,23322,1,2,1:2:0:0:
205,167,23479,2,0,P|218:135|227:101,1,69.1200016875,2|0,0:2|1:2,0:0:0:0:
306,38,23791,1,2,0:2:0:0:
305,38,23948,2,0,P|318:69|327:103,1,69.1200016875,2|0,1:2|0:0,0:0:0:0:
423,108,24260,2,0,P|409:139|400:173,1,69.1200016875,2|0,1:2|0:0,0:0:0:0:
346,255,24572,1,2,1:2:0:0:
51,71,24885,5,14,0:2:0:0:
275,177,25041,1,0,1:2:0:0:
90,255,25197,1,0,1:2:0:0:
224,27,25353,5,10,0:2:0:0:
307,260,25509,1,0,1:2:0:0:
141,183,25665,1,0,1:2:0:0:
417,165,25822,5,10,0:2:0:0:
234,316,25978,1,0,1:2:0:0:
249,101,26135,1,0,1:2:0:0:
437,318,26291,5,10,0:2:0:0:
224,224,26447,1,0,1:2:0:0:
409,119,26603,1,0,1:2:0:0:
320,360,26760,5,12,0:2:0:0:
171,152,26916,1,0,1:2:0:0:
437,318,27072,2,0,P|451:252|465:207,1,107.5200013125,12|0,0:2|0:0,0:0:0:0:
152,248,27385,5,8,1:2:0:0:
108,227,27463,1,8,0:2:0:0:
78,189,27541,1,8,0:2:0:0:
70,142,27619,1,8,0:2:0:0:
84,97,27697,2,0,P|127:58|149:53,1,53.76000065625,8|8,0:2|0:2,0:0:0:0:
257,219,27853,5,8,1:2:0:0:
301,198,27931,1,8,0:2:0:0:
331,160,28009,1,8,0:2:0:0:
339,113,28087,1,8,0:2:0:0:
325,68,28165,2,0,P|281:29|259:24,1,53.76000065625,8|8,0:2|0:2,0:0:0:0:
174,152,28322,5,8,1:2:0:0:
170,200,28400,1,8,0:2:0:0:
166,248,28478,1,8,0:2:0:0:
162,296,28556,1,8,0:2:0:0:
159,344,28635,2,0,L|98:363,1,53.76000065625,10|0,0:2|0:0,0:0:0:0:
262,301,28791,5,8,1:2:0:0:
262,301,28869,1,8,0:2:0:0:
262,301,28947,2,0,L|323:319,1,53.76000065625,10|8,0:2|0:2,0:0:0:0:
170,200,29103,1,8,0:2:0:0:
117,211,29181,1,8,0:2:0:0:
64,222,29259,1,2,1:2:0:0:
50,237,29572,6,0,P|103:239|142:249,1,74.8799995429687,2|0,0:2|0:0,0:0:0:0:
228,297,29885,5,4,1:2:0:0:
172,128,30041,1,2,0:2:0:0:
172,128,30119,1,2,0:2:0:0:
172,128,30197,2,0,P|175:63|164:13,1,97.9200005976563,10|2,0:2|0:0,0:0:0:0:
284,200,30510,6,0,P|317:136|452:140,1,195.840001195313,2|10,1:2|0:2,0:0:0:0:
368,318,30978,1,2,0:0:0:0:
368,318,31056,1,10,0:2:0:0:
368,318,31135,2,0,P|286:293|256:292,1,97.9200005976563,2|2,1:2|1:2,0:0:0:0:
39,251,31447,6,0,B|127:256|87:303|180:310,1,146.880000896484,10|8,0:2|0:2,0:0:0:0:
241,272,31760,1,2,1:2:0:0:
46,335,31916,1,2,1:2:0:0:
194,192,32072,1,10,0:2:0:0:
226,163,32150,1,8,0:2:0:0:
268,149,32228,1,8,0:2:0:0:
311,154,32306,1,8,0:2:0:0:
349,176,32385,6,0,P|407:199|465:203,1,97.9200005976563,0|2,1:2|0:2,0:0:0:0:
510,157,32619,1,2,0:2:0:0:
510,157,32697,1,10,0:2:0:0:
391,285,32853,1,2,0:0:0:0:
310,71,33010,6,0,P|219:74|127:139,1,195.840001195313,2|10,1:2|0:2,0:0:0:0:
64,302,33478,1,2,0:0:0:0:
64,302,33556,1,10,0:2:0:0:
64,302,33635,2,0,P|75:223|72:184,1,97.9200005976563,2|2,1:2|1:2,0:0:0:0:
237,330,33947,6,0,B|317:316|288:375|413:368,1,146.880000896484,10|0,0:2|0:0,0:0:0:0:
440,321,34260,2,0,P|456:267|457:243,1,48.9600002988281,10|8,1:2|0:2,0:0:0:0:
365,177,34416,1,8,0:2:0:0:
365,177,34494,1,8,0:2:0:0:
365,177,34572,2,0,P|359:200|350:223,1,48.9600002988281,10|8,1:2|0:0,0:0:0:0:
226,289,34728,1,8,0:0:0:0:
226,289,34806,1,8,0:0:0:0:
226,289,34885,6,0,P|197:222|192:174,1,97.9200005976563,4|2,1:2|0:2,0:0:0:0:
223,128,35119,1,2,0:2:0:0:
223,128,35197,1,10,0:2:0:0:
106,278,35353,2,0,P|45:263|31:260,1,48.9600002988281,2|8,0:0|0:2,0:0:0:0:
163,358,35510,6,0,P|264:307|385:315,1,195.840001195313,2|10,1:2|0:2,0:0:0:0:
497,210,35978,1,2,0:0:0:0:
497,210,36056,1,10,0:2:0:0:
497,210,36135,2,0,P|426:189|394:188,1,97.9200005976563,2|2,1:2|1:2,0:0:0:0:
177,70,36447,2,0,B|269:74|223:128|336:139,1,146.880000896484,10|8,0:2|0:2,0:0:0:0:
379,107,36760,1,2,1:2:0:0:
181,154,36916,1,2,1:2:0:0:
348,30,37072,1,10,0:2:0:0:
390,22,37150,1,8,0:2:0:0:
431,36,37228,1,8,0:2:0:0:
459,70,37306,1,8,0:2:0:0:
465,118,37385,6,0,P|454:179|454:189,1,48.9600002988281,2|0,1:2|0:0,0:0:0:0:
383,311,37541,2,0,P|379:286|372:263,1,48.9600002988281,2|0,0:2|0:2,0:0:0:0:
356,145,37697,2,0,P|335:203|333:213,1,48.9600002988281,10|0,0:2|0:0,0:0:0:0:
251,291,37853,2,0,P|251:266|249:242,1,48.9600002988281,2|8,0:0|0:2,0:0:0:0:
111,162,38010,6,0,P|121:184|129:207,1,48.9600002988281,2|0,1:2|0:0,0:0:0:0:
216,307,38166,2,0,P|215:282|217:258,1,48.9600002988281,2|0,1:2|0:0,0:0:0:0:
213,81,38322,2,0,P|219:104|223:128,1,48.9600002988281,10|0,0:2|0:0,0:0:0:0:
286,225,38478,2,0,P|289:200|296:177,1,48.9600002988281,2|8,0:0|0:2,0:0:0:0:
371,51,38635,5,2,1:2:0:0:
418,42,38713,1,8,0:0:0:0:
459,66,38791,1,10,0:0:0:0:
475,111,38869,1,8,0:0:0:0:
458,156,38947,2,0,P|443:199|441:226,3,48.9600002988281,2|0|2|0,1:2|0:0|0:0|0:0,0:0:0:0:
444,304,39260,5,10,0:0:0:0:
138,143,39416,1,8,0:0:0:0:
249,274,39572,6,0,P|239:220|244:182,1,74.8799995429687,2|0,0:0|0:0,0:0:0:0:
293,109,39885,5,4,1:2:0:0:
146,233,40041,1,2,0:2:0:0:
146,233,40119,1,2,0:2:0:0:
146,233,40197,2,0,P|85:211|42:203,1,97.9200005976563,10|2,0:2|0:0,0:0:0:0:
237,313,40510,2,0,B|361:301|295:371|461:355,1,195.840001195313,2|10,1:2|0:2,0:0:0:0:
434,152,40978,1,2,0:0:0:0:
434,152,41056,1,10,0:2:0:0:
434,152,41135,2,0,P|407:205|401:256,1,97.9200005976563,2|2,1:2|1:2,0:0:0:0:
325,83,41447,6,0,P|259:38|168:81,1,146.880000896484,10|8,0:2|0:2,0:0:0:0:
140,108,41760,1,2,1:2:0:0:
326,170,41916,1,2,1:2:0:0:
76,188,42072,1,10,0:2:0:0:
42,216,42150,1,8,0:2:0:0:
29,257,42228,1,8,0:2:0:0:
39,299,42306,1,8,0:2:0:0:
71,331,42385,6,0,P|118:341|167:344,1,97.9200005976563,0|2,1:2|0:2,0:0:0:0:
245,332,42619,1,2,0:2:0:0:
245,332,42697,1,10,0:2:0:0:
118,258,42853,1,2,0:0:0:0:
294,166,43010,6,0,P|279:249|272:375,1,195.840001195313,2|10,1:2|0:2,0:0:0:0:
195,209,43478,1,2,0:0:0:0:
195,209,43556,1,10,0:2:0:0:
195,209,43635,2,0,P|182:143|180:83,1,97.9200005976563,2|2,1:2|1:2,0:0:0:0:
375,227,43947,2,0,P|426:155|395:64,1,146.880000896484,10|0,0:2|0:0,0:0:0:0:
349,60,44260,2,0,L|338:132,1,48.9600002988281,10|8,1:2|0:2,0:0:0:0:
282,241,44416,1,8,0:2:0:0:
282,241,44494,1,8,0:2:0:0:
282,241,44572,2,0,L|274:192,1,48.9600002988281,10|8,1:2|0:0,0:0:0:0:
200,68,44728,1,8,0:0:0:0:
200,68,44806,1,8,0:0:0:0:
200,68,44885,6,0,L|182:185,1,97.9200005976563,0|2,1:2|0:2,0:0:0:0:
126,231,45119,1,2,0:2:0:0:
126,231,45197,1,10,0:2:0:0:
86,72,45353,1,2,0:0:0:0:
261,277,45510,6,0,L|293:56,1,195.840001195313,2|10,1:2|0:2,0:0:0:0:
385,242,45978,1,2,0:0:0:0:
385,242,46056,1,10,0:2:0:0:
385,242,46135,2,0,B|436:241|436:241|479:209,1,97.9200005976563,2|2,1:2|1:2,0:0:0:0:
224,149,46447,6,0,B|171:158|171:158|139:183|139:183|54:199,1,146.880000896484,10|0,0:2|0:0,0:0:0:0:
34,136,46760,6,0,L|49:70,1,48.9600002988281,8|8,3:0|3:0,0:0:0:0:
209,237,46916,2,0,L|219:284,1,48.9600002988281,8|8,3:0|3:0,0:0:0:0:
293,91,47072,6,0,P|357:51|406:57,1,103.68000253125,14|0,0:0|0:0,0:0:0:0:
452,128,47385,5,10,0:2:0:0:
326,312,47541,1,2,1:2:0:0:
224,149,47697,1,2,1:2:0:0:
416,328,47853,1,10,0:2:0:0:
365,137,48010,5,2,1:2:0:0:
234,324,48166,1,2,1:2:0:0:
139,124,48322,2,0,P|126:81|98:24,1,103.68000253125,10|0,0:2|0:0,0:0:0:0:
41,99,48635,6,0,L|29:168,1,49.0559997080713,8|8,0:0|0:0,0:0:0:0:
163,206,48791,2,0,L|175:275,1,49.0559997080713,8|8,0:0|0:0,0:0:0:0:
326,271,48947,2,0,L|317:333,3,49.0559997080713,0|0|0|0,1:0|0:0|0:0|0:0,0:0:0:0:
451,198,49260,5,8,3:0:0:0:
433,168,49338,1,8,3:0:0:0:
405,148,49416,1,8,3:0:0:0:
372,140,49494,1,8,3:0:0:0:
332,155,49572,1,4,3:0:0:0:
309,163,49650,1,4,3:0:0:0:
284,163,49728,1,4,3:0:0:0:
262,154,49806,1,4,3:0:0:0:
244,136,49885,6,0,P|256:71|377:63,1,177.024000756328,6|10,1:2|0:2,0:0:0:0:
206,219,50353,2,0,P|142:197|110:195,1,88.5120003781641,2|0,0:2|1:2,0:0:0:0:
239,301,50666,1,0,1:2:0:0:
146,119,50822,1,10,0:2:0:0:
94,274,50978,1,2,0:2:0:0:
244,136,51135,6,0,B|344:123|304:194|448:177,2,177.024000756328,0|8|2,1:2|0:2|1:2,0:0:0:0:
390,95,51916,1,0,1:2:0:0:
268,221,52072,2,0,P|255:289|255:329,1,88.5120003781641,10|0,0:2|0:0,0:0:0:0:
171,98,52385,6,0,P|108:52|21:96,1,177.024000756328,2|10,1:2|0:2,0:0:0:0:
158,238,52853,2,0,P|215:201|267:192,1,88.5120003781641,2|0,0:2|1:2,0:0:0:0:
398,218,53166,1,0,1:2:0:0:
268,84,53322,1,10,0:2:0:0:
376,250,53478,6,0,P|389:314|395:368,1,88.5120003781641,2|0,0:2|1:2,0:0:0:0:
321,48,53791,2,0,P|308:112|302:166,2,88.5120003781641,2|8|0,0:2|0:2|0:0,0:0:0:0:
188,237,54260,2,0,L|76:215,1,88.5120003781641,2|0,1:2|1:2,0:0:0:0:
15,116,54572,2,0,L|101:98,1,88.5120003781641,10|0,0:2|0:0,0:0:0:0:
269,223,54885,6,0,L|60:186,1,177.024000756328,2|10,1:2|0:2,0:0:0:0:
253,127,55353,2,0,B|312:113|312:113|360:125,1,88.5120003781641,2|0,0:2|1:2,0:0:0:0:
445,238,55666,1,0,1:2:0:0:
392,48,55822,1,10,0:2:0:0:
359,232,55978,1,2,0:2:0:0:
225,43,56135,6,0,P|146:42|82:137,1,177.024000756328,0|8,1:2|0:2,0:0:0:0:
138,275,56603,1,2,0:2:0:0:
190,131,56760,1,2,1:2:0:0:
290,298,56916,2,0,P|301:340|307:384,1,88.5120003781641,2|8,1:2|0:2,0:0:0:0:
340,155,57228,1,2,0:0:0:0:
197,332,57385,6,0,P|103:296|-9:277,1,177.024000756328,0|10,1:2|0:2,0:0:0:0:
186,170,57853,2,0,P|124:182|86:198,1,88.5120003781641,2|0,0:0|1:2,0:0:0:0:
338,267,58166,2,0,P|296:252|252:245,1,88.5120003781641,2|8,1:2|0:2,0:0:0:0:
380,172,58478,1,2,0:0:0:0:
142,71,58635,5,8,1:2:0:0:
178,47,58713,1,8,0:0:0:0:
222,41,58791,1,10,0:0:0:0:
264,54,58869,1,8,0:0:0:0:
296,84,58947,1,8,1:2:0:0:
328,113,59025,1,8,0:0:0:0:
369,127,59103,1,8,0:0:0:0:
413,121,59181,1,8,0:0:0:0:
450,97,59260,2,0,P|460:39|460:31,3,44.256000189082,4|4|4|4,3:0|3:0|3:0|3:0,0:0:0:0:
384,207,59572,2,0,P|368:284|367:324,1,88.5120003781641,14|2,0:0|0:2,0:0:0:0:
219,139,59885,5,4,1:2:0:0:
118,274,60041,1,2,1:2:0:0:
195,128,60197,1,8,0:2:0:0:
135,293,60353,2,0,P|129:354|131:390,1,88.5120003781641,0|0,0:0|1:2,0:0:0:0:
241,151,60666,2,0,P|247:212|245:248,1,88.5120003781641,0|2,1:2|0:0,0:0:0:0:
124,99,60978,6,0,L|36:84,1,88.5120003781641,10|0,0:2|0:0,0:0:0:0:
233,45,61291,2,0,L|320:30,1,88.5120003781641,2|8,1:2|0:2,0:0:0:0:
171,184,61603,2,0,P|158:249|158:284,1,88.5120003781641,2|0,0:0|1:2,0:0:0:0:
273,130,61916,2,0,P|286:195|286:230,1,88.5120003781641,2|8,1:2|0:2,0:0:0:0:
120,67,62228,6,0,L|32:52,1,88.5120003781641,2|0,0:0|1:2,0:0:0:0:
125,153,62541,1,2,1:2:0:0:
6,199,62697,1,10,0:2:0:0:
134,242,62853,1,2,0:0:0:0:
30,169,63010,1,2,1:2:0:0:
123,113,63166,2,0,L|212:93,1,88.5120003781641,0|0,1:2|0:0,0:0:0:0:
411,191,63478,6,0,P|327:179|243:269,1,177.024000756328,8|0,0:2|1:2,0:0:0:0:
343,85,63947,1,8,0:2:0:0:
361,282,64103,1,0,0:0:0:0:
303,82,64260,2,0,P|244:59|209:57,1,88.5120003781641,0|0,1:2|1:2,0:0:0:0:
54,177,64572,1,8,0:2:0:0:
126,40,64728,1,8,0:2:0:0:
126,40,64806,1,8,0:2:0:0:
126,40,64885,6,0,P|159:110|166:144,1,88.5120003781641,4|0,1:2|0:0,0:0:0:0:
75,347,65197,5,10,0:2:0:0:
268,138,65353,1,2,1:2:0:0:
11,197,65510,5,8,0:2:0:0:
297,347,65666,1,0,1:2:0:0:
254,49,65822,5,10,0:2:0:0:
94,309,65978,1,2,1:2:0:0:
396,183,66135,5,8,0:2:0:0:
70,79,66291,1,0,1:2:0:0:
245,332,66447,5,10,0:2:0:0:
273,17,66603,1,2,1:2:0:0:
33,207,66760,5,8,0:2:0:0:
33,207,67072,2,0,L|54:276,1,44.256000189082,8|8,0:0|3:0,0:0:0:0:
127,161,67228,2,0,L|139:118,1,44.256000189082,8|8,3:0|3:0,0:0:0:0:
195,232,67385,5,12,0:0:0:0:
77,45,67541,1,0,1:0:0:0:
160,197,67697,1,0,1:0:0:0:
350,29,67853,5,12,0:0:0:0:
282,296,68010,1,0,1:0:0:0:
313,53,68166,1,0,1:0:0:0:
380,326,68322,6,0,L|372:263,1,44.256000189082,8|8,0:0|3:0,0:0:0:0:
269,82,68478,2,0,L|263:125,1,44.256000189082,8|8,3:0|3:0,0:0:0:0:
174,303,68635,5,8,0:0:0:0:
452,107,68791,1,4,1:0:0:0:
77,49,69103,1,4,1:0:0:0:
77,49,69260,6,0,L|98:148,1,88.5120003781641,2|0,0:0|0:0,0:0:0:0:
170,159,69494,2,0,L|149:258,1,88.5120003781641,2|0,0:0|0:0,0:0:0:0:
89,291,69728,2,0,L|96:348,1,44.256000189082,2|0,0:0|0:0,0:0:0:0:
225,286,69885,6,0,B|366:274|287:363|465:355,1,234.23999034961,6|10,0:2|0:2,0:0:0:0:
260,375,70353,1,2,0:2:0:0:
412,257,70510,2,0,P|429:173|426:126,1,117.119995174805,0|0,0:0|0:0,0:0:0:0:
287,7,70822,1,10,0:2:0:0:
192,200,70978,1,2,0:2:0:0:
17,34,71135,6,0,P|56:103|82:255,1,234.23999034961,0|8,0:0|0:2,0:0:0:0:
182,90,71603,1,0,0:0:0:0:
357,176,71760,2,0,P|347:202|340:332,1,117.119995174805,2|0,0:2|0:0,0:0:0:0:
260,353,71994,1,2,0:2:0:0:
260,353,72072,2,0,P|255:294|237:239,1,117.119995174805,10|2,0:2|0:2,0:0:0:0:
27,40,72385,6,0,P|151:26|215:150,1,234.23999034961,6|10,0:2|0:2,0:0:0:0:
141,313,72853,2,0,P|103:235|101:184,1,117.119995174805,2|0,0:2|0:0,0:0:0:0:
233,337,73166,1,2,0:2:0:0:
329,100,73322,1,10,0:2:0:0:
371,208,73478,1,0,0:0:0:0:
194,123,73635,6,0,P|133:110|62:114,1,117.119995174805,0|0,0:0|0:0,0:0:0:0:
320,330,73947,2,0,P|411:233|531:227,1,234.23999034961,10|0,0:2|0:0,0:0:0:0:
403,354,74416,1,0,0:0:0:0:
295,193,74572,1,10,0:2:0:0:
248,158,74650,1,8,0:2:0:0:
190,154,74728,1,0,0:2:0:0:
140,182,74806,1,0,0:2:0:0:
113,233,74885,6,0,P|94:309|101:370,1,117.119995174805,6|0,0:2|0:0,0:0:0:0:
106,104,75197,1,14,0:2:0:0:
219,259,75353,2,0,P|238:334|231:395,1,117.119995174805,2|0,0:2|0:0,0:0:0:0:
214,130,75666,1,0,0:0:0:0:
326,294,75822,2,0,P|398:271|459:267,1,117.119995174805,10|0,0:2|0:0,0:0:0:0:
197,224,76135,6,0,P|125:201|64:197,1,117.119995174805,2|0,0:2|0:0,0:0:0:0:
350,109,76447,1,10,0:2:0:0:
127,78,76603,2,0,P|69:85|13:105,1,117.119995174805,2|0,0:2|0:0,0:0:0:0:
278,142,76916,2,0,P|335:149|391:169,1,117.119995174805,2|8,0:2|0:2,0:0:0:0:
157,297,77228,1,2,0:2:0:0:
223,74,77385,5,4,0:0:0:0:
185,313,77541,1,2,0:2:0:0:
146,104,77697,2,0,P|103:32|65:4,1,117.119995174805,8|0,0:2|0:0,0:0:0:0:
87,246,78010,1,0,0:0:0:0:
272,155,78166,1,0,0:0:0:0:
61,262,78322,2,0,P|33:334|28:383,1,117.119995174805,8|0,0:2|0:0,0:0:0:0:
162,133,78635,5,0,0:0:0:0:
210,330,78791,1,0,0:0:0:0:
289,121,78947,1,8,0:2:0:0:
182,228,79103,1,0,0:0:0:0:
357,179,79260,5,10,0:2:0:0:
380,126,79338,1,8,0:2:0:0:
367,70,79416,1,8,0:2:0:0:
323,33,79494,1,10,0:2:0:0:
266,31,79572,1,8,0:2:0:0:
213,58,79650,1,8,0:2:0:0:
156,64,79728,1,10,0:2:0:0:
107,47,79806,1,8,0:2:0:0:
66,4,79885,6,0,P|52:88|45:250,1,234.23999034961,6|14,0:2|0:2,0:0:0:0:
183,97,80353,2,0,P|212:200|225:251,1,117.119995174805,2|0,0:2|0:0,0:0:0:0:
288,115,80666,1,0,0:0:0:0:
222,297,80822,1,10,0:2:0:0:
363,166,80978,6,0,P|378:109|394:53,1,117.119995174805,2|0,0:2|0:0,0:0:0:0:
441,218,81291,1,0,0:0:0:0:
261,98,81447,2,0,P|188:74|128:66,1,117.119995174805,8|0,0:2|0:0,0:0:0:0:
90,259,81760,2,0,P|163:235|223:227,1,117.119995174805,2|0,0:2|0:0,0:0:0:0:
282,265,81994,1,2,0:2:0:0:
282,265,82072,2,0,P|260:352|257:394,1,117.119995174805,10|2,0:2|0:2,0:0:0:0:
441,218,82385,6,0,P|459:103|324:86,1,234.23999034961,6|10,0:2|0:2,0:0:0:0:
166,138,82853,2,0,P|258:144|299:127,1,117.119995174805,2|0,0:2|0:0,0:0:0:0:
131,19,83166,1,2,0:2:0:0:
48,206,83322,2,0,P|32:292|27:358,1,117.119995174805,10|0,0:2|0:0,0:0:0:0:
17,129,83635,5,0,0:0:0:0:
120,268,83791,1,0,0:0:0:0:
349,113,83947,2,0,B|195:104|278:208|82:179,1,234.23999034961,10|0,0:2|0:0,0:0:0:0:
318,214,84416,1,0,0:0:0:0:
134,73,84572,1,10,0:2:0:0:
78,89,84650,1,8,0:2:0:0:
38,131,84728,1,0,0:2:0:0:
24,187,84806,1,0,0:2:0:0:
41,242,84885,6,0,P|107:299|160:312,1,117.119995174805,6|0,0:2|0:0,0:0:0:0:
341,225,85197,1,14,0:2:0:0:
136,191,85353,2,0,P|176:149|229:125,1,117.119995174805,2|0,0:2|0:0,0:0:0:0:
169,303,85666,1,0,0:0:0:0:
80,82,85822,2,0,P|41:180|34:245,1,117.119995174805,10|0,0:2|0:0,0:0:0:0:
250,39,86135,6,0,P|338:22|404:30,1,117.119995174805,2|0,0:2|0:0,0:0:0:0:
180,134,86447,1,10,0:2:0:0:
438,150,86603,2,0,P|381:135|323:134,1,117.119995174805,2|0,0:2|0:0,0:0:0:0:
166,267,86916,1,2,0:2:0:0:
400,237,87072,1,8,0:2:0:0:
207,153,87228,1,2,0:2:0:0:
336,349,87385,6,0,P|361:257|363:208,1,117.119995174805,4|2,0:0|0:2,0:0:0:0:
233,79,87697,2,0,P|241:136|259:192,1,117.119995174805,8|0,0:2|0:0,0:0:0:0:
368,32,88010,1,0,0:0:0:0:
283,212,88166,1,0,0:0:0:0:
152,41,88322,2,0,P|54:22|17:21,1,117.119995174805,8|0,0:2|0:0,0:0:0:0:
259,192,88635,6,0,P|357:173|394:172,1,117.119995174805,2|0,0:2|0:0,0:0:0:0:
171,307,88947,1,8,0:2:0:0:
237,89,89103,1,0,0:0:0:0:
331,275,89260,6,0,L|354:348,1,58.5599975874024,8|8,0:2|3:0,0:0:0:0:
198,226,89416,2,0,L|215:170,1,58.5599975874024,8|8,3:0|3:0,0:0:0:0:
79,331,89572,2,0,L|56:197,1,117.119995174805,8|0,0:2|0:0,0:0:0:0:
258,332,89885,5,12,0:2:0:0:
209,63,90041,1,0,0:0:0:0:
169,332,90197,5,8,0:2:0:0:
290,36,90353,1,0,0:0:0:0:
344,334,90510,5,8,0:2:0:0:
195,42,90666,1,0,0:0:0:0:
86,332,90822,5,8,0:2:0:0:
303,18,90978,1,0,0:0:0:0:
444,340,91135,5,8,0:2:0:0:
168,128,91291,1,0,0:0:0:0:
482,38,91447,5,8,0:2:0:0:
258,332,91603,1,0,0:0:0:0:
303,18,91760,5,8,0:2:0:0:
457,302,91916,1,0,0:0:0:0:
98,182,92072,5,8,0:2:0:0:
446,49,92228,1,0,0:0:0:0:
161,316,92385,5,12,0:2:0:0:
119,33,92541,1,0,0:0:0:0:
136,332,92697,1,0,0:0:0:0:
257,40,92853,5,12,0:2:0:0:
299,323,93009,1,0,0:0:0:0:
282,24,93165,1,0,0:0:0:0:
81,267,93322,5,8,0:2:0:0:
392,68,93478,1,8,0:2:0:0:
20,128,93635,5,4,0:2:0:0:
20,128,94572,6,0,P|72:114|109:107,1,74.8799995429687,2|0,0:2|0:0,0:0:0:0:
179,155,94885,5,4,1:2:0:0:
332,46,95041,1,2,0:2:0:0:
332,46,95119,1,2,0:2:0:0:
332,46,95197,2,0,P|315:111|313:160,1,97.9200005976563,10|2,0:2|0:0,0:0:0:0:
429,281,95510,6,0,B|315:262|354:353|224:352,1,195.840001195313,2|10,1:2|0:2,0:0:0:0:
101,266,95978,1,2,0:0:0:0:
101,266,96056,1,10,0:2:0:0:
101,266,96135,2,0,P|164:236|203:233,1,97.9200005976563,2|2,1:2|1:2,0:0:0:0:
436,153,96447,6,0,P|326:140|253:115,1,146.880000896484,10|8,0:2|0:2,0:0:0:0:
235,76,96760,2,0,P|146:89|120:104,1,97.9200005976563,2|2,1:2|1:2,0:0:0:0:
336,24,97072,1,10,0:2:0:0:
374,26,97150,1,8,0:2:0:0:
410,41,97228,1,8,0:2:0:0:
440,67,97306,1,8,0:2:0:0:
461,108,97385,6,0,P|460:202|462:249,1,97.9200005976563,0|2,1:2|0:2,0:0:0:0:
439,283,97619,1,2,0:2:0:0:
439,283,97697,1,10,0:2:0:0:
336,128,97853,1,2,0:0:0:0:
234,302,98010,6,0,P|150:289|166:175,1,195.840001195313,2|10,1:2|0:2,0:0:0:0:
266,41,98478,1,2,0:0:0:0:
266,41,98556,1,10,0:2:0:0:
266,41,98635,2,0,P|291:130|296:171,1,97.9200005976563,2|2,1:2|1:2,0:0:0:0:
76,96,98947,6,0,P|51:190|53:270,1,146.880000896484,10|0,0:2|0:0,0:0:0:0:
115,303,99260,2,0,L|143:248,1,48.9600002988281,10|8,1:2|0:2,0:0:0:0:
226,201,99416,1,8,0:2:0:0:
226,201,99494,1,8,0:2:0:0:
226,201,99572,2,0,L|244:245,1,48.9600002988281,10|8,1:2|0:0,0:0:0:0:
336,314,99728,1,8,0:0:0:0:
336,314,99806,1,8,0:0:0:0:
336,314,99885,6,0,L|360:198,1,97.9200005976563,4|2,1:2|0:2,0:0:0:0:
320,148,100119,1,2,0:2:0:0:
320,148,100197,1,10,0:2:0:0:
225,277,100353,1,2,0:0:0:0:
53,141,100510,6,0,B|124:140|124:140|164:175|164:175|265:177,1,195.840001195313,2|10,1:2|0:2,0:0:0:0:
374,52,100978,1,2,0:0:0:0:
374,52,101056,1,10,0:2:0:0:
374,52,101135,2,0,L|259:34,1,97.9200005976563,2|2,1:2|1:2,0:0:0:0:
422,160,101447,6,0,L|453:342,1,146.880000896484,10|8,0:2|0:2,0:0:0:0:
389,356,101760,2,0,B|333:359|333:359|282:321,1,97.9200005976563,2|2,1:2|1:2,0:0:0:0:
182,160,102072,1,10,0:2:0:0:
178,199,102150,1,8,0:2:0:0:
175,238,102228,1,8,0:2:0:0:
172,277,102306,1,8,0:2:0:0:
169,316,102385,6,0,L|177:378,1,48.9600002988281,2|0,1:2|0:0,0:0:0:0:
81,274,102541,2,0,L|73:335,1,48.9600002988281,2|0,0:2|0:2,0:0:0:0:
275,216,102697,2,0,L|267:277,1,48.9600002988281,10|0,0:2|0:0,0:0:0:0:
363,173,102853,2,0,L|370:234,1,48.9600002988281,2|8,0:0|0:2,0:0:0:0:
142,135,103010,6,0,L|149:196,1,48.9600002988281,2|0,1:2|0:0,0:0:0:0:
54,92,103166,2,0,L|46:153,1,48.9600002988281,2|0,1:2|0:0,0:0:0:0:
246,73,103322,2,0,L|312:57,1,48.9600002988281,10|0,0:2|0:0,0:0:0:0:
161,28,103478,2,0,L|95:12,1,48.9600002988281,2|8,0:0|0:2,0:0:0:0:
239,165,103635,5,2,1:2:0:0:
245,203,103713,1,8,0:0:0:0:
251,242,103791,1,10,0:0:0:0:
257,281,103869,1,8,0:0:0:0:
263,319,103947,2,0,L|272:381,3,48.9600002988281,2|0|0|0,1:2|0:0|0:0|0:0,0:0:0:0:
345,271,104260,5,10,0:0:0:0:
56,308,104416,1,8,0:0:0:0:
135,217,104572,6,0,P|155:264|161:297,1,74.8799995429687,2|0,0:0|0:0,0:0:0:0:
128,363,104885,5,14,0:2:0:0:
198,122,105041,1,2,1:2:0:0:
198,122,105119,1,2,0:2:0:0:
198,122,105197,1,2,1:2:0:0:
305,291,105353,1,10,0:2:0:0:
64,183,105510,2,0,P|36:109|31:50,1,117.119995174805,2|0,1:2|0:0,0:0:0:0:
193,282,105822,5,10,0:2:0:0:
318,77,105978,1,2,1:2:0:0:
318,77,106056,1,2,0:2:0:0:
318,77,106135,1,2,1:2:0:0:
153,203,106291,1,10,0:2:0:0:
438,157,106447,2,0,P|466:83|471:24,1,117.119995174805,2|0,1:2|1:2,0:0:0:0:
343,300,106760,5,10,0:2:0:0:
237,38,106916,1,2,1:2:0:0:
100,274,107072,5,8,0:2:0:0:
318,77,107228,1,0,1:2:0:0:
17,152,107385,5,14,0:2:0:0:
273,203,107541,1,2,1:2:0:0:
273,203,107619,1,2,0:2:0:0:
273,203,107697,1,2,1:2:0:0:
75,286,107853,1,10,0:2:0:0:
240,113,108010,2,0,P|324:77|369:68,1,117.119995174805,2|0,1:2|0:0,0:0:0:0:
67,84,108322,5,10,0:2:0:0:
211,301,108478,1,2,1:2:0:0:
211,301,108556,1,2,0:2:0:0:
211,301,108634,1,2,1:2:0:0:
13,219,108790,1,8,0:2:0:0:
252,214,108947,2,0,P|336:247|375:273,1,117.119995174805,2|0,1:2|1:2,0:0:0:0:
126,192,109260,6,0,P|65:152|41:127,1,58.5599975874024,10|8,0:0|3:0,0:0:0:0:
205,313,109416,2,0,P|266:353|290:378,1,58.5599975874024,8|8,3:0|3:0,0:0:0:0:
236,181,109572,2,0,P|230:96|321:35,1,175.679992762207,12|0,0:0|0:0,0:0:0:0:
372,58,109885,5,14,0:2:0:0:
333,320,110041,1,2,1:2:0:0:
333,320,110119,1,2,0:2:0:0:
333,320,110197,5,10,0:2:0:0:
202,94,110353,1,2,1:2:0:0:
129,356,110510,5,10,0:2:0:0:
299,148,110666,1,0,1:2:0:0:
461,363,110822,5,10,0:2:0:0:
217,269,110978,1,2,1:2:0:0:
217,269,111056,1,2,0:2:0:0:
217,269,111135,5,10,0:2:0:0:
451,162,111291,1,2,1:2:0:0:
121,108,111447,5,10,0:2:0:0:
332,47,111603,1,0,1:2:0:0:
104,245,111760,5,10,0:2:0:0:
412,315,111916,1,2,1:2:0:0:
152,134,112072,2,0,P|125:47|120:1,1,117.119995174805,8|0,0:2|1:2,0:0:0:0:
364,223,112385,6,0,P|444:196|463:193,1,58.5599975874024,14|0,0:2|0:0,0:0:0:0:
178,292,112541,2,0,P|98:265|79:262,1,58.5599975874024,2|0,1:2|0:0,0:0:0:0:
289,83,112697,6,0,P|300:17|300:1,1,58.5599975874024,10|0,0:2|0:0,0:0:0:0:
300,283,112853,2,0,P|303:312|310:340,1,58.5599975874024,2|0,1:2|0:0,0:0:0:0:
139,129,113010,6,0,P|74:101|46:94,1,58.5599975874024,10|0,0:2|0:0,0:0:0:0:
358,205,113166,2,0,P|423:177|451:170,1,58.5599975874024,2|0,1:2|0:0,0:0:0:0:
160,299,113322,6,0,P|80:272|61:269,1,58.5599975874024,10|0,0:2|0:0,0:0:0:0:
297,94,113478,2,0,P|308:28|308:12,1,58.5599975874024,2|0,0:0|0:0,0:0:0:0:
145,163,113635,5,10,1:2:0:0:
438,261,113791,1,10,1:2:0:0:
83,271,113947,5,10,1:2:0:0:
462,159,114103,1,10,1:2:0:0:
75,92,114260,5,10,1:2:0:0:
471,281,114416,1,10,1:2:0:0:
45,286,114572,5,10,1:2:0:0:
503,142,114728,1,14,1:2:0:0:
256,192,114806,12,0,117385,0:0:0:0:
