osu file format v14

[General]
AudioFilename: audio.mp3
AudioLeadIn: 0
PreviewTime: 69103
Countdown: 0
SampleSet: Soft
StackLeniency: 0.5
Mode: 0
LetterboxInBreaks: 0
WidescreenStoryboard: 1

[Editor]
Bookmarks: 94885
DistanceSpacing: 1.4
BeatDivisor: 4
GridSize: 32
TimelineZoom: 0.7999996

[Metadata]
Title:5150
TitleUnicode:5150
Artist:THE ORAL CIGARETTES
ArtistUnicode:THE ORAL CIGARETTES
Creator:Nevo
Version:NiVo's Easy
Source:
Tags:sotarks mir ayanokorin yukiyo hypercyte snownino_
BeatmapID:1734543
BeatmapSetID:818778

[Difficulty]
HPDrainRate:2.5
CircleSize:2.7
OverallDifficulty:3.5
ApproachRate:4
SliderMultiplier:0.7
SliderTickRate:1

[Events]
//Background and Video events
0,0,"69371129_p0.jpg",0,0
//Break Periods
//Storyboard Layer 0 (Background)
//Storyboard Layer 1 (Fail)
//Storyboard Layer 2 (Pass)
//Storyboard Layer 3 (Foreground)
//Storyboard Sound Samples

[TimingPoints]
19885,312.5,4,2,22,42,1,0
20197,-100,4,2,22,32,0,0
22385,-100,4,2,22,42,0,0
22697,-100,4,2,22,32,0,0
24885,-100,4,2,22,42,0,0
29572,-100,4,2,22,32,0,0
29885,-100,4,2,22,52,0,0
39572,-100,4,2,22,32,0,0
39885,-100,4,2,22,52,0,0
49885,-100,4,2,22,42,0,0
64885,-100,4,2,22,52,0,0
67385,-100,4,2,22,62,0,0
69260,-100,4,2,22,32,0,0
69416,-100,4,2,22,5,0,0
69494,-100,4,2,22,42,0,0
69650,-100,4,2,22,5,0,0
69728,-100,4,2,22,42,0,0
69806,-100,4,2,22,5,0,0
69885,-100,4,1,22,72,0,1
93635,-100,4,1,22,62,0,1
93713,-100,4,1,22,42,0,1
93947,-100,4,2,22,42,0,1
94572,-100,4,2,22,32,0,1
94885,-100,4,2,22,62,0,0
104572,-100,4,2,22,32,0,0
104885,-100,4,2,22,52,0,0
117385,-100,4,2,22,5,0,0

[Colours]
Combo1 : 255,198,155
Combo2 : 187,187,255
Combo3 : 255,252,147

[HitObjects]
355,104,19885,6,0,L|199:91,1,140,10|2,0:2|1:2,0:0:0:0:
120,117,20822,1,2,1:2:0:0:
188,187,21135,2,0,L|327:198,1,140,0|2,1:2|1:2,0:0:0:0:
402,261,22072,1,2,1:2:0:0:
309,294,22385,6,0,L|169:282,1,140,8|2,0:2|1:2,0:0:0:0:
72,272,23322,1,2,1:2:0:0:
89,175,23635,2,0,P|74:112|127:27,1,140,0|2,1:2|1:2,0:0:0:0:
199,25,24572,1,2,1:2:0:0:
168,118,24885,6,0,L|177:208,2,70,14|0|0,0:2|1:2|1:2,0:0:0:0:
265,99,25822,2,0,L|274:189,2,70,10|0|0,0:2|1:2|1:2,0:0:0:0:
362,80,26760,2,0,L|371:170,1,70,12|12,0:2|0:2,0:0:0:0:
449,205,27385,6,0,L|436:325,1,105,8|8,1:2|1:2,0:0:0:0:
299,357,28322,2,0,L|309:252,1,105,8|8,1:2|1:2,0:0:0:0:
390,129,29260,1,2,1:2:0:0:
334,48,29572,1,2,0:2:0:0:
241,76,29885,6,0,L|149:66,1,70,4|10,1:2|0:2,0:0:0:0:
85,20,30510,2,0,L|-7:30,1,70,2|10,1:2|0:2,0:0:0:0:
10,125,31135,2,0,B|52:163|52:163|35:268,1,140,2|2,1:2|1:2,0:0:0:0:
24,342,32072,1,10,0:2:0:0:
115,306,32385,6,0,L|206:297,1,70,0|10,1:2|0:2,0:0:0:0:
249,225,33010,2,0,L|340:234,1,70,2|10,1:2|0:2,0:0:0:0:
416,241,33635,2,0,P|429:206|428:165,1,70,2|10,1:2|0:2,0:0:0:0:
431,75,34260,2,0,B|393:43|393:43|274:57,1,140,10|4,1:2|1:2,0:0:0:0:
230,119,35197,6,0,L|142:113,1,70,10|2,0:2|1:2,0:0:0:0:
78,168,35822,1,10,0:2:0:0:
165,212,36135,2,0,L|234:216,1,70,2|10,1:2|0:2,0:0:0:0:
288,298,36760,2,0,L|357:293,1,70,2|10,1:2|0:2,0:0:0:0:
455,288,37385,6,0,L|462:138,1,140,2|2,1:2|1:2,0:0:0:0:
473,51,38322,1,10,0:2:0:0:
382,89,38635,2,0,B|349:125|349:125|240:108,1,140,2|10,1:2|0:0,0:0:0:0:
65,81,39885,6,0,P|96:116|86:212,1,140,4|2,1:2|1:2,0:0:0:0:
24,276,40822,1,10,0:2:0:0:
119,298,41135,2,0,L|206:295,1,70,2|10,1:2|0:2,0:0:0:0:
243,213,41760,2,0,L|406:218,1,140,2|0,1:2|1:2,0:0:0:0:
480,223,42697,5,10,0:2:0:0:
436,135,43010,2,0,P|429:93|436:55,1,70,2|10,1:2|0:2,0:0:0:0:
344,22,43635,1,2,1:2:0:0:
249,48,43947,2,0,L|168:43,1,70,10|10,0:2|1:2,0:0:0:0:
88,81,44572,1,10,1:2:0:0:
169,138,44885,6,0,P|182:179|153:269,1,140,0|2,1:2|1:2,0:0:0:0:
72,324,45822,1,10,0:2:0:0:
160,365,46135,2,0,L|246:368,1,70,2|10,1:2|0:2,0:0:0:0:
313,301,46760,2,0,L|399:298,1,70,8|14,3:0|0:0,0:0:0:0:
486,291,47385,6,0,P|499:244|482:178,1,105,10|10,0:2|0:2,0:0:0:0:
370,102,48322,1,10,0:2:0:0:
316,184,48635,2,0,L|232:177,1,70,8|0,0:0|1:0,0:0:0:0:
184,101,49260,2,0,L|100:108,1,70,8|4,3:0|3:0,0:0:0:0:
20,134,49885,6,0,P|45:180|28:264,1,140,6|0,1:2|1:2,0:0:0:0:
7,358,50822,1,10,0:2:0:0:
100,329,51135,2,0,B|149:302|149:302|254:319,1,140,0|2,1:2|1:2,0:0:0:0:
318,361,52072,1,10,0:2:0:0:
374,280,52385,6,0,L|365:140,1,140,2|0,1:2|1:2,0:0:0:0:
323,51,53322,1,10,0:2:0:0:
268,132,53635,2,0,P|234:145|133:121,1,140,0|2,1:2|1:2,0:0:0:0:
61,59,54572,1,10,0:2:0:0:
44,155,54885,6,0,L|46:247,2,70,2|10|0,1:2|0:2|1:2,0:0:0:0:
136,123,55822,1,10,0:2:0:0:
138,221,56135,2,0,P|157:255|268:278,1,140,0|2,1:2|1:2,0:0:0:0:
339,249,57072,1,8,0:2:0:0:
323,152,57385,6,0,B|288:108|288:108|188:117,1,140,0|0,1:2|1:2,0:0:0:0:
109,140,58322,1,8,0:2:0:0:
173,213,58635,2,0,L|266:203,2,70,8|8|4,1:2|1:2|3:0,0:0:0:0:
81,247,59572,1,14,0:0:0:0:
158,307,59885,6,0,B|204:338|204:338|315:326,1,140,4|0,1:2|1:2,0:0:0:0:
409,246,60978,2,0,L|402:132,1,105,10|8,0:2|0:2,0:0:0:0:
366,49,61760,1,0,1:2:0:0:
281,98,62072,1,8,0:2:0:0:
217,23,62385,6,0,L|123:18,2,70,0|10|2,1:2|0:2|1:2,0:0:0:0:
366,49,63478,2,0,P|387:88|380:175,1,105,8|8,0:2|0:2,0:0:0:0:
332,228,64260,2,0,P|323:269|332:312,1,70,0|8,1:2|0:2,0:0:0:0:
247,354,64885,6,0,L|157:347,1,70,4|10,1:2|0:2,0:0:0:0:
80,331,65510,2,0,L|87:241,1,70,8|10,0:2|0:2,0:0:0:0:
104,165,66135,2,0,L|194:172,1,70,8|10,0:2|0:2,0:0:0:0:
272,183,66760,2,0,L|265:273,1,70,8|8,0:2|0:0,0:0:0:0:
254,351,67385,6,0,P|307:343|389:359,1,105,12|12,0:0|0:0,0:0:0:0:
504,361,68322,1,8,0:0:0:0:
457,221,68791,2,0,L|361:211,1,70,4|4,1:0|1:0,0:0:0:0:
189,69,69885,6,0,P|206:108|204:149,2,70,6|10|0,0:2|0:2|0:0,0:0:0:0:
98,31,70822,1,10,0:2:0:0:
63,123,71135,2,0,P|46:161|47:266,1,140,0|2,0:0|0:2,0:0:0:0:
115,325,72072,1,10,0:2:0:0:
196,270,72385,6,0,P|238:263|278:270,2,70,6|10|0,0:2|0:2|0:0,0:0:0:0:
108,224,73322,1,10,0:2:0:0:
183,160,73635,2,0,P|210:105|205:18,1,140
110,19,74572,1,10,0:2:0:0:
41,89,74885,6,0,L|34:236,1,140,6|0,0:2|0:0,0:0:0:0:
13,324,75822,1,10,0:2:0:0:
103,301,76135,2,0,P|169:278|265:295,1,140,2|0,0:2|0:0,0:0:0:0:
308,352,77072,1,8,0:2:0:0:
330,256,77385,6,0,L|339:177,1,70,4|8,0:0|0:2,0:0:0:0:
419,133,78010,2,0,L|410:54,1,70,0|8,0:0|0:2,0:0:0:0:
322,20,78635,2,0,L|242:27,1,70,0|8,0:0|0:2,0:0:0:0:
175,87,79260,2,0,L|95:80,1,70,10|8,0:2|0:2,0:0:0:0:
25,137,79885,6,0,P|43:178|29:279,1,140,6|0,0:2|0:0,0:0:0:0:
12,366,80822,1,10,0:2:0:0:
105,336,81135,2,0,L|196:327,1,70,0|8,0:0|0:2,0:0:0:0:
253,270,81760,2,0,L|344:279,1,70,2|10,0:2|0:2,0:0:0:0:
420,282,82385,6,0,P|446:222|434:138,1,140,6|0,0:2|0:0,0:0:0:0:
383,68,83322,1,10,0:2:0:0:
340,156,83635,2,0,P|306:178|181:165,1,140,0|0,0:0|0:0,0:0:0:0:
138,112,84572,1,10,0:2:0:0:
116,207,84885,6,0,B|91:262|91:262|105:365,1,140,6|0,0:2|0:0,0:0:0:0:
196,365,85822,1,10,0:2:0:0:
287,330,86135,2,0,L|378:325,2,70,2|10|0,0:2|0:2|0:0,0:0:0:0:
210,268,87072,1,8,0:2:0:0:
301,233,87385,6,0,L|392:228,1,70,4|8,0:0|0:2,0:0:0:0:
363,131,88010,2,0,L|293:134,1,70,0|8,0:0|0:2,0:0:0:0:
209,186,88635,2,0,P|189:134|108:96,1,140,2|8,0:2|0:2,0:0:0:0:
113,194,89572,1,8,0:2:0:0:
167,275,89885,6,0,L|160:361,2,70,12|8|8,0:2|0:2|0:2,0:0:0:0:
209,186,90822,1,8,0:2:0:0:
263,267,91135,2,0,L|256:353,2,70,8|8|8,0:2|0:2|0:2,0:0:0:0:
305,178,92072,1,8,0:2:0:0:
359,259,92385,6,0,P|397:278|479:267,1,105,12|12,0:2|0:2,0:0:0:0:
492,133,93322,1,8,0:2:0:0:
424,61,93635,1,4,0:2:0:0:
424,61,94885,6,0,L|333:52,1,70,4|10,1:2|0:2,0:0:0:0:
265,13,95510,2,0,L|174:22,1,70,2|10,1:2|0:2,0:0:0:0:
134,97,96135,2,0,P|171:126|167:224,1,140,2|2,1:2|1:2,0:0:0:0:
90,264,97072,1,10,0:2:0:0:
175,311,97385,6,0,L|265:323,1,70,0|10,1:2|0:2,0:0:0:0:
324,376,98010,2,0,L|414:364,1,70,2|10,1:2|0:2,0:0:0:0:
490,355,98635,2,0,P|467:314|490:205,1,140,2|10,1:2|1:2,0:0:0:0:
490,127,99572,1,10,1:2:0:0:
399,165,99885,6,0,L|302:160,1,70,4|10,1:2|0:2,0:0:0:0:
269,83,100510,2,0,L|172:88,1,70,2|10,1:2|0:2,0:0:0:0:
100,89,101135,2,0,L|102:19,2,70,2|10|2,1:2|0:2|1:2,0:0:0:0:
151,172,102072,1,10,0:2:0:0:
201,256,102385,6,0,L|198:325,2,70,2|10|2,1:2|0:2|1:2,0:0:0:0:
251,172,103322,1,10,0:2:0:0:
301,256,103635,2,0,P|348:274|439:234,1,140,2|10,1:2|0:0,0:0:0:0:
420,49,104885,6,0,L|297:55,1,105,14|10,0:2|0:2,0:0:0:0:
169,35,105822,2,0,P|195:66|193:139,1,105,10|10,0:2|0:2,0:0:0:0:
64,190,106760,2,0,L|71:280,1,70,10|8,0:2|0:2,0:0:0:0:
70,357,107385,6,0,P|110:342|180:351,1,105,14|10,0:2|0:2,0:0:0:0:
317,360,108322,2,0,L|311:236,1,105,10|8,0:2|0:2,0:0:0:0:
175,199,109260,2,0,L|180:129,1,70,10|12,0:0|0:0,0:0:0:0:
193,31,109885,6,0,L|262:36,1,70,14|10,0:2|0:2,0:0:0:0:
360,46,110510,2,0,L|354:115,1,70,10|10,0:2|0:2,0:0:0:0:
342,214,111135,2,0,L|272:208,1,70,10|10,0:2|0:2,0:0:0:0:
175,199,111760,2,0,L|180:129,1,70,10|8,0:2|0:2,0:0:0:0:
192,31,112385,5,14,0:2:0:0:
94,24,112697,1,10,0:2:0:0:
81,121,113010,2,0,L|76:191,1,70,10|10,0:2|0:2,0:0:0:0:
63,288,113635,5,10,1:2:0:0:
160,299,113947,1,10,1:2:0:0:
175,199,114260,2,0,L|301:208,1,105,10|14,1:2|1:2,0:0:0:0:
