osu file format v14

[General]
AudioFilename: audio.mp3
AudioLeadIn: 0
PreviewTime: 69103
Countdown: 0
SampleSet: Soft
StackLeniency: 0.5
Mode: 0
LetterboxInBreaks: 0
WidescreenStoryboard: 1

[Editor]
DistanceSpacing: 0.2
BeatDivisor: 4
GridSize: 32
TimelineZoom: 2.1

[Metadata]
Title:5150
TitleUnicode:5150
Artist:THE ORAL CIGARETTES
ArtistUnicode:THE ORAL CIGARETTES
Creator:Nevo
Version:Mir's Extra
Source:
Tags:sotarks mir ayanokorin yukiyo hypercyte snownino_
BeatmapID:1716732
BeatmapSetID:818778

[Difficulty]
HPDrainRate:5
CircleSize:3.8
OverallDifficulty:9
ApproachRate:9.4
SliderMultiplier:1.6
SliderTickRate:1

[Events]
//Background and Video events
0,0,"69371129_p0.jpg",0,0
//Break Periods
2,20241,21845
2,22741,24345
//Storyboard Layer 0 (Background)
//Storyboard Layer 1 (Fail)
//Storyboard Layer 2 (Pass)
//Storyboard Layer 3 (Foreground)
//Storyboard Sound Samples

[TimingPoints]
19885,312.5,4,2,22,42,1,0
19885,-333.333333333333,4,2,22,42,0,0
20197,-100,4,2,22,32,0,0
22385,-100,4,2,22,42,0,0
22697,-100,4,2,22,32,0,0
24885,-100,4,2,22,42,0,0
27385,-100,4,2,22,42,0,0
29572,-100,4,2,22,32,0,0
29885,-83.3333333333333,4,2,22,52,0,0
39572,-83.3333333333333,4,2,22,32,0,0
39885,-83.3333333333333,4,2,22,52,0,0
49885,-100,4,2,22,42,0,0
64885,-100,4,2,22,52,0,0
67385,-100,4,2,22,62,0,0
69260,-100,4,2,22,32,0,0
69416,-100,4,2,22,5,0,0
69494,-100,4,2,22,42,0,0
69650,-100,4,2,22,5,0,0
69728,-100,4,2,22,42,0,0
69806,-100,4,2,22,5,0,0
69885,-83.3333333333333,4,1,22,72,0,1
89806,-83.3333333333333,4,1,22,72,0,0
89885,-83.3333333333333,4,1,22,72,0,1
93635,-83.3333333333333,4,1,22,62,0,0
93713,-83.3333333333333,4,1,22,42,0,0
93947,-83.3333333333333,4,2,22,42,0,0
94572,-83.3333333333333,4,2,22,32,0,0
94885,-100,4,2,22,62,0,0
104572,-100,4,2,22,32,0,0
104885,-100,4,2,22,52,0,0
117385,-100,4,2,22,5,0,0

[Colours]
Combo1 : 255,198,155
Combo2 : 187,187,255
Combo3 : 255,252,147

[HitObjects]
140,71,19885,5,10,0:2:0:0:
173,286,20041,1,10,0:2:0:0:
443,161,22385,5,8,0:2:0:0:
80,257,22541,1,8,0:2:0:0:
449,87,24885,5,14,0:2:0:0:
398,294,25041,1,0,1:2:0:0:
327,139,25197,1,0,1:2:0:0:
130,310,25353,5,10,0:2:0:0:
174,113,25510,1,0,1:2:0:0:
274,283,25666,1,0,1:2:0:0:
24,177,25822,5,10,0:2:0:0:
248,191,25978,1,0,1:2:0:0:
82,57,26135,1,0,1:2:0:0:
362,253,26291,5,10,0:2:0:0:
130,255,26447,1,0,1:2:0:0:
263,88,26603,1,0,1:2:0:0:
197,331,26760,5,12,0:2:0:0:
169,98,26916,1,0,1:2:0:0:
120,282,27072,5,12,0:2:0:0:
82,57,27228,1,0,0:0:0:0:
264,198,27385,5,8,1:2:0:0:
298,178,27463,1,8,0:2:0:0:
338,175,27541,1,8,0:2:0:0:
376,187,27619,1,8,0:2:0:0:
402,217,27697,2,0,L|386:290,1,40,8|8,0:2|0:2,0:0:0:0:
164,307,27853,5,8,1:2:0:0:
160,267,27931,1,8,0:2:0:0:
156,227,28009,1,8,0:2:0:0:
153,187,28087,1,8,0:2:0:0:
149,147,28166,2,0,L|140:78,1,40,8|8,0:2|0:2,0:0:0:0:
308,45,28322,5,8,1:2:0:0:
305,85,28400,1,8,0:2:0:0:
301,125,28478,1,8,0:2:0:0:
298,164,28556,1,8,0:2:0:0:
293,205,28635,2,0,L|284:273,1,40,10|0,0:2|0:0,0:0:0:0:
113,331,28791,5,8,1:2:0:0:
113,331,28869,1,8,0:2:0:0:
113,331,28947,2,0,L|50:322,1,40,10|8,0:2|0:2,0:0:0:0:
365,308,29103,5,8,0:2:0:0:
365,308,29181,1,8,0:2:0:0:
365,308,29260,1,2,1:2:0:0:
53,162,29572,6,0,B|98:155|98:155|126:169|126:169|193:161,1,120,2|0,0:2|0:0,0:0:0:0:
253,152,29885,5,4,1:2:0:0:
469,197,30041,1,2,0:2:0:0:
469,197,30119,1,2,0:2:0:0:
469,197,30197,1,10,0:2:0:0:
330,268,30353,1,2,0:0:0:0:
340,77,30510,6,0,P|360:164|365:195,1,95.9999970703126,2|0,1:2|0:0,0:0:0:0:
230,260,30822,1,10,0:2:0:0:
167,97,30978,1,2,0:0:0:0:
167,97,31056,1,10,0:2:0:0:
167,97,31135,1,2,1:2:0:0:
269,162,31291,1,2,1:2:0:0:
55,195,31447,6,0,L|179:214,1,95.9999970703126,10|0,0:2|0:0,0:0:0:0:
155,227,31681,1,8,0:2:0:0:
160,245,31760,1,2,1:2:0:0:
264,71,31916,1,2,1:2:0:0:
373,271,32072,1,10,0:2:0:0:
373,271,32150,1,8,0:2:0:0:
373,271,32228,1,8,0:2:0:0:
373,271,32306,1,8,0:2:0:0:
373,271,32385,5,0,1:2:0:0:
254,169,32541,1,2,0:2:0:0:
254,169,32619,1,2,0:2:0:0:
254,169,32697,2,0,L|356:158,1,95.9999970703126,10|2,0:2|0:0,0:0:0:0:
137,56,33010,6,0,B|96:100|96:100|126:259,1,191.999994140625,2|10,1:2|0:2,0:0:0:0:
250,344,33478,1,2,0:0:0:0:
250,344,33556,1,10,0:2:0:0:
250,344,33635,1,2,1:2:0:0:
116,336,33791,1,2,1:2:0:0:
238,193,33947,6,0,P|312:202|355:223,1,95.9999970703126,10|0,0:2|0:0,0:0:0:0:
466,319,34260,1,10,1:2:0:0:
462,300,34338,1,8,0:2:0:0:
458,281,34416,1,8,0:2:0:0:
454,262,34494,1,8,0:2:0:0:
450,243,34572,1,10,1:2:0:0:
444,224,34650,1,8,0:0:0:0:
439,205,34728,1,8,0:0:0:0:
434,186,34806,1,8,0:0:0:0:
428,167,34885,5,4,1:2:0:0:
274,280,35041,1,2,0:2:0:0:
274,280,35119,1,2,0:2:0:0:
274,280,35197,1,10,0:2:0:0:
373,338,35353,1,2,0:0:0:0:
324,192,35510,6,0,P|244:179|203:209,1,95.9999970703126,2|0,1:2|0:0,0:0:0:0:
117,320,35822,1,10,0:2:0:0:
106,117,35978,1,2,0:0:0:0:
106,117,36056,1,10,0:2:0:0:
106,117,36135,1,2,1:2:0:0:
38,216,36291,1,2,1:2:0:0:
183,236,36447,6,0,P|206:170|214:118,1,95.9999970703126,10|0,0:2|0:0,0:0:0:0:
206,125,36681,1,8,0:2:0:0:
201,106,36760,1,2,1:2:0:0:
356,194,36916,1,2,1:2:0:0:
87,133,37072,1,10,0:2:0:0:
87,133,37150,1,8,0:2:0:0:
87,133,37228,1,8,0:2:0:0:
87,133,37306,1,8,0:2:0:0:
87,133,37385,6,0,L|96:71,1,47.9999985351563,2|0,1:2|0:0,0:0:0:0:
340,85,37541,2,0,L|331:23,1,47.9999985351563,2|0,0:2|0:2,0:0:0:0:
111,258,37697,6,0,L|120:196,1,47.9999985351563,10|0,0:2|0:0,0:0:0:0:
333,223,37853,2,0,L|324:161,1,47.9999985351563,2|8,0:0|0:2,0:0:0:0:
158,342,38010,6,0,L|225:359,1,47.9999985351563,2|0,1:2|0:0,0:0:0:0:
328,332,38166,2,0,L|261:349,1,47.9999985351563,2|0,1:2|0:0,0:0:0:0:
186,315,38322,6,0,L|253:332,1,47.9999985351563,10|0,0:2|0:0,0:0:0:0:
312,308,38478,2,0,L|245:325,1,47.9999985351563,2|8,0:0|0:2,0:0:0:0:
236,237,38635,5,2,1:2:0:0:
235,217,38713,1,8,0:0:0:0:
234,197,38791,1,10,0:0:0:0:
233,177,38869,1,8,0:0:0:0:
232,157,38947,6,0,L|163:142,1,47.9999985351563,2|0,1:2|0:0,0:0:0:0:
263,83,39103,2,0,L|332:68,1,47.9999985351563,2|0,0:0|0:0,0:0:0:0:
95,227,39260,5,10,0:0:0:0:
413,177,39416,1,8,0:0:0:0:
413,177,39572,6,0,B|461:145|461:145|431:246,1,143.999995605469,2|0,0:0|0:0,0:0:0:0:
431,246,39885,5,4,1:2:0:0:
271,67,40041,1,2,0:2:0:0:
271,67,40119,1,2,0:2:0:0:
271,67,40197,1,10,0:2:0:0:
310,184,40353,1,2,0:0:0:0:
396,53,40510,6,0,P|434:54|530:72,1,95.9999970703126,2|0,1:2|0:0,0:0:0:0:
302,205,40822,1,10,0:2:0:0:
115,97,40978,1,2,0:0:0:0:
115,97,41056,1,10,0:2:0:0:
115,97,41134,1,2,1:2:0:0:
144,239,41291,1,2,1:2:0:0:
238,123,41447,6,0,L|259:-12,1,95.9999970703126,10|0,0:2|0:0,0:0:0:0:
271,25,41681,1,8,0:2:0:0:
290,22,41760,1,2,1:2:0:0:
115,97,41916,1,2,1:2:0:0:
319,213,42072,1,10,0:2:0:0:
319,213,42150,1,8,0:2:0:0:
319,213,42228,1,8,0:2:0:0:
319,213,42306,1,8,0:2:0:0:
319,213,42385,5,0,1:2:0:0:
173,322,42541,1,2,0:2:0:0:
173,322,42619,1,2,0:2:0:0:
173,322,42697,1,10,0:2:0:0:
335,363,42853,1,2,0:0:0:0:
319,213,43010,6,0,L|210:224,1,95.9999970703126,2|0,1:2|0:0,0:0:0:0:
59,249,43322,1,10,0:2:0:0:
121,131,43478,1,2,0:0:0:0:
121,131,43556,1,10,0:2:0:0:
121,131,43635,1,2,1:2:0:0:
149,299,43791,1,2,1:2:0:0:
240,128,43947,6,0,P|302:103|343:91,1,95.9999970703126,10|0,0:2|0:0,0:0:0:0:
431,308,44260,1,10,1:2:0:0:
413,300,44338,1,8,0:2:0:0:
395,292,44416,1,8,0:2:0:0:
377,284,44494,1,8,0:2:0:0:
359,276,44572,1,10,1:2:0:0:
341,268,44650,1,8,0:0:0:0:
323,261,44728,1,8,0:0:0:0:
305,254,44806,1,8,0:0:0:0:
286,246,44885,5,0,1:2:0:0:
419,202,45041,1,2,0:2:0:0:
419,202,45119,1,2,0:2:0:0:
419,202,45197,1,10,0:2:0:0:
277,345,45353,1,2,0:0:0:0:
187,218,45510,6,0,L|172:88,1,95.9999970703126,2|0,1:2|0:0,0:0:0:0:
104,313,45822,1,10,0:2:0:0:
309,166,45978,1,2,0:0:0:0:
309,166,46056,1,10,0:2:0:0:
309,166,46135,1,2,1:2:0:0:
87,187,46291,1,2,1:2:0:0:
269,309,46447,6,0,P|342:318|381:315,1,95.9999970703126,10|0,0:2|0:0,0:0:0:0:
437,205,46760,1,8,3:0:0:0:
437,205,46838,1,8,3:0:0:0:
437,205,46916,2,0,L|423:124,1,47.9999985351563,8|8,3:0|3:0,0:0:0:0:
185,352,47072,1,14,0:0:0:0:
99,78,47385,5,10,0:2:0:0:
217,272,47541,1,2,1:2:0:0:
273,89,47697,1,2,1:2:0:0:
106,289,47853,5,10,0:2:0:0:
187,76,48010,1,2,1:2:0:0:
169,344,48166,1,2,1:2:0:0:
78,175,48322,6,0,L|16:193,1,47.9999985351563,10|0,0:2|0:0,0:0:0:0:
390,232,48478,2,0,L|452:250,1,47.9999985351563,0|0,0:0|0:0,0:0:0:0:
216,38,48635,5,8,0:0:0:0:
214,57,48713,1,8,0:0:0:0:
212,76,48791,1,8,0:0:0:0:
210,95,48869,1,8,0:0:0:0:
209,114,48947,1,0,1:0:0:0:
208,133,49025,1,0,0:0:0:0:
207,152,49103,1,0,0:0:0:0:
206,171,49181,1,0,0:0:0:0:
205,190,49260,6,0,L|142:213,1,47.9999985351563,8|8,3:0|3:0,0:0:0:0:
306,96,49416,2,0,L|369:119,1,47.9999985351563,8|8,3:0|3:0,0:0:0:0:
224,323,49572,2,0,B|172:321|172:321|135:332|135:332|73:325,1,143.999995605469,4|4,3:0|3:0,0:0:0:0:
74,311,49885,6,0,P|64:234|79:189,1,120,6|0,1:2|0:0,0:0:0:0:
86,182,50197,1,10,0:2:0:0:
265,213,50353,2,0,P|226:217|171:223,1,80,2|0,0:2|1:2,0:0:0:0:
177,131,50666,1,0,1:2:0:0:
316,295,50822,1,10,0:2:0:0:
289,86,50978,1,2,0:2:0:0:
327,311,51135,6,0,L|429:300,1,80,0|0,1:2|0:0,0:0:0:0:
455,170,51447,2,0,L|353:159,1,80,8|0,0:2|0:0,0:0:0:0:
183,194,51760,1,2,1:2:0:0:
183,194,51916,1,0,1:2:0:0:
246,32,52072,2,0,P|260:91|265:128,1,80,10|0,0:2|0:0,0:0:0:0:
64,206,52385,6,0,P|108:196|207:196,1,120,2|0,1:2|0:0,0:0:0:0:
193,204,52697,1,10,0:2:0:0:
301,352,52853,2,0,P|298:291|297:253,1,80,2|0,0:2|1:2,0:0:0:0:
348,183,53166,1,0,1:2:0:0:
193,300,53322,1,10,0:2:0:0:
348,183,53478,6,0,L|440:198,1,80,2|0,0:2|1:2,0:0:0:0:
242,69,53791,2,0,L|320:56,1,80,2|8,0:2|0:2,0:0:0:0:
151,146,54103,1,0,0:0:0:0:
52,17,54260,2,0,P|58:80|59:112,1,80,2|0,1:2|1:2,0:0:0:0:
169,242,54572,2,0,P|171:202|175:162,1,80,10|0,0:2|0:0,0:0:0:0:
425,92,54885,6,0,B|331:71|360:134|254:99,1,160,2|10,1:2|0:2,0:0:0:0:
398,187,55353,2,0,P|406:237|409:266,1,80,2|0,0:2|1:2,0:0:0:0:
488,157,55666,1,0,1:2:0:0:
298,267,55822,1,10,0:2:0:0:
415,354,55978,6,0,L|513:340,2,80,2|0|0,0:2|1:2|0:0,0:0:0:0:
298,267,56447,1,8,0:2:0:0:
137,343,56603,1,2,0:2:0:0:
258,367,56760,1,2,1:2:0:0:
187,168,56916,1,2,1:2:0:0:
24,231,57072,2,0,L|129:247,1,80,8|2,0:2|0:0,0:0:0:0:
366,132,57385,6,0,L|182:154,1,160,0|10,1:2|0:2,0:0:0:0:
93,37,57853,2,0,P|108:86|116:137,1,80,2|0,0:0|1:2,0:0:0:0:
215,271,58166,2,0,P|223:231|235:193,1,80,2|8,1:2|0:2,0:0:0:0:
322,61,58478,1,2,0:0:0:0:
491,229,58635,5,8,1:2:0:0:
476,236,58713,1,8,0:0:0:0:
462,243,58791,1,10,0:0:0:0:
448,251,58869,1,8,0:0:0:0:
434,259,58947,2,0,L|421:324,1,40,8|8,1:2|0:0,0:0:0:0:
337,208,59103,2,0,L|329:168,1,40,8|8,0:0|0:0,0:0:0:0:
114,285,59260,5,4,3:0:0:0:
153,292,59338,1,4,3:0:0:0:
192,299,59416,1,4,3:0:0:0:
231,306,59494,1,4,3:0:0:0:
270,313,59572,5,14,0:0:0:0:
126,75,59885,5,4,1:2:0:0:
126,75,60041,1,2,1:2:0:0:
204,128,60197,1,8,0:2:0:0:
132,208,60353,2,0,P|83:210|27:199,1,80,0|0,0:0|1:2,0:0:0:0:
216,113,60666,1,0,1:2:0:0:
236,263,60822,1,2,0:0:0:0:
396,184,60978,6,0,L|307:171,1,80,10|0,0:2|0:0,0:0:0:0:
245,35,61291,2,0,L|334:22,1,80,2|8,1:2|0:2,0:0:0:0:
454,33,61603,2,0,P|472:88|475:124,1,80,2|0,0:0|1:2,0:0:0:0:
295,193,61916,1,2,1:2:0:0:
366,104,62072,1,8,0:2:0:0:
431,233,62228,6,0,L|437:329,1,80,2|0,0:0|1:2,0:0:0:0:
346,382,62541,1,2,1:2:0:0:
143,300,62697,1,10,0:2:0:0:
255,298,62853,1,2,0:0:0:0:
143,300,63010,2,0,P|95:342|81:361,1,80,2|0,1:2|1:2,0:0:0:0:
248,322,63322,1,0,0:0:0:0:
180,64,63478,6,0,L|197:228,1,160,8|0,0:2|1:2,0:0:0:0:
92,167,63947,2,0,P|43:155|-1:146,1,80,8|0,0:2|0:0,0:0:0:0:
293,107,64260,1,0,1:2:0:0:
293,107,64416,1,0,1:2:0:0:
208,248,64572,1,8,0:2:0:0:
425,173,64728,1,8,0:2:0:0:
425,173,64806,1,8,0:2:0:0:
425,173,64885,6,0,P|406:238|387:314,1,120,4|0,1:2|0:0,0:0:0:0:
395,328,65197,5,10,0:2:0:0:
322,131,65353,1,2,1:2:0:0:
259,340,65510,5,8,0:2:0:0:
226,170,65666,1,0,1:2:0:0:
115,318,65822,5,10,0:2:0:0:
142,110,65978,1,2,1:2:0:0:
295,247,66135,5,8,0:2:0:0:
63,189,66291,1,0,1:2:0:0:
343,157,66447,5,10,0:2:0:0:
117,297,66603,1,2,1:2:0:0:
370,299,66760,6,0,L|465:329,1,80,8|0,0:2|0:0,0:0:0:0:
225,86,67072,1,8,0:0:0:0:
225,86,67150,1,8,3:0:0:0:
225,86,67228,1,8,3:0:0:0:
225,86,67306,1,8,3:0:0:0:
225,86,67385,5,12,0:0:0:0:
153,276,67541,1,0,1:0:0:0:
346,195,67697,1,0,1:0:0:0:
92,128,67853,5,12,0:0:0:0:
241,338,68010,1,0,1:0:0:0:
336,85,68166,1,0,1:0:0:0:
135,298,68322,5,8,0:0:0:0:
135,298,68400,1,8,3:0:0:0:
135,298,68478,1,8,3:0:0:0:
135,298,68556,1,8,3:0:0:0:
135,298,68635,5,8,0:0:0:0:
250,235,68791,2,0,P|303:258|333:276,1,80,4|0,1:0|0:0,0:0:0:0:
429,213,69103,2,0,P|450:266|458:300,1,80,4|2,1:0|0:0,0:0:0:0:
317,56,69885,6,0,L|92:84,1,191.999994140625,6|10,0:2|0:2,0:0:0:0:
35,170,70353,2,0,P|99:190|145:213,1,95.9999970703126,2|0,0:2|0:0,0:0:0:0:
197,302,70666,1,0,0:0:0:0:
278,162,70822,1,10,0:2:0:0:
488,187,70978,6,0,P|424:207|302:273,1,191.999994140625,2|0,0:2|0:0,0:0:0:0:
278,162,71447,2,0,L|284:61,1,95.9999970703126,8|0,0:2|0:0,0:0:0:0:
200,278,71760,2,0,P|146:314|96:335,1,95.9999970703126,2|0,0:2|0:0,0:0:0:0:
76,330,71994,2,0,P|71:299|67:248,1,47.9999985351563,2|10,0:2|0:2,0:0:0:0:
92,164,72228,1,2,0:2:0:0:
323,326,72385,6,0,L|343:183,1,143.999995605469,6|0,0:2|0:0,0:0:0:0:
362,169,72697,1,10,0:2:0:0:
232,41,72853,2,0,P|282:64|325:98,1,95.9999970703126,2|0,0:2|0:0,0:0:0:0:
387,172,73166,1,2,0:2:0:0:
197,160,73322,2,0,P|141:164|79:174,1,95.9999970703126,10|0,0:2|0:0,0:0:0:0:
23,71,73635,5,0,0:0:0:0:
23,71,73791,1,0,0:0:0:0:
257,14,73947,2,0,P|279:92|291:146,1,95.9999970703126,10|0,0:2|0:0,0:0:0:0:
131,267,74260,1,0,0:0:0:0:
147,112,74416,1,0,0:0:0:0:
270,258,74572,5,10,0:2:0:0:
292,265,74650,1,8,0:2:0:0:
314,272,74728,1,0,0:2:0:0:
336,279,74806,1,0,0:2:0:0:
360,286,74885,5,6,0:2:0:0:
274,357,75041,1,0,0:0:0:0:
332,196,75197,1,14,0:2:0:0:
454,253,75353,2,0,P|470:317|473:360,1,95.9999970703126,2|0,0:2|0:0,0:0:0:0:
324,183,75666,1,0,0:0:0:0:
392,82,75822,2,0,L|500:78,1,95.9999970703126,10|0,0:2|0:0,0:0:0:0:
147,245,76135,6,0,P|123:190|122:138,1,95.9999970703126,2|0,0:2|0:0,0:0:0:0:
200,65,76447,1,10,0:2:0:0:
420,185,76603,2,0,B|320:155|327:214|214:167,1,191.999994140625,2|2,0:2|0:2,0:0:0:0:
200,65,77072,1,8,0:2:0:0:
45,226,77228,6,0,P|61:286|81:353,1,95.9999970703126,2|4,0:2|0:0,0:0:0:0:
242,375,77541,2,0,P|255:328|267:282,1,95.9999970703126,2|8,0:2|0:2,0:0:0:0:
192,194,77853,1,0,0:0:0:0:
366,278,78010,1,0,0:0:0:0:
312,168,78166,1,0,0:0:0:0:
137,279,78322,2,0,P|67:275|12:264,1,95.9999970703126,8|0,0:2|0:0,0:0:0:0:
151,89,78635,5,0,0:0:0:0:
151,89,78791,1,0,0:0:0:0:
256,304,78947,1,8,0:2:0:0:
334,135,79103,1,0,0:0:0:0:
103,292,79260,5,10,0:2:0:0:
97,268,79338,1,8,0:2:0:0:
91,244,79416,1,8,0:2:0:0:
85,220,79494,1,10,0:2:0:0:
79,196,79572,1,8,0:2:0:0:
74,172,79650,1,8,0:2:0:0:
69,148,79728,1,10,0:2:0:0:
64,124,79806,1,8,0:2:0:0:
60,100,79885,6,0,B|156:83|143:150|275:121,1,191.999994140625,6|14,0:2|0:2,0:0:0:0:
380,123,80353,2,0,P|365:70|333:16,1,95.9999970703126,2|0,0:2|0:0,0:0:0:0:
308,222,80666,1,0,0:0:0:0:
481,126,80822,1,10,0:2:0:0:
393,292,80978,1,2,0:2:0:0:
235,137,81135,6,0,P|223:212|216:337,1,191.999994140625,0|8,0:0|0:2,0:0:0:0:
339,205,81603,1,0,0:0:0:0:
117,238,81760,2,0,P|56:256|-7:256,1,95.9999970703126,2|0,0:2|0:0,0:0:0:0:
11,278,81994,2,0,P|12:342|21:370,1,47.9999985351563,2|10,0:2|0:2,0:0:0:0:
94,141,82228,1,2,0:2:0:0:
192,317,82385,6,0,L|402:343,1,191.999994140625,6|10,0:2|0:2,0:0:0:0:
465,159,82853,2,0,P|442:206|421:275,1,95.9999970703126,2|0,0:2|0:0,0:0:0:0:
315,232,83166,1,2,0:2:0:0:
497,321,83322,1,10,0:2:0:0:
359,141,83478,1,0,0:0:0:0:
130,279,83635,5,0,0:0:0:0:
130,279,83791,1,0,0:0:0:0:
175,69,83947,2,0,P|189:127|204:191,1,95.9999970703126,10|0,0:2|0:0,0:0:0:0:
227,344,84260,1,0,0:0:0:0:
227,344,84416,1,0,0:0:0:0:
21,206,84572,5,10,0:2:0:0:
44,201,84650,1,8,0:2:0:0:
67,196,84728,1,0,0:2:0:0:
90,192,84806,1,0,0:2:0:0:
113,188,84885,6,0,L|231:201,1,95.9999970703126,6|0,0:2|0:0,0:0:0:0:
436,187,85197,1,14,0:2:0:0:
349,61,85353,2,0,P|338:131|325:265,1,191.999994140625,2|0,0:2|0:0,0:0:0:0:
224,384,85822,2,0,P|221:309|216:250,1,95.9999970703126,10|0,0:2|0:0,0:0:0:0:
68,79,86135,6,0,L|179:112,1,95.9999970703126,2|0,0:2|0:0,0:0:0:0:
359,104,86447,1,10,0:2:0:0:
169,209,86603,2,0,L|261:181,1,95.9999970703126,2|0,0:2|0:0,0:0:0:0:
411,233,86916,1,2,0:2:0:0:
264,68,87072,1,8,0:2:0:0:
296,278,87228,1,2,0:2:0:0:
374,102,87385,6,0,P|431:84|472:77,1,95.9999970703126,4|2,0:0|0:2,0:0:0:0:
176,212,87697,2,0,P|99:197|8:114,1,191.999994140625,8|0,0:2|0:0,0:0:0:0:
177,97,88166,1,0,0:0:0:0:
289,178,88322,2,0,P|299:235|313:307,1,95.9999970703126,8|0,0:2|0:0,0:0:0:0:
483,114,88635,6,0,P|432:109|352:86,1,95.9999970703126,2|0,0:2|0:0,0:0:0:0:
242,23,88947,1,8,0:2:0:0:
185,219,89103,1,0,0:0:0:0:
77,76,89260,1,8,0:2:0:0:
77,76,89338,1,8,3:0:0:0:
77,76,89416,1,8,3:0:0:0:
77,76,89494,1,8,3:0:0:0:
77,76,89572,1,8,0:2:0:0:
167,330,89885,5,12,0:2:0:0:
195,120,90041,1,0,0:0:0:0:
327,316,90197,5,8,0:2:0:0:
284,88,90353,1,0,0:0:0:0:
107,192,90510,5,8,0:2:0:0:
375,159,90666,1,0,0:0:0:0:
101,276,90822,5,8,0:2:0:0:
394,250,90978,1,0,0:0:0:0:
263,74,91135,5,8,0:2:0:0:
307,286,91291,1,0,0:0:0:0:
186,107,91447,5,8,0:2:0:0:
174,313,91603,1,0,0:0:0:0:
134,42,91760,5,8,0:2:0:0:
75,267,91916,1,0,0:0:0:0:
327,161,92072,6,0,P|402:143|449:133,1,95.9999970703126,8|0,0:2|0:0,0:0:0:0:
350,293,92385,5,12,0:2:0:0:
250,38,92541,1,0,0:0:0:0:
156,270,92697,1,0,0:0:0:0:
409,201,92853,5,12,0:2:0:0:
141,121,93010,1,0,0:0:0:0:
243,347,93166,1,0,0:0:0:0:
273,48,93322,5,8,0:2:0:0:
170,290,93478,1,8,0:2:0:0:
418,101,93635,1,4,0:2:0:0:
117,141,94885,5,4,1:2:0:0:
197,232,95041,1,2,0:2:0:0:
197,232,95119,1,2,0:2:0:0:
197,232,95197,1,10,0:2:0:0:
238,114,95353,1,2,0:0:0:0:
197,232,95510,6,0,P|184:301|183:340,1,80,2|0,1:2|0:0,0:0:0:0:
117,141,95822,1,10,0:2:0:0:
338,238,95978,1,2,0:0:0:0:
338,238,96056,1,10,0:2:0:0:
338,238,96135,1,2,1:2:0:0:
415,132,96291,1,2,1:2:0:0:
257,82,96447,6,0,P|249:42|244:3,1,80,10|0,0:2|0:0,0:0:0:0:
338,238,96760,1,2,1:2:0:0:
417,115,96916,1,2,1:2:0:0:
171,243,97072,1,10,0:2:0:0:
171,243,97150,1,8,0:2:0:0:
171,243,97228,1,8,0:2:0:0:
171,243,97306,1,8,0:2:0:0:
171,243,97385,5,0,1:2:0:0:
260,139,97541,1,2,0:2:0:0:
260,139,97619,1,2,0:2:0:0:
260,139,97697,1,10,0:2:0:0:
69,159,97853,1,2,0:0:0:0:
276,252,98010,6,0,P|341:239|392:236,1,80,2|0,1:2|0:0,0:0:0:0:
189,354,98322,1,10,0:2:0:0:
59,263,98478,1,2,0:0:0:0:
59,263,98556,1,10,0:2:0:0:
59,263,98635,1,2,1:2:0:0:
177,335,98791,1,2,1:2:0:0:
156,184,98947,6,0,P|163:114|168:69,1,80,10|0,0:2|0:0,0:0:0:0:
341,75,99260,1,10,1:2:0:0:
360,79,99338,1,8,0:2:0:0:
379,83,99416,1,8,0:2:0:0:
398,87,99494,1,8,0:2:0:0:
417,91,99572,1,10,1:2:0:0:
436,95,99650,1,8,0:0:0:0:
455,100,99728,1,8,0:0:0:0:
474,105,99806,1,8,0:0:0:0:
493,111,99885,5,4,1:2:0:0:
254,27,100041,1,2,0:2:0:0:
254,27,100119,1,2,0:2:0:0:
254,27,100197,1,10,0:2:0:0:
336,193,100353,1,2,0:0:0:0:
221,146,100510,6,0,P|166:127|111:122,1,80,2|0,1:2|0:0,0:0:0:0:
56,169,100822,1,10,0:2:0:0:
312,108,100978,1,2,0:0:0:0:
312,108,101056,1,10,0:2:0:0:
312,108,101135,1,2,1:2:0:0:
146,39,101291,1,2,1:2:0:0:
238,250,101447,6,0,P|247:295|254:363,1,80,10|0,0:2|0:0,0:0:0:0:
243,342,101681,1,8,0:2:0:0:
234,355,101760,1,2,1:2:0:0:
124,188,101916,1,2,1:2:0:0:
383,282,102072,1,10,0:2:0:0:
383,282,102150,1,8,0:2:0:0:
383,282,102228,1,8,0:2:0:0:
383,282,102306,1,8,0:2:0:0:
383,282,102385,6,0,L|371:221,1,40,2|0,1:2|0:0,0:0:0:0:
402,135,102541,2,0,L|414:74,1,40,2|0,0:2|0:2,0:0:0:0:
282,264,102697,6,0,L|270:203,1,40,10|0,0:2|0:0,0:0:0:0:
303,141,102853,2,0,L|315:80,1,40,2|8,0:0|0:2,0:0:0:0:
177,301,103010,6,0,L|184:261,1,40,2|0,1:2|0:0,0:0:0:0:
169,198,103166,2,0,L|161:158,1,40,2|0,1:2|0:0,0:0:0:0:
72,303,103322,6,0,L|79:263,1,40,10|0,0:2|0:0,0:0:0:0:
68,234,103478,2,0,L|60:194,1,40,2|8,0:0|0:2,0:0:0:0:
169,198,103635,5,2,1:2:0:0:
189,201,103713,1,8,0:0:0:0:
209,204,103791,1,10,0:0:0:0:
229,208,103869,1,8,0:0:0:0:
249,212,103947,1,2,1:2:0:0:
269,216,104025,1,0,0:0:0:0:
289,220,104103,1,0,0:0:0:0:
309,224,104181,1,0,0:0:0:0:
329,228,104260,5,10,0:0:0:0:
227,37,104416,1,8,0:0:0:0:
210,348,104885,5,14,0:2:0:0:
137,186,105041,1,2,1:2:0:0:
337,213,105197,1,2,1:2:0:0:
122,295,105353,5,10,0:2:0:0:
256,164,105510,1,2,1:2:0:0:
97,77,105666,1,0,0:0:0:0:
208,258,105822,5,10,0:2:0:0:
338,123,105978,1,2,1:2:0:0:
362,320,106135,1,2,1:2:0:0:
139,165,106291,5,10,0:2:0:0:
366,210,106447,1,2,1:2:0:0:
227,345,106603,1,0,1:2:0:0:
128,143,106760,6,0,L|114:38,1,80,10|2,0:2|1:2,0:0:0:0:
397,294,107072,2,0,L|386:373,1,80,8|0,0:2|1:2,0:0:0:0:
292,90,107385,5,14,0:2:0:0:
223,329,107541,1,2,1:2:0:0:
107,168,107697,1,2,1:2:0:0:
411,171,107853,5,10,0:2:0:0:
222,175,108010,1,2,1:2:0:0:
326,353,108166,1,0,0:0:0:0:
283,94,108322,5,10,0:2:0:0:
196,318,108478,1,2,1:2:0:0:
84,112,108635,1,2,1:2:0:0:
204,339,108791,5,8,0:2:0:0:
282,72,108947,1,2,1:2:0:0:
394,272,109103,1,0,1:2:0:0:
110,217,109260,5,10,0:0:0:0:
110,217,109338,1,8,3:0:0:0:
110,217,109416,1,8,3:0:0:0:
110,217,109494,1,8,3:0:0:0:
110,217,109572,6,0,B|175:214|161:250|256:240,1,120,12|0,0:0|0:0,0:0:0:0:
238,225,109885,5,14,0:2:0:0:
277,68,110041,1,2,1:2:0:0:
285,326,110197,5,10,0:2:0:0:
207,130,110353,1,2,1:2:0:0:
172,350,110510,5,10,0:2:0:0:
322,152,110666,1,0,1:2:0:0:
375,353,110822,5,10,0:2:0:0:
277,78,110978,1,2,1:2:0:0:
141,237,111135,6,0,P|68:237|39:228,1,80,10|2,0:2|1:2,0:0:0:0:
410,163,111447,2,0,P|449:157|489:161,1,80,10|0,0:2|1:2,0:0:0:0:
181,57,111760,5,10,0:2:0:0:
213,338,111916,1,2,1:2:0:0:
300,98,112072,5,8,0:2:0:0:
320,319,112228,1,0,1:2:0:0:
133,232,112385,6,0,P|124:180|124:171,1,40,14|0,0:2|0:0,0:0:0:0:
64,134,112541,2,0,P|94:90|100:84,1,40,2|0,1:2|0:0,0:0:0:0:
210,164,112697,6,0,P|228:114|232:106,1,40,10|0,0:2|0:0,0:0:0:0:
204,67,112853,2,0,P|251:44|260:42,1,40,2|0,1:2|0:0,0:0:0:0:
313,174,113010,6,0,P|353:140|361:135,1,40,10|0,0:2|0:0,0:0:0:0:
354,107,113166,2,0,P|406:111|415:114,1,40,2|0,1:2|0:0,0:0:0:0:
390,245,113322,6,0,P|442:236|450:235,1,40,10|0,0:2|0:0,0:0:0:0:
436,207,113478,2,0,P|479:237|485:243,1,40,2|0,0:0|0:0,0:0:0:0:
352,343,113635,5,10,1:2:0:0:
266,275,113791,1,10,1:2:0:0:
148,341,113947,1,10,1:2:0:0:
231,180,114103,1,10,1:2:0:0:
245,375,114260,5,10,1:2:0:0:
230,92,114416,1,10,1:2:0:0:
378,242,114572,1,10,1:2:0:0:
93,267,114728,1,14,1:2:0:0:
