osu file format v14

[General]
AudioFilename: audio.mp3
AudioLeadIn: 0
PreviewTime: 69103
Countdown: 0
SampleSet: Soft
StackLeniency: 0.5
Mode: 0
LetterboxInBreaks: 0
WidescreenStoryboard: 0

[Editor]
DistanceSpacing: 0.2
BeatDivisor: 4
GridSize: 32
TimelineZoom: 2.1

[Metadata]
Title:5150
TitleUnicode:5150
Artist:THE ORAL CIGARETTES
ArtistUnicode:THE ORAL CIGARETTES
Creator:Nevo
Version:Expert
Source:
Tags:sotarks mir ayanokorin yukiyo hypercyte snownino_
BeatmapID:1718671
BeatmapSetID:818778

[Difficulty]
HPDrainRate:5
CircleSize:4
OverallDifficulty:9
ApproachRate:9.4
SliderMultiplier:1.7
SliderTickRate:1

[Events]
//Background and Video events
0,0,"69371129_p0.jpg",0,0
//Break Periods
2,20241,21845
2,22741,24345
//Storyboard Layer 0 (Background)
//Storyboard Layer 1 (Fail)
//Storyboard Layer 2 (Pass)
//Storyboard Layer 3 (Foreground)
//Storyboard Sound Samples

[TimingPoints]
19885,312.5,4,2,22,42,1,0
20197,-100,4,2,22,32,0,0
22385,-100,4,2,22,42,0,0
22697,-100,4,2,22,32,0,0
24885,-100,4,2,22,42,0,0
29572,-133.333333333333,4,2,22,32,0,0
29885,-100,4,2,22,52,0,0
39572,-133.333333333333,4,2,22,32,0,0
39885,-80,4,2,22,52,0,0
47072,-133.333333333333,4,2,22,52,0,0
48635,-100,4,2,22,52,0,0
49885,-100,4,2,22,42,0,0
64885,-100,4,2,22,52,0,0
67385,-100,4,2,22,62,0,0
69260,-100,4,2,22,32,0,0
69416,-100,4,2,22,5,0,0
69494,-100,4,2,22,42,0,0
69650,-100,4,2,22,5,0,0
69728,-100,4,2,22,42,0,0
69806,-100,4,2,22,5,0,0
69885,-76.9230769230769,4,1,22,72,0,1
93635,-76.9230769230769,4,1,22,62,0,1
93713,-76.9230769230769,4,1,22,42,0,1
93947,-76.9230769230769,4,2,22,42,0,1
94572,-76.9230769230769,4,2,22,32,0,1
94885,-100,4,2,22,62,0,0
104572,-100,4,2,22,32,0,0
104885,-80,4,2,22,52,0,0
117385,-80,4,2,22,5,0,0

[Colours]
Combo1 : 255,198,155
Combo2 : 187,187,255
Combo3 : 255,252,147

[HitObjects]
132,67,19885,5,10,0:2:0:0:
129,89,20041,1,10,0:2:0:0:
217,179,22385,5,8,0:2:0:0:
220,201,22541,1,8,0:2:0:0:
89,206,24885,5,14,0:2:0:0:
215,89,25041,1,0,1:2:0:0:
223,187,25197,1,0,1:2:0:0:
104,71,25353,5,10,0:2:0:0:
311,128,25510,1,0,1:2:0:0:
223,187,25666,1,0,1:2:0:0:
278,7,25822,5,10,0:2:0:0:
313,221,25978,1,0,1:2:0:0:
223,187,26135,1,0,1:2:0:0:
429,149,26291,5,10,0:2:0:0:
221,91,26447,1,0,1:2:0:0:
313,221,26603,1,0,1:2:0:0:
436,64,26760,6,0,L|428:148,1,85,12|0,0:2|1:2,0:0:0:0:
320,305,27072,2,0,L|312:220,1,85,12|0,0:2|0:0,0:0:0:0:
121,83,27385,5,8,1:2:0:0:
88,116,27463,1,8,0:2:0:0:
80,162,27541,1,8,0:2:0:0:
101,204,27619,1,8,0:2:0:0:
143,226,27697,1,8,0:2:0:0:
189,219,27775,1,8,0:2:0:0:
223,187,27853,1,8,1:2:0:0:
266,167,27931,1,8,0:2:0:0:
313,163,28009,1,8,0:2:0:0:
359,175,28087,1,8,0:2:0:0:
398,201,28165,1,8,0:2:0:0:
425,240,28243,1,8,0:2:0:0:
438,285,28322,2,0,L|414:339,1,42.5,8|8,1:2|0:2,0:0:0:0:
349,365,28478,5,8,0:2:0:0:
349,365,28556,1,8,0:2:0:0:
349,365,28635,2,0,L|287:359,1,42.5,10|0,0:2|0:0,0:0:0:0:
264,290,28791,5,8,1:2:0:0:
264,290,28869,1,8,0:2:0:0:
264,290,28947,2,0,L|221:294,1,42.5,10|8,0:2|0:2,0:0:0:0:
179,365,29103,6,0,L|136:360,1,42.5,8|8,0:2|0:2,0:0:0:0:
81,302,29260,1,2,1:2:0:0:
134,66,29572,6,0,B|164:86|164:86|173:165,1,95.6250036478044,2|0,0:2|0:0,0:0:0:0:
95,216,29885,6,0,L|89:127,1,85,4|2,1:2|0:2,0:0:0:0:
89,131,30119,1,2,0:2:0:0:
89,131,30197,1,10,0:2:0:0:
253,193,30353,1,2,0:0:0:0:
120,326,30510,2,0,P|180:270|277:307,1,170,2|10,1:2|0:2,0:0:0:0:
400,366,30978,1,2,0:0:0:0:
400,366,31056,1,10,0:2:0:0:
400,366,31135,6,0,L|394:281,1,85,2|2,1:2|1:2,0:0:0:0:
496,169,31447,2,0,L|490:253,1,85,10|0,0:2|0:0,0:0:0:0:
490,253,31681,1,8,0:2:0:0:
490,253,31760,1,2,1:2:0:0:
331,184,31916,1,2,1:2:0:0:
383,98,32072,1,10,0:2:0:0:
416,133,32150,1,8,0:2:0:0:
428,183,32228,1,8,0:2:0:0:
415,231,32306,1,8,0:2:0:0:
379,267,32385,6,0,L|396:386,1,85,0|2,1:2|0:2,0:0:0:0:
391,351,32619,1,2,0:2:0:0:
391,351,32697,1,10,0:2:0:0:
490,253,32853,1,2,0:0:0:0:
301,322,33010,2,0,B|235:317|235:317|195:331|195:331|102:323,1,170,2|10,1:2|0:2,0:0:0:0:
145,173,33478,1,2,0:0:0:0:
145,173,33556,1,10,0:2:0:0:
145,173,33635,6,0,P|181:214|177:265,1,85,2|2,1:2|1:2,0:0:0:0:
49,312,33947,2,0,P|66:260|112:238,1,85,10|0,0:2|0:0,0:0:0:0:
252,174,34260,1,10,1:2:0:0:
281,163,34338,1,8,0:2:0:0:
312,162,34416,1,8,0:2:0:0:
343,170,34494,1,8,0:2:0:0:
370,185,34572,5,10,1:2:0:0:
391,143,34650,1,8,0:0:0:0:
387,96,34728,1,8,0:0:0:0:
358,59,34806,1,8,0:0:0:0:
314,43,34885,6,0,L|211:39,1,85,4|2,1:2|0:2,0:0:0:0:
229,39,35119,1,2,0:2:0:0:
229,39,35197,1,10,0:2:0:0:
101,98,35353,1,2,0:0:0:0:
263,232,35510,2,0,L|267:129,1,85,2|0,1:2|0:0,0:0:0:0:
122,268,35822,1,10,0:2:0:0:
265,322,35978,1,2,0:0:0:0:
265,322,36056,1,10,0:2:0:0:
265,322,36135,6,0,L|368:318,1,85,2|2,1:2|1:2,0:0:0:0:
492,230,36447,2,0,P|437:255|350:195,1,170,10|2,0:2|1:2,0:0:0:0:
291,83,36916,1,2,1:2:0:0:
436,0,37072,1,10,0:2:0:0:
434,42,37150,1,8,0:2:0:0:
432,84,37228,1,8,0:2:0:0:
431,127,37306,1,8,0:2:0:0:
429,169,37385,6,0,L|424:238,1,42.5,2|0,1:2|0:0,0:0:0:0:
349,318,37541,2,0,L|343:249,1,42.5,2|0,0:2|0:2,0:0:0:0:
442,184,37697,6,0,L|436:252,1,42.5,10|0,0:2|0:0,0:0:0:0:
361,332,37853,2,0,L|355:263,1,42.5,2|8,0:0|0:2,0:0:0:0:
454,198,38010,6,0,L|448:266,1,42.5,2|0,1:2|0:0,0:0:0:0:
373,346,38166,2,0,L|367:277,1,42.5,2|0,1:2|0:0,0:0:0:0:
466,212,38322,6,0,L|460:280,1,42.5,10|0,0:2|0:0,0:0:0:0:
385,360,38478,2,0,L|379:291,1,42.5,2|8,0:0|0:2,0:0:0:0:
275,144,38635,5,2,1:2:0:0:
273,186,38713,1,8,0:0:0:0:
271,228,38791,1,10,0:0:0:0:
270,271,38869,1,8,0:0:0:0:
268,313,38948,6,0,L|262:381,1,42.5,2|0,1:2|0:0,0:0:0:0:
362,227,39103,2,0,L|356:158,1,42.5,2|0,0:0|0:0,0:0:0:0:
348,27,39260,5,10,0:0:0:0:
68,169,39416,1,8,0:0:0:0:
186,26,39572,2,0,P|210:70|198:131,1,95.6250036478044,2|0,0:0|0:0,0:0:0:0:
154,177,39885,6,0,L|284:151,1,106.25,4|2,1:2|0:2,0:0:0:0:
258,156,40119,1,2,0:2:0:0:
258,156,40197,1,10,0:2:0:0:
124,318,40353,1,2,0:0:0:0:
124,318,40431,1,0,0:0:0:0:
124,318,40510,2,0,L|-6:292,1,106.25,2|0,1:2|0:0,0:0:0:0:
205,266,40822,2,0,P|220:323|193:384,1,106.25,10|2,0:2|0:0,0:0:0:0:
206,366,41056,1,10,0:2:0:0:
206,366,41135,5,2,1:2:0:0:
154,177,41291,1,2,1:2:0:0:
302,269,41447,2,0,L|417:260,1,106.25,10|0,0:2|0:0,0:0:0:0:
407,260,41681,1,8,0:2:0:0:
407,260,41760,1,2,1:2:0:0:
291,137,41916,1,2,1:2:0:0:
448,356,42072,5,10,0:2:0:0:
491,325,42150,1,8,0:2:0:0:
512,277,42228,1,8,0:2:0:0:
504,225,42306,1,8,0:2:0:0:
471,185,42385,6,0,L|364:193,1,106.25,0|2,1:2|0:2,0:0:0:0:
365,192,42619,1,2,0:2:0:0:
365,192,42697,1,10,0:2:0:0:
491,91,42853,1,2,0:0:0:0:
282,81,43010,2,0,L|388:89,1,106.25,2|0,1:2|0:0,0:0:0:0:
227,159,43322,1,10,0:2:0:0:
200,30,43478,5,2,0:0:0:0:
200,30,43556,1,10,0:2:0:0:
200,30,43635,2,0,L|93:38,1,106.25,2|2,1:2|1:2,0:0:0:0:
227,159,43947,1,10,0:2:0:0:
282,81,44103,1,0,0:0:0:0:
138,123,44260,5,10,1:2:0:0:
131,175,44338,1,8,0:2:0:0:
152,222,44416,1,8,0:2:0:0:
196,252,44494,1,8,0:2:0:0:
248,255,44572,1,10,1:2:0:0:
294,230,44650,1,8,0:0:0:0:
347,231,44728,1,8,0:0:0:0:
392,258,44806,1,8,0:0:0:0:
418,303,44885,6,0,L|429:163,1,106.25,0|2,1:2|0:2,0:0:0:0:
426,197,45119,1,2,0:2:0:0:
426,197,45197,1,10,0:2:0:0:
313,330,45353,1,2,0:0:0:0:
285,124,45510,2,0,L|293:229,1,106.25,2|0,1:2|0:0,0:0:0:0:
492,147,45822,2,0,L|500:41,1,106.25,10|2,0:2|0:0,0:0:0:0:
500,41,46056,1,10,0:2:0:0:
500,41,46135,5,2,1:2:0:0:
400,165,46291,1,2,1:2:0:0:
298,41,46447,2,0,L|403:32,1,106.25,10|0,0:2|0:0,0:0:0:0:
267,150,46760,1,8,3:0:0:0:
227,146,46838,1,8,3:0:0:0:
188,143,46916,1,8,3:0:0:0:
149,140,46994,1,8,3:0:0:0:
110,137,47072,2,0,B|99:179|99:179|111:251,1,95.6250036478044,14|0,0:0|0:0,0:0:0:0:
117,267,47385,5,10,0:2:0:0:
184,62,47541,1,2,1:2:0:0:
0,97,47697,1,2,1:2:0:0:
214,190,47853,5,10,0:2:0:0:
80,22,48010,1,2,1:2:0:0:
24,207,48166,1,2,1:2:0:0:
267,109,48322,5,10,0:2:0:0:
0,97,48478,1,0,0:0:0:0:
116,267,48635,5,8,0:0:0:0:
143,299,48713,1,8,0:0:0:0:
180,318,48791,1,8,0:0:0:0:
222,322,48869,1,8,0:0:0:0:
262,309,48947,1,0,1:0:0:0:
294,282,49025,1,0,0:0:0:0:
321,249,49104,1,0,0:0:0:0:
358,230,49182,1,0,0:0:0:0:
400,226,49260,5,8,3:0:0:0:
441,235,49338,1,8,3:0:0:0:
480,219,49416,1,8,3:0:0:0:
502,184,49494,1,8,3:0:0:0:
501,142,49572,1,4,3:0:0:0:
476,109,49650,1,4,3:0:0:0:
436,96,49728,1,4,3:0:0:0:
396,108,49806,1,4,3:0:0:0:
370,141,49885,6,0,L|389:327,1,170,6|10,1:2|0:2,0:0:0:0:
213,231,50353,1,2,0:2:0:0:
213,231,50510,2,0,L|224:117,1,85,0|0,1:2|1:2,0:0:0:0:
128,92,50822,2,0,L|139:205,1,85,10|2,0:2|0:2,0:0:0:0:
315,44,51135,6,0,P|256:72|176:2,1,170,0|8,1:2|0:2,0:0:0:0:
400,8,51603,1,0,0:0:0:0:
400,8,51760,2,0,L|391:92,1,85,2|0,1:2|1:2,0:0:0:0:
484,156,52072,2,0,L|475:71,1,85,10|0,0:2|0:0,0:0:0:0:
327,143,52385,6,0,P|361:169|403:172,1,85,2|0,1:2|0:0,0:0:0:0:
475,71,52697,1,10,0:2:0:0:
391,92,52853,1,2,0:2:0:0:
475,240,53010,2,0,L|483:155,1,85,0|0,1:2|1:2,0:0:0:0:
395,259,53322,1,10,0:2:0:0:
395,259,53478,2,0,L|403:343,1,85,2|0,0:2|1:2,0:0:0:0:
210,199,53791,6,0,P|301:223|357:139,1,170,2|0,0:2|0:0,0:0:0:0:
320,59,54260,1,2,1:2:0:0:
274,145,54416,1,0,1:2:0:0:
404,67,54572,2,0,L|319:58,1,85,10|0,0:2|0:0,0:0:0:0:
119,174,54885,6,0,B|163:135|163:135|287:146,1,170,2|10,1:2|0:2,0:0:0:0:
194,303,55353,1,2,0:2:0:0:
194,303,55510,2,0,L|188:219,1,85,0|0,1:2|1:2,0:0:0:0:
352,160,55822,2,0,L|345:244,1,85,10|2,0:2|0:2,0:0:0:0:
273,144,56135,5,0,1:2:0:0:
427,124,56291,1,0,0:0:0:0:
261,231,56447,2,0,L|176:224,1,85,8|2,0:2|0:2,0:0:0:0:
14,210,56760,1,2,1:2:0:0:
148,300,56916,1,2,1:2:0:0:
125,161,57072,2,0,P|100:194|97:236,1,85,8|2,0:2|0:0,0:0:0:0:
228,334,57385,6,0,B|306:326|306:326|332:336|332:336|407:328,1,170,0|10,1:2|0:2,0:0:0:0:
341,176,57853,1,2,0:0:0:0:
341,176,58010,2,0,P|332:223|357:263,1,85,0|2,1:2|1:2,0:0:0:0:
471,154,58322,2,0,P|441:125|400:121,1,85,8|2,0:2|0:0,0:0:0:0:
253,187,58635,5,8,1:2:0:0:
213,202,58713,1,8,0:0:0:0:
171,199,58791,1,10,0:0:0:0:
134,179,58869,1,8,0:0:0:0:
109,145,58947,1,8,1:2:0:0:
81,114,59026,1,8,0:0:0:0:
40,113,59104,1,8,0:0:0:0:
11,142,59182,1,8,0:0:0:0:
13,183,59260,6,0,L|5:245,3,42.5,4|4|4|4,3:0|3:0|3:0|3:0,0:0:0:0:
65,284,59572,2,0,B|84:265|84:265|93:189,1,85,14|2,0:0|0:2,0:0:0:0:
95,34,59885,6,0,P|77:72|81:113,1,85,4|2,1:2|1:2,0:0:0:0:
221,136,60197,2,0,P|196:101|158:84,1,85,8|0,0:2|0:0,0:0:0:0:
198,215,60510,1,0,1:2:0:0:
278,197,60666,1,0,1:2:0:0:
264,361,60822,1,2,0:0:0:0:
264,361,60978,6,0,L|257:277,1,85,10|0,0:2|0:0,0:0:0:0:
366,92,61291,2,0,L|359:176,1,85,2|8,1:2|0:2,0:0:0:0:
426,319,61603,2,0,L|419:235,1,85,2|0,0:0|1:2,0:0:0:0:
256,276,61916,2,0,L|340:269,1,85,2|8,1:2|0:2,0:0:0:0:
224,199,62228,6,0,L|140:206,1,85,2|0,0:0|1:2,0:0:0:0:
28,216,62541,1,2,1:2:0:0:
159,289,62697,1,10,0:2:0:0:
7,296,62853,1,2,0:0:0:0:
83,149,63010,1,2,1:2:0:0:
84,328,63166,1,0,1:2:0:0:
139,206,63322,1,0,0:0:0:0:
156,372,63478,6,0,L|240:365,1,85,8|0,0:2|0:0,0:0:0:0:
329,279,63791,2,0,L|244:285,1,85,0|8,1:2|0:2,0:0:0:0:
325,358,64103,2,0,L|409:351,1,85,0|0,0:0|1:2,0:0:0:0:
495,269,64416,1,0,1:2:0:0:
410,275,64572,1,8,0:2:0:0:
482,153,64728,1,8,0:2:0:0:
482,153,64806,1,8,0:2:0:0:
482,153,64885,6,0,B|508:180|508:180|494:269,1,127.5,4|0,1:2|0:0,0:0:0:0:
478,348,65197,5,10,0:2:0:0:
388,181,65353,1,2,1:2:0:0:
225,273,65510,5,8,0:2:0:0:
410,275,65666,1,0,1:2:0:0:
208,176,65822,5,10,0:2:0:0:
214,367,65978,1,2,1:2:0:0:
388,181,66135,5,8,0:2:0:0:
134,241,66291,1,0,1:2:0:0:
410,275,66447,5,10,0:2:0:0:
208,176,66603,1,2,1:2:0:0:
365,361,66760,5,8,0:2:0:0:
345,107,66916,1,0,0:0:0:0:
214,367,67072,1,8,0:0:0:0:
214,367,67150,1,8,3:0:0:0:
214,367,67228,2,0,L|212:301,1,42.5,8|8,3:0|3:0,0:0:0:0:
208,176,67385,5,12,0:0:0:0:
314,240,67541,1,0,1:0:0:0:
84,290,67697,1,0,1:0:0:0:
294,142,67853,5,12,0:0:0:0:
303,326,68010,1,0,1:0:0:0:
91,182,68166,1,0,1:0:0:0:
396,238,68322,5,8,0:0:0:0:
416,235,68400,1,8,3:0:0:0:
436,233,68478,1,8,3:0:0:0:
456,230,68556,1,8,3:0:0:0:
477,228,68635,1,8,0:0:0:0:
357,64,68791,6,0,B|300:59|300:59|259:85|259:85|186:80,1,170,4|4,1:0|1:0,0:0:0:0:
194,80,69885,6,0,L|213:190,1,110.499994941712,6|0,0:2|0:0,0:0:0:0:
387,267,70197,2,0,L|405:158,1,110.499994941712,10|2,0:2|0:2,0:0:0:0:
286,262,70510,1,0,0:0:0:0:
484,292,70666,1,0,0:0:0:0:
295,375,70822,2,0,L|186:356,1,110.499994941712,10|2,0:2|0:2,0:0:0:0:
174,201,71135,6,0,P|218:236|229:292,1,110.499994941712,0|0,0:0|0:0,0:0:0:0:
100,370,71447,2,0,P|108:314|151:276,1,110.499994941712,8|0,0:2|0:0,0:0:0:0:
76,122,71760,1,2,0:2:0:0:
45,222,71916,1,0,0:0:0:0:
170,96,72072,1,10,0:2:0:0:
254,145,72228,1,2,0:2:0:0:
160,310,72385,6,0,L|176:178,1,110.499994941712,6|0,0:2|0:0,0:0:0:0:
206,4,72697,1,10,0:2:0:0:
76,122,72853,1,2,0:2:0:0:
170,96,73010,1,0,0:0:0:0:
0,60,73166,1,2,0:2:0:0:
45,222,73322,6,0,B|136:214|136:214|171:239|171:239|264:229,1,220.999989883423,10|0,0:2|0:0,0:0:0:0:
486,310,73791,1,0,0:0:0:0:
486,310,73947,2,0,P|416:258|289:325,1,220.999989883423,10|0,0:2|0:0,0:0:0:0:
390,362,74416,1,0,0:0:0:0:
457,185,74572,1,10,0:2:0:0:
450,144,74650,1,8,0:2:0:0:
444,104,74728,1,0,0:2:0:0:
437,63,74806,1,0,0:2:0:0:
431,23,74885,6,0,L|280:16,1,110.499994941712,6|0,0:2|0:0,0:0:0:0:
139,3,75197,1,14,0:2:0:0:
303,101,75353,1,2,0:2:0:0:
78,114,75510,1,0,0:0:0:0:
188,74,75666,1,0,0:0:0:0:
83,224,75822,2,0,L|75:72,1,110.499994941712,10|0,0:2|0:0,0:0:0:0:
292,197,76135,6,0,L|284:348,1,110.499994941712,2|0,0:2|0:0,0:0:0:0:
211,144,76447,1,10,0:2:0:0:
380,154,76603,1,2,0:2:0:0:
207,242,76760,1,0,0:0:0:0:
298,102,76916,1,2,0:2:0:0:
374,264,77072,2,0,L|380:154,1,110.499994941712,8|2,0:2|0:2,0:0:0:0:
205,33,77385,6,0,L|210:143,1,110.499994941712,4|2,0:0|0:2,0:0:0:0:
223,337,77697,1,8,0:2:0:0:
292,197,77853,1,0,0:0:0:0:
292,197,78010,1,0,0:0:0:0:
135,297,78166,1,0,0:0:0:0:
318,380,78322,2,0,L|323:269,1,110.499994941712,8|0,0:2|0:0,0:0:0:0:
337,67,78635,5,0,0:0:0:0:
207,242,78791,1,0,0:0:0:0:
186,81,78947,1,8,0:2:0:0:
186,81,79103,1,0,0:0:0:0:
332,226,79260,6,0,L|428:218,1,55.2499974708558,10|8,0:2|0:2,0:0:0:0:
179,163,79416,2,0,L|83:155,1,55.2499974708558,8|10,0:2|0:2,0:0:0:0:
207,242,79572,5,8,0:2:0:0:
248,206,79650,1,8,0:2:0:0:
259,153,79728,1,10,0:2:0:0:
235,105,79806,1,8,0:2:0:0:
186,81,79885,6,0,L|48:68,1,110.499994941712,6|0,0:2|0:0,0:0:0:0:
255,13,80197,1,14,0:2:0:0:
344,143,80353,2,0,L|482:130,1,110.499994941712,2|0,0:2|0:0,0:0:0:0:
296,229,80666,1,0,0:0:0:0:
235,105,80822,1,10,0:2:0:0:
392,227,80978,6,0,L|384:369,1,110.499994941712,2|0,0:2|0:0,0:0:0:0:
185,273,81291,1,0,0:0:0:0:
185,273,81447,2,0,L|177:131,1,110.499994941712,8|0,0:2|0:0,0:0:0:0:
96,314,81760,1,2,0:2:0:0:
281,279,81916,1,0,0:0:0:0:
44,233,82072,1,10,0:2:0:0:
289,183,82228,1,2,0:2:0:0:
163,39,82385,6,0,L|155:181,1,110.499994941712,6|0,0:2|0:0,0:0:0:0:
159,328,82697,1,10,0:2:0:0:
37,122,82853,2,0,L|43:232,1,110.499994941712,2|0,0:2|0:0,0:0:0:0:
59,382,83166,1,2,0:2:0:0:
177,175,83322,6,0,B|269:162|269:162|313:183|313:183|397:171,1,220.999989883423,10|0,0:2|0:0,0:0:0:0:
328,79,83791,1,0,0:0:0:0:
246,261,83947,1,10,0:2:0:0:
391,171,84103,1,0,0:0:0:0:
177,175,84260,1,0,0:0:0:0:
361,287,84416,1,0,0:0:0:0:
198,73,84572,1,10,0:2:0:0:
158,80,84650,1,8,0:2:0:0:
118,86,84728,1,0,0:2:0:0:
77,93,84806,1,0,0:2:0:0:
37,99,84885,6,0,L|44:250,1,110.499994941712,6|0,0:2|0:0,0:0:0:0:
208,306,85197,1,14,0:2:0:0:
208,306,85353,2,0,P|159:263|94:261,1,110.499994941712,2|0,0:2|0:0,0:0:0:0:
11,360,85666,1,0,0:0:0:0:
11,360,85822,2,0,L|162:352,1,110.499994941712,10|0,0:2|0:0,0:0:0:0:
384,237,86135,6,0,L|232:229,1,110.499994941712,2|0,0:2|0:0,0:0:0:0:
78,225,86447,1,10,0:2:0:0:
186,104,86603,1,2,0:2:0:0:
176,305,86760,1,0,0:0:0:0:
93,77,86916,1,2,0:2:0:0:
65,310,87072,2,0,L|216:302,1,110.499994941712,8|2,0:2|0:2,0:0:0:0:
296,109,87385,6,0,L|144:101,1,110.499994941712,4|2,0:0|0:2,0:0:0:0:
335,198,87697,1,8,0:2:0:0:
342,25,87853,1,0,0:0:0:0:
185,103,88010,1,0,0:0:0:0:
296,109,88166,1,0,0:0:0:0:
145,15,88322,1,8,0:2:0:0:
83,156,88478,1,0,0:0:0:0:
228,302,88635,6,0,L|238:159,1,110.499994941712,2|0,0:2|0:0,0:0:0:0:
411,88,88947,2,0,L|421:231,1,110.499994941712,8|0,0:2|0:0,0:0:0:0:
153,140,89260,1,8,0:2:0:0:
179,109,89338,1,8,3:0:0:0:
216,92,89416,1,8,3:0:0:0:
256,91,89494,1,8,3:0:0:0:
294,107,89572,2,0,P|334:160|333:225,1,110.499994941712,8|0,0:2|0:0,0:0:0:0:
154,346,89885,5,12,0:2:0:0:
235,191,90041,1,0,0:0:0:0:
414,346,90197,5,8,0:2:0:0:
294,107,90353,1,0,0:0:0:0:
279,364,90510,5,8,0:2:0:0:
411,88,90666,1,0,0:0:0:0:
153,140,90822,5,8,0:2:0:0:
418,198,90978,1,0,0:0:0:0:
111,268,91135,5,8,0:2:0:0:
194,58,91291,1,0,0:0:0:0:
342,248,91447,5,8,0:2:0:0:
268,0,91603,1,0,0:0:0:0:
240,315,91760,5,8,0:2:0:0:
34,125,91916,1,0,0:0:0:0:
257,232,92072,5,8,0:2:0:0:
19,340,92228,1,0,0:0:0:0:
103,48,92385,5,12,0:2:0:0:
377,157,92541,1,0,0:0:0:0:
35,221,92697,1,0,0:0:0:0:
247,45,92853,5,12,0:2:0:0:
332,351,93010,1,0,0:0:0:0:
143,201,93166,1,0,0:0:0:0:
417,87,93322,5,8,0:2:0:0:
195,332,93478,1,8,0:2:0:0:
103,48,93635,1,4,0:2:0:0:
417,168,94885,6,0,L|423:257,1,85,4|2,1:2|0:2,0:0:0:0:
422,252,95119,1,2,0:2:0:0:
422,252,95197,1,10,0:2:0:0:
259,191,95353,1,2,0:0:0:0:
392,58,95510,2,0,P|332:114|235:77,1,170,2|10,1:2|0:2,0:0:0:0:
112,18,95978,1,2,0:0:0:0:
112,18,96056,1,10,0:2:0:0:
112,18,96135,6,0,L|118:103,1,85,2|2,1:2|1:2,0:0:0:0:
252,275,96447,2,0,L|258:191,1,85,10|0,0:2|0:0,0:0:0:0:
258,191,96681,1,8,0:2:0:0:
258,191,96760,1,2,1:2:0:0:
158,304,96916,1,2,1:2:0:0:
319,346,97072,1,10,0:2:0:0:
337,348,97150,1,8,0:2:0:0:
355,351,97228,1,8,0:2:0:0:
372,354,97306,1,8,0:2:0:0:
389,357,97385,6,0,L|380:267,1,85,0|2,1:2|0:2,0:0:0:0:
380,272,97619,1,2,0:2:0:0:
380,272,97697,1,10,0:2:0:0:
230,333,97853,1,2,0:0:0:0:
250,163,98010,2,0,L|241:247,1,85,2|0,1:2|0:0,0:0:0:0:
359,108,98322,2,0,L|368:192,1,85,10|2,0:2|0:0,0:0:0:0:
368,192,98556,1,10,0:2:0:0:
368,192,98635,5,2,1:2:0:0:
269,67,98791,1,2,1:2:0:0:
437,48,98947,1,10,0:2:0:0:
250,163,99103,1,0,0:0:0:0:
439,317,99260,1,10,1:2:0:0:
442,288,99338,1,8,0:2:0:0:
448,257,99416,1,8,0:2:0:0:
452,227,99494,1,8,0:2:0:0:
457,198,99572,5,10,1:2:0:0:
426,169,99650,1,8,0:0:0:0:
384,161,99728,1,8,0:0:0:0:
345,176,99806,1,8,0:0:0:0:
319,209,99885,6,0,P|288:239|212:241,1,85,4|2,1:2|0:2,0:0:0:0:
248,249,100119,1,2,0:2:0:0:
248,249,100197,1,10,0:2:0:0:
311,97,100353,1,2,0:0:0:0:
156,59,100510,2,0,L|165:143,1,85,2|0,1:2|0:0,0:0:0:0:
75,265,100822,2,0,L|84:181,1,85,10|2,0:2|0:0,0:0:0:0:
84,180,101056,1,10,0:2:0:0:
84,180,101135,5,2,1:2:0:0:
248,249,101291,1,2,1:2:0:0:
167,364,101447,2,0,L|158:280,1,85,10|0,0:2|0:0,0:0:0:0:
157,279,101681,1,8,0:2:0:0:
157,279,101760,1,2,1:2:0:0:
73,376,101916,1,2,1:2:0:0:
264,355,102072,1,10,0:2:0:0:
296,353,102150,1,8,0:2:0:0:
327,350,102228,1,8,0:2:0:0:
358,347,102306,1,8,0:2:0:0:
389,345,102385,6,0,L|384:276,1,42.5,2|0,1:2|0:0,0:0:0:0:
309,196,102541,2,0,L|303:265,1,42.5,2|0,0:2|0:2,0:0:0:0:
402,330,102697,6,0,L|396:262,1,42.5,10|0,0:2|0:0,0:0:0:0:
321,182,102853,2,0,L|315:251,1,42.5,2|8,0:0|0:2,0:0:0:0:
414,316,103010,6,0,L|408:248,1,42.5,2|0,1:2|0:0,0:0:0:0:
333,168,103166,2,0,L|327:237,1,42.5,2|0,1:2|0:0,0:0:0:0:
426,302,103322,6,0,L|420:234,1,42.5,10|0,0:2|0:0,0:0:0:0:
345,154,103478,2,0,L|339:223,1,42.5,2|8,0:0|0:2,0:0:0:0:
264,355,103635,5,2,1:2:0:0:
223,365,103713,1,8,0:0:0:0:
182,354,103791,1,10,0:0:0:0:
152,325,103869,1,8,0:0:0:0:
140,284,103947,2,0,L|141:144,1,127.5,2|0,1:2|0:0,0:0:0:0:
144,66,104260,5,10,0:0:0:0:
345,154,104416,1,8,0:0:0:0:
345,154,104885,6,0,L|215:180,1,106.25,14|2,0:2|1:2,0:0:0:0:
241,175,105119,1,2,0:2:0:0:
241,175,105197,1,2,1:2:0:0:
388,66,105353,1,10,0:2:0:0:
365,258,105510,2,0,L|339:128,1,106.25,2|0,1:2|0:0,0:0:0:0:
415,339,105822,2,0,P|364:352|314:337,1,106.25,10|2,0:2|1:2,0:0:0:0:
314,337,106056,1,2,0:2:0:0:
314,337,106135,5,2,1:2:0:0:
471,250,106291,1,10,0:2:0:0:
247,271,106447,2,0,L|132:262,1,106.25,2|0,1:2|1:2,0:0:0:0:
321,207,106760,1,10,0:2:0:0:
231,366,106916,1,2,1:2:0:0:
228,173,107072,5,8,0:2:0:0:
259,130,107150,1,0,0:0:0:0:
307,109,107228,1,0,1:2:0:0:
359,117,107306,1,0,0:0:0:0:
399,150,107385,6,0,L|391:257,1,106.25,14|2,0:2|1:2,0:0:0:0:
392,256,107619,1,2,0:2:0:0:
392,256,107697,1,2,1:2:0:0:
474,101,107853,1,10,0:2:0:0:
321,207,108010,2,0,L|215:199,1,106.25,2|0,1:2|0:0,0:0:0:0:
78,191,108322,1,10,0:2:0:0:
255,46,108478,5,2,1:2:0:0:
255,46,108556,1,2,0:2:0:0:
255,46,108635,2,0,L|362:38,1,106.25,2|0,1:2|0:0,0:0:0:0:
228,173,108947,1,2,1:2:0:0:
170,95,109103,1,0,1:2:0:0:
317,177,109260,1,10,0:0:0:0:
300,226,109338,1,8,3:0:0:0:
259,258,109416,1,8,3:0:0:0:
209,263,109494,1,8,3:0:0:0:
167,240,109572,2,0,B|136:185|136:185|169:94,1,159.375,12|0,0:0|0:0,0:0:0:0:
189,57,109884,5,14,0:2:0:0:
228,173,110041,1,2,1:2:0:0:
85,77,110197,1,10,0:2:0:0:
281,91,110353,1,2,1:2:0:0:
58,266,110510,2,0,L|50:161,1,106.25,10|0,0:2|1:2,0:0:0:0:
209,263,110822,2,0,L|201:369,1,106.25,10|2,0:2|1:2,0:0:0:0:
201,368,111056,1,2,0:2:0:0:
201,368,111135,5,10,0:2:0:0:
138,218,111291,1,2,1:2:0:0:
288,318,111447,2,0,L|393:309,1,106.25,10|0,0:2|1:2,0:0:0:0:
512,161,111760,5,10,0:2:0:0:
343,222,111916,1,2,1:2:0:0:
453,84,112072,5,8,0:2:0:0:
393,308,112228,1,0,1:2:0:0:
328,126,112385,5,14,0:2:0:0:
291,140,112463,1,0,0:0:0:0:
264,168,112541,1,2,1:2:0:0:
249,204,112619,1,0,0:0:0:0:
250,243,112697,6,0,L|243:306,1,53.125,10|0,0:2|0:0,0:0:0:0:
170,366,112853,2,0,L|162:303,1,53.125,2|0,1:2|0:0,0:0:0:0:
262,234,113010,6,0,L|254:296,1,53.125,10|0,0:2|0:0,0:0:0:0:
155,375,113166,2,0,L|147:312,1,53.125,2|0,1:2|0:0,0:0:0:0:
137,168,113322,5,10,0:2:0:0:
52,305,113478,1,2,0:0:0:0:
262,234,113635,5,10,1:2:0:0:
40,183,113791,1,10,1:2:0:0:
325,162,113947,1,10,1:2:0:0:
23,87,114103,1,10,1:2:0:0:
133,285,114260,5,10,1:2:0:0:
195,27,114416,1,10,1:2:0:0:
290,326,114572,1,10,1:2:0:0:
282,59,114728,1,14,1:2:0:0:
