osu file format v14

[General]
AudioFilename: audio.mp3
AudioLeadIn: 0
PreviewTime: 69103
Countdown: 0
SampleSet: Soft
StackLeniency: 0.5
Mode: 0
LetterboxInBreaks: 0
WidescreenStoryboard: 1

[Editor]
Bookmarks: 33322,39260,39416,43556,59885
DistanceSpacing: 1
BeatDivisor: 2
GridSize: 32
TimelineZoom: 2.1

[Metadata]
Title:5150
TitleUnicode:5150
Artist:THE ORAL CIGARETTES
ArtistUnicode:THE ORAL CIGARETTES
Creator:Nevo
Version:AyanokoRin's Normal
Source:
Tags:sotarks mir ayanokorin yukiyo hypercyte snownino_
BeatmapID:1725587
BeatmapSetID:818778

[Difficulty]
HPDrainRate:3
CircleSize:3
OverallDifficulty:4
ApproachRate:5
SliderMultiplier:1
SliderTickRate:1

[Events]
//Background and Video events
0,0,"69371129_p0.jpg",0,0
//Break Periods
2,20241,21185
2,22741,23685
//Storyboard Layer 0 (Background)
//Storyboard Layer 1 (Fail)
//Storyboard Layer 2 (Pass)
//Storyboard Layer 3 (Foreground)
//Storyboard Sound Samples

[TimingPoints]
19885,312.5,4,2,22,42,1,0
20197,-100,4,2,22,32,0,0
22385,-100,4,2,22,42,0,0
22697,-100,4,2,22,32,0,0
24885,-100,4,2,22,42,0,0
29572,-100,4,2,22,32,0,0
29885,-100,4,2,22,52,0,0
39572,-100,4,2,22,32,0,0
39885,-100,4,2,22,52,0,0
49885,-100,4,2,22,42,0,0
64885,-100,4,2,22,52,0,0
67385,-100,4,2,22,62,0,0
69260,-100,4,2,22,32,0,0
69416,-100,4,2,22,5,0,0
69494,-100,4,2,22,42,0,0
69650,-100,4,2,22,5,0,0
69728,-100,4,2,22,42,0,0
69806,-100,4,2,22,5,0,0
69885,-95.2380952380952,4,1,22,72,0,1
93635,-95.2380952380952,4,1,22,62,0,0
93713,-95.2380952380952,4,1,22,42,0,0
93947,-95.2380952380952,4,2,22,42,0,0
94572,-95.2380952380952,4,2,22,32,0,0
94885,-100,4,2,22,62,0,0
104572,-100,4,2,22,32,0,0
104885,-100,4,2,22,52,0,1
109885,-90.9090909090909,4,2,22,52,0,1
114728,-90.9090909090909,4,2,22,52,0,0
117385,-90.9090909090909,4,2,22,5,0,0

[Colours]
Combo1 : 255,198,155
Combo2 : 187,187,255
Combo3 : 255,252,147

[HitObjects]
155,264,19885,5,10,0:2:0:0:
155,264,20041,1,10,0:2:0:0:
421,295,22385,5,8,0:2:0:0:
421,295,22541,1,8,0:2:0:0:
59,289,24885,6,0,P|114:273|177:278,1,100,14|0,0:2|1:2,0:0:0:0:
199,298,25353,1,10,0:2:0:0:
295,271,25666,1,0,1:2:0:0:
295,271,25822,2,0,L|288:154,1,100,10|0,0:2|1:2,0:0:0:0:
262,128,26291,1,10,0:2:0:0:
325,50,26603,1,0,1:2:0:0:
369,73,26760,2,0,L|432:66,1,50,12|0,0:2|1:2,0:0:0:0:
466,80,27072,1,12,0:2:0:0:
431,174,27385,6,0,L|439:228,1,50,8|8,1:2|0:2,0:0:0:0:
460,268,27697,2,0,L|452:317,1,50,8|8,0:2|1:2,0:0:0:0:
414,349,28010,2,0,P|359:318|297:331,1,100,8|8,0:2|1:2,0:0:0:0:
280,344,28478,2,0,L|206:320,1,50,8|10,0:2|0:2,0:0:0:0:
182,336,28791,2,0,L|172:398,2,50,8|10|8,1:2|0:2|0:2,0:0:0:0:
165,288,29260,1,2,1:2:0:0:
8,384,29885,6,0,L|16:317,1,50,4|2,1:2|0:2,0:0:0:0:
0,286,30197,2,0,L|-11:216,1,50,10|2,0:2|0:0,0:0:0:0:
1,187,30510,1,2,1:2:0:0:
78,123,30822,2,0,L|145:131,1,50,10|2,0:2|0:0,0:0:0:0:
176,115,31134,2,0,L|246:104,1,50,2|2,1:2|1:2,0:0:0:0:
274,116,31447,1,10,0:2:0:0:
346,185,31760,1,2,1:2:0:0:
346,185,31916,2,0,L|328:300,1,100,2|8,1:2|0:2,0:0:0:0:
356,327,32385,6,0,L|423:343,1,50,0|2,1:2|0:2,0:0:0:0:
438,374,32697,2,0,L|492:356,1,50,10|2,0:2|0:0,0:0:0:0:
509,314,33010,1,2,1:2:0:0:
475,219,33322,2,0,L|469:169,1,50,10|2,0:2|0:0,0:0:0:0:
483,121,33634,2,0,L|490:71,1,50,2|2,1:2|1:2,0:0:0:0:
482,23,33947,1,10,0:2:0:0:
383,38,34260,1,10,1:2:0:0:
383,38,34416,2,0,L|338:-20,2,50,8|10|8,0:2|1:2|0:0,0:0:0:0:
368,86,34885,6,0,L|379:154,1,50,4|2,1:2|0:2,0:0:0:0:
395,181,35197,2,0,L|384:249,1,50,10|2,0:2|0:0,0:0:0:0:
357,270,35510,1,2,1:2:0:0:
269,222,35822,2,0,L|201:211,1,50,10|2,0:2|0:0,0:0:0:0:
174,195,36134,2,0,L|106:206,1,50,2|2,1:2|1:2,0:0:0:0:
85,233,36447,1,10,0:2:0:0:
113,329,36760,1,2,1:2:0:0:
113,329,36916,2,0,P|184:313|232:327,1,100,2|8,1:2|0:2,0:0:0:0:
252,344,37385,5,2,1:2:0:0:
343,304,37697,2,0,L|401:306,1,50,10|2,0:2|0:0,0:0:0:0:
440,321,38010,1,2,1:2:0:0:
499,240,38322,1,10,0:2:0:0:
432,165,38635,2,0,L|452:102,2,50,2|10|2,1:2|0:0|1:2,0:0:0:0:
345,215,39260,1,10,0:0:0:0:
345,215,39416,1,8,0:0:0:0:
204,162,39885,6,0,L|154:156,1,50,4|2,1:2|0:2,0:0:0:0:
106,170,40197,2,0,L|56:177,1,50,10|2,0:2|0:0,0:0:0:0:
8,169,40510,1,2,1:2:0:0:
50,78,40822,2,0,L|99:83,1,50,10|2,0:2|0:0,0:0:0:0:
148,70,41134,2,0,L|197:62,1,50,2|2,1:2|1:2,0:0:0:0:
246,71,41447,1,10,0:2:0:0:
339,35,41760,1,2,1:2:0:0:
339,35,41916,2,0,P|385:54|454:39,1,100,2|8,1:2|0:2,0:0:0:0:
478,26,42385,6,0,L|505:88,1,50,0|2,1:2|0:2,0:0:0:0:
492,121,42697,2,0,L|465:183,1,50,10|2,0:2|0:0,0:0:0:0:
479,216,43010,1,2,1:2:0:0:
421,297,43322,2,0,L|359:324,1,50,10|2,0:2|0:0,0:0:0:0:
326,311,43634,2,0,L|264:284,1,50,2|2,1:2|1:2,0:0:0:0:
231,298,43947,1,10,0:2:0:0:
136,266,44260,2,0,L|125:217,1,50,10|8,1:2|0:2,0:0:0:0:
170,196,44572,2,0,L|180:147,1,50,10|8,1:2|0:0,0:0:0:0:
146,110,44885,6,0,L|178:52,1,50,0|2,1:2|0:2,0:0:0:0:
181,17,45197,2,0,L|244:-1,1,50,10|2,0:2|0:0,0:0:0:0:
278,11,45510,1,2,1:2:0:0:
308,106,45822,2,0,L|276:164,1,50,10|2,0:2|0:0,0:0:0:0:
273,199,46134,2,0,L|209:217,1,50,2|2,1:2|1:2,0:0:0:0:
176,205,46447,1,10,0:2:0:0:
78,225,46760,2,0,L|73:291,1,50,8|8,3:0|3:0,0:0:0:0:
45,315,47072,1,14,0:0:0:0:
135,357,47385,6,0,P|195:363|266:335,1,100,10|2,0:2|1:2,0:0:0:0:
272,322,47853,2,0,P|320:311|369:318,1,100,10|2,0:2|1:2,0:0:0:0:
411,346,48322,1,10,0:2:0:0:
477,270,48635,2,0,L|535:269,2,50,8|8|0,0:0|0:0|1:0,0:0:0:0:
398,207,49260,2,0,L|386:146,1,50,8|8,3:0|3:0,0:0:0:0:
407,111,49572,1,4,3:0:0:0:
354,25,49885,5,6,1:2:0:0:
256,46,50197,1,10,0:2:0:0:
244,145,50510,2,0,L|177:172,1,50,0|0,1:2|1:2,0:0:0:0:
148,154,50822,1,10,0:2:0:0:
64,209,51135,1,0,1:2:0:0:
102,301,51447,1,8,0:2:0:0:
201,285,51760,2,0,L|257:294,1,50,2|0,1:2|1:2,0:0:0:0:
292,320,52072,1,10,0:2:0:0:
373,261,52385,5,2,1:2:0:0:
461,307,52697,1,10,0:2:0:0:
503,216,53010,2,0,L|494:162,1,50,0|0,1:2|1:2,0:0:0:0:
473,121,53322,1,10,0:2:0:0:
492,75,53478,2,0,L|542:51,2,50,2|0|2,0:2|1:2|0:2,0:0:0:0:
447,51,53947,1,8,0:2:0:0:
354,89,54260,2,0,L|281:79,1,50,2|0,1:2|1:2,0:0:0:0:
260,58,54572,1,10,0:2:0:0:
170,102,54885,5,2,1:2:0:0:
204,195,55197,1,10,0:2:0:0:
144,275,55510,2,0,L|154:337,1,50,0|0,1:2|1:2,0:0:0:0:
191,354,55822,1,10,0:2:0:0:
278,305,56135,1,0,1:2:0:0:
367,349,56447,1,8,0:2:0:0:
463,322,56760,2,0,L|462:237,1,50,2|2,1:2|1:2,0:0:0:0:
393,199,57228,6,0,P|407:139|399:88,1,100,2|0,0:0|0:0,0:0:0:0:
390,53,57697,1,10,0:2:0:0:
297,92,58010,2,0,L|230:82,1,50,0|2,1:2|1:2,0:0:0:0:
202,105,58322,1,8,0:2:0:0:
228,201,58635,2,0,L|208:283,1,50,8|10,1:2|0:0,0:0:0:0:
176,280,58947,2,0,L|196:362,1,50,8|8,1:2|0:0,0:0:0:0:
213,371,59260,1,4,3:0:0:0:
113,382,59572,1,14,0:0:0:0:
33,320,59885,6,0,L|43:257,1,50,4|2,1:2|1:2,0:0:0:0:
30,221,60197,1,8,0:2:0:0:
84,136,60510,1,0,1:2:0:0:
84,136,60666,1,0,1:2:0:0:
176,173,60978,2,0,L|293:151,1,100,10|2,0:2|1:2,0:0:0:0:
309,118,61447,1,8,0:2:0:0:
247,39,61760,2,0,L|170:44,1,50,0|2,1:2|1:2,0:0:0:0:
151,22,62072,1,8,0:2:0:0:
50,17,62385,6,0,L|34:89,1,50,0|2,1:2|1:2,0:0:0:0:
55,112,62697,1,10,0:2:0:0:
147,151,63010,1,2,1:2:0:0:
147,151,63166,1,0,1:2:0:0:
110,244,63478,2,0,P|152:277|168:329,1,100,8|0,0:2|1:2,0:0:0:0:
151,367,63947,1,8,0:2:0:0:
251,372,64260,2,0,L|316:355,1,50,0|0,1:2|1:2,0:0:0:0:
333,322,64572,2,0,L|424:334,1,50,8|8,0:2|0:2,0:0:0:0:
427,351,64885,6,0,P|470:314|474:241,1,100,4|10,1:2|0:2,0:0:0:0:
459,228,65353,1,2,1:2:0:0:
429,187,65510,2,0,L|301:198,1,100,8|10,0:2|0:2,0:0:0:0:
282,178,65978,1,2,1:2:0:0:
235,160,66135,1,8,0:2:0:0:
147,207,66447,1,10,0:2:0:0:
147,207,66603,2,0,L|79:195,1,50,2|8,1:2|0:2,0:0:0:0:
35,119,67072,2,0,L|35:60,1,50,8|8,0:0|3:0,0:0:0:0:
70,33,67385,6,0,L|129:43,1,50,12|0,0:0|1:0,0:0:0:0:
161,67,67697,1,0,1:0:0:0:
206,86,67853,2,0,L|291:77,1,50,12|0,0:0|1:0,0:0:0:0:
298,54,68166,1,0,1:0:0:0:
338,25,68322,1,8,0:0:0:0:
426,72,68635,1,8,0:0:0:0:
426,72,68791,2,0,P|408:120|417:197,1,100,4|4,1:0|1:0,0:0:0:0:
510,381,69885,6,0,P|442:342|377:341,1,104.999996795654,6|10,0:2|0:2,0:0:0:0:
364,341,70353,1,2,0:2:0:0:
311,344,70510,2,0,P|224:322|187:284,1,104.999996795654,0|10,0:0|0:2,0:0:0:0:
199,263,70978,2,0,L|240:129,1,104.999996795654,2|0,0:2|0:0,0:0:0:0:
229,109,71447,1,8,0:2:0:0:
128,77,71760,2,0,L|104:-2,2,78.7499975967408,2|2|2,0:2|0:2|0:2,0:0:0:0:
113,127,72385,6,0,P|56:154|27:197,1,104.999996795654,6|10,0:2|0:2,0:0:0:0:
26,238,72853,2,0,L|-46:267,2,52.4999983978272,2|0|2,0:2|0:0|0:2,0:0:0:0:
78,238,73322,1,10,0:2:0:0:
131,327,73635,2,0,L|205:317,1,52.4999983978272,0|0,0:0|0:0,0:0:0:0:
226,290,73947,1,10,0:2:0:0:
321,333,74260,1,0,0:0:0:0:
420,300,74572,2,0,L|405:229,1,52.4999983978272,10|0,0:2|0:2,0:0:0:0:
435,203,74885,6,0,P|382:171|364:125,1,104.999996795654,6|14,0:2|0:2,0:0:0:0:
365,80,75353,1,2,0:2:0:0:
363,27,75510,1,0,0:0:0:0:
259,11,75822,1,10,0:2:0:0:
182,83,76135,2,0,L|55:64,1,104.999996795654,2|10,0:2|0:2,0:0:0:0:
29,86,76603,1,2,0:2:0:0:
18,190,76916,2,0,L|-16:255,2,52.4999983978272,2|8|2,0:2|0:2|0:2,0:0:0:0:
66,168,77385,5,4,0:0:0:0:
116,152,77541,2,0,L|186:158,1,52.4999983978272,2|8,0:2|0:2,0:0:0:0:
242,231,78010,2,0,L|311:221,1,52.4999983978272,0|0,0:0|0:0,0:0:0:0:
340,199,78322,1,8,0:2:0:0:
438,234,78635,2,0,L|500:197,1,52.4999983978272,0|0,0:0|0:0,0:0:0:0:
505,159,78947,1,8,0:2:0:0:
427,87,79260,2,0,L|374:100,1,52.4999983978272,10|8,0:2|0:2,0:0:0:0:
334,67,79572,2,0,L|268:53,1,52.4999983978272,8|10,0:2|0:2,0:0:0:0:
235,80,79885,6,0,P|243:134|222:222,1,104.999996795654,6|14,0:2|0:2,0:0:0:0:
196,217,80353,1,2,0:2:0:0:
154,249,80510,2,0,L|23:230,1,104.999996795654,0|10,0:0|0:2,0:0:0:0:
10,199,80978,2,0,P|38:151|38:73,1,104.999996795654,2|0,0:2|0:0,0:0:0:0:
20,55,81447,1,8,0:2:0:0:
124,41,81760,2,0,L|150:133,2,78.7499975967408,2|2|2,0:2|0:2|0:2,0:0:0:0:
155,0,82385,6,0,P|212:18|274:8,1,104.999996795654,6|10,0:2|0:2,0:0:0:0:
307,3,82853,2,0,L|363:9,1,52.4999983978272,2|0,0:2|0:0,0:0:0:0:
405,34,83166,1,2,0:2:0:0:
449,62,83322,1,10,0:2:0:0:
402,156,83635,1,0,0:0:0:0:
437,254,83947,1,10,0:2:0:0:
349,313,84260,1,0,0:0:0:0:
259,257,84572,2,0,L|190:266,1,52.4999983978272,10|0,0:2|0:2,0:0:0:0:
167,298,84885,6,0,P|114:291|76:251,1,104.999996795654,6|14,0:2|0:2,0:0:0:0:
68,204,85353,1,2,0:2:0:0:
57,152,85510,1,0,0:0:0:0:
103,58,85822,1,10,0:2:0:0:
204,86,86135,2,0,L|265:77,1,52.4999983978272,2|0,0:2|0:0,0:0:0:0:
299,49,86447,1,10,0:2:0:0:
343,21,86603,1,2,0:2:0:0:
441,58,86916,1,2,0:2:0:0:
441,58,87072,1,8,0:2:0:0:
398,154,87385,6,0,L|406:213,1,52.4999983978272,4|2,0:0|0:2,0:0:0:0:
435,248,87697,1,8,0:2:0:0:
376,335,88010,2,0,L|307:325,1,52.4999983978272,0|0,0:0|0:0,0:0:0:0:
272,336,88322,1,8,0:2:0:0:
192,266,88635,2,0,P|126:276|84:247,1,104.999996795654,2|8,0:2|0:2,0:0:0:0:
64,216,89103,1,0,0:0:0:0:
36,170,89260,2,0,L|44:103,1,52.4999983978272,8|8,0:2|3:0,0:0:0:0:
17,71,89572,1,8,0:2:0:0:
116,35,89885,6,0,P|171:55|233:31,1,104.999996795654,12|8,0:2|0:2,0:0:0:0:
255,11,90353,2,0,P|305:0|353:20,1,104.999996795654,0|0,0:0|0:0,0:0:0:0:
383,63,90822,2,0,L|368:206,1,104.999996795654,8|8,0:2|0:2,0:0:0:0:
320,259,91447,1,8,0:2:0:0:
320,259,91603,2,0,P|255:245|177:262,1,104.999996795654,0|0,0:0|0:0,0:0:0:0:
172,277,92072,2,0,L|112:270,1,52.4999983978272,8|0,0:2|0:0,0:0:0:0:
86,229,92385,6,0,L|93:159,2,52.4999983978272,12|0|0,0:2|0:0|0:0,0:0:0:0:
42,257,92853,2,0,L|35:327,2,52.4999983978272,12|0|0,0:2|0:0|0:0,0:0:0:0:
6,218,93322,2,0,L|2:155,1,52.4999983978272,8|8,0:2|0:2,0:0:0:0:
13,113,93635,1,4,0:2:0:0:
119,15,94885,6,0,L|127:82,1,50,4|2,1:2|0:2,0:0:0:0:
111,113,95197,2,0,L|100:183,1,50,10|2,0:2|0:0,0:0:0:0:
112,212,95510,1,2,1:2:0:0:
110,311,95822,2,0,L|177:303,1,50,10|2,0:2|0:0,0:0:0:0:
208,319,96134,2,0,L|278:330,1,50,2|2,1:2|1:2,0:0:0:0:
306,318,96447,1,10,0:2:0:0:
328,220,96760,1,2,1:2:0:0:
328,220,96916,2,0,L|310:105,1,100,2|8,1:2|0:2,0:0:0:0:
326,73,97385,6,0,L|393:57,1,50,0|2,1:2|0:2,0:0:0:0:
408,26,97697,2,0,L|462:44,1,50,10|2,0:2|0:0,0:0:0:0:
479,86,98010,1,2,1:2:0:0:
489,185,98322,2,0,L|483:235,1,50,10|2,0:2|0:0,0:0:0:0:
497,283,98634,2,0,L|504:333,1,50,2|2,1:2|1:2,0:0:0:0:
496,381,98947,1,10,0:2:0:0:
403,342,99260,1,10,1:2:0:0:
403,342,99416,2,0,L|358:400,2,50,8|10|8,0:2|1:2|0:0,0:0:0:0:
390,293,99885,6,0,L|401:225,1,50,4|2,1:2|0:2,0:0:0:0:
417,198,100197,2,0,L|406:130,1,50,10|2,0:2|0:0,0:0:0:0:
379,109,100510,1,2,1:2:0:0:
294,162,100822,2,0,L|226:173,1,50,10|2,0:2|0:0,0:0:0:0:
199,189,101134,2,0,L|131:178,1,50,2|2,1:2|1:2,0:0:0:0:
110,151,101447,1,10,0:2:0:0:
113,55,101760,1,2,1:2:0:0:
113,55,101916,2,0,P|184:71|232:57,1,100,2|8,1:2|0:2,0:0:0:0:
252,40,102385,5,2,1:2:0:0:
343,80,102697,2,0,L|401:78,1,50,10|2,0:2|0:0,0:0:0:0:
440,63,103010,1,2,1:2:0:0:
499,144,103322,1,10,0:2:0:0:
432,219,103635,2,0,L|452:282,2,50,2|10|2,1:2|0:0|1:2,0:0:0:0:
345,169,104260,1,10,0:0:0:0:
345,169,104416,1,8,0:0:0:0:
326,317,104885,6,0,P|273:337|216:328,1,100,14|2,0:2|1:2,0:0:0:0:
184,315,105353,2,0,P|134:312|88:331,1,100,10|0,0:2|0:0,0:0:0:0:
52,366,105822,2,0,L|23:242,1,100,10|2,0:2|1:2,0:0:0:0:
2,225,106291,2,0,P|35:178|38:108,1,100,10|0,0:2|1:2,0:0:0:0:
36,86,106760,1,10,0:2:0:0:
127,45,107072,1,8,0:2:0:0:
208,102,107385,6,0,P|263:89|332:109,1,100,14|2,0:2|1:2,0:0:0:0:
342,128,107853,2,0,L|354:242,1,100,10|0,0:2|0:0,0:0:0:0:
387,263,108322,2,0,P|447:268|497:248,1,100,10|2,0:2|1:2,0:0:0:0:
507,211,108791,2,0,P|479:160|489:88,1,100,8|0,0:2|1:2,0:0:0:0:
495,71,109260,2,0,L|483:13,1,50,10|8,0:0|3:0,0:0:0:0:
439,1,109572,1,12,0:0:0:0:
344,57,109885,6,0,L|271:48,1,55.0000016784668,14|2,0:2|1:2,0:0:0:0:
239,73,110197,2,0,L|150:78,1,55.0000016784668,10|2,0:2|1:2,0:0:0:0:
134,52,110510,1,10,0:2:0:0:
62,135,110822,2,0,L|68:198,1,55.0000016784668,10|2,0:2|1:2,0:0:0:0:
103,231,111135,2,0,L|92:305,1,55.0000016784668,10|2,0:2|1:2,0:0:0:0:
62,330,111447,1,10,0:2:0:0:
163,372,111760,1,10,0:2:0:0:
163,372,111916,2,0,P|221:343|279:351,1,110.000003356934,2|0,1:2|1:2,0:0:0:0:
314,369,112385,6,0,L|351:315,1,55.0000016784668,14|2,0:2|1:2,0:0:0:0:
395,302,112697,2,0,L|382:233,1,55.0000016784668,10|2,0:2|1:2,0:0:0:0:
414,201,113010,2,0,L|347:148,1,55.0000016784668,10|2,0:2|1:2,0:0:0:0:
366,112,113322,1,10,0:2:0:0:
255,115,113635,2,0,L|195:95,1,55.0000016784668,10|10,1:2|1:2,0:0:0:0:
163,59,113947,2,0,L|89:78,1,55.0000016784668,10|10,1:2|1:2,0:0:0:0:
79,118,114260,2,0,L|95:211,2,55.0000016784668,10|10|10,1:2|1:2|1:2,0:0:0:0:
30,92,114728,5,14,1:2:0:0:
