osu file format v14

[General]
AudioFilename: audio.mp3
AudioLeadIn: 0
PreviewTime: 69440
Countdown: 0
SampleSet: None
StackLeniency: 0.8
Mode: 0
LetterboxInBreaks: 0
WidescreenStoryboard: 1

[Editor]
Bookmarks: 19440,29440,49440,69440,93190,94440,104440,114440,126940,146940,154440,174440,184440,189440,209440,214440,224440,234440
DistanceSpacing: 2.1
BeatDivisor: 4
GridSize: 32
TimelineZoom: 2.6

[Metadata]
Title:5150
TitleUnicode:5150
Artist:THE ORAL CIGARETTES
ArtistUnicode:THE ORAL CIGARETTES
Creator:MoonLightOri
Version:FukutoTojido's Extra
Source:
Tags:toc a-sketch long ver japanese rock
BeatmapID:2151560
BeatmapSetID:1024769

[Difficulty]
HPDrainRate:6
CircleSize:3.8
OverallDifficulty:9.3
ApproachRate:9.5
SliderMultiplier:1.8
SliderTickRate:1

[Events]
//Background and Video events
0,0,"bg.jpg",0,0
//Break Periods
2,19796,21415
2,22296,23915
2,124640,125790
//Storyboard Layer 0 (Background)
//Storyboard Layer 1 (Fail)
//Storyboard Layer 2 (Pass)
//Storyboard Layer 3 (Foreground)
//Storyboard Layer 4 (Overlay)
//Storyboard Sound Samples

[TimingPoints]
19440,312.5,4,2,1,50,1,0
29440,-66.6666666666667,4,2,1,50,0,0
38502,-133.333333333333,4,2,1,50,0,0
39440,-66.6666666666667,4,2,1,50,0,0
46315,-133.333333333333,4,2,1,50,0,0
46940,-100,4,2,1,50,0,0
69440,-66.6666666666667,4,2,1,70,0,1
93190,-200,4,2,1,60,0,0
94440,-66.6666666666667,4,2,1,60,0,0
104440,-100,4,2,1,60,0,0
114127,-200,4,2,1,60,0,0
114440,-100,4,2,1,60,0,0
126940,-66.6666666666667,4,2,1,70,0,1
146940,-133.333333333333,4,2,1,60,0,0
154440,-400,4,2,1,60,0,0
174440,-133.333333333333,4,2,1,60,0,0
184440,-100,4,2,1,60,0,0
188815,-133.333333333333,4,2,1,60,0,0
189440,-66.6666666666667,4,2,1,75,0,1
214127,-200,4,2,1,75,0,1
214440,-66.6666666666667,4,2,1,60,0,0
224440,-66.6666666666667,4,2,1,60,0,1
234440,-66.6666666666667,4,2,1,60,0,0

[HitObjects]
126,133,19440,5,8,0:0:0:0:
393,96,19596,1,8,0:0:0:0:
407,293,21940,5,8,0:0:0:0:
125,252,22096,1,8,0:0:0:0:
63,122,24440,6,0,P|132:148|217:73,1,180,12|0,0:0|0:0,0:0:0:0:
124,40,24908,1,8,0:0:0:0:
189,170,25065,2,0,L|197:285,1,90,0|0,0:0|0:0,0:0:0:0:
361,136,25377,1,8,0:0:0:0:
296,266,25534,2,0,L|288:381,1,90,0|0,0:0|0:0,0:0:0:0:
51,86,25846,1,8,0:0:0:0:
116,216,26003,2,0,L|124:331,1,90,0|0,0:0|0:0,0:0:0:0:
303,106,26315,5,8,0:0:0:0:
107,151,26471,1,0,0:0:0:0:
243,321,26627,2,0,L|249:223,1,90,8|0,0:0|0:0,0:0:0:0:
257,83,26940,5,8,0:0:0:0:
293,57,27018,1,8,0:0:0:0:
337,53,27096,1,8,0:0:0:0:
378,72,27174,1,8,0:0:0:0:
404,108,27252,2,0,P|434:120|473:116,1,45,8|8,0:0|0:0,0:0:0:0:
495,278,27408,5,8,0:0:0:0:
450,270,27486,1,8,0:0:0:0:
406,263,27564,1,8,0:0:0:0:
361,256,27642,1,8,0:0:0:0:
317,249,27721,2,0,L|325:304,1,45,8|8,0:0|0:0,0:0:0:0:
188,377,27877,5,8,0:0:0:0:
144,384,27955,1,8,0:0:0:0:
106,361,28033,1,8,0:0:0:0:
93,319,28111,1,8,0:0:0:0:
111,279,28190,2,0,P|122:245|119:214,1,45,8|8,0:0|0:0,0:0:0:0:
38,59,28346,5,8,0:0:0:0:
78,77,28424,1,8,0:0:0:0:
123,77,28502,1,8,0:0:0:0:
163,58,28580,1,8,0:0:0:0:
192,24,28658,2,0,P|221:10|255:19,1,45,8|8,0:0|0:0,0:0:0:0:
390,72,28815,5,8,0:0:0:0:
419,81,29127,2,0,L|408:178,1,90,0|0,0:0|0:0,0:0:0:0:
388,320,29440,5,4,0:0:0:0:
166,204,29596,1,0,0:0:0:0:
166,204,29674,1,0,0:0:0:0:
166,204,29752,1,8,0:0:0:0:
265,345,29908,1,0,0:0:0:0:
228,88,30065,2,0,P|165:65|99:87,1,135.000005149842,0|0,0:0|0:0,0:0:0:0:
41,188,30377,5,8,0:0:0:0:
267,102,30533,1,0,0:0:0:0:
267,102,30611,1,0,0:0:0:0:
267,102,30690,1,0,0:0:0:0:
129,53,30846,1,0,0:0:0:0:
190,196,31002,2,0,P|266:230|326:206,1,135.000005149842,8|0,0:0|0:0,0:0:0:0:
398,117,31315,5,0,0:0:0:0:
441,307,31471,1,0,0:0:0:0:
298,214,31627,1,8,0:0:0:0:
255,188,31705,1,8,0:0:0:0:
204,187,31783,1,8,0:0:0:0:
160,210,31861,1,8,0:0:0:0:
134,253,31939,5,4,0:0:0:0:
97,42,32096,1,0,0:0:0:0:
97,42,32174,1,0,0:0:0:0:
97,42,32252,1,8,0:0:0:0:
268,57,32408,1,0,0:0:0:0:
150,206,32565,2,0,P|74:222|19:168,1,135.000005149842,0|0,0:0|0:0,0:0:0:0:
216,55,32877,5,8,0:0:0:0:
197,298,33033,1,0,0:0:0:0:
197,298,33111,1,0,0:0:0:0:
197,298,33190,1,0,0:0:0:0:
340,152,33346,1,0,0:0:0:0:
241,340,33502,2,0,P|313:370|378:339,1,135.000005149842,8|0,0:0|0:0,0:0:0:0:
223,146,33815,5,8,0:0:0:0:
223,146,33893,1,8,0:0:0:0:
223,146,33971,2,0,L|140:139,1,67.5000025749208,8|8,0:0|0:0,0:0:0:0:
64,265,34127,5,8,0:0:0:0:
64,265,34205,1,8,0:0:0:0:
64,265,34283,2,0,L|147:258,1,67.5000025749208,8|8,0:0|0:0,0:0:0:0:
276,252,34440,5,4,0:0:0:0:
98,78,34596,1,0,0:0:0:0:
98,78,34674,1,0,0:0:0:0:
98,78,34752,1,8,0:0:0:0:
103,318,34908,1,0,0:0:0:0:
256,109,35065,2,0,L|111:99,1,135.000005149842,0|0,0:0|0:0,0:0:0:0:
212,307,35377,5,8,0:0:0:0:
270,58,35533,1,0,0:0:0:0:
270,58,35611,1,0,0:0:0:0:
270,58,35690,1,0,0:0:0:0:
400,268,35846,1,0,0:0:0:0:
306,44,36002,2,0,P|362:29|444:66,1,135.000005149842,8|0,0:0|0:0,0:0:0:0:
312,283,36315,5,0,0:0:0:0:
361,127,36471,1,0,0:0:0:0:
190,160,36627,5,8,0:0:0:0:
194,210,36705,1,8,0:0:0:0:
199,260,36783,1,8,0:0:0:0:
203,311,36861,1,8,0:0:0:0:
208,361,36940,6,0,P|257:377|288:368,1,67.5000025749208,0|0,0:0|0:0,0:0:0:0:
309,226,37096,2,0,P|272:242|253:276,1,67.5000025749208,8|0,0:0|0:0,0:0:0:0:
405,311,37252,6,0,L|418:238,1,67.5000025749208,8|0,0:0|0:0,0:0:0:0:
284,145,37408,2,0,L|297:226,1,67.5000025749208,0|0,0:0|0:0,0:0:0:0:
384,48,37565,6,0,P|345:50|321:77,1,67.5000025749208,0|0,0:0|0:0,0:0:0:0:
283,244,37721,2,0,P|314:232|333:205,1,67.5000025749208,8|0,0:0|0:0,0:0:0:0:
273,64,37877,6,0,L|199:72,1,67.5000025749208,8|0,0:0|0:0,0:0:0:0:
104,162,38033,2,0,L|178:170,1,67.5000025749208,0|0,0:0|0:0,0:0:0:0:
262,260,38190,5,8,0:0:0:0:
260,309,38268,1,8,0:0:0:0:
288,350,38346,1,8,0:0:0:0:
335,365,38424,1,8,0:0:0:0:
382,349,38502,2,0,P|411:329|469:328,1,67.5000025749208,0|0,0:0|0:0,0:0:0:0:
464,334,38815,5,8,0:0:0:0:
474,97,38971,1,8,0:0:0:0:
312,248,39127,2,0,L|409:239,1,67.5000025749208,0|0,0:0|0:0,0:0:0:0:
160,80,39440,5,4,0:0:0:0:
193,339,39596,1,0,0:0:0:0:
193,339,39674,1,0,0:0:0:0:
193,339,39752,1,8,0:0:0:0:
291,149,39908,1,0,0:0:0:0:
87,249,40065,2,0,P|151:264|209:233,1,135.000005149842,0|0,0:0|0:0,0:0:0:0:
276,90,40377,5,8,0:0:0:0:
392,329,40533,1,0,0:0:0:0:
392,329,40611,1,0,0:0:0:0:
392,329,40690,1,0,0:0:0:0:
188,248,40846,1,0,0:0:0:0:
409,63,41002,2,0,P|358:45|277:91,1,135.000005149842,8|0,0:0|0:0,0:0:0:0:
215,269,41315,5,0,0:0:0:0:
370,169,41471,1,0,0:0:0:0:
147,112,41627,1,8,0:0:0:0:
150,162,41705,1,8,0:0:0:0:
153,213,41783,1,8,0:0:0:0:
157,263,41861,1,8,0:0:0:0:
160,314,41939,5,4,0:0:0:0:
276,183,42096,1,0,0:0:0:0:
276,183,42174,1,0,0:0:0:0:
276,183,42252,1,8,0:0:0:0:
64,102,42408,1,0,0:0:0:0:
113,316,42565,2,0,P|187:341|256:314,1,135.000005149842,0|0,0:0|0:0,0:0:0:0:
334,217,42877,5,8,0:0:0:0:
474,351,43033,1,0,0:0:0:0:
474,351,43111,1,0,0:0:0:0:
474,351,43190,1,0,0:0:0:0:
442,93,43346,1,0,0:0:0:0:
270,282,43502,2,0,L|409:262,1,135.000005149842,8|0,0:0|0:0,0:0:0:0:
127,86,43815,5,8,0:0:0:0:
123,119,43893,1,8,0:0:0:0:
119,153,43971,2,0,L|111:227,1,67.5000025749208,8|8,0:0|0:0,0:0:0:0:
254,356,44127,5,8,0:0:0:0:
250,322,44205,1,8,0:0:0:0:
246,288,44283,2,0,L|237:214,1,67.5000025749208,8|8,0:0|0:0,0:0:0:0:
218,78,44440,5,4,0:0:0:0:
291,346,44596,1,0,0:0:0:0:
291,346,44674,1,0,0:0:0:0:
291,346,44752,1,8,0:0:0:0:
120,249,44908,1,0,0:0:0:0:
362,161,45065,2,0,P|332:211|357:297,1,135.000005149842,0|0,0:0|0:0,0:0:0:0:
451,365,45377,5,8,0:0:0:0:
276,191,45533,1,0,0:0:0:0:
276,191,45611,1,0,0:0:0:0:
276,191,45690,1,0,0:0:0:0:
292,377,45846,1,0,0:0:0:0:
340,150,46002,2,0,P|299:120|212:149,1,135.000005149842,8|0,0:0|0:0,0:0:0:0:
129,206,46315,5,8,0:0:0:0:
132,239,46393,1,8,0:0:0:0:
135,273,46471,1,8,0:0:0:0:
138,306,46549,1,8,0:0:0:0:
141,340,46627,2,0,P|203:323|254:343,1,101.250003862381,0|0,0:0|0:0,0:0:0:0:
337,378,46940,5,12,0:0:0:0:
309,135,47096,1,0,0:0:0:0:
146,320,47252,1,0,0:0:0:0:
105,125,47408,5,8,0:0:0:0:
268,310,47564,1,0,0:0:0:0:
296,67,47720,1,0,0:0:0:0:
69,277,47877,6,0,L|165:268,1,90,8|0,0:0|0:0,0:0:0:0:
240,145,48190,1,8,0:0:0:0:
217,147,48268,1,8,0:0:0:0:
195,149,48346,1,8,0:0:0:0:
172,151,48424,1,8,0:0:0:0:
150,153,48502,2,0,L|60:161,1,90,0|0,0:0|0:0,0:0:0:0:
158,248,48815,5,4,1:0:0:0:
154,279,48971,1,4,1:0:0:0:
149,310,49127,1,0,0:0:0:0:
146,342,49283,1,0,0:0:0:0:
277,226,49440,6,0,P|349:191|439:240,2,180,4|8|0,0:2|0:0|1:0,0:0:0:0:
196,295,50221,1,0,0:0:0:0:
196,295,50377,2,0,P|128:312|78:287,1,90,8|0,0:0|0:0,0:0:0:0:
315,168,50690,6,0,P|285:225|324:352,2,180,0|8|0,1:0|0:0|0:0,0:0:0:0:
396,101,51471,1,0,0:0:0:0:
396,101,51627,2,0,L|500:92,1,90,8|0,0:0|0:0,0:0:0:0:
324,198,51940,6,0,P|275:148|288:39,2,180,0|8|0,0:0|0:0|0:0,0:0:0:0:
171,108,52721,1,0,0:0:0:0:
171,108,52877,1,8,0:0:0:0:
100,233,53033,2,0,L|197:226,1,90,0|0,0:0|0:0,0:0:0:0:
352,116,53346,2,0,L|255:109,2,90,0|8|0,0:0|0:0|0:0,0:0:0:0:
421,257,53815,5,0,0:0:0:0:
421,257,53972,1,0,0:0:0:0:
344,182,54128,2,0,P|270:165|236:190,1,90,8|0,0:0|0:0,0:0:0:0:
183,324,54440,6,0,L|173:141,2,180,0|8|0,0:0|0:0|0:0,0:0:0:0:
93,105,55221,1,0,0:0:0:0:
93,105,55377,2,0,L|4:97,1,90,8|0,0:0|0:0,0:0:0:0:
57,242,55690,6,0,P|119:208|217:258,2,180,0|8|0,0:0|0:0|0:0,0:0:0:0:
213,336,56471,1,0,0:0:0:0:
213,336,56627,2,0,P|203:275|225:230,1,90,8|0,0:0|0:0,0:0:0:0:
273,167,56940,6,0,L|466:161,1,180,0|8,0:0|0:0,0:0:0:0:
367,323,57408,2,0,L|383:223,1,90,0|0,0:0|0:0,0:0:0:0:
228,124,57721,2,0,L|244:224,1,90,0|8,0:0|0:0,0:0:0:0:
256,300,58033,1,0,0:0:0:0:
434,73,58190,5,8,0:0:0:0:
389,70,58268,1,8,0:0:0:0:
344,67,58346,1,8,0:0:0:0:
299,64,58424,1,8,0:0:0:0:
264,91,58502,1,8,0:0:0:0:
219,88,58580,1,8,0:0:0:0:
174,85,58658,1,8,0:0:0:0:
129,82,58736,1,8,0:0:0:0:
91,107,58815,5,0,0:0:0:0:
92,123,58893,1,0,0:0:0:0:
94,140,58971,1,0,0:0:0:0:
95,157,59049,1,0,0:0:0:0:
97,174,59127,1,0,0:0:0:0:
119,342,59440,5,0,0:0:0:0:
265,245,59596,1,0,0:0:0:0:
121,216,59752,1,8,0:0:0:0:
277,353,59908,2,0,L|293:237,1,90,0|0,0:0|0:0,0:0:0:0:
334,303,60221,2,0,L|350:187,1,90,0|0,0:0|0:0,0:0:0:0:
157,262,60533,2,0,L|141:146,1,90,8|0,0:0|0:0,0:0:0:0:
100,212,60846,2,0,L|84:96,1,90,0|8,0:0|0:0,0:0:0:0:
289,77,61158,5,0,0:0:0:0:
289,77,61315,2,0,L|399:71,2,90,0|0|8,0:0|0:0|0:0,0:0:0:0:
169,85,61783,1,0,0:0:0:0:
190,284,61940,5,0,0:0:0:0:
78,153,62096,1,0,0:0:0:0:
230,180,62252,1,8,0:0:0:0:
67,262,62408,2,0,P|80:215|58:147,1,90,0|0,0:0|0:0,0:0:0:0:
68,316,62721,2,0,P|102:281|117:211,1,90,0|0,0:0|0:0,0:0:0:0:
273,318,63033,2,0,P|260:271|282:203,1,90,8|0,0:0|0:0,0:0:0:0:
272,372,63346,2,0,P|237:337|222:267,1,90,0|8,0:0|0:0,0:0:0:0:
224,155,63658,5,0,0:0:0:0:
357,293,63815,2,0,L|458:288,1,90,0|0,0:0|0:0,0:0:0:0:
312,139,64127,1,8,0:0:0:0:
267,297,64283,1,8,0:0:0:0:
267,297,64361,1,8,0:0:0:0:
267,297,64440,1,4,0:0:0:0:
267,297,64752,5,8,0:0:0:0:
202,63,64908,1,0,0:0:0:0:
84,229,65065,5,8,0:0:0:0:
230,216,65221,1,0,0:0:0:0:
108,116,65377,5,8,0:0:0:0:
47,344,65533,1,0,0:0:0:0:
278,257,65690,5,8,0:0:0:0:
138,227,65846,1,0,0:0:0:0:
349,355,66002,5,8,0:0:0:0:
384,99,66158,1,0,0:0:0:0:
175,218,66315,1,8,0:0:0:0:
175,218,66627,5,0,0:0:0:0:
175,218,66705,1,0,0:0:0:0:
175,218,66783,2,0,L|185:295,1,45,0|0,0:0|0:0,0:0:0:0:
198,377,66940,5,12,0:0:0:0:
308,113,67096,1,0,0:0:0:0:
308,113,67252,1,0,0:0:0:0:
347,367,67408,5,8,0:0:0:0:
157,147,67565,1,0,0:0:0:0:
157,147,67721,1,0,0:0:0:0:
106,318,67877,5,0,0:0:0:0:
150,320,67955,1,0,0:0:0:0:
195,323,68033,1,0,0:0:0:0:
240,325,68111,1,0,0:0:0:0:
285,328,68189,1,8,0:0:0:0:
388,207,68346,2,0,L|376:300,1,90,4|0,1:0|0:0,0:0:0:0:
293,86,68658,1,4,1:0:0:0:
139,116,68815,6,0,P|163:178|132:252,2,135,0|0|0,0:0|0:0|0:0,0:0:0:0:
85,312,69440,6,0,B|223:369|182:233|362:295,1,270.000010299683,4|8,0:2|0:0,0:0:0:0:
424,375,69908,2,0,L|442:237,1,135.000005149842,0|0,0:0|0:0,0:0:0:0:
456,98,70221,1,0,0:0:0:0:
324,302,70377,1,8,0:0:0:0:
216,166,70533,2,0,P|135:136|75:174,1,135.000005149842,0|0,0:0|0:0,0:0:0:0:
149,299,70846,5,0,0:0:0:0:
149,299,71002,2,0,P|218:321|298:280,1,135.000005149842,8|0,0:0|0:0,0:0:0:0:
343,214,71315,2,0,P|427:226|451:282,1,135.000005149842,0|0,0:0|0:0,0:0:0:0:
453,288,71549,1,0,0:0:0:0:
453,288,71627,2,0,L|458:133,1,135.000005149842,8|0,0:0|0:0,0:0:0:0:
364,62,71940,6,0,L|219:44,1,135.000005149842,4|0,0:0|0:0,0:0:0:0:
394,207,72252,1,8,0:0:0:0:
356,43,72408,2,0,L|211:25,1,135.000005149842,0|0,0:0|0:0,0:0:0:0:
386,188,72720,1,0,0:0:0:0:
143,108,72877,6,0,L|157:268,1,135.000005149842,8|0,0:0|0:0,0:0:0:0:
163,368,73190,1,0,0:0:0:0:
163,368,73346,1,0,0:0:0:0:
239,241,73502,2,0,P|303:233|362:287,1,135.000005149842,8|0,0:0|0:0,0:0:0:0:
413,372,73815,1,0,0:0:0:0:
441,152,73971,1,0,0:0:0:0:
190,249,74127,5,8,0:0:0:0:
222,286,74205,1,8,0:0:0:0:
270,302,74283,1,8,0:0:0:0:
319,292,74361,1,8,0:0:0:0:
356,258,74440,6,0,P|405:232|494:260,1,135.000005149842,4|0,0:0|0:0,0:0:0:0:
428,352,74752,1,8,0:0:0:0:
298,178,74908,2,0,L|159:164,1,135.000005149842,0|0,0:0|0:0,0:0:0:0:
210,304,75221,1,0,0:0:0:0:
323,61,75377,6,0,P|287:104|311:192,1,135.000005149842,8|0,0:0|0:0,0:0:0:0:
343,282,75690,2,0,L|486:272,1,135.000005149842,0|0,0:0|0:0,0:0:0:0:
349,108,76002,1,8,0:0:0:0:
204,207,76158,2,0,P|183:258|199:345,1,135.000005149842,0|0,0:0|0:0,0:0:0:0:
402,329,76471,2,0,P|414:263|391:200,1,135.000005149842,0|8,0:0|0:0,0:0:0:0:
270,133,76783,6,0,L|127:137,1,135.000005149842,0|0,0:0|0:0,0:0:0:0:
305,293,77096,1,0,0:0:0:0:
305,293,77252,2,0,P|278:227|309:160,1,135.000005149842,8|0,0:0|0:0,0:0:0:0:
436,96,77565,5,0,0:0:0:0:
292,101,77721,1,0,0:0:0:0:
436,96,77877,2,0,L|447:241,1,135.000005149842,8|0,0:0|0:0,0:0:0:0:
210,191,78190,5,0,0:0:0:0:
354,196,78346,1,0,0:0:0:0:
210,191,78502,2,0,L|199:336,1,135.000005149842,8|0,0:0|0:0,0:0:0:0:
429,95,78815,5,8,0:0:0:0:
391,128,78893,1,8,0:0:0:0:
342,136,78971,1,8,0:0:0:0:
296,117,79049,1,8,0:0:0:0:
266,76,79127,1,8,0:0:0:0:
231,38,79205,1,8,0:0:0:0:
185,16,79283,1,8,0:0:0:0:
136,22,79361,1,8,0:0:0:0:
98,53,79440,6,0,B|159:209|38:164|95:324,1,270.000010299683,4|8,0:0|0:0,0:0:0:0:
180,353,79908,2,0,P|239:371|317:351,1,135.000005149842,0|0,0:0|0:0,0:0:0:0:
188,149,80221,1,0,0:0:0:0:
173,356,80377,1,8,0:0:0:0:
295,106,80533,2,0,L|136:111,1,135.000005149842,0|0,0:0|0:0,0:0:0:0:
280,273,80846,5,0,0:0:0:0:
280,273,81002,2,0,P|323:235|413:264,1,135.000005149842,8|0,0:0|0:0,0:0:0:0:
183,346,81315,2,0,P|198:292|155:220,1,135.000005149842,0|0,0:0|0:0,0:0:0:0:
144,215,81549,1,0,0:0:0:0:
144,216,81627,2,0,L|0:208,1,135.000005149842,8|0,0:0|0:0,0:0:0:0:
238,48,81940,6,0,P|199:115|228:227,1,135.000005149842,4|0,0:0|0:0,0:0:0:0:
343,145,82252,1,8,0:0:0:0:
226,46,82408,2,0,P|186:112|215:225,1,135.000005149842,0|0,0:0|0:0,0:0:0:0:
331,143,82720,1,0,0:0:0:0:
146,91,82877,6,0,L|0:85,1,135.000005149842,8|0,0:0|0:0,0:0:0:0:
75,231,83190,1,0,0:0:0:0:
75,231,83346,1,0,0:0:0:0:
207,162,83502,2,0,P|283:161|321:233,1,135.000005149842,8|0,0:0|0:0,0:0:0:0:
338,325,83815,1,0,0:0:0:0:
147,282,83971,1,0,0:0:0:0:
273,69,84127,5,8,0:0:0:0:
268,119,84205,1,8,0:0:0:0:
264,169,84283,1,8,0:0:0:0:
259,220,84361,1,8,0:0:0:0:
255,270,84440,6,0,P|328:250|385:277,1,135.000005149842,4|0,0:0|0:0,0:0:0:0:
431,369,84752,1,8,0:0:0:0:
459,155,84908,2,0,L|311:161,1,135.000005149842,0|0,0:0|0:0,0:0:0:0:
278,293,85221,1,0,0:0:0:0:
151,211,85377,6,0,L|141:63,1,135.000005149842,8|0,0:0|0:0,0:0:0:0:
237,305,85690,2,0,P|178:345|93:331,1,135.000005149842,0|0,0:0|0:0,0:0:0:0:
50,226,86002,1,8,0:0:0:0:
143,132,86158,2,0,L|300:124,1,135.000005149842,0|0,0:0|0:0,0:0:0:0:
336,274,86471,1,0,0:0:0:0:
276,114,86627,1,8,0:0:0:0:
180,274,86783,6,0,P|89:285|34:244,1,135.000005149842,0|0,0:0|0:0,0:0:0:0:
270,206,87096,1,0,0:0:0:0:
270,206,87252,2,0,L|260:376,1,135.000005149842,8|0,0:0|0:0,0:0:0:0:
400,212,87565,5,0,0:0:0:0:
158,226,87721,1,0,0:0:0:0:
307,47,87877,2,0,P|275:95|302:192,1,135.000005149842,8|0,0:0|0:0,0:0:0:0:
387,291,88190,5,0,0:0:0:0:
425,94,88346,1,0,0:0:0:0:
279,309,88502,1,8,0:0:0:0:
235,130,88658,1,0,0:0:0:0:
403,310,88815,5,0,0:0:0:0:
403,310,88893,1,0,0:0:0:0:
403,310,88971,1,0,0:0:0:0:
268,173,89127,1,0,0:0:0:0:
124,302,89283,1,0,0:0:0:0:
387,122,89440,5,12,0:0:0:0:
155,197,89596,1,0,0:0:0:0:
365,328,89752,1,0,0:0:0:0:
86,319,89908,5,8,0:0:0:0:
296,188,90064,1,0,0:0:0:0:
64,113,90220,1,0,0:0:0:0:
355,346,90377,5,8,0:0:0:0:
223,111,90533,1,0,0:0:0:0:
144,370,90690,1,0,0:0:0:0:
151,56,90846,5,8,0:0:0:0:
230,315,91003,1,0,0:0:0:0:
362,80,91159,1,0,0:0:0:0:
124,290,91315,5,8,0:0:0:0:
256,66,91471,1,0,0:0:0:0:
300,348,91627,5,8,0:0:0:0:
184,125,91783,1,0,0:0:0:0:
100,356,91940,1,4,0:0:0:0:
100,356,92252,5,8,0:0:0:0:
146,373,92330,1,8,0:0:0:0:
194,359,92408,1,8,0:0:0:0:
224,319,92486,1,8,0:0:0:0:
225,270,92564,1,8,0:0:0:0:
247,225,92643,1,8,0:0:0:0:
291,202,92721,1,8,0:0:0:0:
339,212,92799,1,8,0:0:0:0:
372,250,92877,5,8,0:0:0:0:
320,291,92955,1,8,0:0:0:0:
253,296,93033,1,8,0:0:0:0:
196,262,93111,1,8,0:0:0:0:
168,202,93189,1,12,0:0:0:0:
152,150,94127,6,0,L|160:231,1,67.5,0|0,0:0|0:0,0:0:0:0:
170,302,94440,1,4,0:2:0:0:
288,88,94596,1,0,0:0:0:0:
288,88,94674,1,0,0:0:0:0:
288,88,94752,1,8,0:0:0:0:
61,128,94908,1,0,0:0:0:0:
300,353,95065,2,0,P|288:281|326:226,1,135.000005149842,0|0,0:0|0:0,0:0:0:0:
452,198,95377,5,8,0:0:0:0:
295,59,95533,1,0,0:0:0:0:
295,59,95611,1,0,0:0:0:0:
295,59,95690,1,0,0:0:0:0:
274,299,95846,1,0,0:0:0:0:
210,106,96002,2,0,L|64:90,1,135.000005149842,8|0,0:0|0:0,0:0:0:0:
354,33,96315,5,0,0:0:0:0:
242,295,96471,1,0,0:0:0:0:
80,160,96627,5,8,0:0:0:0:
118,128,96705,1,8,0:0:0:0:
168,121,96783,1,8,0:0:0:0:
214,139,96861,1,8,0:0:0:0:
245,179,96940,5,4,0:0:0:0:
150,299,97096,1,0,0:0:0:0:
150,299,97174,1,0,0:0:0:0:
150,299,97252,1,8,0:0:0:0:
199,52,97408,1,0,0:0:0:0:
376,232,97565,2,0,P|427:240|489:189,1,135.000005149842,0|0,0:0|0:0,0:0:0:0:
320,75,97877,5,8,0:0:0:0:
365,326,98033,1,0,0:0:0:0:
365,326,98111,1,0,0:0:0:0:
365,326,98190,1,0,0:0:0:0:
144,238,98346,1,0,0:0:0:0:
300,145,98502,2,0,P|282:193|326:273,1,135.000005149842,8|0,0:0|0:0,0:0:0:0:
423,282,98815,5,8,0:0:0:0:
423,282,98893,1,8,0:0:0:0:
423,282,98971,2,0,L|506:274,1,67.5000025749208,8|8,0:0|0:0,0:0:0:0:
371,101,99127,5,8,0:0:0:0:
371,101,99205,1,8,0:0:0:0:
371,101,99283,2,0,L|288:93,1,67.5000025749208,8|8,0:0|0:0,0:0:0:0:
164,86,99440,5,4,0:0:0:0:
329,287,99596,1,0,0:0:0:0:
329,287,99674,1,0,0:0:0:0:
329,287,99752,1,8,0:0:0:0:
179,78,99908,1,0,0:0:0:0:
117,310,100065,2,0,P|63:321|-4:264,1,135.000005149842,0|0,0:0|0:0,0:0:0:0:
281,146,100377,5,8,0:0:0:0:
118,366,100533,1,0,0:0:0:0:
118,366,100611,1,0,0:0:0:0:
118,366,100690,1,0,0:0:0:0:
55,174,100846,1,0,0:0:0:0:
282,348,101002,2,0,P|321:357|407:317,1,135.000005149842,8|0,0:0|0:0,0:0:0:0:
444,224,101315,6,0,L|452:149,1,67.5000025749208,8|8,0:0|0:0,0:0:0:0:
285,86,101471,2,0,L|292:153,1,67.5000025749208,8|8,0:0|0:0,0:0:0:0:
309,309,101627,2,0,P|260:278|174:327,1,135.000005149842,0|0,0:0|0:0,0:0:0:0:
109,373,101940,6,0,L|101:287,1,67.5000025749208,0|0,0:0|0:0,0:0:0:0:
243,274,102096,2,0,L|251:188,1,67.5000025749208,8|0,0:0|0:0,0:0:0:0:
88,169,102252,6,0,L|2:161,1,67.5000025749208,8|0,0:0|0:0,0:0:0:0:
192,48,102408,2,0,L|278:40,1,67.5000025749208,0|0,0:0|0:0,0:0:0:0:
372,131,102565,6,0,P|360:166|376:229,1,67.5000025749208,0|0,0:0|0:0,0:0:0:0:
290,317,102721,2,0,P|255:305|192:321,1,67.5000025749208,8|0,0:0|0:0,0:0:0:0:
226,125,102877,6,0,L|213:223,1,67.5000025749208,8|0,0:0|0:0,0:0:0:0:
111,314,103033,2,0,L|102:247,1,67.5000025749208,0|0,0:0|0:0,0:0:0:0:
87,109,103190,6,0,P|134:95|169:105,1,67.5000025749208,0|0,0:0|0:0,0:0:0:0:
242,255,103346,2,0,P|208:256|177:243,1,67.5000025749208,8|0,0:0|0:0,0:0:0:0:
345,163,103502,6,0,L|356:247,1,67.5000025749208,8|0,0:0|0:0,0:0:0:0:
461,342,103658,2,0,L|469:275,1,67.5000025749208,0|0,0:0|0:0,0:0:0:0:
492,71,103815,5,0,0:0:0:0:
469,77,103971,1,0,0:0:0:0:
444,84,104127,1,0,0:0:0:0:
419,91,104283,1,0,0:0:0:0:
366,242,104440,6,0,P|331:148|235:234,1,270,0|0,1:0|0:0,0:0:0:0:
162,292,105065,2,0,P|110:301|63:278,2,90,8|0|0,0:0|0:0|1:0,0:0:0:0:
36,120,105533,2,0,L|41:212,1,90,0|0,1:0|0:0,0:0:0:0:
155,335,105846,1,0,1:0:0:0:
155,335,106002,2,0,L|159:245,1,90,0|0,1:0|0:0,0:0:0:0:
167,140,106315,5,8,0:0:0:0:
237,89,106471,1,0,0:0:0:0:
320,114,106627,1,0,0:0:0:0:
350,196,106783,1,0,0:0:0:0:
301,271,106940,6,0,L|296:369,2,90,0|0|0,1:0|1:0|0:0,0:0:0:0:
135,236,107408,2,0,L|140:334,2,90,0|8|0,1:0|0:0|0:0,0:0:0:0:
201,90,107877,2,0,P|247:72|307:81,2,90,0|0|0,1:0|1:0|0:0,0:0:0:0:
156,206,108346,2,0,P|110:188|50:197,2,90,0|0|0,1:0|0:0|0:0,0:0:0:0:
256,358,108815,5,8,0:0:0:0:
252,313,108971,1,0,0:0:0:0:
249,268,109127,1,0,0:0:0:0:
376,70,109440,6,0,P|334:130|466:227,1,270,0|0,1:0|1:0,0:0:0:0:
236,125,110065,2,0,L|127:115,2,90,8|0|0,0:0|0:0|1:0,0:0:0:0:
253,303,110533,2,0,P|255:252|298:210,1,90,0|0,1:0|0:0,0:0:0:0:
136,187,110846,1,0,1:0:0:0:
136,187,111002,2,0,P|134:136|91:94,1,90,0|0,1:0|0:0,0:0:0:0:
43,260,111315,5,8,0:0:0:0:
118,304,111471,1,0,0:0:0:0:
204,283,111627,1,0,0:0:0:0:
251,209,111783,1,0,0:0:0:0:
234,123,111940,6,0,L|224:23,1,90,0|0,1:0|0:0,0:0:0:0:
380,84,112252,2,0,L|370:173,1,90,0|0,0:0|1:0,0:0:0:0:
357,295,112565,1,8,0:0:0:0:
357,295,112721,2,0,P|313:280|244:304,1,90,0|0,0:0|1:0,0:0:0:0:
185,361,113033,2,0,L|179:229,1,90,0|0,1:0|0:0,0:0:0:0:
176,147,113346,5,0,1:0:0:0:
220,139,113502,1,0,1:0:0:0:
264,131,113658,1,0,0:0:0:0:
380,205,113815,5,8,0:0:0:0:
376,227,113893,1,0,0:0:0:0:
372,249,113971,1,0,0:0:0:0:
369,271,114049,1,0,0:0:0:0:
366,294,114127,2,0,L|356:345,1,45,8|0,0:0|0:0,0:0:0:0:
200,330,114440,6,0,L|132:321,3,45,4|0|0|0,1:0|0:0|0:0|0:0,0:0:0:0:
303,201,114752,2,0,L|371:192,3,45,8|8|8|8,0:0|0:0|0:0|0:0,0:0:0:0:
180,214,115065,2,0,L|176:145,3,45,8|8|8|8,0:0|0:0|0:0|0:0,0:0:0:0:
315,313,115377,2,0,L|312:357,3,45,8|8|8|8,0:0|0:0|0:0|0:0,0:0:0:0:
265,123,115690,5,8,0:0:0:0:
305,105,115768,1,8,0:0:0:0:
349,112,115846,1,8,0:0:0:0:
383,141,115924,1,8,0:0:0:0:
395,184,116002,1,8,0:0:0:0:
383,226,116080,1,8,0:0:0:0:
350,256,116158,1,8,0:0:0:0:
307,264,116236,1,8,0:0:0:0:
266,247,116315,5,8,0:0:0:0:
233,217,116393,1,8,0:0:0:0:
190,205,116471,1,8,0:0:0:0:
146,216,116549,1,8,0:0:0:0:
112,245,116627,1,8,0:0:0:0:
100,286,116705,1,8,0:0:0:0:
109,327,116783,1,8,0:0:0:0:
141,357,116861,1,8,0:0:0:0:
186,365,116940,6,0,P|222:359|245:364,3,45,4|0|0|0,0:0|0:0|0:0|0:0,0:0:0:0:
126,255,117252,2,0,P|90:249|67:254,3,45,8|8|8|8,0:0|0:0|0:0|0:0,0:0:0:0:
224,203,117565,2,0,P|260:197|283:202,3,45,8|8|8|8,0:0|0:0|0:0|0:0,0:0:0:0:
164,93,117877,2,0,P|128:87|105:92,3,45,8|8|8|8,0:0|0:0|0:0|0:0,0:0:0:0:
136,206,118190,5,8,0:0:0:0:
160,243,118268,1,8,0:0:0:0:
200,262,118346,1,8,0:0:0:0:
244,256,118424,1,8,0:0:0:0:
278,228,118502,1,8,0:0:0:0:
292,186,118580,1,8,0:0:0:0:
309,146,118658,1,8,0:0:0:0:
345,120,118736,1,8,0:0:0:0:
389,120,118814,5,8,0:0:0:0:
425,146,118892,1,8,0:0:0:0:
439,188,118970,1,8,0:0:0:0:
427,231,119048,1,8,0:0:0:0:
392,258,119126,1,8,0:0:0:0:
348,260,119204,1,8,0:0:0:0:
315,229,119283,1,8,0:0:0:0:
271,218,119361,1,8,0:0:0:0:
232,238,119440,6,0,L|227:298,3,45,4|0|0|0,0:0|0:0|0:0|0:0,0:0:0:0:
91,300,119752,2,0,L|96:360,3,45,8|8|8|8,0:0|0:0|0:0|0:0,0:0:0:0:
77,180,120065,2,0,L|17:166,3,45,8|8|8|8,0:0|0:0|0:0|0:0,0:0:0:0:
155,72,120377,2,0,L|215:58,3,45,8|8|8|8,0:0|0:0|0:0|0:0,0:0:0:0:
128,224,120690,5,8,0:0:0:0:
155,188,120768,1,8,0:0:0:0:
196,172,120846,1,8,0:0:0:0:
240,178,120924,1,8,0:0:0:0:
275,206,121002,1,8,0:0:0:0:
291,247,121080,1,8,0:0:0:0:
316,286,121158,1,8,0:0:0:0:
349,314,121236,1,8,0:0:0:0:
393,326,121314,5,8,0:0:0:0:
436,317,121392,1,8,0:0:0:0:
472,291,121470,1,8,0:0:0:0:
492,251,121548,1,8,0:0:0:0:
494,206,121626,1,8,0:0:0:0:
475,166,121704,1,8,0:0:0:0:
441,137,121783,1,8,0:0:0:0:
398,126,121861,1,8,0:0:0:0:
354,135,121940,6,0,L|345:71,3,45,4|0|0|0,0:0|0:0|0:0|0:0,0:0:0:0:
247,215,122252,2,0,L|256:150,3,45,8|8|8|8,0:0|0:0|0:0|0:0,0:0:0:0:
145,143,122565,2,0,L|135:78,3,45,8|8|8|8,0:0|0:0|0:0|0:0,0:0:0:0:
159,227,122877,1,0,0:0:0:0:
159,227,123190,6,0,L|144:307,2,60,8|0|0,0:0|0:0|0:0,0:0:0:0:
177,125,123502,6,0,L|100:152,2,60,0|0|0,0:0|0:0|0:0,0:0:0:0:
274,90,123815,6,0,L|212:37,2,60,8|0|0,0:0|0:0|0:0,0:0:0:0:
353,157,124127,6,0,L|368:77,2,60
334,258,124440,5,8,0:0:0:0:
152,336,126315,6,0,P|198:359|296:329,2,135,0|0|0,0:0|0:0|0:0,0:0:0:0:
74,295,126940,6,0,B|92:196|92:196|64:135|64:135|80:26,1,270.000010299683,4|8,0:0|0:0,0:0:0:0:
274,130,127408,2,0,P|221:151|133:120,1,135.000005149842,0|0,0:0|0:0,0:0:0:0:
325,25,127721,1,0,0:0:0:0:
367,247,127877,1,8,0:0:0:0:
104,136,128033,2,0,P|167:116|230:138,1,135.000005149842,0|0,0:0|0:0,0:0:0:0:
297,241,128346,5,0,0:0:0:0:
297,241,128502,2,0,P|359:271|435:246,1,135.000005149842,8|0,0:0|0:0,0:0:0:0:
463,164,128815,2,0,L|452:29,1,135.000005149842,0|0,0:0|0:0,0:0:0:0:
426,21,129049,1,0,0:0:0:0:
426,21,129127,2,0,P|365:60|290:38,1,135.000005149842,8|0,0:0|0:0,0:0:0:0:
128,165,129440,6,0,P|180:150|255:189,1,135.000005149842,4|0,0:0|0:0,0:0:0:0:
311,300,129752,1,8,0:0:0:0:
243,83,129908,2,0,P|295:96|340:167,1,135.000005149842,0|0,0:0|0:0,0:0:0:0:
334,291,130220,1,0,0:0:0:0:
213,232,130377,6,0,L|66:240,1,135.000005149842,8|0,0:0|0:0,0:0:0:0:
171,369,130690,1,0,0:0:0:0:
171,369,130846,1,0,0:0:0:0:
246,232,131002,2,0,P|281:208|376:216,1,135.000005149842,8|0,0:0|0:0,0:0:0:0:
450,314,131315,1,0,0:0:0:0:
306,78,131471,1,0,0:0:0:0:
225,312,131627,5,8,0:0:0:0:
186,343,131705,1,8,0:0:0:0:
136,350,131783,1,8,0:0:0:0:
91,330,131861,1,8,0:0:0:0:
62,288,131940,6,0,L|49:150,1,135.000005149842,4|0,0:0|0:0,0:0:0:0:
203,200,132252,1,8,0:0:0:0:
296,330,132408,2,0,P|346:354|431:320,1,135.000005149842,0|0,0:0|0:0,0:0:0:0:
462,198,132721,1,0,0:0:0:0:
367,95,132877,6,0,L|226:80,1,135.000005149842,8|0,0:0|0:0,0:0:0:0:
174,265,133190,2,0,L|315:250,1,135.000005149842,0|0,0:0|0:0,0:0:0:0:
215,129,133502,1,8,0:0:0:0:
94,199,133658,2,0,P|71:270|98:340,1,135.000005149842,0|0,0:0|0:0,0:0:0:0:
274,317,133971,2,0,P|290:252|267:190,1,135.000005149842,0|8,0:0|0:0,0:0:0:0:
193,96,134283,6,0,L|42:80,1,135.000005149842,0|0,0:0|0:0,0:0:0:0:
100,248,134596,1,0,0:0:0:0:
100,248,134752,2,0,P|144:222|224:255,1,135.000005149842,8|0,0:0|0:0,0:0:0:0:
320,367,135065,5,0,0:0:0:0:
337,233,135221,1,0,0:0:0:0:
320,367,135377,2,0,L|339:219,1,135.000005149842,8|0,0:0|0:0,0:0:0:0:
153,304,135690,5,0,0:0:0:0:
136,170,135846,1,0,0:0:0:0:
153,304,136002,2,0,L|134:156,1,135.000005149842,8|0,0:0|0:0,0:0:0:0:
325,249,136315,5,8,0:0:0:0:
369,270,136393,1,8,0:0:0:0:
418,259,136471,1,8,0:0:0:0:
449,221,136549,1,8,0:0:0:0:
451,171,136627,1,8,0:0:0:0:
417,137,136705,1,8,0:0:0:0:
366,132,136783,1,8,0:0:0:0:
316,128,136861,1,8,0:0:0:0:
265,120,136940,6,0,B|160:108|160:108|106:130|106:130|-23:109,1,270.000010299683,4|8,0:0|0:0,0:0:0:0:
25,232,137408,2,0,L|34:367,1,135.000005149842,0|0,0:0|0:0,0:0:0:0:
237,219,137721,1,0,0:0:0:0:
66,182,137877,1,8,0:0:0:0:
281,355,138033,2,0,P|265:287|323:229,1,135.000005149842,0|0,0:0|0:0,0:0:0:0:
406,188,138346,5,0,0:0:0:0:
406,188,138502,2,0,P|352:133|260:144,1,135.000005149842,8|0,0:0|0:0,0:0:0:0:
218,188,138815,2,0,P|157:217|77:171,1,135.000005149842,0|0,0:0|0:0,0:0:0:0:
77,181,139049,1,0,0:0:0:0:
77,180,139127,2,0,L|87:321,1,135.000005149842,8|0,0:0|0:0,0:0:0:0:
301,127,139440,6,0,L|159:112,1,135.000005149842,4|0,0:0|0:0,0:0:0:0:
306,284,139752,1,8,0:0:0:0:
97,172,139908,2,0,L|239:157,1,135.000005149842,0|0,0:0|0:0,0:0:0:0:
92,329,140220,1,0,0:0:0:0:
362,209,140377,6,0,P|301:181|229:233,1,135.000005149842,8|0,0:0|0:0,0:0:0:0:
191,326,140690,1,0,0:0:0:0:
191,326,140846,1,0,0:0:0:0:
181,182,141002,2,0,L|169:35,1,135.000005149842,8|0,0:0|0:0,0:0:0:0:
326,207,141315,1,0,0:0:0:0:
87,230,141471,1,0,0:0:0:0:
202,88,141627,5,8,0:0:0:0:
239,55,141705,1,8,0:0:0:0:
288,44,141783,1,8,0:0:0:0:
337,57,141861,1,8,0:0:0:0:
373,91,141940,6,0,P|412:117|491:72,1,135.000005149842,4|0,0:0|0:0,0:0:0:0:
269,34,142252,1,8,0:0:0:0:
342,179,142408,2,0,P|365:213|342:326,1,135.000005149842,0|0,0:0|0:0,0:0:0:0:
254,362,142721,1,0,0:0:0:0:
159,253,142877,6,0,L|17:245,1,135.000005149842,8|0,0:0|0:0,0:0:0:0:
11,100,143190,2,0,L|153:92,1,135.000005149842,0|0,0:0|0:0,0:0:0:0:
243,203,143502,1,8,0:0:0:0:
328,101,143658,2,0,P|375:86|457:127,1,135.000005149842,0|0,0:0|0:0,0:0:0:0:
420,299,143971,1,0,0:0:0:0:
348,123,144127,1,8,0:0:0:0:
246,277,144283,6,0,P|207:288|112:254,1,135.000005149842,0|4,0:0|0:0,0:0:0:0:
226,147,144596,1,0,0:0:0:0:
226,147,144752,2,0,P|299:152|346:213,1,135.000005149842,8|0,0:0|0:0,0:0:0:0:
339,338,145065,5,0,0:0:0:0:
372,78,145221,1,0,0:0:0:0:
168,230,145377,2,0,P|241:247|299:219,1,135.000005149842,8|0,0:0|0:0,0:0:0:0:
79,22,145690,5,8,0:0:0:0:
51,150,145846,1,8,0:0:0:0:
181,95,146002,5,8,0:0:0:0:
206,210,146158,1,8,0:0:0:0:
84,168,146315,5,8,0:0:0:0:
61,271,146471,1,8,0:0:0:0:
193,255,146627,5,0,0:0:0:0:
213,347,146783,1,0,0:0:0:0:
107,181,146940,5,8,0:0:0:0:
106,181,147096,2,0,P|147:141|230:152,1,135.000005149842,0|0,1:0|1:0,0:0:0:0:
298,222,147565,2,0,P|348:249|419:194,1,135.000005149842,8|0,0:0|1:0,0:0:0:0:
227,87,148033,6,0,L|232:181,1,67.5000025749208,0|0,1:0|0:0,0:0:0:0:
110,164,148346,2,0,L|105:258,1,67.5000025749208,0|0,0:0|1:0,0:0:0:0:
152,337,148658,1,0,0:0:0:0:
152,337,148815,2,0,P|215:281|314:321,1,202.500007724762,8|0,0:0|0:0,0:0:0:0:
383,382,149440,5,8,0:0:0:0:
383,382,149596,2,0,L|393:241,1,135.000005149842,0|0,0:0|1:0,0:0:0:0:
359,152,150065,2,0,P|318:125|227:143,1,135.000005149842,8|0,0:0|1:0,0:0:0:0:
155,191,150533,2,0,L|61:186,1,67.5000025749208,0|0,1:0|0:0,0:0:0:0:
32,308,150846,2,0,L|126:303,1,67.5000025749208,0|0,1:0|1:0,0:0:0:0:
235,301,151158,1,0,0:0:0:0:
115,82,151315,5,8,0:0:0:0:
117,115,151471,1,8,0:0:0:0:
120,149,151627,1,8,0:0:0:0:
123,182,151783,1,8,0:0:0:0:
72,301,151940,5,0,1:0:0:0:
72,301,152096,2,0,P|128:274|204:309,1,135.000005149842,0|0,1:0|0:0,0:0:0:0:
264,359,152565,2,0,P|336:376|389:329,1,135.000005149842,0|0,0:0|0:0,0:0:0:0:
419,245,153033,5,0,0:0:0:0:
419,245,153111,1,0,0:0:0:0:
419,245,153190,1,0,1:0:0:0:
342,156,153346,2,0,L|201:143,1,135.000005149842,0|0,1:0|1:0,0:0:0:0:
137,260,153815,1,8,0:0:0:0:
137,260,154440,6,0,B|301:178|268:371|451:273,1,337.5,4|0,0:0|0:0,0:0:0:0:
503,195,156940,6,0,P|435:180|437:366,1,337.5,4|0,0:0|0:0,0:0:0:0:
340,181,159440,6,0,B|275:201|231:149|231:149|157:207|157:207|97:158|38:181,1,337.5,4|0,0:0|0:0,0:0:0:0:
66,343,161940,6,0,L|57:179,1,157.5,4|0,0:0|0:0,0:0:0:0:
100,77,163190,1,0,1:0:0:0:
100,77,163346,1,0,1:0:0:0:
100,77,163658,5,0,1:0:0:0:
162,155,163815,1,8,0:0:0:0:
265,157,163971,1,0,1:0:0:0:
333,84,164127,1,0,1:0:0:0:
333,84,164440,6,0,P|367:67|335:197,1,337.5,4|0,0:2|0:0,0:0:0:0:
251,164,166940,6,0,B|227:146|214:128|206:89|206:89|224:337,1,337.5,4|0,0:0|0:0,0:0:0:0:
302,325,169440,6,0,B|298:289|268:259|236:236|184:256|161:272|140:300|144:353|144:353|124:328|92:323|61:337,1,337.5,4|0,0:0|0:0,0:0:0:0:
37,155,171940,5,0,1:0:0:0:
63,338,172096,1,0,1:0:0:0:
63,338,172408,5,0,1:0:0:0:
135,260,172565,1,8,0:0:0:0:
240,258,172721,1,0,1:0:0:0:
316,331,172877,1,0,1:0:0:0:
411,255,173190,5,0,1:0:0:0:
406,227,173346,1,8,0:0:0:0:
400,199,173502,1,0,1:0:0:0:
229,89,173815,5,0,1:0:0:0:
223,117,173971,1,0,1:0:0:0:
218,145,174127,1,0,1:0:0:0:
213,173,174283,1,0,0:0:0:0:
117,244,174440,5,8,0:0:0:0:
117,244,174596,2,0,P|157:291|239:293,1,135.000005149842,0|0,1:0|1:0,0:0:0:0:
324,241,175065,2,0,L|403:233,1,67.5000025749208,8|0,0:0|1:0,0:0:0:0:
295,98,175377,2,0,L|216:90,1,67.5000025749208,0|0,0:0|1:0,0:0:0:0:
152,288,175690,5,8,0:0:0:0:
152,288,175846,2,0,L|143:143,1,135.000005149842,0|0,1:0|1:0,0:0:0:0:
193,55,176315,2,0,P|230:40|280:51,1,67.5000025749208,8|0,0:0|1:0,0:0:0:0:
323,171,176627,2,0,P|289:171|259:157,1,67.5000025749208,0|0,0:0|1:0,0:0:0:0:
410,137,176940,5,8,0:0:0:0:
410,137,177096,2,0,P|379:195|403:273,1,135.000005149842,0|0,1:0|1:0,0:0:0:0:
279,172,177565,2,0,L|189:163,1,67.5000025749208,8|0,0:0|1:0,0:0:0:0:
184,319,177877,2,0,L|274:310,1,67.5000025749208,0|0,0:0|1:0,0:0:0:0:
96,107,178190,5,8,0:0:0:0:
96,107,178346,2,0,L|103:260,1,135.000005149842,0|0,1:0|1:0,0:0:0:0:
108,351,178815,5,8,0:0:0:0:
165,266,178971,1,8,0:0:0:0:
263,237,179127,1,8,0:0:0:0:
357,280,179283,1,8,0:0:0:0:
398,378,179440,5,8,0:0:0:0:
398,378,179596,2,0,P|384:325|412:237,1,135.000005149842,0|0,1:0|1:0,0:0:0:0:
460,164,180065,2,0,P|421:150|384:151,1,67.5000025749208,8|0,0:0|1:0,0:0:0:0:
325,293,180377,2,0,P|358:290|389:278,1,67.5000025749208,0|0,0:0|1:0,0:0:0:0:
232,182,180690,5,8,0:0:0:0:
232,182,180846,2,0,P|249:245|233:317,1,135.000005149842,0|0,1:0|1:0,0:0:0:0:
147,364,181315,2,0,L|66:370,1,67.5000025749208,8|0,0:0|1:0,0:0:0:0:
66,226,181627,2,0,L|147:232,1,67.5000025749208,0|0,0:0|1:0,0:0:0:0:
250,328,181940,5,8,0:0:0:0:
250,328,182096,2,0,P|284:284|367:307,1,135.000005149842,0|0,1:0|1:0,0:0:0:0:
440,359,182565,2,0,L|448:285,1,67.5000025749208,8|0,0:0|1:0,0:0:0:0:
322,204,182877,2,0,L|329:271,1,67.5000025749208,0|0,0:0|1:0,0:0:0:0:
398,137,183190,5,8,0:0:0:0:
398,137,183346,2,0,P|343:103|266:115,1,135.000005149842,0|0,1:0|1:0,0:0:0:0:
201,177,183815,5,8,0:0:0:0:
171,192,183893,1,8,0:0:0:0:
137,193,183971,1,8,0:0:0:0:
106,181,184049,1,8,0:0:0:0:
82,158,184127,1,0,0:0:0:0:
282,72,184283,5,8,0:0:0:0:
282,72,184361,1,8,0:0:0:0:
282,72,184440,5,4,1:2:0:0:
382,308,184752,5,0,1:0:0:0:
226,178,185065,5,0,1:0:0:0:
143,347,185377,5,0,1:0:0:0:
91,128,185690,5,0,1:0:0:0:
319,211,186002,5,0,1:0:0:0:
339,71,186315,5,8,0:0:0:0:
294,67,186393,1,8,0:0:0:0:
249,63,186471,1,8,0:0:0:0:
204,60,186549,1,8,0:0:0:0:
159,56,186627,1,8,0:0:0:0:
120,76,186705,1,8,0:0:0:0:
108,118,186783,1,8,0:0:0:0:
131,156,186861,1,8,0:0:0:0:
173,165,186940,1,4,0:0:0:0:
173,165,187252,5,8,0:0:0:0:
132,355,187408,1,8,0:0:0:0:
314,128,187565,5,8,0:0:0:0:
74,77,187721,1,8,0:0:0:0:
273,321,187877,5,8,0:0:0:0:
188,114,188033,1,8,0:0:0:0:
48,284,188190,5,8,0:0:0:0:
81,328,188268,1,8,0:0:0:0:
133,351,188346,1,8,0:0:0:0:
190,344,188424,1,8,0:0:0:0:
226,302,188502,1,8,0:0:0:0:
260,256,188580,1,8,0:0:0:0:
313,233,188658,1,8,0:0:0:0:
370,240,188736,1,8,0:0:0:0:
414,275,188815,6,0,L|403:166,2,101.250003862381,0|0|0,0:0|0:0|0:0,0:0:0:0:
331,340,189440,6,0,B|152:378|252:264|19:322,1,270.000010299683,4|8,0:0|0:0,0:0:0:0:
261,112,189908,2,0,P|289:170|265:249,1,135.000005149842,0|0,0:0|0:0,0:0:0:0:
151,310,190221,1,0,0:0:0:0:
97,87,190377,1,8,0:0:0:0:
315,146,190533,2,0,L|160:130,1,135.000005149842,0|0,0:0|0:0,0:0:0:0:
338,312,190846,5,0,0:0:0:0:
338,312,191002,2,0,P|321:248|367:189,1,135.000005149842,8|0,0:0|0:0,0:0:0:0:
452,92,191315,2,0,P|361:116|306:75,1,135.000005149842,0|0,0:0|0:0,0:0:0:0:
313,86,191549,1,0,0:0:0:0:
313,84,191627,2,0,P|262:56|180:77,1,135.000005149842,8|0,0:0|0:0,0:0:0:0:
141,299,191940,6,0,L|128:147,1,135.000005149842,4|0,0:0|0:0,0:0:0:0:
296,194,192252,1,8,0:0:0:0:
115,325,192408,2,0,L|102:173,1,135.000005149842,0|0,0:0|0:0,0:0:0:0:
270,220,192720,1,0,0:0:0:0:
94,348,192877,6,0,P|116:285|82:213,1,135.000005149842,8|0,0:0|0:0,0:0:0:0:
8,128,193190,1,0,0:0:0:0:
8,128,193346,1,0,0:0:0:0:
123,57,193502,2,0,L|280:49,1,135.000005149842,8|0,0:0|0:0,0:0:0:0:
376,44,193815,1,0,0:0:0:0:
208,243,193971,1,0,0:0:0:0:
106,147,194127,5,8,0:0:0:0:
142,113,194205,1,8,0:0:0:0:
190,98,194283,1,8,0:0:0:0:
240,106,194361,1,8,0:0:0:0:
281,135,194440,6,0,P|329:173|420:138,1,135.000005149842,4|0,0:0|0:0,0:0:0:0:
172,33,194752,1,8,0:0:0:0:
159,191,194908,2,0,L|147:337,1,135.000005149842,0|0,0:0|0:0,0:0:0:0:
321,188,195221,1,0,0:0:0:0:
194,108,195377,6,0,P|154:90|64:120,1,135.000005149842,8|0,0:0|0:0,0:0:0:0:
140,263,195690,2,0,P|180:281|270:251,1,135.000005149842,0|0,0:0|0:0,0:0:0:0:
166,84,196002,1,8,0:0:0:0:
77,194,196158,2,0,L|89:346,1,135.000005149842,0|0,0:0|0:0,0:0:0:0:
297,327,196471,2,0,L|308:193,1,135.000005149842,0|8,0:0|0:0,0:0:0:0:
81,275,196783,6,0,P|136:252|218:290,1,135.000005149842,0|0,0:0|0:0,0:0:0:0:
304,364,197096,1,0,0:0:0:0:
304,364,197252,2,0,L|326:203,1,135.000005149842,8|0,0:0|0:0,0:0:0:0:
243,97,197565,5,0,0:0:0:0:
92,100,197721,1,0,0:0:0:0:
243,97,197877,2,0,P|229:158|230:233,1,135.000005149842,8|0,0:0|0:0,0:0:0:0:
344,340,198190,5,0,0:0:0:0:
495,337,198346,1,0,0:0:0:0:
344,340,198502,2,0,P|358:279|357:204,1,135.000005149842,8|0,0:0|0:0,0:0:0:0:
77,209,198815,5,8,0:0:0:0:
119,259,198893,1,8,0:0:0:0:
184,269,198971,1,8,0:0:0:0:
240,234,199049,1,8,0:0:0:0:
276,178,199127,1,8,0:0:0:0:
331,142,199205,1,8,0:0:0:0:
396,155,199283,1,8,0:0:0:0:
435,207,199361,1,8,0:0:0:0:
428,273,199440,6,0,B|487:132|376:188|445:-1,1,270.000010299683,4|8,0:0|0:0,0:0:0:0:
311,134,199908,2,0,P|238:151|168:114,1,135.000005149842,0|0,0:0|0:0,0:0:0:0:
254,31,200221,1,0,0:0:0:0:
292,272,200377,1,8,0:0:0:0:
95,169,200533,2,0,P|147:144|229:188,1,135.000005149842,0|0,0:0|0:0,0:0:0:0:
294,295,200846,5,0,0:0:0:0:
294,295,201002,2,0,P|346:320|428:276,1,135.000005149842,8|0,0:0|0:0,0:0:0:0:
184,158,201315,2,0,L|188:301,1,135.000005149842,0|0,0:0|0:0,0:0:0:0:
187,321,201549,1,0,0:0:0:0:
187,321,201627,2,0,P|227:296|320:338,1,135.000005149842,8|0,0:0|0:0,0:0:0:0:
401,131,201940,6,0,P|325:151|261:119,1,135.000005149842,4|0,0:0|0:0,0:0:0:0:
184,48,202252,1,8,0:0:0:0:
111,200,202408,2,0,P|187:220|251:188,1,135.000005149842,0|0,0:0|0:0,0:0:0:0:
328,117,202720,1,0,0:0:0:0:
314,343,202877,2,0,P|315:291|409:247,1,135.000005149842,8|0,0:0|0:0,0:0:0:0:
492,249,203190,5,0,0:0:0:0:
492,249,203346,1,0,0:0:0:0:
395,149,203502,2,0,L|254:140,1,135.000005149842,8|0,0:0|0:0,0:0:0:0:
158,135,203815,1,0,0:0:0:0:
273,334,203971,1,0,0:0:0:0:
371,120,204127,5,8,0:0:0:0:
320,115,204205,1,8,0:0:0:0:
270,111,204283,1,8,0:0:0:0:
219,107,204361,1,8,0:0:0:0:
169,103,204440,6,0,L|180:249,1,135.000005149842,4|0,0:0|0:0,0:0:0:0:
191,342,204752,1,8,0:0:0:0:
353,230,204908,2,0,P|292:207|210:251,1,135.000005149842,0|0,0:0|0:0,0:0:0:0:
378,340,205221,1,0,0:0:0:0:
390,191,205377,6,0,L|401:45,1,135.000005149842,8|0,0:0|0:0,0:0:0:0:
213,57,205690,2,0,L|224:192,1,135.000005149842,0|0,0:0|0:0,0:0:0:0:
238,314,206002,1,8,0:0:0:0:
307,168,206158,2,0,P|243:141|163:166,1,135.000005149842,0|0,0:0|0:0,0:0:0:0:
92,268,206471,1,0,0:0:0:0:
81,47,206627,1,8,0:0:0:0:
291,181,206783,6,0,P|234:196|168:164,1,135.000005149842,0|4,0:0|0:0,0:0:0:0:
390,142,207096,1,0,0:0:0:0:
390,142,207252,2,0,L|378:302,1,135.000005149842,8|0,0:0|0:0,0:0:0:0:
273,349,207565,5,0,0:0:0:0:
162,167,207721,1,0,0:0:0:0:
33,310,207877,2,0,P|99:333|166:312,1,135.000005149842,8|0,0:0|0:0,0:0:0:0:
272,134,208190,5,0,0:0:0:0:
339,335,208346,1,0,0:0:0:0:
162,167,208502,1,8,0:0:0:0:
99,331,208658,1,0,0:0:0:0:
307,114,208815,5,8,0:0:0:0:
273,110,208893,1,8,0:0:0:0:
239,107,208971,1,8,0:0:0:0:
118,114,209127,6,0,L|123:259,1,135.000005149842,0|0,0:0|0:0,0:0:0:0:
130,364,209440,5,12,0:0:0:0:
293,111,209596,1,0,0:0:0:0:
336,357,209752,5,8,0:0:0:0:
203,150,209908,1,0,0:0:0:0:
73,349,210065,5,8,0:0:0:0:
219,83,210221,1,0,0:0:0:0:
356,347,210377,5,8,0:0:0:0:
241,149,210533,1,0,0:0:0:0:
94,300,210690,5,8,0:0:0:0:
389,251,210846,1,0,0:0:0:0:
102,135,211002,5,8,0:0:0:0:
331,205,211158,1,0,0:0:0:0:
67,320,211315,5,8,0:0:0:0:
397,149,211471,1,0,0:0:0:0:
77,96,211627,5,8,0:0:0:0:
386,273,211783,1,0,0:0:0:0:
144,51,211940,5,12,0:0:0:0:
94,335,212096,1,0,0:0:0:0:
94,335,212252,1,0,0:0:0:0:
284,97,212408,5,8,0:0:0:0:
346,334,212565,1,0,0:0:0:0:
346,334,212721,1,0,0:0:0:0:
123,180,212877,5,8,0:0:0:0:
373,195,213033,1,8,0:0:0:0:
232,354,213190,1,12,0:0:0:0:
125,155,214127,6,0,L|210:149,1,67.5000025749208,0|0,0:0|0:0,0:0:0:0:
288,147,214440,1,4,0:0:0:0:
201,334,214596,1,0,0:0:0:0:
201,334,214674,1,0,0:0:0:0:
201,334,214752,1,8,0:0:0:0:
127,102,214908,1,0,0:0:0:0:
278,266,215065,2,0,P|230:238|134:257,1,135.000005149842,0|0,0:0|0:0,0:0:0:0:
74,340,215377,5,8,0:0:0:0:
138,91,215533,1,0,0:0:0:0:
138,91,215611,1,0,0:0:0:0:
138,91,215690,1,0,0:0:0:0:
280,315,215846,1,0,0:0:0:0:
97,166,216002,2,0,L|240:147,1,135.000005149842,8|0,0:0|0:0,0:0:0:0:
363,262,216315,5,0,0:0:0:0:
347,54,216471,1,0,0:0:0:0:
208,202,216627,1,8,0:0:0:0:
169,234,216705,1,8,0:0:0:0:
120,242,216783,1,8,0:0:0:0:
73,224,216861,1,8,0:0:0:0:
41,185,216939,5,4,0:0:0:0:
158,32,217096,1,0,0:0:0:0:
158,32,217174,1,0,0:0:0:0:
158,32,217252,1,8,0:0:0:0:
237,276,217408,1,0,0:0:0:0:
46,95,217565,2,0,L|39:238,1,135.000005149842,0|0,0:0|0:0,0:0:0:0:
33,344,217877,5,8,0:0:0:0:
235,204,218033,1,0,0:0:0:0:
235,204,218111,1,0,0:0:0:0:
235,204,218190,1,0,0:0:0:0:
61,188,218346,1,0,0:0:0:0:
219,359,218502,2,0,P|271:369|348:337,1,135.000005149842,8|0,0:0|0:0,0:0:0:0:
374,221,218815,5,8,0:0:0:0:
374,221,218893,1,8,0:0:0:0:
374,221,218971,2,0,L|377:131,1,67.5000025749208,8|8,0:0|0:0,0:0:0:0:
207,138,219127,5,8,0:0:0:0:
207,138,219205,1,8,0:0:0:0:
207,138,219283,2,0,L|209:205,1,67.5000025749208,8|8,0:0|0:0,0:0:0:0:
212,342,219440,5,4,0:0:0:0:
321,141,219596,1,0,0:0:0:0:
321,141,219674,1,0,0:0:0:0:
321,141,219752,1,8,0:0:0:0:
103,152,219908,1,0,0:0:0:0:
284,322,220065,2,0,P|218:292|152:320,1,135.000005149842,0|0,0:0|0:0,0:0:0:0:
71,370,220377,5,8,0:0:0:0:
106,128,220533,1,0,0:0:0:0:
106,128,220611,1,0,0:0:0:0:
106,128,220690,1,0,0:0:0:0:
256,363,220846,1,0,0:0:0:0:
194,124,221002,2,0,L|178:266,1,135.000005149842,8|0,0:0|0:0,0:0:0:0:
161,380,221315,5,0,0:0:0:0:
362,297,221471,1,0,0:0:0:0:
185,174,221627,1,8,0:0:0:0:
138,155,221705,1,8,0:0:0:0:
88,160,221783,1,8,0:0:0:0:
47,189,221861,1,8,0:0:0:0:
25,234,221940,6,0,L|27:313,1,67.5000025749208,0|0,0:0|0:0,0:0:0:0:
189,357,222096,2,0,L|190:289,1,67.5000025749208,8|0,0:0|0:0,0:0:0:0:
38,138,222252,6,0,P|78:153|126:139,1,67.5000025749208,8|0,0:0|0:0,0:0:0:0:
181,60,222408,2,0,P|147:58|117:72,1,67.5000025749208,0|0,0:0|0:0,0:0:0:0:
101,226,222565,6,0,L|182:219,1,67.5000025749208,0|0,0:0|0:0,0:0:0:0:
261,65,222721,2,0,L|180:58,1,67.5000025749208,8|0,0:0|0:0,0:0:0:0:
152,310,222877,6,0,P|144:270|157:222,1,67.5000025749208,8|0,0:0|0:0,0:0:0:0:
314,157,223033,2,0,P|317:190|309:223,1,67.5000025749208,0|0,0:0|0:0,0:0:0:0:
102,115,223190,5,8,0:0:0:0:
128,93,223268,1,8,0:0:0:0:
160,84,223346,1,8,0:0:0:0:
193,87,223424,1,8,0:0:0:0:
223,102,223502,2,0,P|246:122|340:91,1,135.000005149842,0|0,0:0|0:0,0:0:0:0:
121,21,223815,5,8,0:0:0:0:
136,286,223971,1,8,0:0:0:0:
235,92,224440,5,12,0:0:0:0:
302,350,224596,1,0,0:0:0:0:
302,350,224674,1,0,0:0:0:0:
302,350,224752,1,0,0:0:0:0:
127,140,224908,5,8,0:0:0:0:
78,353,225065,1,0,0:0:0:0:
284,291,225221,1,0,0:0:0:0:
64,213,225377,5,8,0:0:0:0:
325,268,225533,1,0,0:0:0:0:
325,268,225611,1,0,0:0:0:0:
325,268,225689,1,0,0:0:0:0:
44,271,225846,5,8,0:0:0:0:
289,155,226002,1,0,0:0:0:0:
75,70,226158,1,0,0:0:0:0:
138,338,226315,5,8,0:0:0:0:
227,130,226471,1,0,0:0:0:0:
305,360,226627,5,8,0:0:0:0:
190,106,226783,1,0,0:0:0:0:
99,349,226940,5,12,0:0:0:0:
338,255,227096,1,0,0:0:0:0:
338,255,227174,1,0,0:0:0:0:
338,255,227252,1,0,0:0:0:0:
72,177,227408,5,8,0:0:0:0:
330,111,227565,1,0,0:0:0:0:
258,364,227721,1,0,0:0:0:0:
188,81,227877,5,8,0:0:0:0:
138,349,228033,1,0,0:0:0:0:
138,349,228111,1,0,0:0:0:0:
138,349,228190,1,0,0:0:0:0:
419,182,228346,5,8,0:0:0:0:
181,208,228502,1,0,0:0:0:0:
365,362,228658,1,0,0:0:0:0:
250,110,228815,5,8,0:0:0:0:
208,138,228893,1,8,0:0:0:0:
159,144,228971,1,8,0:0:0:0:
112,126,229049,1,8,0:0:0:0:
80,87,229127,2,0,L|82:233,1,135.000005149842,0|0,0:0|0:0,0:0:0:0:
88,351,229440,5,12,0:0:0:0:
171,46,229596,1,0,0:0:0:0:
321,281,229752,5,8,0:0:0:0:
144,262,229908,1,0,0:0:0:0:
333,94,230065,5,8,0:0:0:0:
412,361,230221,1,0,0:0:0:0:
116,167,230377,5,8,0:0:0:0:
299,117,230533,1,0,0:0:0:0:
83,306,230690,5,8,0:0:0:0:
66,35,230846,1,0,0:0:0:0:
316,189,231002,5,8,0:0:0:0:
138,181,231158,1,0,0:0:0:0:
403,52,231315,5,8,0:0:0:0:
472,351,231471,1,0,0:0:0:0:
206,237,231627,5,8,0:0:0:0:
352,167,231783,1,0,0:0:0:0:
122,346,231940,6,0,L|112:260,1,67.5000025749208,8|0,0:0|0:0,0:0:0:0:
341,293,232096,2,0,L|351:207,1,67.5000025749208,0|0,0:0|0:0,0:0:0:0:
139,103,232252,6,0,L|55:114,1,67.5000025749208,8|0,0:0|0:0,0:0:0:0:
248,275,232408,2,0,L|332:286,1,67.5000025749208,0|0,0:0|0:0,0:0:0:0:
32,111,232565,6,0,L|39:206,1,67.5000025749208,8|0,0:0|0:0,0:0:0:0:
218,327,232721,2,0,L|222:259,1,67.5000025749208,0|0,0:0|0:0,0:0:0:0:
237,91,232877,6,0,L|317:81,1,67.5000025749208,8|0,0:0|0:0,0:0:0:0:
385,272,233033,2,0,L|305:262,1,67.5000025749208,0|0,0:0|0:0,0:0:0:0:
426,103,233190,5,8,0:0:0:0:
86,281,233346,1,8,0:0:0:0:
473,278,233502,5,8,0:0:0:0:
38,105,233658,1,8,0:0:0:0:
355,372,233815,5,8,0:0:0:0:
283,43,233971,1,8,0:0:0:0:
137,375,234127,1,8,0:0:0:0:
168,123,234283,1,0,0:0:0:0:
