osu file format v14

[General]
AudioFilename: audio.mp3
AudioLeadIn: 0
PreviewTime: 69440
Countdown: 0
SampleSet: Soft
StackLeniency: 0.8
Mode: 0
LetterboxInBreaks: 0
WidescreenStoryboard: 0

[Editor]
Bookmarks: 19440,29440,49440,69440,94440,104440,114440,126940,154440,189440,209440,214440,224440
DistanceSpacing: 2.1
BeatDivisor: 4
GridSize: 32
TimelineZoom: 2.6

[Metadata]
Title:5150
TitleUnicode:5150
Artist:THE ORAL CIGARETTES
ArtistUnicode:THE ORAL CIGARETTES
Creator:MoonLightOri
Version:Darkness
Source:
Tags:toc a-sketch long ver japanese rock
BeatmapID:2143439
BeatmapSetID:1024769

[Difficulty]
HPDrainRate:5.8
CircleSize:4
OverallDifficulty:9.3
ApproachRate:9.6
SliderMultiplier:1.8
SliderTickRate:1

[Events]
//Background and Video events
0,0,"bg.jpg",0,0
//Break Periods
//Storyboard Layer 0 (Background)
//Storyboard Layer 1 (Fail)
//Storyboard Layer 2 (Pass)
//Storyboard Layer 3 (Foreground)
//Storyboard Layer 4 (Overlay)
//Storyboard Sound Samples

[TimingPoints]
19440,312.5,4,2,1,50,1,0
19752,-125,4,2,1,30,0,0
21940,-125,4,2,1,50,0,0
22252,-125,4,2,1,30,0,0
24440,-100,4,2,1,50,0,0
26940,-100,4,2,1,50,0,0
29127,-166.666666666667,4,2,1,40,0,0
29440,-83.3333333333333,4,2,1,60,0,0
39127,-166.666666666667,4,2,1,40,0,0
39440,-83.3333333333333,4,2,1,60,0,0
46627,-125,4,2,1,60,0,0
48815,-100,4,2,1,60,0,0
49440,-100,4,2,1,50,0,0
64440,-151.515151515152,4,2,1,50,0,0
65690,-100,4,2,1,50,0,0
66940,-100,4,2,1,60,0,0
69440,-83.3333333333333,4,2,1,70,0,1
91627,-83.3333333333333,4,2,1,70,0,1
92877,-58.8235294117647,4,2,1,70,0,1
94127,-166.666666666667,4,2,1,40,0,1
94440,-83.3333333333333,4,2,1,60,0,0
101627,-125,4,2,1,60,0,0
102565,-83.3333333333333,4,2,1,60,0,0
104127,-100,4,2,1,60,0,0
104440,-100,4,2,1,50,0,0
114440,-100,4,2,1,60,0,0
114752,-100,4,2,1,60,0,0
115846,-71.4285714285714,4,2,1,60,0,0
116940,-100,4,2,1,60,0,0
118502,-66.6666666666667,4,2,1,60,0,0
119440,-100,4,2,1,60,0,0
120846,-71.4285714285714,4,2,1,60,0,0
121940,-100,4,2,1,60,0,0
122252,-76.9230769230769,4,2,1,60,0,0
122565,-100,4,2,1,60,0,0
122877,-100,4,2,1,60,0,0
124440,-125,4,2,1,35,0,0
126315,-100,4,2,1,60,0,0
126940,-83.3333333333333,4,2,1,70,0,1
146627,-100,4,2,1,70,0,1
146940,-100,4,2,1,60,0,0
151940,-100,4,2,1,40,0,0
154440,-500,4,2,1,45,0,0
163190,-250,4,2,1,45,0,0
164440,-500,4,2,1,45,0,0
171940,-500,4,2,1,55,0,0
174127,-100,4,2,1,55,0,0
174440,-100,4,2,1,55,0,0
183815,-100,4,2,1,60,0,0
187252,-100,4,2,1,70,0,0
188190,-83.3333333333333,4,2,1,55,0,0
188815,-100,4,2,1,65,0,0
189440,-83.3333333333333,4,2,1,75,0,1
211940,-83.3333333333333,4,2,1,80,0,1
213190,-83.3333333333333,4,2,1,80,0,1
214127,-166.666666666667,4,2,1,40,0,1
214440,-83.3333333333333,4,2,1,60,0,0
224127,-166.666666666667,4,2,1,40,0,0
224440,-83.3333333333333,4,2,1,80,0,0
229127,-166.666666666667,4,2,1,60,0,0
229440,-166.666666666667,4,2,1,80,0,0
231627,-83.3333333333333,4,2,1,80,0,0
234283,-500,4,2,1,80,0,0
234752,-500,4,2,1,5,0,0

[HitObjects]
101,57,19440,5,8,0:0:0:0:
127,237,19596,1,8,0:0:0:0:
238,109,19752,5,0,1:0:0:0:
303,219,19908,1,0,0:0:0:0:
303,219,20065,2,0,L|310:306,1,72,0|0,1:0|0:0,0:0:0:0:
217,185,20377,1,0,1:0:0:0:
217,185,20534,6,0,L|210:98,1,72,0|0,0:0|1:0,0:0:0:0:
313,69,20846,1,0,0:0:0:0:
313,69,21002,2,0,P|355:67|402:61,1,72,0|0,1:0|0:0,0:0:0:0:
197,159,21315,2,0,P|155:157|107:151,1,72,0|0,1:0|0:0,0:0:0:0:
334,224,21627,2,0,P|376:222|423:216,1,72,0|0,1:0|0:0,0:0:0:0:
268,328,21940,5,8,0:0:0:0:
197,159,22096,1,8,0:0:0:0:
120,297,22252,5,0,1:0:0:0:
66,191,22408,1,0,0:0:0:0:
66,191,22565,2,0,L|59:104,1,72,0|0,1:0|0:0,0:0:0:0:
178,57,22877,1,0,1:0:0:0:
178,57,23033,6,0,L|172:128,1,72,0|0,0:0|1:0,0:0:0:0:
75,226,23346,1,0,0:0:0:0:
75,226,23502,2,0,P|39:229|3:231,1,72,0|0,1:0|0:0,0:0:0:0:
155,365,23815,2,0,P|158:329|160:293,1,72,0|0,1:0|0:0,0:0:0:0:
244,159,24127,2,0,P|279:155|315:153,1,72,0|0,1:0|0:0,0:0:0:0:
154,75,24440,5,12,0:0:0:0:
95,255,24596,1,0,0:0:0:0:
37,63,24752,1,0,0:0:0:0:
216,281,24908,5,8,0:0:0:0:
272,94,25065,1,0,0:0:0:0:
363,289,25221,1,0,0:0:0:0:
137,166,25377,5,8,0:0:0:0:
355,101,25533,1,0,0:0:0:0:
129,0,25690,1,0,0:0:0:0:
319,177,25846,5,8,0:0:0:0:
93,295,26002,1,0,0:0:0:0:
354,325,26158,1,0,0:0:0:0:
151,137,26315,2,0,L|38:127,1,90,8|0,0:0|0:0,0:0:0:0:
325,80,26627,2,0,L|437:70,1,90,8|0,0:0|0:0,0:0:0:0:
178,25,26940,5,8,0:0:0:0:
173,67,27018,1,8,0:0:0:0:
169,109,27096,1,8,0:0:0:0:
166,153,27174,1,8,0:0:0:0:
162,196,27252,2,0,L|154:271,1,45,8|8,0:0|0:0,0:0:0:0:
306,297,27409,5,8,0:0:0:0:
310,255,27487,1,8,0:0:0:0:
314,211,27565,1,8,0:0:0:0:
318,168,27643,1,8,0:0:0:0:
321,125,27721,2,0,L|328:48,1,45,8|8,0:0|0:0,0:0:0:0:
179,10,27877,5,8,0:0:0:0:
179,10,27955,1,8,0:0:0:0:
179,10,28033,2,0,L|108:16,1,45,8|8,0:0|0:0,0:0:0:0:
371,87,28190,5,8,0:0:0:0:
371,87,28268,1,8,0:0:0:0:
371,87,28346,2,0,L|441:93,1,45,8|8,0:0|0:0,0:0:0:0:
198,177,28502,5,8,0:0:0:0:
150,180,28580,1,8,0:0:0:0:
103,184,28658,1,8,0:0:0:0:
56,188,28736,1,8,0:0:0:0:
9,192,28814,1,8,0:0:0:0:
6,197,29127,6,0,L|13:279,1,80.9999975280763,0|0,0:0|0:0,0:0:0:0:
61,352,29440,5,4,0:0:0:0:
180,176,29596,1,0,0:0:0:0:
180,176,29674,1,0,0:0:0:0:
180,176,29752,2,0,L|290:166,1,107.999996704102,8|0,0:0|0:0,0:0:0:0:
420,278,30065,2,0,P|385:361|285:339,1,161.999995056153,0|0,0:0|0:0,0:0:0:0:
292,355,30377,1,8,0:0:0:0:
161,200,30533,1,0,0:0:0:0:
161,200,30611,1,0,0:0:0:0:
161,200,30690,6,0,L|150:83,1,107.999996704102,0|0,0:0|0:0,0:0:0:0:
335,189,31002,2,0,L|345:305,1,107.999996704102,8|0,0:0|0:0,0:0:0:0:
347,330,31236,1,0,0:0:0:0:
347,330,31315,1,0,0:0:0:0:
444,196,31471,1,0,0:0:0:0:
287,59,31627,1,8,0:0:0:0:
242,41,31705,1,8,0:0:0:0:
194,43,31783,1,8,0:0:0:0:
151,65,31861,1,8,0:0:0:0:
121,103,31940,6,0,L|111:217,1,107.999996704102,4|0,0:0|0:0,0:0:0:0:
112,244,32174,1,0,0:0:0:0:
112,244,32252,1,8,0:0:0:0:
188,372,32408,1,0,0:0:0:0:
271,177,32565,2,0,B|414:193|318:243|460:263,1,215.999993408203,0|8,0:0|0:0,0:0:0:0:
293,271,33033,1,0,0:0:0:0:
293,271,33111,1,0,0:0:0:0:
293,271,33190,6,0,L|282:378,1,107.999996704102,0|0,0:0|0:0,0:0:0:0:
446,172,33502,2,0,L|455:65,1,107.999996704102,8|0,0:0|0:0,0:0:0:0:
258,45,33815,1,8,0:0:0:0:
211,55,33893,1,8,0:0:0:0:
176,87,33971,1,8,0:0:0:0:
161,133,34049,1,8,0:0:0:0:
170,180,34127,1,8,0:0:0:0:
192,223,34205,1,8,0:0:0:0:
188,270,34283,1,8,0:0:0:0:
159,309,34361,1,8,0:0:0:0:
115,326,34439,5,4,0:0:0:0:
262,142,34596,1,0,0:0:0:0:
262,142,34674,1,0,0:0:0:0:
262,142,34752,2,0,L|271:250,1,107.999996704102,8|0,0:0|0:0,0:0:0:0:
418,108,35065,2,0,P|377:22|273:12,1,161.999995056153,0|0,0:0|0:0,0:0:0:0:
286,3,35377,1,8,0:0:0:0:
138,132,35533,1,0,0:0:0:0:
138,132,35611,1,0,0:0:0:0:
138,132,35690,6,0,L|18:142,1,107.999996704102,0|0,0:0|0:0,0:0:0:0:
270,249,36002,2,0,L|389:259,1,107.999996704102,8|0,0:0|0:0,0:0:0:0:
411,264,36236,1,0,0:0:0:0:
411,264,36315,1,0,0:0:0:0:
287,384,36471,1,0,0:0:0:0:
186,195,36627,1,8,0:0:0:0:
178,142,36705,1,8,0:0:0:0:
202,94,36783,1,8,0:0:0:0:
248,68,36861,1,8,0:0:0:0:
302,66,36940,6,0,L|375:59,1,53.9999983520508,0|0,0:0|0:0,0:0:0:0:
490,102,37096,2,0,L|417:89,1,53.9999983520508,8|0,0:0|0:0,0:0:0:0:
275,157,37252,6,0,L|348:162,1,53.9999983520508,8|0,0:0|0:0,0:0:0:0:
496,186,37408,2,0,L|421:185,1,53.9999983520508,0|0,0:0|0:0,0:0:0:0:
245,254,37565,6,0,L|319:273,1,53.9999983520508,0|0,0:0|0:0,0:0:0:0:
500,269,37721,2,0,L|422:282,1,53.9999983520508,8|0,0:0|0:0,0:0:0:0:
212,352,37877,6,0,L|290:372,1,53.9999983520508,8|0,0:0|0:0,0:0:0:0:
509,355,38033,2,0,L|431:383,1,53.9999983520508,0|0,0:0|0:0,0:0:0:0:
307,165,38190,5,8,0:0:0:0:
257,155,38268,1,8,0:0:0:0:
209,171,38346,1,8,0:0:0:0:
177,211,38424,1,8,0:0:0:0:
170,261,38502,2,0,L|160:336,1,53.9999983520508,0|0,0:0|0:0,0:0:0:0:
76,384,38658,2,0,L|68:330,1,53.9999983520508,0|0,0:0|0:0,0:0:0:0:
87,105,38815,5,8,0:0:0:0:
160,340,38971,1,8,0:0:0:0:
247,185,39127,2,0,L|345:176,1,80.9999975280763,0|0,0:0|0:0,0:0:0:0:
389,113,39440,5,4,0:0:0:0:
180,63,39596,1,0,0:0:0:0:
180,63,39674,1,0,0:0:0:0:
180,63,39752,2,0,L|170:170,1,107.999996704102,8|0,0:0|0:0,0:0:0:0:
112,343,40065,2,0,P|56:296|61:213,1,161.999995056153,0|0,0:0|0:0,0:0:0:0:
78,185,40377,1,8,0:0:0:0:
240,322,40533,1,0,0:0:0:0:
240,322,40611,1,0,0:0:0:0:
240,322,40690,6,0,L|352:312,1,107.999996704102,0|0,0:0|0:0,0:0:0:0:
146,255,41002,2,0,L|33:245,1,107.999996704102,8|0,0:0|0:0,0:0:0:0:
12,247,41236,1,0,0:0:0:0:
12,247,41315,1,0,0:0:0:0:
105,384,41471,1,0,0:0:0:0:
288,271,41627,1,8,0:0:0:0:
306,226,41705,1,8,0:0:0:0:
304,178,41783,1,8,0:0:0:0:
282,135,41861,1,8,0:0:0:0:
244,105,41940,6,0,L|130:95,1,107.999996704102,4|0,0:0|0:0,0:0:0:0:
110,95,42174,1,0,0:0:0:0:
110,95,42252,1,8,0:0:0:0:
217,207,42408,1,0,0:0:0:0:
293,18,42565,2,0,B|435:38|339:88|482:104,1,215.999993408203,0|8,0:0|0:0,0:0:0:0:
308,117,43033,1,0,0:0:0:0:
308,117,43111,1,0,0:0:0:0:
308,117,43190,6,0,L|317:230,1,107.999996704102,0|0,0:0|0:0,0:0:0:0:
472,10,43502,2,0,L|462:123,1,107.999996704102,8|0,0:0|0:0,0:0:0:0:
392,275,43815,1,8,0:0:0:0:
359,310,43893,1,8,0:0:0:0:
312,320,43971,1,8,0:0:0:0:
268,303,44049,1,8,0:0:0:0:
237,265,44127,1,8,0:0:0:0:
191,245,44205,1,8,0:0:0:0:
144,263,44283,1,8,0:0:0:0:
123,308,44361,1,8,0:0:0:0:
140,356,44439,5,4,0:0:0:0:
157,152,44596,5,0,0:0:0:0:
157,152,44674,1,0,0:0:0:0:
157,152,44752,2,0,L|289:140,1,107.999996704102,8|0,0:0|0:0,0:0:0:0:
190,312,45065,2,0,P|116:293|86:188,1,161.999995056153,0|0,0:0|0:0,0:0:0:0:
79,188,45377,1,8,0:0:0:0:
228,59,45533,1,0,0:0:0:0:
228,59,45611,1,0,0:0:0:0:
228,59,45690,6,0,L|238:178,1,107.999996704102,0|0,0:0|0:0,0:0:0:0:
399,1,46002,2,0,L|389:108,1,107.999996704102,8|0,0:0|0:0,0:0:0:0:
303,280,46315,1,8,0:0:0:0:
258,298,46393,1,8,0:0:0:0:
210,296,46471,1,8,0:0:0:0:
167,274,46549,1,8,0:0:0:0:
137,236,46628,2,0,L|127:122,1,107.999996704102,0|0,0:0|0:0,0:0:0:0:
81,59,46940,5,12,0:0:0:0:
233,220,47096,1,0,0:0:0:0:
201,0,47252,1,0,0:0:0:0:
108,197,47408,5,8,0:0:0:0:
285,64,47565,1,0,0:0:0:0:
327,262,47721,1,0,0:0:0:0:
127,128,47877,5,8,0:0:0:0:
73,333,48033,1,0,0:0:0:0:
218,152,48190,1,8,0:0:0:0:
247,131,48268,1,8,0:0:0:0:
281,121,48346,1,8,0:0:0:0:
317,124,48424,1,8,0:0:0:0:
350,139,48502,1,0,0:0:0:0:
375,165,48580,1,0,0:0:0:0:
390,197,48658,1,0,0:0:0:0:
394,233,48736,1,0,0:0:0:0:
388,278,48815,5,4,1:0:0:0:
343,269,48893,1,4,1:0:0:0:
298,268,48971,1,4,1:0:0:0:
257,285,49049,1,4,1:0:0:0:
229,319,49127,1,0,0:0:0:0:
198,352,49205,1,0,0:0:0:0:
158,369,49283,1,0,0:0:0:0:
113,371,49361,1,0,0:0:0:0:
68,366,49440,6,0,P|27:305|76:210,1,180,4|8,0:2|0:0,0:0:0:0:
201,128,49908,1,0,0:0:0:0:
120,290,50065,1,0,1:0:0:0:
69,95,50221,1,0,0:0:0:0:
196,211,50377,2,0,L|313:200,1,90,8|0,0:0|0:0,0:0:0:0:
408,46,50690,6,0,P|401:91|397:164,1,90,0|0,1:0|0:0,0:0:0:0:
422,260,51002,1,8,0:0:0:0:
366,100,51158,1,0,0:0:0:0:
196,211,51315,2,0,P|193:255|185:300,1,90,0|0,0:0|0:0,0:0:0:0:
75,159,51627,2,0,P|77:114|85:69,1,90,8|0,0:0|0:0,0:0:0:0:
101,305,51940,6,0,P|147:378|253:352,1,180,0|8,0:0|0:0,0:0:0:0:
325,238,52408,2,0,P|371:231|431:228,1,90,0|0,0:0|0:0,0:0:0:0:
359,104,52721,1,0,0:0:0:0:
261,286,52877,1,8,0:0:0:0:
191,154,53033,6,0,P|144:147|84:144,1,90,0|0,0:0|0:0,0:0:0:0:
197,314,53346,2,0,P|242:311|287:304,1,90,0|8,0:0|0:0,0:0:0:0:
90,252,53658,1,0,0:0:0:0:
183,64,53815,2,0,L|193:178,1,90,0|0,0:0|0:0,0:0:0:0:
310,284,54127,2,0,L|320:169,1,90,8|0,0:0|0:0,0:0:0:0:
465,309,54440,6,0,B|352:311|423:385|272:386,1,180,0|8,0:0|0:0,0:0:0:0:
183,315,54908,1,0,0:0:0:0:
271,139,55065,1,0,0:0:0:0:
310,284,55221,1,0,0:0:0:0:
143,166,55377,2,0,P|99:166|47:173,1,90,8|0,0:0|0:0,0:0:0:0:
150,26,55690,6,0,P|237:65|269:171,1,180,0|8,0:0|0:0,0:0:0:0:
156,293,56158,1,0,0:0:0:0:
227,105,56315,1,0,0:0:0:0:
332,232,56471,2,0,P|338:273|341:328,1,90,0|8,0:0|0:0,0:0:0:0:
381,123,56783,1,0,0:0:0:0:
178,269,56940,6,0,B|63:259|124:214|6:201,1,180,0|8,0:0|0:0,0:0:0:0:
178,169,57408,2,0,P|186:122|191:73,1,90,0|0,0:0|0:0,0:0:0:0:
308,297,57721,2,0,P|300:250|295:201,1,90,0|8,0:0|0:0,0:0:0:0:
414,91,58033,1,0,0:0:0:0:
476,294,58190,5,8,0:0:0:0:
433,280,58268,1,8,0:0:0:0:
389,284,58346,1,8,0:0:0:0:
352,310,58424,1,8,0:0:0:0:
314,333,58502,1,8,0:0:0:0:
269,335,58580,1,8,0:0:0:0:
226,324,58658,1,8,0:0:0:0:
207,283,58736,1,8,0:0:0:0:
219,239,58815,6,0,P|233:214|261:190,1,45,0|0,0:0|0:0,0:0:0:0:
316,117,58971,1,0,0:0:0:0:
316,117,59049,1,0,0:0:0:0:
316,117,59127,2,0,L|302:206,1,90,0|0,0:0|0:0,0:0:0:0:
207,283,59440,5,0,0:0:0:0:
157,134,59596,1,0,0:0:0:0:
90,357,59752,1,8,0:0:0:0:
223,253,59908,2,0,P|272:236|330:224,1,90,0|0,0:0|0:0,0:0:0:0:
426,140,60221,1,0,0:0:0:0:
343,325,60377,1,0,0:0:0:0:
277,100,60533,6,0,P|286:144|290:188,1,90,8|0,0:0|0:0,0:0:0:0:
154,264,60846,2,0,P|149:308|140:352,1,90,0|8,0:0|0:0,0:0:0:0:
144,121,61158,2,0,P|93:113|28:93,1,90,0|0,0:0|0:0,0:0:0:0:
290,188,61471,2,0,P|341:180|406:160,1,90,0|8,0:0|0:0,0:0:0:0:
198,384,61783,6,0,P|194:333|184:271,1,90,0|0,0:0|0:0,0:0:0:0:
76,233,62096,1,0,0:0:0:0:
254,117,62252,1,8,0:0:0:0:
271,253,62408,1,0,0:0:0:0:
117,71,62565,2,0,P|79:53|31:39,1,90,0|0,0:0|0:0,0:0:0:0:
102,208,62877,1,0,0:0:0:0:
226,137,63033,6,0,P|281:141|346:156,1,90,8|0,0:0|0:0,0:0:0:0:
431,267,63346,2,0,P|386:274|341:277,1,90,0|8,0:0|0:0,0:0:0:0:
246,194,63658,1,0,0:0:0:0:
128,374,63815,2,0,L|120:284,1,90,0|0,0:0|0:0,0:0:0:0:
78,138,64127,1,8,0:0:0:0:
85,95,64205,1,8,0:0:0:0:
113,64,64283,1,8,0:0:0:0:
154,49,64361,1,8,0:0:0:0:
198,59,64440,6,0,L|286:66,1,89.0999997280884,4|0,0:0|0:0,0:0:0:0:
357,113,64752,5,8,0:0:0:0:
211,261,64908,1,0,0:0:0:0:
414,307,65065,1,8,0:0:0:0:
235,133,65221,1,0,0:0:0:0:
312,355,65377,5,8,0:0:0:0:
457,134,65533,1,0,0:0:0:0:
177,188,65690,1,8,0:0:0:0:
406,384,65846,5,0,0:0:0:0:
340,112,66002,1,8,0:0:0:0:
147,313,66158,1,0,0:0:0:0:
446,240,66315,1,8,0:0:0:0:
446,240,66627,5,0,0:0:0:0:
446,240,66705,1,0,0:0:0:0:
446,240,66783,1,0,0:0:0:0:
446,240,66861,1,0,0:0:0:0:
446,240,66940,5,12,0:0:0:0:
311,101,67096,1,0,0:0:0:0:
238,316,67252,1,0,0:0:0:0:
444,97,67408,5,8,0:0:0:0:
180,54,67565,1,0,0:0:0:0:
314,306,67721,1,0,0:0:0:0:
418,52,67877,5,0,0:0:0:0:
418,52,67955,1,0,0:0:0:0:
418,52,68033,1,0,0:0:0:0:
418,52,68111,1,0,0:0:0:0:
418,52,68190,1,8,0:0:0:0:
269,129,68346,6,0,P|226:147|188:176,1,90,4|0,1:0|0:0,0:0:0:0:
435,210,68658,2,0,P|478:228|516:257,1,90,4|0,1:0|0:0,0:0:0:0:
253,289,69440,6,0,B|203:321|203:321|123:334,1,107.999996704102,4|0,0:2|0:0,0:0:0:0:
47,137,69752,1,8,0:0:0:0:
187,214,69908,2,0,L|321:202,1,107.999996704102,0|0,0:0|0:0,0:0:0:0:
411,295,70221,1,0,0:0:0:0:
292,90,70377,1,8,0:0:0:0:
251,244,70533,1,0,0:0:0:0:
393,72,70690,6,0,B|371:20|371:20|310:-7,1,107.999996704102,0|0,0:0|0:0,0:0:0:0:
198,226,71002,2,0,B|250:247|250:247|312:223,1,107.999996704102,8|0,0:0|0:0,0:0:0:0:
76,324,71315,6,0,B|71:264|71:264|66:216,1,107.999996704102,0|0,0:0|0:0,0:0:0:0:
81,176,71549,2,0,B|109:183|109:183|140:181,1,53.9999983520508,0|8,0:0|0:0,0:0:0:0:
224,333,71783,1,0,0:0:0:0:
332,120,71940,6,0,L|322:12,1,107.999996704102,4|0,0:0|0:0,0:0:0:0:
452,164,72252,1,8,0:0:0:0:
225,240,72408,2,0,B|171:260|171:260|89:244,1,107.999996704102,0|0,0:0|0:0,0:0:0:0:
66,111,72721,1,0,0:0:0:0:
192,327,72877,2,0,L|201:219,1,107.999996704102,8|0,0:0|0:0,0:0:0:0:
285,350,73190,5,0,0:0:0:0:
206,159,73346,1,0,0:0:0:0:
55,384,73502,2,0,L|42:246,1,107.999996704102,8|0,0:0|0:0,0:0:0:0:
75,74,73815,1,0,0:0:0:0:
169,235,73971,1,0,0:0:0:0:
306,42,74127,1,8,0:0:0:0:
358,53,74205,1,8,0:0:0:0:
400,86,74283,1,8,0:0:0:0:
424,134,74361,1,8,0:0:0:0:
427,189,74440,6,0,L|416:305,1,107.999996704102,4|0,0:0|0:0,0:0:0:0:
341,130,74752,1,8,0:0:0:0:
224,230,74908,2,0,L|85:242,1,107.999996704102
41,141,75221,1,0,0:0:0:0:
231,39,75377,2,0,B|199:114|199:114|216:201,1,161.999995056153,8|0,0:0|0:0,0:0:0:0:
224,230,75690,6,0,L|353:218,1,107.999996704102
123,159,76002,1,8,0:0:0:0:
309,122,76158,2,0,L|438:133,1,107.999996704102
273,291,76471,2,0,B|216:301|216:301|141:274,1,107.999996704102,0|8,0:0|0:0,0:0:0:0:
140,132,76783,1,0,0:0:0:0:
217,343,76940,5,0,0:0:0:0:
279,167,77096,1,0,0:0:0:0:
50,334,77252,2,0,L|58:226,1,107.999996704102,8|0,0:0|0:0,0:0:0:0:
189,369,77565,1,0,0:0:0:0:
260,194,77721,1,0,0:0:0:0:
455,337,77877,2,0,L|445:229,1,107.999996704102,8|0,0:0|0:0,0:0:0:0:
323,326,78190,5,0,0:0:0:0:
122,302,78346,1,0,0:0:0:0:
351,152,78502,1,8,0:0:0:0:
86,177,78658,1,0,0:0:0:0:
189,369,78815,5,8,0:0:0:0:
249,363,78893,1,8,0:0:0:0:
311,357,78971,1,8,0:0:0:0:
373,351,79049,1,8,0:0:0:0:
436,347,79127,2,0,L|507:340,1,53.9999983520508,8|8,0:0|0:0,0:0:0:0:
379,216,79283,1,8,0:0:0:0:
379,216,79361,1,8,0:0:0:0:
379,216,79440,6,0,L|368:99,1,107.999996704102,4|0,0:0|0:0,0:0:0:0:
218,0,79752,1,8,0:0:0:0:
148,145,79908,2,0,B|202:170|202:170|280:164,1,107.999996704102,0|0,0:0|0:0,0:0:0:0:
367,72,80221,1,0,0:0:0:0:
426,270,80377,1,8,0:0:0:0:
278,184,80533,1,0,0:0:0:0:
451,0,80690,6,0,B|471:50|471:50|460:111,1,107.999996704102,0|0,0:0|0:0,0:0:0:0:
199,182,81002,2,0,B|220:132|220:132|264:101,1,107.999996704102,8|0,0:0|0:0,0:0:0:0:
443,312,81315,2,0,L|432:196,1,107.999996704102,0|0,0:0|0:0,0:0:0:0:
408,177,81549,2,0,B|382:184|382:184|354:182,1,53.9999983520508,0|8,0:0|0:0,0:0:0:0:
264,314,81783,1,0,0:0:0:0:
126,133,81940,6,0,L|232:123,1,107.999996704102,4|0,0:0|0:0,0:0:0:0:
22,42,82252,1,8,0:0:0:0:
0,192,82408,2,0,B|-4:249|-4:249|22:303,1,107.999996704102,0|0,0:0|0:0,0:0:0:0:
149,163,82721,1,0,0:0:0:0:
278,345,82877,2,0,L|163:355,1,107.999996704102,8|0,0:0|0:0,0:0:0:0:
402,266,83190,5,0,0:0:0:0:
249,152,83346,1,0,0:0:0:0:
447,15,83502,2,0,L|437:126,1,107.999996704102,8|0,0:0|0:0,0:0:0:0:
341,301,83815,1,0,0:0:0:0:
299,96,83971,1,0,0:0:0:0:
137,267,84127,1,8,0:0:0:0:
85,256,84205,1,8,0:0:0:0:
43,223,84283,1,8,0:0:0:0:
19,175,84361,1,8,0:0:0:0:
16,120,84440,6,0,L|27:4,1,107.999996704102,4|0,0:0|0:0,0:0:0:0:
104,172,84752,1,8,0:0:0:0:
221,120,84908,2,0,L|343:130,1,107.999996704102,0|0,0:0|0:0,0:0:0:0:
386,241,85221,1,0,0:0:0:0:
237,42,85377,2,0,B|256:119|256:119|237:227,1,161.999995056153,8|0,0:0|0:0,0:0:0:0:
232,238,85690,6,0,L|110:227,1,107.999996704102,0|0,0:0|0:0,0:0:0:0:
300,333,86002,1,8,0:0:0:0:
389,208,86158,2,0,L|510:197,1,107.999996704102
416,303,86471,1,0,0:0:0:0:
290,105,86627,1,8,0:0:0:0:
226,270,86783,1,0,0:0:0:0:
432,96,86940,6,0,L|442:212,1,107.999996704102,0|0,0:0|0:0,0:0:0:0:
277,355,87252,2,0,L|286:247,1,107.999996704102,8|0,0:0|0:0,0:0:0:0:
148,323,87565,1,0,0:0:0:0:
200,140,87721,1,0,0:0:0:0:
386,293,87877,2,0,B|436:317|436:317|490:308,1,107.999996704102,8|0,0:0|0:0,0:0:0:0:
369,148,88190,5,0,0:0:0:0:
277,355,88346,1,0,0:0:0:0:
172,114,88502,1,8,0:0:0:0:
179,319,88658,1,0,0:0:0:0:
329,80,88815,1,0,0:0:0:0:
329,80,88893,1,0,0:0:0:0:
329,80,88971,2,0,L|445:90,1,107.999996704102,0|0,0:0|0:0,0:0:0:0:
200,114,89283,1,0,0:0:0:0:
311,338,89440,6,0,L|301:230,1,107.999996704102,12|0,0:0|0:0,0:0:0:0:
210,86,89752,1,0,0:0:0:0:
107,289,89908,6,0,L|-13:299,1,107.999996704102,8|0,0:0|0:0,0:0:0:0:
88,110,90221,1,0,0:0:0:0:
296,199,90377,6,0,L|416:209,1,107.999996704102,8|0,0:0|0:0,0:0:0:0:
242,61,90690,1,0,0:0:0:0:
136,275,90846,6,0,L|126:383,1,107.999996704102,8|0,0:0|0:0,0:0:0:0:
97,141,91158,1,0,0:0:0:0:
314,324,91315,1,8,0:0:0:0:
337,90,91471,1,0,0:0:0:0:
107,280,91627,2,0,L|-23:291,1,107.999996704102,8|0,0:0|0:0,0:0:0:0:
39,109,91940,5,4,0:0:0:0:
39,109,92252,5,8,0:0:0:0:
85,84,92330,1,8,0:0:0:0:
137,94,92408,1,8,0:0:0:0:
172,134,92486,1,8,0:0:0:0:
172,190,92565,1,8,0:0:0:0:
153,240,92643,1,8,0:0:0:0:
167,291,92721,1,8,0:0:0:0:
208,325,92799,1,8,0:0:0:0:
261,332,92877,5,8,0:0:0:0:
317,284,92955,1,8,0:0:0:0:
322,209,93033,1,8,0:0:0:0:
270,156,93111,1,8,0:0:0:0:
196,156,93189,1,12,0:0:0:0:
240,240,94127,6,0,L|342:231,1,80.9999975280763,0|0,0:0|0:0,0:0:0:0:
369,152,94440,5,4,0:2:0:0:
438,349,94596,1,0,0:0:0:0:
438,349,94674,1,0,0:0:0:0:
438,349,94752,2,0,L|308:360,1,107.999996704102,8|0,0:0|0:0,0:0:0:0:
179,285,95065,2,0,P|185:186|271:170,1,161.999995056153,0|0,0:0|0:0,0:0:0:0:
267,163,95377,1,8,0:0:0:0:
448,279,95533,1,0,0:0:0:0:
448,279,95611,1,0,0:0:0:0:
448,279,95690,6,0,L|435:139,1,107.999996704102,0|0,0:0|0:0,0:0:0:0:
276,55,96002,6,0,L|266:162,1,107.999996704102,8|0,0:0|0:0,0:0:0:0:
268,196,96236,1,0,0:0:0:0:
268,196,96315,1,0,0:0:0:0:
144,67,96471,1,0,0:0:0:0:
197,274,96627,1,8,0:0:0:0:
242,292,96705,1,8,0:0:0:0:
290,290,96783,1,8,0:0:0:0:
333,268,96861,1,8,0:0:0:0:
363,230,96940,6,0,L|477:240,1,107.999996704102,4|0,0:0|0:0,0:0:0:0:
504,244,97174,1,0,0:0:0:0:
504,244,97252,1,8,0:0:0:0:
410,356,97408,1,0,0:0:0:0:
268,193,97565,2,0,B|129:203|218:271|69:288,1,215.999993408203,0|8,0:0|0:0,0:0:0:0:
260,277,98033,1,0,0:0:0:0:
260,277,98111,1,0,0:0:0:0:
260,277,98190,6,0,L|269:384,1,107.999996704102,0|0,0:0|0:0,0:0:0:0:
100,196,98502,2,0,L|90:303,1,107.999996704102,8|0,0:0|0:0,0:0:0:0:
238,80,98815,1,8,0:0:0:0:
282,56,98893,1,8,0:0:0:0:
330,66,98971,1,8,0:0:0:0:
361,106,99049,1,8,0:0:0:0:
357,161,99127,1,8,0:0:0:0:
339,208,99205,1,8,0:0:0:0:
351,257,99283,1,8,0:0:0:0:
389,289,99361,1,8,0:0:0:0:
440,293,99439,5,4,0:0:0:0:
293,130,99596,1,0,0:0:0:0:
293,130,99674,1,0,0:0:0:0:
293,130,99752,2,0,L|182:139,1,107.999996704102,8|0,0:0|0:0,0:0:0:0:
59,273,100065,2,0,P|93:337|191:343,1,161.999995056153,0|0,0:0|0:0,0:0:0:0:
210,335,100377,1,8,0:0:0:0:
357,161,100533,1,0,0:0:0:0:
357,161,100611,1,0,0:0:0:0:
357,161,100690,6,0,L|367:283,1,107.999996704102,0|0,0:0|0:0,0:0:0:0:
185,139,101002,2,0,L|194:31,1,107.999996704102,8|0,0:0|0:0,0:0:0:0:
424,86,101315,1,8,0:0:0:0:
442,131,101393,1,8,0:0:0:0:
440,179,101471,1,8,0:0:0:0:
418,222,101549,1,8,0:0:0:0:
380,252,101628,2,0,L|266:262,1,107.999996704102,0|0,0:0|0:0,0:0:0:0:
189,189,101940,5,0,0:0:0:0:
187,171,102018,1,0,0:0:0:0:
186,153,102096,1,8,0:0:0:0:
185,135,102174,1,0,0:0:0:0:
183,117,102252,1,8,0:0:0:0:
182,99,102330,1,0,0:0:0:0:
181,81,102408,1,0,0:0:0:0:
179,63,102486,1,0,0:0:0:0:
178,47,102565,6,0,L|105:53,1,53.9999983520508,0|0,0:0|0:0,0:0:0:0:
297,83,102721,2,0,L|369:89,1,53.9999983520508,8|0,0:0|0:0,0:0:0:0:
152,143,102877,6,0,L|79:149,1,53.9999983520508,8|0,0:0|0:0,0:0:0:0:
317,188,103033,2,0,L|389:194,1,53.9999983520508,0|0,0:0|0:0,0:0:0:0:
142,253,103190,5,0,0:0:0:0:
125,254,103268,1,0,0:0:0:0:
107,255,103346,1,8,0:0:0:0:
89,256,103424,1,0,0:0:0:0:
71,258,103502,1,8,0:0:0:0:
53,259,103580,1,0,0:0:0:0:
35,260,103658,1,0,0:0:0:0:
17,262,103736,1,0,0:0:0:0:
0,264,103815,6,0,L|6:336,1,53.9999983520508,0|0,0:0|0:0,0:0:0:0:
131,384,103971,2,0,L|124:311,1,53.9999983520508,0|0,0:0|0:0,0:0:0:0:
82,189,104127,2,0,P|122:141|204:156,1,135,0|0,0:0|0:0,0:0:0:0:
208,171,104440,6,0,B|199:212|199:212|220:235|220:235|201:291|229:340,1,180,0|0,1:0|0:0,0:0:0:0:
398,293,104908,1,0,0:0:0:0:
398,293,105065,2,0,P|393:238|385:196,1,90,8|0,0:0|0:0,0:0:0:0:
336,86,105377,1,0,1:0:0:0:
182,162,105533,6,0,B|302:167|235:222|371:234,1,180,0|0,1:0|1:0,0:0:0:0:
425,80,106002,2,0,P|376:80|326:87,1,90,0|0,1:0|0:0,0:0:0:0:
182,162,106315,1,8,0:0:0:0:
219,282,106471,1,0,0:0:0:0:
330,117,106627,2,0,P|336:161|339:223,1,90,0|0,0:0|0:0,0:0:0:0:
163,84,106940,5,0,1:0:0:0:
163,84,107096,2,0,P|157:128|154:190,1,90,0|0,1:0|0:0,0:0:0:0:
304,314,107408,1,0,1:0:0:0:
304,314,107564,2,0,P|310:270|313:208,1,90,8|0,0:0|0:0,0:0:0:0:
196,81,107877,5,0,1:0:0:0:
196,81,108033,2,0,P|244:74|299:73,1,90,0|0,1:0|0:0,0:0:0:0:
110,203,108346,2,0,P|66:197|21:195,1,90,0|0,1:0|0:0,0:0:0:0:
29,307,108658,1,0,0:0:0:0:
190,238,108815,1,8,0:0:0:0:
133,360,108971,1,0,0:0:0:0:
88,182,109127,2,0,P|82:134|79:69,1,90,0|0,0:0|0:0,0:0:0:0:
203,45,109440,6,0,B|248:40|248:40|261:56|261:56|313:37|371:79|371:79|394:86,1,180,0|0,1:0|0:0,0:0:0:0:
291,224,109908,1,0,1:0:0:0:
291,224,110065,2,0,P|294:169|303:103,1,90,8|0,0:0|0:0,0:0:0:0:
407,80,110377,1,0,1:0:0:0:
368,278,110533,6,0,P|272:318|196:248,1,180,0|0,1:0|1:0,0:0:0:0:
115,164,111002,2,0,P|71:164|22:169,1,90,0|0,1:0|0:0,0:0:0:0:
149,79,111315,1,8,0:0:0:0:
197,262,111471,1,0,0:0:0:0:
284,114,111627,1,0,0:0:0:0:
93,189,111783,1,0,0:0:0:0:
325,276,111940,6,0,P|331:181|397:85,1,180,0|0,1:0|0:0,0:0:0:0:
454,209,112408,1,0,1:0:0:0:
454,209,112565,2,0,P|408:217|345:216,1,90,8|0,0:0|0:0,0:0:0:0:
254,113,112877,1,0,1:0:0:0:
159,313,113033,6,0,B|169:258|169:258|149:242|149:242|169:182|129:124,1,180,0|0,1:0|1:0,0:0:0:0:
89,39,113502,2,0,P|47:32|-3:33,1,90,0|0,1:0|0:0,0:0:0:0:
238,142,113815,2,0,P|280:149|330:148,1,90,8|0,0:0|0:0,0:0:0:0:
355,147,114049,1,0,0:0:0:0:
355,147,114127,1,8,0:0:0:0:
103,318,114440,6,0,P|92:266|89:220,1,90,0|0,1:0|0:0,0:0:0:0:
69,71,114752,1,8,0:0:0:0:
94,34,114830,1,8,0:0:0:0:
134,15,114908,1,8,0:0:0:0:
179,19,114986,1,8,0:0:0:0:
215,45,115065,1,8,0:0:0:0:
241,81,115143,1,8,0:0:0:0:
250,125,115221,1,8,0:0:0:0:
243,169,115299,1,8,0:0:0:0:
219,207,115377,1,8,0:0:0:0:
201,247,115455,1,8,0:0:0:0:
210,290,115533,1,8,0:0:0:0:
244,319,115611,1,8,0:0:0:0:
287,323,115689,1,8,0:0:0:0:
324,298,115767,1,8,0:0:0:0:
336,255,115846,5,8,0:0:0:0:
313,197,115924,1,8,0:0:0:0:
257,170,116002,1,8,0:0:0:0:
197,190,116080,1,8,0:0:0:0:
137,204,116158,1,8,0:0:0:0:
84,173,116236,1,8,0:0:0:0:
64,115,116315,1,8,0:0:0:0:
81,55,116393,1,8,0:0:0:0:
132,20,116471,1,8,0:0:0:0:
193,24,116549,1,8,0:0:0:0:
239,65,116627,6,0,L|246:142,1,62.9999980773926,8|8,0:0|0:0,0:0:0:0:
99,271,116783,2,0,L|106:193,1,62.9999980773926,8|8,0:0|0:0,0:0:0:0:
321,62,116940,6,0,P|369:63|436:73,1,90,4|0,0:0|0:0,0:0:0:0:
478,224,117252,1,8,0:0:0:0:
462,265,117330,1,8,0:0:0:0:
425,291,117408,1,8,0:0:0:0:
381,292,117486,1,8,0:0:0:0:
344,269,117565,1,8,0:0:0:0:
314,235,117643,1,8,0:0:0:0:
274,217,117721,1,8,0:0:0:0:
229,219,117799,1,8,0:0:0:0:
190,241,117877,1,8,0:0:0:0:
164,280,117955,1,8,0:0:0:0:
168,325,118033,1,8,0:0:0:0:
199,357,118111,1,8,0:0:0:0:
239,364,118190,1,8,0:0:0:0:
279,345,118268,1,8,0:0:0:0:
302,308,118346,1,8,0:0:0:0:
299,263,118424,1,8,0:0:0:0:
274,223,118502,5,8,0:0:0:0:
262,157,118580,1,8,0:0:0:0:
295,100,118658,1,8,0:0:0:0:
357,76,118736,1,8,0:0:0:0:
421,99,118815,1,8,0:0:0:0:
458,153,118893,1,8,0:0:0:0:
453,219,118971,1,8,0:0:0:0:
409,268,119049,1,8,0:0:0:0:
348,278,119127,6,0,L|268:284,1,67.5000025749208,8|8,0:0|0:0,0:0:0:0:
127,143,119283,2,0,L|206:149,1,67.5000025749208,8|8,0:0|0:0,0:0:0:0:
60,334,119440,6,0,P|50:286|47:229,1,90,4|0,0:0|0:0,0:0:0:0:
85,31,119752,1,8,0:0:0:0:
129,29,119830,1,8,0:0:0:0:
174,35,119908,1,8,0:0:0:0:
215,53,119986,1,8,0:0:0:0:
245,86,120064,1,8,0:0:0:0:
271,123,120142,1,8,0:0:0:0:
304,153,120220,1,8,0:0:0:0:
346,169,120298,1,8,0:0:0:0:
391,174,120377,1,8,0:0:0:0:
427,148,120455,1,8,0:0:0:0:
443,107,120533,1,8,0:0:0:0:
431,64,120611,1,8,0:0:0:0:
398,35,120689,1,8,0:0:0:0:
354,31,120767,1,8,0:0:0:0:
315,51,120846,5,8,0:0:0:0:
295,110,120924,1,8,0:0:0:0:
318,164,121002,1,8,0:0:0:0:
348,217,121080,1,8,0:0:0:0:
343,279,121158,1,8,0:0:0:0:
300,323,121236,1,8,0:0:0:0:
238,326,121315,5,8,0:0:0:0:
189,288,121392,1,8,0:0:0:0:
178,228,121470,1,8,0:0:0:0:
209,175,121548,1,8,0:0:0:0:
269,156,121627,6,0,L|370:147,1,62.9999980773926,8|8,0:0|0:0,0:0:0:0:
477,294,121783,2,0,L|375:285,1,62.9999980773926,8|8,0:0|0:0,0:0:0:0:
155,197,121940,6,0,P|153:138|171:81,1,90,4|0,0:0|0:0,0:0:0:0:
376,97,122252,1,8,0:0:0:0:
416,138,122330,1,8,0:0:0:0:
430,194,122408,1,8,0:0:0:0:
413,249,122486,1,8,0:0:0:0:
366,290,122565,1,8,0:0:0:0:
322,293,122643,1,8,0:0:0:0:
282,274,122721,1,8,0:0:0:0:
237,278,122799,1,8,0:0:0:0:
200,302,122877,2,0,L|84:312,1,90,0|0,0:0|0:0,0:0:0:0:
8,232,123190,5,8,0:0:0:0:
177,172,123346,1,0,0:0:0:0:
177,172,123424,1,0,0:0:0:0:
177,172,123502,2,0,L|187:50,1,90,0|0,0:0|0:0,0:0:0:0:
282,284,123815,1,8,0:0:0:0:
343,143,123971,1,0,0:0:0:0:
432,318,124127,2,0,L|443:405,2,60,0|0|0,0:0|0:0|0:0,0:0:0:0:
282,284,124440,5,8,0:0:0:0:
282,284,124596,2,0,P|246:293|198:298,1,72
98,221,124908,1,0,0:0:0:0:
98,221,125064,2,0,P|132:212|168:207,1,72
320,156,125377,5,0,0:0:0:0:
320,156,125533,2,0,P|316:109|309:51,1,72
168,207,125846,1,0,0:0:0:0:
168,207,126002,2,0,P|171:161|179:102,1,72
104,307,126315,6,0,L|195:298,1,90
264,349,126549,2,0,L|353:356,1,90
424,305,126783,1,0,0:0:0:0:
395,132,126940,6,0,B|337:136|337:136|277:177,1,107.999996704102,4|0,0:0|0:0,0:0:0:0:
235,336,127252,1,8,0:0:0:0:
135,213,127408,2,0,L|125:105,1,107.999996704102,0|0,0:0|0:0,0:0:0:0:
54,257,127721,1,0,0:0:0:0:
249,118,127877,1,8,0:0:0:0:
225,307,128033,1,0,0:0:0:0:
108,77,128190,6,0,B|58:53|58:53|-7:67,1,107.999996704102,0|0,0:0|0:0,0:0:0:0:
311,161,128502,2,0,B|322:109|322:109|298:59,1,107.999996704102,8|0,0:0|0:0,0:0:0:0:
54,257,128815,2,0,L|63:149,1,107.999996704102,0|0,0:0|0:0,0:0:0:0:
78,109,129049,2,0,B|106:111|106:111|136:103,1,53.9999983520508,0|8,0:0|0:0,0:0:0:0:
232,274,129283,1,0,0:0:0:0:
398,46,129440,6,0,L|409:176,1,107.999996704102,4|0,0:0|0:0,0:0:0:0:
235,3,129752,1,8,0:0:0:0:
131,105,129908,2,0,L|119:235,1,107.999996704102
218,345,130221,1,0,0:0:0:0:
369,177,130377,2,0,B|425:189|425:189|498:165,1,107.999996704102,8|0,0:0|0:0,0:0:0:0:
263,247,130690,5,0,0:0:0:0:
422,113,130846,1,0,0:0:0:0:
188,37,131002,2,0,L|81:46,1,107.999996704102,8|0,0:0|0:0,0:0:0:0:
102,239,131315,1,0,0:0:0:0:
260,66,131471,1,0,0:0:0:0:
329,311,131627,1,8,0:0:0:0:
381,300,131705,1,8,0:0:0:0:
423,267,131783,1,8,0:0:0:0:
447,219,131861,1,8,0:0:0:0:
450,164,131940,6,0,L|439:48,1,107.999996704102,4|0,0:0|0:0,0:0:0:0:
360,211,132252,1,8,0:0:0:0:
243,95,132408,2,0,L|135:105,1,107.999996704102
322,38,132721,1,0,0:0:0:0:
234,252,132877,2,0,B|221:161|221:161|249:74,1,161.999995056153,8|0,0:0|0:0,0:0:0:0:
271,69,133190,6,0,L|403:80,1,107.999996704102
135,104,133502,1,8,0:0:0:0:
310,171,133658,2,0,L|319:278,1,107.999996704102
152,384,133971,2,0,B|133:326|133:326|146:254,1,107.999996704102,0|8,0:0|0:0,0:0:0:0:
151,132,134283,1,0,0:0:0:0:
239,325,134440,5,0,0:0:0:0:
67,247,134596,1,0,0:0:0:0:
290,146,134752,2,0,L|423:134,1,107.999996704102,8|0,0:0|0:0,0:0:0:0:
264,245,135065,1,0,0:0:0:0:
435,135,135221,1,0,0:0:0:0:
216,30,135377,2,0,L|206:137,1,107.999996704102,8|0,0:0|0:0,0:0:0:0:
300,349,135690,5,0,0:0:0:0:
393,126,135846,1,0,0:0:0:0:
443,366,136002,1,8,0:0:0:0:
285,142,136158,1,0,0:0:0:0:
116,337,136315,5,8,0:0:0:0:
122,277,136393,1,8,0:0:0:0:
128,215,136471,1,8,0:0:0:0:
134,153,136549,1,8,0:0:0:0:
138,90,136627,2,0,L|145:19,1,53.9999983520508,8|8,0:0|0:0,0:0:0:0:
269,147,136783,1,8,0:0:0:0:
269,147,136861,1,8,0:0:0:0:
269,147,136940,6,0,L|386:158,1,107.999996704102,4|0,0:0|0:0,0:0:0:0:
211,247,137252,1,8,0:0:0:0:
170,105,137408,2,0,B|155:43|155:43|170:-7,1,107.999996704102,0|0,0:0|0:0,0:0:0:0:
352,50,137721,1,0,0:0:0:0:
224,216,137877,1,8,0:0:0:0:
236,39,138033,1,0,0:0:0:0:
380,247,138190,6,0,B|433:269|433:269|506:261,1,107.999996704102,0|0,0:0|0:0,0:0:0:0:
209,135,138502,2,0,B|163:169|163:169|133:237,1,107.999996704102,8|0,0:0|0:0,0:0:0:0:
352,50,138815,2,0,L|361:157,1,107.999996704102,0|0,0:0|0:0,0:0:0:0:
346,192,139049,2,0,B|320:185|320:185|292:187,1,53.9999983520508,0|8,0:0|0:0,0:0:0:0:
188,35,139283,1,0,0:0:0:0:
63,255,139440,6,0,L|73:374,1,107.999996704102,4|0,0:0|0:0,0:0:0:0:
178,129,139752,1,8,0:0:0:0:
290,232,139908,2,0,L|403:222,1,107.999996704102,0|0,0:0|0:0,0:0:0:0:
453,95,140221,1,0,0:0:0:0:
399,328,140377,2,0,B|408:265|408:265|386:183,1,107.999996704102,8|0,0:0|0:0,0:0:0:0:
261,124,140690,5,0,0:0:0:0:
300,319,140846,1,0,0:0:0:0:
449,127,141002,2,0,L|458:19,1,107.999996704102,8|0,0:0|0:0,0:0:0:0:
408,262,141315,1,0,0:0:0:0:
284,98,141471,1,0,0:0:0:0:
174,316,141627,1,8,0:0:0:0:
122,305,141705,1,8,0:0:0:0:
80,272,141783,1,8,0:0:0:0:
56,224,141861,1,8,0:0:0:0:
53,169,141940,6,0,L|64:53,1,107.999996704102,4|0,0:0|0:0,0:0:0:0:
144,225,142252,1,8,0:0:0:0:
234,141,142408,2,0,L|363:129,1,107.999996704102,0|0,0:0|0:0,0:0:0:0:
423,37,142721,1,0,0:0:0:0:
344,256,142877,2,0,B|351:167|351:167|329:94,1,161.999995056153,8|0,0:0|0:0,0:0:0:0:
310,65,143190,6,0,L|186:54,1,107.999996704102,0|0,0:0|0:0,0:0:0:0:
270,240,143502,1,8,0:0:0:0:
405,125,143658,2,0,L|528:114,1,107.999996704102,0|0,0:0|0:0,0:0:0:0:
439,240,143971,1,0,0:0:0:0:
310,65,144127,1,8,0:0:0:0:
270,240,144283,1,0,0:0:0:0:
439,14,144440,6,0,L|450:142,1,107.999996704102,4|0,0:0|0:0,0:0:0:0:
270,240,144752,2,0,L|279:132,1,107.999996704102,8|0,0:0|0:0,0:0:0:0:
158,291,145065,1,0,0:0:0:0:
313,183,145221,1,0,0:0:0:0:
142,49,145377,2,0,B|124:102|124:102|134:175,1,107.999996704102,8|0,0:0|0:0,0:0:0:0:
251,15,145690,5,8,0:0:0:0:
324,211,145846,1,8,0:0:0:0:
468,28,146002,1,8,0:0:0:0:
432,198,146158,1,8,0:0:0:0:
346,18,146315,1,8,0:0:0:0:
256,184,146471,1,8,0:0:0:0:
400,76,146627,2,0,L|503:66,1,90,0|0,0:0|0:0,0:0:0:0:
345,235,146940,6,0,P|300:249|244:251,1,90,8|0,0:0|1:0,0:0:0:0:
150,172,147252,1,0,1:0:0:0:
150,172,147408,2,0,P|202:237|137:326,1,180,0|0,1:0|0:0,0:0:0:0:
258,146,147877,1,0,1:0:0:0:
258,146,148033,6,0,B|374:143|299:206|436:207,1,180,0|0,1:0|0:0,0:0:0:0:
264,235,148502,2,0,L|272:327,1,90,0|0,1:0|0:0,0:0:0:0:
150,172,148815,2,0,L|158:79,1,90,8|0,0:0|0:0,0:0:0:0:
136,300,149127,2,0,P|86:288|58:234,1,90,0|0,0:0|0:0,0:0:0:0:
223,113,149440,5,8,0:0:0:0:
223,113,149596,2,0,P|229:155|231:206,1,90,0|0,0:0|0:0,0:0:0:0:
367,291,149908,1,0,1:0:0:0:
367,291,150065,2,0,P|370:192|441:135,1,180,8|0,0:0|1:0,0:0:0:0:
466,63,150533,1,0,1:0:0:0:
466,63,150690,6,0,L|361:54,1,90,0|0,0:0|1:0,0:0:0:0:
221,103,151002,2,0,L|131:111,1,90,0|0,1:0|0:0,0:0:0:0:
143,217,151315,1,8,0:0:0:0:
317,75,151471,1,8,0:0:0:0:
324,281,151627,1,8,0:0:0:0:
216,69,151783,1,8,0:0:0:0:
383,190,151940,5,0,1:0:0:0:
383,189,152096,2,0,P|428:191|474:72,1,180,0|0,1:0|0:0,0:0:0:0:
347,41,152565,2,0,P|260:49|221:132,1,180,0|0,0:0|0:0,0:0:0:0:
302,208,153033,1,0,0:0:0:0:
302,208,153190,6,0,P|302:152|313:113,1,90,0|0,1:0|1:0,0:0:0:0:
311,119,153658,1,0,1:0:0:0:
376,277,153815,2,0,P|278:312|203:241,1,180,8|0,0:0|0:0,0:0:0:0:
152,103,154440,6,0,P|251:64|301:143,1,216,4|0,0:0|0:0,0:0:0:0:
232,342,156940,6,0,B|273:189|174:273|224:133,1,216,4|0,0:0|0:0,0:0:0:0:
432,140,159440,6,0,B|351:147|351:147|306:127|306:127|219:135,1,216,4|0,0:0|0:0,0:0:0:0:
132,249,161940,6,0,L|238:258,1,108,4|0,0:0|0:0,0:0:0:0:
319,306,163190,5,0,1:0:0:0:
307,152,163346,1,0,1:0:0:0:
239,258,163658,5,0,1:0:0:0:
346,161,163815,1,8,0:0:0:0:
346,161,163971,1,0,1:0:0:0:
369,308,164127,1,0,1:0:0:0:
388,117,164440,6,0,L|173:135,1,216,4|0,0:2|0:0,0:0:0:0:
265,200,166627,1,0,0:0:0:0:
114,298,166940,6,0,B|80:246|124:194|124:194|80:142|107:96,1,216,4|0,0:0|0:0,0:0:0:0:
173,131,169127,1,0,0:0:0:0:
346,63,169440,6,0,P|374:164|303:114,1,252,4|0,0:0|0:0,0:0:0:0:
172,83,171940,5,0,1:0:0:0:
201,289,172096,1,0,1:0:0:0:
97,272,172408,5,0,1:0:0:0:
269,100,172565,1,8,0:0:0:0:
307,270,172721,1,0,1:0:0:0:
145,103,172877,1,0,1:0:0:0:
86,192,173190,5,0,1:0:0:0:
328,171,173346,1,8,0:0:0:0:
83,211,173502,1,0,1:0:0:0:
186,110,173815,5,0,1:0:0:0:
265,294,173971,1,0,1:0:0:0:
354,147,174127,2,0,L|464:137,1,90,0|0,1:0|0:0,0:0:0:0:
247,79,174440,5,8,0:0:0:0:
247,79,174596,2,0,P|254:125|129:152,1,180,0|0,1:0|1:0,0:0:0:0:
200,297,175065,1,8,0:0:0:0:
200,297,175221,2,0,B|265:297|265:297|313:321|313:321|385:321,1,180,0|0,1:0|1:0,0:0:0:0:
366,144,175690,5,8,0:0:0:0:
366,144,175846,2,0,L|356:251,2,90,0|0|0,1:0|0:0|1:0,0:0:0:0:
412,82,176315,2,0,P|367:66|307:93,1,90,8|0,0:0|1:0,0:0:0:0:
262,173,176627,2,0,P|307:189|367:162,1,90,0|0,0:0|1:0,0:0:0:0:
202,281,176940,5,8,0:0:0:0:
202,281,177096,2,0,L|17:297,1,180,0|0,1:0|1:0,0:0:0:0:
184,172,177565,1,8,0:0:0:0:
184,172,177721,2,0,B|305:172|228:233|370:233,1,180,0|0,1:0|1:0,0:0:0:0:
334,40,178190,5,8,0:0:0:0:
334,40,178346,2,0,L|341:129,2,90,0|0|0,1:0|0:0|1:0,0:0:0:0:
367,251,178815,5,8,0:0:0:0:
306,57,178971,1,8,0:0:0:0:
140,221,179127,1,8,0:0:0:0:
193,28,179283,1,8,0:0:0:0:
360,222,179440,5,8,0:0:0:0:
360,222,179596,2,0,P|438:222|478:124,1,180,0|0,1:0|1:0,0:0:0:0:
369,56,180065,1,8,0:0:0:0:
369,56,180221,2,0,B|322:100|322:100|207:110,1,180,0|0,1:0|1:0,0:0:0:0:
153,237,180690,5,8,0:0:0:0:
153,237,180846,2,0,L|142:352,2,90,0|0|0,1:0|0:0|1:0,0:0:0:0:
245,107,181315,2,0,P|286:127|308:183,1,90,8|0,0:0|1:0,0:0:0:0:
180,304,181627,2,0,P|139:284|117:228,1,90,0|0,0:0|1:0,0:0:0:0:
318,205,181940,5,8,0:0:0:0:
318,205,182097,2,0,B|382:205|382:205|431:228|431:228|503:229,1,180,0|0,1:0|1:0,0:0:0:0:
356,130,182565,1,8,0:0:0:0:
356,130,182721,2,0,P|271:134|234:212,1,180,0|0,1:0|1:0,0:0:0:0:
126,335,183190,5,8,0:0:0:0:
126,335,183346,2,0,L|116:228,2,90,0|0|0,1:0|0:0|1:0,0:0:0:0:
261,226,183815,5,8,0:0:0:0:
301,221,183893,1,8,0:0:0:0:
342,219,183971,1,8,0:0:0:0:
383,215,184049,1,8,0:0:0:0:
423,210,184127,2,0,L|547:199,1,90,0|8,0:0|0:0,0:0:0:0:
511,275,184361,1,8,0:0:0:0:
511,275,184440,6,0,P|474:352|370:340,1,180,4|0,1:2|1:0,0:0:0:0:
172,159,185065,2,0,L|189:349,1,180,0|0,1:0|1:0,0:0:0:0:
433,156,185690,6,0,B|371:149|371:149|324:122|324:122|260:116,1,180,0|0,1:0|1:0,0:0:0:0:
105,254,186315,5,8,0:0:0:0:
114,296,186393,1,8,0:0:0:0:
144,326,186471,1,8,0:0:0:0:
186,336,186549,1,8,0:0:0:0:
227,318,186627,1,8,0:0:0:0:
262,292,186705,1,8,0:0:0:0:
306,285,186783,1,8,0:0:0:0:
348,294,186861,1,8,0:0:0:0:
386,316,186940,2,0,L|496:306,1,90,4|0,0:0|0:0,0:0:0:0:
434,150,187252,5,8,0:0:0:0:
302,369,187408,1,8,0:0:0:0:
176,122,187565,1,8,0:0:0:0:
499,207,187721,1,8,0:0:0:0:
183,257,187877,1,8,0:0:0:0:
426,47,188033,1,8,0:0:0:0:
324,274,188190,5,8,0:0:0:0:
298,320,188268,1,8,0:0:0:0:
253,350,188346,1,8,0:0:0:0:
200,355,188424,1,8,0:0:0:0:
151,335,188502,1,8,0:0:0:0:
131,286,188580,1,8,0:0:0:0:
148,236,188658,1,8,0:0:0:0:
149,183,188736,1,8,0:0:0:0:
120,135,188815,6,0,P|87:103|35:84,1,90
81,246,189049,2,0,P|114:278|166:297,1,90
251,126,189283,1,0,0:0:0:0:
422,317,189440,6,0,B|374:348|374:348|298:346,1,107.999996704102,4|0,0:0|0:0,0:0:0:0:
251,126,189752,1,8,0:0:0:0:
391,213,189908,2,0,L|519:201,1,107.999996704102,0|0,0:0|0:0,0:0:0:0:
408,82,190221,1,0,0:0:0:0:
303,270,190377,1,8,0:0:0:0:
498,202,190533,1,0,0:0:0:0:
230,97,190690,6,0,B|174:84|174:84|98:109,1,107.999996704102,0|0,0:0|0:0,0:0:0:0:
293,326,191002,2,0,B|331:291|331:291|348:237,1,107.999996704102,8|0,0:0|0:0,0:0:0:0:
404,32,191315,2,0,L|416:169,1,107.999996704102,0|0,0:0|0:0,0:0:0:0:
418,184,191549,1,0,0:0:0:0:
418,184,191627,1,8,0:0:0:0:
245,66,191783,1,0,0:0:0:0:
139,265,191940,6,0,L|130:372,1,107.999996704102,4|0,0:0|0:0,0:0:0:0:
65,153,192252,1,8,0:0:0:0:
191,85,192408,2,0,B|245:65|245:65|324:82,1,107.999996704102,0|0,0:0|0:0,0:0:0:0:
340,230,192721,1,0,0:0:0:0:
451,0,192877,2,0,L|441:107,1,107.999996704102,8|0,0:0|0:0,0:0:0:0:
211,54,193190,5,0,0:0:0:0:
413,126,193346,1,0,0:0:0:0:
178,251,193502,2,0,L|65:265,1,107.999996704102,8|0,0:0|0:0,0:0:0:0:
113,69,193815,1,0,0:0:0:0:
211,264,193971,1,0,0:0:0:0:
342,29,194127,1,8,0:0:0:0:
394,22,194205,1,8,0:0:0:0:
443,45,194283,1,8,0:0:0:0:
471,90,194361,1,8,0:0:0:0:
469,143,194440,6,0,L|480:269,1,107.999996704102,4|0,0:0|0:0,0:0:0:0:
389,100,194752,1,8,0:0:0:0:
266,156,194908,2,0,L|131:167,1,107.999996704102,0|0,0:0|0:0,0:0:0:0:
41,99,195221,1,0,0:0:0:0:
155,307,195377,2,0,B|150:242|150:242|167:162,1,107.999996704102,8|0,0:0|0:0,0:0:0:0:
299,45,195690,2,0,B|303:109|303:109|286:189,1,107.999996704102,0|0,0:0|0:0,0:0:0:0:
228,320,196002,5,8,0:0:0:0:
127,195,196158,2,0,L|-6:183,1,107.999996704102,0|0,0:0|0:0,0:0:0:0:
279,103,196471,2,0,L|386:93,1,107.999996704102,0|8,0:0|0:0,0:0:0:0:
292,260,196783,1,0,0:0:0:0:
179,55,196940,5,0,0:0:0:0:
135,230,197096,1,0,0:0:0:0:
342,42,197252,2,0,L|352:160,1,107.999996704102,8|0,0:0|0:0,0:0:0:0:
284,328,197565,1,0,0:0:0:0:
435,253,197721,1,0,0:0:0:0:
243,158,197877,2,0,L|135:149,1,107.999996704102,8|0,0:0|0:0,0:0:0:0:
194,247,198190,5,0,0:0:0:0:
240,37,198346,1,0,0:0:0:0:
405,246,198502,1,8,0:0:0:0:
352,12,198658,1,0,0:0:0:0:
308,265,198815,5,8,0:0:0:0:
286,319,198893,1,8,0:0:0:0:
241,357,198971,1,8,0:0:0:0:
183,367,199049,1,8,0:0:0:0:
128,348,199127,1,8,0:0:0:0:
89,304,199205,1,8,0:0:0:0:
76,247,199283,1,8,0:0:0:0:
93,190,199361,1,8,0:0:0:0:
135,150,199440,6,0,L|242:140,1,107.999996704102,4|0,0:0|0:0,0:0:0:0:
75,53,199752,1,8,0:0:0:0:
58,187,199908,2,0,L|67:297,1,107.999996704102,0|0,0:0|0:0,0:0:0:0:
160,119,200221,1,0,0:0:0:0:
248,342,200377,1,8,0:0:0:0:
99,255,200533,1,0,0:0:0:0:
294,149,200690,6,0,B|348:128|348:128|412:138,1,107.999996704102,0|0,0:0|0:0,0:0:0:0:
142,288,201002,2,0,B|97:253|97:253|73:191,1,107.999996704102,8|0,0:0|0:0,0:0:0:0:
311,346,201315,2,0,L|299:211,1,107.999996704102,0|0,0:0|0:0,0:0:0:0:
299,202,201549,1,0,0:0:0:0:
299,202,201627,1,8,0:0:0:0:
140,322,201783,1,0,0:0:0:0:
70,86,201940,6,0,L|197:74,1,107.999996704102,4|0,0:0|0:0,0:0:0:0:
281,228,202252,1,8,0:0:0:0:
375,107,202408,2,0,L|384:0,1,107.999996704102,0|0,0:0|0:0,0:0:0:0:
464,138,202721,1,0,0:0:0:0:
281,228,202877,2,0,B|223:245|223:245|146:228,1,107.999996704102,8|0,0:0|0:0,0:0:0:0:
70,86,203190,5,0,0:0:0:0:
226,127,203346,1,0,0:0:0:0:
98,315,203502,2,0,L|107:207,1,107.999996704102,8|0,0:0|0:0,0:0:0:0:
306,101,203815,1,0,0:0:0:0:
240,296,203971,1,0,0:0:0:0:
62,136,204127,1,8,0:0:0:0:
55,84,204205,1,8,0:0:0:0:
78,35,204283,1,8,0:0:0:0:
123,7,204361,1,8,0:0:0:0:
176,9,204440,6,0,L|302:-2,1,107.999996704102,4|0,0:0|0:0,0:0:0:0:
130,82,204752,1,8,0:0:0:0:
227,154,204908,2,0,L|236:261,1,107.999996704102,0|0,0:0|0:0,0:0:0:0:
335,341,205221,1,0,0:0:0:0:
129,237,205377,6,0,L|21:246,1,107.999996704102,8|0,0:0|0:0,0:0:0:0:
255,131,205690,2,0,L|363:140,1,107.999996704102,0|0,0:0|0:0,0:0:0:0:
207,0,206002,1,8,0:0:0:0:
117,105,206158,2,0,B|107:158|107:158|127:220,1,107.999996704102,0|0,0:0|0:0,0:0:0:0:
280,104,206471,1,0,0:0:0:0:
189,305,206627,1,8,0:0:0:0:
338,209,206783,1,0,0:0:0:0:
143,82,206940,6,0,L|28:71,1,107.999996704102,4|0,0:0|0:0,0:0:0:0:
283,175,207252,2,0,B|298:229|298:229|283:303,1,107.999996704102,8|0,0:0|0:0,0:0:0:0:
162,384,207565,1,0,0:0:0:0:
214,229,207721,1,0,0:0:0:0:
371,317,207877,2,0,L|494:306,1,107.999996704102,8|0,0:0|0:0,0:0:0:0:
218,196,208190,6,0,L|95:185,1,107.999996704102,0|0,0:0|0:0,0:0:0:0:
325,111,208502,1,8,0:0:0:0:
340,308,208658,1,0,0:0:0:0:
147,132,208815,1,8,0:0:0:0:
143,79,208893,1,8,0:0:0:0:
173,34,208971,1,8,0:0:0:0:
223,17,209049,1,8,0:0:0:0:
266,33,209127,2,0,L|402:44,1,107.999996704102,0|0,0:0|0:0,0:0:0:0:
172,295,209440,5,12,0:0:0:0:
223,103,209596,1,0,0:0:0:0:
305,328,209752,5,8,0:0:0:0:
319,81,209908,1,0,0:0:0:0:
446,350,210065,5,8,0:0:0:0:
418,48,210221,1,0,0:0:0:0:
205,293,210377,5,8,0:0:0:0:
512,120,210533,1,0,0:0:0:0:
124,74,210690,5,8,0:0:0:0:
435,254,210846,1,0,0:0:0:0:
238,0,211002,5,8,0:0:0:0:
317,336,211158,1,0,0:0:0:0:
393,18,211315,5,8,0:0:0:0:
175,298,211471,1,0,0:0:0:0:
450,143,211627,5,8,0:0:0:0:
120,70,211783,1,0,0:0:0:0:
286,318,211940,5,12,0:0:0:0:
226,31,212096,1,0,0:0:0:0:
23,218,212252,1,0,0:0:0:0:
306,102,212408,5,8,0:0:0:0:
104,301,212565,1,0,0:0:0:0:
46,36,212721,1,0,0:0:0:0:
210,263,212877,5,8,0:0:0:0:
373,61,213033,1,8,0:0:0:0:
462,327,213190,1,12,0:0:0:0:
462,327,214127,6,0,L|370:335,1,80.9999975280763,0|0,0:0|0:0,0:0:0:0:
304,384,214440,5,4,0:0:0:0:
231,221,214596,1,0,0:0:0:0:
231,221,214674,1,0,0:0:0:0:
231,221,214752,2,0,L|219:87,1,107.999996704102,8|0,0:0|0:0,0:0:0:0:
385,49,215065,2,0,P|457:84|461:179,1,161.999995056153,0|0,0:0|0:0,0:0:0:0:
457,188,215377,1,8,0:0:0:0:
241,91,215533,1,0,0:0:0:0:
241,91,215611,1,0,0:0:0:0:
241,91,215690,6,0,L|99:103,1,107.999996704102,0|0,0:0|0:0,0:0:0:0:
251,242,216002,2,0,L|392:254,1,107.999996704102,8|0,0:0|0:0,0:0:0:0:
392,254,216236,1,0,0:0:0:0:
392,254,216315,1,0,0:0:0:0:
248,380,216471,1,0,0:0:0:0:
149,193,216627,1,8,0:0:0:0:
131,148,216705,1,8,0:0:0:0:
133,100,216783,1,8,0:0:0:0:
155,57,216861,1,8,0:0:0:0:
193,27,216940,6,0,L|300:17,1,107.999996704102,4|0,0:0|0:0,0:0:0:0:
333,15,217174,1,0,0:0:0:0:
333,15,217252,1,8,0:0:0:0:
210,120,217408,1,0,0:0:0:0:
465,128,217565,2,0,B|320:135|411:205|262:218,1,215.999993408203,0|8,0:0|0:0,0:0:0:0:
444,222,218033,1,0,0:0:0:0:
444,222,218111,1,0,0:0:0:0:
444,222,218190,6,0,L|453:335,1,107.999996704102,0|0,0:0|0:0,0:0:0:0:
277,216,218502,2,0,L|267:102,1,107.999996704102,8|0,0:0|0:0,0:0:0:0:
110,230,218815,1,8,0:0:0:0:
117,280,218893,1,8,0:0:0:0:
153,315,218971,1,8,0:0:0:0:
203,324,219049,1,8,0:0:0:0:
252,301,219127,1,8,0:0:0:0:
297,278,219205,1,8,0:0:0:0:
348,279,219283,1,8,0:0:0:0:
391,306,219361,1,8,0:0:0:0:
415,351,219439,5,4,0:0:0:0:
194,251,219596,1,0,0:0:0:0:
194,251,219674,1,0,0:0:0:0:
194,251,219752,2,0,L|182:122,1,107.999996704102,8|0,0:0|0:0,0:0:0:0:
108,299,220065,2,0,P|153:350|263:310,1,161.999995056153,0|0,0:0|0:0,0:0:0:0:
265,319,220377,1,8,0:0:0:0:
407,177,220533,1,0,0:0:0:0:
407,177,220611,1,0,0:0:0:0:
407,177,220690,6,0,L|271:188,1,107.999996704102,0|0,0:0|0:0,0:0:0:0:
165,63,221002,2,0,L|272:71,1,107.999996704102,8|0,0:0|0:0,0:0:0:0:
306,76,221236,1,0,0:0:0:0:
306,76,221315,1,0,0:0:0:0:
146,166,221471,1,0,0:0:0:0:
303,314,221627,1,8,0:0:0:0:
356,312,221705,1,8,0:0:0:0:
399,280,221783,1,8,0:0:0:0:
417,230,221861,1,8,0:0:0:0:
409,177,221940,6,0,L|403:103,1,53.9999983520508,0|0,0:0|0:0,0:0:0:0:
351,0,222096,2,0,L|364:73,1,53.9999983520508,8|0,0:0|0:0,0:0:0:0:
323,220,222252,6,0,L|318:147,1,53.9999983520508,8|0,0:0|0:0,0:0:0:0:
259,37,222408,2,0,L|260:112,1,53.9999983520508,0|0,0:0|0:0,0:0:0:0:
236,266,222565,6,0,L|217:192,1,53.9999983520508,0|0,0:0|0:0,0:0:0:0:
157,68,222721,2,0,L|144:146,1,53.9999983520508,8|0,0:0|0:0,0:0:0:0:
139,305,222877,6,0,L|119:227,1,53.9999983520508,8|0,0:0|0:0,0:0:0:0:
50,85,223033,2,0,L|22:163,1,53.9999983520508
182,262,223190,5,8,0:0:0:0:
232,272,223268,1,8,0:0:0:0:
280,256,223346,1,8,0:0:0:0:
312,216,223424,1,8,0:0:0:0:
319,166,223502,2,0,L|329:91,1,53.9999983520508,0|0,0:0|0:0,0:0:0:0:
408,33,223658,2,0,L|418:108,1,53.9999983520508,0|0,0:0|0:0,0:0:0:0:
434,298,223815,5,8,0:0:0:0:
335,79,223971,1,8,0:0:0:0:
230,200,224127,2,0,L|149:207,1,80.9999975280763,0|0,0:0|0:0,0:0:0:0:
94,146,224440,5,12,0:0:0:0:
261,45,224596,1,0,0:0:0:0:
255,240,224752,1,0,0:0:0:0:
143,67,224908,5,8,0:0:0:0:
350,147,225065,1,0,0:0:0:0:
141,267,225221,1,0,0:0:0:0:
284,71,225377,5,8,0:0:0:0:
311,297,225533,1,0,0:0:0:0:
490,166,225690,1,0,0:0:0:0:
208,143,225846,5,8,0:0:0:0:
421,258,226002,1,0,0:0:0:0:
415,31,226158,1,0,0:0:0:0:
209,238,226315,6,0,L|218:344,1,107.999996704102,8|0,0:0|0:0,0:0:0:0:
405,138,226627,2,0,L|414:30,1,107.999996704102,8|0,0:0|0:0,0:0:0:0:
300,237,226940,5,12,0:0:0:0:
203,67,227096,1,0,0:0:0:0:
103,226,227252,1,0,0:0:0:0:
291,102,227408,5,8,0:0:0:0:
355,287,227565,1,0,0:0:0:0:
511,138,227721,1,0,0:0:0:0:
239,199,227877,5,8,0:0:0:0:
491,219,228033,1,0,0:0:0:0:
364,0,228190,1,0,0:0:0:0:
344,243,228346,5,8,0:0:0:0:
166,82,228502,1,0,0:0:0:0:
113,301,228658,1,0,0:0:0:0:
302,103,228815,5,8,0:0:0:0:
353,88,228893,1,8,0:0:0:0:
403,105,228971,1,8,0:0:0:0:
435,147,229049,1,8,0:0:0:0:
435,199,229127,2,0,L|427:280,1,80.9999975280763,0|0,0:0|0:0,0:0:0:0:
344,327,229440,5,12,0:0:0:0:
242,83,229596,1,0,0:0:0:0:
99,264,229752,5,8,0:0:0:0:
357,165,229908,1,0,0:0:0:0:
87,106,230065,5,8,0:0:0:0:
315,307,230221,1,0,0:0:0:0:
208,81,230377,5,8,0:0:0:0:
91,303,230533,1,0,0:0:0:0:
95,30,230690,5,8,0:0:0:0:
213,278,230846,1,0,0:0:0:0:
338,27,231002,5,8,0:0:0:0:
296,277,231158,1,0,0:0:0:0:
450,66,231315,5,8,0:0:0:0:
512,308,231471,1,0,0:0:0:0:
271,131,231627,6,0,L|151:141,1,107.999996704102,8|0,0:0|0:0,0:0:0:0:
379,331,231940,6,0,L|442:325,1,53.9999983520508,8|0,0:0|0:0,0:0:0:0:
241,287,232096,2,0,L|177:281,1,53.9999983520508,0|0,0:0|0:0,0:0:0:0:
393,246,232252,6,0,L|463:239,1,53.9999983520508,8|0,0:0|0:0,0:0:0:0:
241,197,232408,2,0,L|170:190,1,53.9999983520508,0|0,0:0|0:0,0:0:0:0:
404,157,232565,6,0,L|481:150,1,53.9999983520508,8|0,0:0|0:0,0:0:0:0:
236,103,232721,2,0,L|158:96,1,53.9999983520508,0|0,0:0|0:0,0:0:0:0:
414,64,232877,6,0,L|498:56,1,53.9999983520508,8|0,0:0|0:0,0:0:0:0:
229,4,233033,2,0,L|144:-3,1,53.9999983520508,0|0,0:0|0:0,0:0:0:0:
446,240,233190,5,8,0:0:0:0:
399,32,233346,1,8,0:0:0:0:
271,270,233502,5,8,0:0:0:0:
260,20,233658,1,8,0:0:0:0:
91,289,233815,5,8,0:0:0:0:
120,0,233971,1,8,0:0:0:0:
318,199,234127,5,8,0:0:0:0:
64,82,234283,2,0,L|4:76,1,54,0|0,0:0|0:0,0:0:0:0:
