osu file format v14

[General]
AudioFilename: audio.mp3
AudioLeadIn: 0
PreviewTime: 68775
Countdown: 0
SampleSet: Normal
StackLeniency: 0.7
Mode: 1
LetterboxInBreaks: 0
WidescreenStoryboard: 1

[Editor]
Bookmarks: 690,19440,24440,26940,29440,49440,59440,64440,66940,69440,93190,104440,114440,116940,119440,121940,124440,126940,146940,151940,154440,164440,171940,174440,184440,186940,189440,213190,224440,234283
DistanceSpacing: 0.1
BeatDivisor: 4
GridSize: 32
TimelineZoom: 2.3

[Metadata]
Title:5150
TitleUnicode:5150
Artist:THE ORAL CIGARETTES
ArtistUnicode:THE ORAL CIGARETTES
Creator:KyeX
Version:Kantan
Source:
Tags:japanese rock jrock j-rock before it’s too late takuya yamanaka 山中拓也 akira akirakani あきらかにあきら gaston_2199 toc
BeatmapID:3343365
BeatmapSetID:1587293

[Difficulty]
HPDrainRate:8
CircleSize:2
OverallDifficulty:3
ApproachRate:10
SliderMultiplier:1.4
SliderTickRate:1

[Events]
//Background and Video events
0,0,"bg.jpg",0,-100
//Break Periods
//Storyboard Layer 0 (Background)
//Storyboard Layer 1 (Fail)
//Storyboard Layer 2 (Pass)
//Storyboard Layer 3 (Foreground)
//Storyboard Layer 4 (Overlay)
//Storyboard Sound Samples

[TimingPoints]
19400,312.5,4,1,0,80,1,0
19400,-117.647058823529,4,1,0,80,0,0
24400,-111.111111111111,4,1,0,85,0,0
27525,-107.142857142857,4,1,0,85,0,0
28150,-103.448275862069,4,1,0,85,0,0
28462,-101.697673157238,4,1,0,85,0,0
28775,-100,4,1,0,85,0,0
29400,-100,4,1,0,90,0,0
48775,-105.263157894737,4,1,0,90,0,0
49400,-111.111111111111,4,1,0,90,0,0
49712,-111.111111111111,4,1,0,85,0,0
59400,-105.263157894737,4,1,0,85,0,0
69400,-100,4,1,0,90,0,1
93150,-100,4,1,0,90,0,0
101900,-101.12092545871,4,1,0,90,0,0
102212,-102.267369857102,4,1,0,90,0,0
102525,-103.440000662016,4,1,0,90,0,0
102837,-104.639944415262,4,1,0,90,0,0
103150,-105.867942445952,4,1,0,90,0,0
103462,-107.125219740607,4,1,0,90,0,0
103775,-108.412601013441,4,1,0,90,0,0
104400,-111.111111111111,4,1,0,90,0,0
126900,-100,4,1,0,90,0,1
145650,-102.03217482601,4,1,0,90,0,1
145962,-104.148657627952,4,1,0,90,0,1
146275,-106.354806014152,4,1,0,90,0,1
146900,-111.111111111111,4,1,0,90,0,0
154400,-117.647058823529,4,1,0,80,0,0
174400,-111.111111111111,4,1,0,85,0,0
184400,-105.263157894737,4,1,0,85,0,0
189400,-100,4,1,0,90,0,1
213150,-100,4,1,0,90,0,0
224400,-90.9090909090909,4,1,0,90,0,1
234243,-90.9090909090909,4,1,0,90,0,0

[HitObjects]
256,192,19400,5,12,0:0:0:0:
256,192,20025,1,0,0:0:0:0:
256,192,20650,1,0,0:0:0:0:
256,192,21275,1,0,0:0:0:0:
256,192,21900,1,12,0:0:0:0:
256,192,22525,1,0,0:0:0:0:
256,192,23150,1,0,0:0:0:0:
256,192,23775,1,0,0:0:0:0:
256,192,24400,1,12,0:0:0:0:
256,192,25337,1,12,0:0:0:0:
256,192,25806,1,12,0:0:0:0:
256,192,26275,1,12,0:0:0:0:
256,192,26900,1,0,0:0:0:0:
256,192,27212,1,0,0:0:0:0:
256,192,27525,1,8,0:0:0:0:
256,192,28150,1,8,0:0:0:0:
256,192,28462,1,8,0:0:0:0:
256,192,28775,1,0,0:0:0:0:
256,160,29400,1,4,0:0:0:0:
256,192,30025,1,8,0:0:0:0:
256,192,30337,1,8,0:0:0:0:
256,192,30650,1,0,0:0:0:0:
256,192,30962,1,8,0:0:0:0:
256,192,31900,1,0,0:0:0:0:
256,192,32525,1,0,0:0:0:0:
256,192,32837,1,8,0:0:0:0:
256,192,33150,1,0,0:0:0:0:
256,192,33462,1,8,0:0:0:0:
256,192,33775,1,8,0:0:0:0:
256,192,34400,1,4,0:0:0:0:
256,192,35025,1,8,0:0:0:0:
256,192,35337,1,8,0:0:0:0:
256,192,35650,1,0,0:0:0:0:
256,192,35962,1,8,0:0:0:0:
256,192,36900,1,0,0:0:0:0:
256,192,37212,1,8,0:0:0:0:
256,192,37525,1,0,0:0:0:0:
256,192,38150,1,8,0:0:0:0:
256,192,38462,1,0,0:0:0:0:
256,192,38775,1,8,0:0:0:0:
256,160,39400,1,4,0:0:0:0:
256,192,40025,1,8,0:0:0:0:
256,192,40337,1,8,0:0:0:0:
256,192,40650,1,0,0:0:0:0:
256,192,40962,1,8,0:0:0:0:
256,192,41900,1,0,0:0:0:0:
256,192,42525,1,0,0:0:0:0:
256,192,42837,1,8,0:0:0:0:
256,192,43150,1,0,0:0:0:0:
256,192,43462,1,8,0:0:0:0:
256,192,43775,1,8,0:0:0:0:
256,160,44400,1,0,0:0:0:0:
256,192,45025,1,8,0:0:0:0:
256,192,45337,1,8,0:0:0:0:
256,192,45650,1,0,0:0:0:0:
256,192,45962,1,8,0:0:0:0:
256,192,46900,1,8,0:0:0:0:
256,192,47212,1,0,0:0:0:0:
256,192,47837,1,12,0:0:0:0:
256,192,48150,1,0,0:0:0:0:
256,192,48775,1,8,0:0:0:0:
256,192,49400,1,4,0:0:0:0:
256,192,50025,1,0,0:0:0:0:
256,192,50337,1,8,0:0:0:0:
256,192,50650,1,0,0:0:0:0:
256,192,51275,1,8,0:0:0:0:
256,192,51900,1,0,0:0:0:0:
256,192,52525,1,0,0:0:0:0:
256,192,52837,1,8,0:0:0:0:
256,192,53150,1,0,0:0:0:0:
256,192,54087,1,8,0:0:0:0:
256,192,54400,1,0,0:0:0:0:
256,192,55025,1,0,0:0:0:0:
256,192,55337,1,8,0:0:0:0:
256,192,55650,1,8,0:0:0:0:
256,192,56275,1,8,0:0:0:0:
256,192,56900,1,0,0:0:0:0:
256,192,57525,1,0,0:0:0:0:
256,192,58150,1,8,0:0:0:0:
256,192,58462,1,8,0:0:0:0:
256,192,59087,1,12,0:0:0:0:
256,192,59400,1,0,0:0:0:0:
256,192,60493,1,8,0:0:0:0:
256,192,60806,1,0,0:0:0:0:
256,192,61118,1,8,0:0:0:0:
256,192,61743,1,8,0:0:0:0:
256,192,62212,1,0,0:0:0:0:
256,192,62525,1,8,0:0:0:0:
256,192,62993,1,8,0:0:0:0:
256,192,63462,1,8,0:0:0:0:
256,192,64400,1,4,0:0:0:0:
256,192,65025,1,8,0:0:0:0:
256,192,65337,1,8,0:0:0:0:
256,192,65650,1,8,0:0:0:0:
256,192,65962,1,8,0:0:0:0:
256,192,66275,1,8,0:0:0:0:
256,192,66900,1,12,0:0:0:0:
256,192,67368,1,12,0:0:0:0:
256,192,68306,1,4,0:0:0:0:
256,160,69400,1,12,0:0:0:0:
256,160,70025,1,0,0:0:0:0:
256,160,70337,1,8,0:0:0:0:
256,160,70650,1,0,0:0:0:0:
256,160,71275,1,8,0:0:0:0:
256,160,71900,1,0,0:0:0:0:
256,160,72212,1,8,0:0:0:0:
256,160,72837,1,8,0:0:0:0:
256,160,73150,1,0,0:0:0:0:
256,160,73462,1,8,0:0:0:0:
256,160,74087,1,8,0:0:0:0:
256,160,74400,1,4,0:0:0:0:
256,160,75337,1,8,0:0:0:0:
256,160,75650,1,0,0:0:0:0:
256,160,75962,1,8,0:0:0:0:
256,160,76587,1,0,0:0:0:0:
256,160,76900,1,8,0:0:0:0:
256,160,77837,1,8,0:0:0:0:
256,160,78150,1,0,0:0:0:0:
256,160,78775,1,8,0:0:0:0:
256,160,79087,1,8,0:0:0:0:
256,160,79400,1,4,0:0:0:0:
256,192,80025,1,0,0:0:0:0:
256,160,80337,1,8,0:0:0:0:
256,160,80650,1,0,0:0:0:0:
256,160,81275,1,8,0:0:0:0:
256,160,81900,1,0,0:0:0:0:
256,160,82212,1,8,0:0:0:0:
256,160,82837,1,8,0:0:0:0:
256,160,83150,1,0,0:0:0:0:
256,160,83462,1,8,0:0:0:0:
256,160,84087,1,8,0:0:0:0:
256,160,84400,1,4,0:0:0:0:
256,160,85337,1,8,0:0:0:0:
256,160,85650,1,0,0:0:0:0:
256,160,85962,1,8,0:0:0:0:
256,160,86587,1,0,0:0:0:0:
256,160,86900,1,8,0:0:0:0:
256,160,87837,1,8,0:0:0:0:
256,160,88150,1,0,0:0:0:0:
256,160,88462,1,8,0:0:0:0:
256,160,89400,1,4,0:0:0:0:
255,145,89868,1,8,0:0:0:0:
255,145,90337,1,8,0:0:0:0:
274,136,90806,1,8,0:0:0:0:
274,136,91275,1,8,0:0:0:0:
274,136,91587,1,8,0:0:0:0:
268,123,91900,1,12,0:0:0:0:
274,136,92525,1,8,0:0:0:0:
268,123,92837,1,8,0:0:0:0:
274,136,93150,1,4,0:0:0:0:
256,160,94400,1,4,0:0:0:0:
256,192,95025,1,8,0:0:0:0:
256,192,95337,1,8,0:0:0:0:
256,192,95650,1,0,0:0:0:0:
256,192,95962,1,8,0:0:0:0:
256,192,96900,1,0,0:0:0:0:
256,192,97525,1,0,0:0:0:0:
256,192,97837,1,8,0:0:0:0:
256,192,98150,1,0,0:0:0:0:
256,192,98462,1,8,0:0:0:0:
256,192,98775,1,8,0:0:0:0:
256,192,99400,1,4,0:0:0:0:
256,192,100025,1,8,0:0:0:0:
256,192,100337,1,8,0:0:0:0:
256,192,100650,1,0,0:0:0:0:
256,192,100962,1,8,0:0:0:0:
256,192,101900,1,0,0:0:0:0:
256,192,102212,1,8,0:0:0:0:
256,192,102525,1,8,0:0:0:0:
256,192,102837,1,0,0:0:0:0:
256,192,103462,1,8,0:0:0:0:
256,192,103775,1,0,0:0:0:0:
256,192,104400,1,4,0:0:0:0:
256,192,105493,1,8,0:0:0:0:
256,192,105962,1,0,0:0:0:0:
256,192,106275,1,8,0:0:0:0:
256,192,106900,1,0,0:0:0:0:
256,192,107525,1,8,0:0:0:0:
256,192,107993,1,0,0:0:0:0:
252,180,108462,1,0,0:0:0:0:
252,180,108775,1,8,0:0:0:0:
252,180,109400,1,4,0:0:0:0:
256,192,110025,1,8,0:0:0:0:
256,192,110493,1,0,0:0:0:0:
256,192,110962,1,8,0:0:0:0:
256,192,111275,1,8,0:0:0:0:
256,192,111900,1,8,0:0:0:0:
256,185,112212,1,0,0:0:0:0:
256,192,112525,1,8,0:0:0:0:
256,192,112993,1,0,0:0:0:0:
252,180,113462,1,8,0:0:0:0:
252,180,114400,1,4,0:0:0:0:
256,192,115025,1,0,0:0:0:0:
256,192,115650,1,8,0:0:0:0:
256,192,115962,1,8,0:0:0:0:
256,192,116275,1,0,0:0:0:0:
256,192,116587,1,8,0:0:0:0:
259,162,116900,1,4,0:0:0:0:
260,156,117525,1,8,0:0:0:0:
260,156,118462,1,8,0:0:0:0:
260,156,118775,1,0,0:0:0:0:
256,160,119087,1,8,0:0:0:0:
260,156,119400,1,4,0:0:0:0:
259,162,120025,1,8,0:0:0:0:
259,162,120650,1,0,0:0:0:0:
259,162,120962,1,0,0:0:0:0:
259,162,121275,1,8,0:0:0:0:
259,162,121587,1,8,0:0:0:0:
259,162,121900,1,4,0:0:0:0:
260,156,122525,1,8,0:0:0:0:
260,156,123150,1,8,0:0:0:0:
260,156,123462,1,0,0:0:0:0:
260,156,123775,1,8,0:0:0:0:
260,156,124087,1,0,0:0:0:0:
260,156,124400,1,12,0:0:0:0:
256,160,126900,1,12,0:0:0:0:
256,160,127525,1,0,0:0:0:0:
256,160,127837,1,8,0:0:0:0:
256,160,128150,1,0,0:0:0:0:
256,160,128775,1,8,0:0:0:0:
256,160,129400,1,0,0:0:0:0:
256,160,129712,1,8,0:0:0:0:
256,160,130337,1,8,0:0:0:0:
256,160,130650,1,0,0:0:0:0:
256,160,130962,1,8,0:0:0:0:
256,160,131587,1,8,0:0:0:0:
256,160,131900,1,4,0:0:0:0:
256,160,132837,1,8,0:0:0:0:
256,160,133150,1,0,0:0:0:0:
256,160,133462,1,8,0:0:0:0:
256,160,134087,1,0,0:0:0:0:
256,160,134400,1,8,0:0:0:0:
256,160,135337,1,8,0:0:0:0:
256,160,135650,1,0,0:0:0:0:
256,160,136275,1,8,0:0:0:0:
256,160,136587,1,8,0:0:0:0:
256,160,136900,1,4,0:0:0:0:
256,160,137525,1,0,0:0:0:0:
256,160,137837,1,8,0:0:0:0:
256,160,138150,1,8,0:0:0:0:
256,160,138775,1,8,0:0:0:0:
256,160,139400,1,0,0:0:0:0:
256,160,139712,1,8,0:0:0:0:
256,160,140337,1,8,0:0:0:0:
256,160,140650,1,0,0:0:0:0:
256,160,140962,1,8,0:0:0:0:
256,160,141587,1,8,0:0:0:0:
256,160,141900,1,4,0:0:0:0:
256,160,142837,1,8,0:0:0:0:
256,160,143150,1,0,0:0:0:0:
256,160,143462,1,8,0:0:0:0:
256,160,144087,1,0,0:0:0:0:
256,160,144400,1,8,0:0:0:0:
256,160,145337,1,8,0:0:0:0:
256,160,145650,1,0,0:0:0:0:
256,160,145962,1,0,0:0:0:0:
256,160,146275,1,0,0:0:0:0:
256,160,146900,1,12,0:0:0:0:
256,192,147525,1,8,0:0:0:0:
256,192,147837,1,0,0:0:0:0:
256,192,148775,1,8,0:0:0:0:
256,192,149087,1,8,0:0:0:0:
256,192,149400,1,0,0:0:0:0:
256,192,150025,1,8,0:0:0:0:
256,192,150337,1,0,0:0:0:0:
252,180,150962,1,0,0:0:0:0:
252,180,151275,1,8,0:0:0:0:
252,180,151587,1,8,0:0:0:0:
252,180,151900,1,0,0:0:0:0:
252,180,152525,1,8,0:0:0:0:
252,180,153150,1,0,0:0:0:0:
252,180,153775,1,0,0:0:0:0:
258,156,154400,1,12,0:0:0:0:
251,250,156900,1,4,0:0:0:0:
258,154,159400,1,12,0:0:0:0:
251,248,161900,1,4,0:0:0:0:
254,201,163150,1,8,0:0:0:0:
254,201,163775,1,8,0:0:0:0:
254,201,164087,1,0,0:0:0:0:
258,156,164400,1,12,0:0:0:0:
251,250,166900,1,4,0:0:0:0:
258,154,169400,1,12,0:0:0:0:
251,248,171900,1,4,0:0:0:0:
258,154,172525,1,8,0:0:0:0:
254,201,173150,1,8,0:0:0:0:
252,194,173462,1,0,0:0:0:0:
254,201,173775,1,8,0:0:0:0:
258,156,174400,1,12,0:0:0:0:
258,156,175025,1,8,0:0:0:0:
258,156,175650,1,0,0:0:0:0:
258,156,176275,1,8,0:0:0:0:
251,250,176900,1,0,0:0:0:0:
256,192,177525,1,8,0:0:0:0:
230,201,178150,1,0,0:0:0:0:
220,177,178775,1,8,0:0:0:0:
256,192,179087,1,8,0:0:0:0:
258,154,179400,1,4,0:0:0:0:
211,138,180650,1,0,0:0:0:0:
186,132,181275,1,8,0:0:0:0:
256,192,181587,1,8,0:0:0:0:
161,127,181900,1,0,0:0:0:0:
161,111,182525,1,8,0:0:0:0:
174,93,183150,1,0,0:0:0:0:
256,192,183775,1,8,0:0:0:0:
184,74,184087,1,8,0:0:0:0:
193,68,184400,1,0,0:0:0:0:
191,56,185337,1,8,0:0:0:0:
191,56,185962,1,8,0:0:0:0:
191,56,186275,1,8,0:0:0:0:
191,56,186587,1,8,0:0:0:0:
191,56,186900,1,4,0:0:0:0:
164,53,187525,1,0,0:0:0:0:
144,53,188150,1,8,0:0:0:0:
144,53,188462,1,8,0:0:0:0:
144,53,188775,1,0,0:0:0:0:
256,160,189400,1,12,0:0:0:0:
256,160,190337,1,8,0:0:0:0:
256,160,190650,1,0,0:0:0:0:
256,160,191275,1,8,0:0:0:0:
256,160,191900,1,0,0:0:0:0:
256,160,192212,1,8,0:0:0:0:
256,160,192837,1,8,0:0:0:0:
256,160,193150,1,0,0:0:0:0:
256,160,193462,1,8,0:0:0:0:
256,160,194087,1,8,0:0:0:0:
256,160,194400,1,4,0:0:0:0:
256,160,195337,1,8,0:0:0:0:
256,160,195650,1,0,0:0:0:0:
256,160,195962,1,8,0:0:0:0:
256,160,196587,1,0,0:0:0:0:
256,160,196900,1,8,0:0:0:0:
256,160,197837,1,8,0:0:0:0:
256,160,198150,1,0,0:0:0:0:
256,160,198775,1,8,0:0:0:0:
256,160,199087,1,8,0:0:0:0:
256,160,199400,1,4,0:0:0:0:
256,160,200025,1,0,0:0:0:0:
256,160,200337,1,8,0:0:0:0:
256,160,200650,1,8,0:0:0:0:
256,160,201275,1,8,0:0:0:0:
256,160,201900,1,0,0:0:0:0:
256,160,202212,1,8,0:0:0:0:
256,160,202837,1,8,0:0:0:0:
256,160,203150,1,0,0:0:0:0:
256,160,203462,1,8,0:0:0:0:
256,160,204087,1,8,0:0:0:0:
256,160,204400,1,4,0:0:0:0:
256,160,205337,1,8,0:0:0:0:
256,160,205650,1,0,0:0:0:0:
256,160,205962,1,8,0:0:0:0:
256,160,206587,1,0,0:0:0:0:
256,160,206900,1,8,0:0:0:0:
256,160,207837,1,8,0:0:0:0:
256,160,208150,1,0,0:0:0:0:
256,160,208462,1,8,0:0:0:0:
256,160,209400,1,4,0:0:0:0:
255,145,209868,1,8,0:0:0:0:
255,145,210337,1,8,0:0:0:0:
274,136,210962,1,8,0:0:0:0:
274,136,211275,1,8,0:0:0:0:
274,136,211587,1,8,0:0:0:0:
268,123,211900,1,12,0:0:0:0:
274,136,212525,1,8,0:0:0:0:
268,123,212837,1,8,0:0:0:0:
274,136,213150,1,4,0:0:0:0:
256,160,214400,1,4,0:0:0:0:
256,192,215025,1,8,0:0:0:0:
256,192,215337,1,8,0:0:0:0:
256,192,215650,1,0,0:0:0:0:
256,192,215962,1,8,0:0:0:0:
256,192,216900,1,0,0:0:0:0:
256,192,217525,1,0,0:0:0:0:
256,192,217837,1,8,0:0:0:0:
256,192,218150,1,0,0:0:0:0:
256,192,218462,1,8,0:0:0:0:
256,192,218775,1,8,0:0:0:0:
256,192,219400,1,4,0:0:0:0:
256,192,220025,1,8,0:0:0:0:
256,192,220337,1,8,0:0:0:0:
256,192,220650,1,0,0:0:0:0:
256,192,220962,1,8,0:0:0:0:
256,192,221900,1,0,0:0:0:0:
256,192,222212,1,8,0:0:0:0:
256,192,222525,1,0,0:0:0:0:
256,192,223150,1,8,0:0:0:0:
256,192,223462,1,0,0:0:0:0:
256,192,223775,1,8,0:0:0:0:
256,192,224400,1,12,0:0:0:0:
256,192,225337,1,12,0:0:0:0:
256,192,225806,1,0,0:0:0:0:
256,192,226275,1,12,0:0:0:0:
256,192,226900,1,12,0:0:0:0:
256,192,227837,1,12,0:0:0:0:
256,192,228306,1,0,0:0:0:0:
256,192,228775,1,0,0:0:0:0:
256,192,229087,1,8,0:0:0:0:
256,192,229400,1,8,0:0:0:0:
256,192,230025,1,8,0:0:0:0:
256,192,230337,1,8,0:0:0:0:
256,192,230650,1,0,0:0:0:0:
256,192,230962,1,8,0:0:0:0:
256,192,231900,1,8,0:0:0:0:
256,192,232212,1,8,0:0:0:0:
256,192,232525,1,8,0:0:0:0:
256,192,232837,1,12,0:0:0:0:
256,192,233462,1,0,0:0:0:0:
256,192,233775,1,8,0:0:0:0:
256,192,234243,1,8,0:0:0:0:
