osu file format v14

[General]
AudioFilename: audio.mp3
AudioLeadIn: 0
PreviewTime: 68775
Countdown: 0
SampleSet: Normal
StackLeniency: 0.7
Mode: 1
LetterboxInBreaks: 0
WidescreenStoryboard: 0

[Editor]
Bookmarks: 690,19440,24440,26940,29440,49440,59440,64440,66940,69440,93190,104440,114440,116940,119440,121940,124440,126940,146940,151940,154440,164440,171940,174440,184440,186940,189440,213190,224440,234283
DistanceSpacing: 0.1
BeatDivisor: 4
GridSize: 32
TimelineZoom: 2.3

[Metadata]
Title:5150
TitleUnicode:5150
Artist:THE ORAL CIGARETTES
ArtistUnicode:THE ORAL CIGARETTES
Creator:KyeX
Version:Inner Oni
Source:
Tags:japanese rock jrock j-rock before it’s too late takuya yamanaka 山中拓也 akira akirakani あきらかにあきら gaston_2199 toc
BeatmapID:3241817
BeatmapSetID:1587293

[Difficulty]
HPDrainRate:6
CircleSize:5
OverallDifficulty:6.5
ApproachRate:10
SliderMultiplier:1.4
SliderTickRate:1

[Events]
//Background and Video events
0,0,"bg.jpg",0,-100
//Break Periods
//Storyboard Layer 0 (Background)
//Storyboard Layer 1 (Fail)
//Storyboard Layer 2 (Pass)
//Storyboard Layer 3 (Foreground)
//Storyboard Layer 4 (Overlay)
//Storyboard Sound Samples

[TimingPoints]
19400,312.5,4,1,0,80,1,0
19400,-117.647058823529,4,1,0,80,0,0
24400,-111.111111111111,4,1,0,85,0,0
26978,-110.599893824102,4,1,0,85,0,0
27056,-110.093359168575,4,1,0,85,0,0
27134,-109.591443100123,4,1,0,85,0,0
27212,-109.094082736952,4,1,0,85,0,0
27290,-108.601216333623,4,1,0,85,0,0
27368,-108.112783255492,4,1,0,85,0,0
27446,-107.628723953849,4,1,0,85,0,0
27525,-107.142857142857,4,1,0,85,0,0
27603,-106.667425190579,4,1,0,85,0,0
27681,-106.19619392841,4,1,0,85,0,0
27759,-105.729107928273,4,1,0,85,0,0
27837,-105.266112732989,4,1,0,85,0,0
27915,-104.807154835103,4,1,0,85,0,0
27993,-104.352181656278,4,1,0,85,0,0
28071,-103.901141527208,4,1,0,85,0,0
28150,-103.448275862069,4,1,0,85,0,0
28228,-103.00499917596,4,1,0,85,0,0
28306,-102.565505169302,4,1,0,85,0,0
28384,-102.129745628847,4,1,0,85,0,0
28462,-101.697673157238,4,1,0,85,0,0
28540,-101.26924115582,4,1,0,85,0,0
28618,-100.844403807885,4,1,0,85,0,0
28696,-100.423116062343,4,1,0,85,0,0
28775,-100,4,1,0,85,0,0
29400,-100,4,1,0,90,0,0
48228,-100.627918209628,4,1,0,90,0,0
48306,-101.263771872975,4,1,0,90,0,0
48384,-101.907712375673,4,1,0,90,0,0
48462,-102.559894978668,4,1,0,90,0,0
48618,-103.889627659575,4,1,0,90,0,0
48775,-105.263157894737,4,1,0,90,0,0
48853,-105.959142154785,4,1,0,90,0,0
48931,-106.664391159655,4,1,0,90,0,0
49009,-107.379091143373,4,1,0,90,0,0
49087,-108.103433365044,4,1,0,90,0,0
49165,-108.837614279495,4,1,0,90,0,0
49243,-109.581835714912,4,1,0,90,0,0
49321,-110.336305057816,4,1,0,90,0,0
49400,-111.111111111111,4,1,0,90,0,0
49712,-111.111111111111,4,1,0,85,0,0
59400,-105.263157894737,4,1,0,85,0,0
64868,-104.091341579448,4,1,0,85,0,0
64946,-103.51516298434,4,1,0,85,0,0
65025,-102.938063089553,4,1,0,85,0,0
65181,-101.817166523186,4,1,0,85,0,0
65337,-100.720417980528,4,1,0,85,0,0
65415,-100.180856665369,4,1,0,85,0,0
65493,-99.647045428669,4,1,0,85,0,0
65650,-98.5896453836795,4,1,0,85,0,0
65806,-97.5609756097561,4,1,0,85,0,0
65962,-96.5535501522439,4,1,0,85,0,0
66118,-95.5667176239353,4,1,0,85,0,0
66196,-95.0808273944029,4,1,0,85,0,0
66275,-94.5937182507944,4,1,0,85,0,0
66587,-92.7177574845859,4,1,0,85,0,0
66665,-92.2603360671291,4,1,0,85,0,0
66743,-91.8074058533515,4,1,0,85,0,0
66821,-91.3589010208981,4,1,0,85,0,0
66900,-90.9090909090909,4,1,0,85,0,0
67915,-91.7420415834606,4,1,0,85,0,0
67993,-92.5903971547125,4,1,0,85,0,0
68071,-93.4545889673328,4,1,0,85,0,0
68150,-94.3464604977048,4,1,0,85,0,0
68306,-96.1585816301404,4,1,0,85,0,0
68618,-100,4,1,0,85,0,0
69400,-90.9090909090909,4,1,0,90,0,1
93150,-90.9090909090909,4,1,0,90,0,0
94087,-100,4,1,0,90,0,0
103228,-100.312976486638,4,1,0,90,0,0
103306,-100.627918209628,4,1,0,90,0,0
103384,-100.944843737382,4,1,0,90,0,0
103462,-101.263771872975,4,1,0,90,0,0
103540,-101.584721657863,4,1,0,90,0,0
103618,-101.907712375673,4,1,0,90,0,0
103696,-102.232763556064,4,1,0,90,0,0
103775,-102.564102564103,4,1,0,90,0,0
103931,-103.2247409059,4,1,0,90,0,0
104087,-103.893945060882,4,1,0,90,0,0
104243,-104.571882712176,4,1,0,90,0,0
104400,-105.263157894737,4,1,0,85,0,0
114790,-104.479037341228,4,1,0,85,0,0
114868,-103.706512465637,4,1,0,85,0,0
114946,-102.94532793827,4,1,0,86,0,0
115025,-102.18569026714,4,1,0,86,0,0
115103,-101.446587537092,4,1,0,86,0,0
115181,-100.718099797459,4,1,0,86,0,0
115259,-100,4,1,0,86,0,0
115337,-99.2920675258668,4,1,0,86,0,0
115415,-98.5940879596251,4,1,0,87,0,0
115493,-97.9058528727403,4,1,0,87,0,0
115571,-97.2271596160683,4,1,0,87,0,0
115650,-96.5492895596152,4,1,0,87,0,0
115728,-95.8892102725918,4,1,0,87,0,0
115806,-95.2380952380953,4,1,0,88,0,0
115884,-94.5957630782534,4,1,0,88,0,0
115962,-93.9620372756163,4,1,0,88,0,0
116040,-93.3367460114325,4,1,0,88,0,0
116118,-92.7197220103399,4,1,0,88,0,0
116196,-92.1108023911762,4,1,0,88,0,0
116275,-91.5021746403479,4,1,0,89,0,0
116353,-90.9090909090909,4,1,0,89,0,0
116431,-90.3236459709379,4,1,0,89,0,0
116509,-89.7456931911403,4,1,0,89,0,0
116587,-89.1750896641669,4,1,0,89,0,0
116665,-88.6116960959015,4,1,0,89,0,0
116743,-88.0553766902769,4,1,0,90,0,0
116821,-87.5059990401536,4,1,0,90,0,0
116900,-86.9565217391304,4,1,0,90,0,0
117212,-105.263157894737,4,1,0,85,0,0
117290,-104.479037341228,4,1,0,85,0,0
117368,-103.706512465637,4,1,0,85,0,0
117446,-102.94532793827,4,1,0,86,0,0
117525,-102.18569026714,4,1,0,86,0,0
117603,-101.446587537092,4,1,0,86,0,0
117681,-100.718099797459,4,1,0,86,0,0
117759,-100,4,1,0,86,0,0
117837,-99.2920675258668,4,1,0,86,0,0
117915,-98.5940879596251,4,1,0,87,0,0
117993,-97.9058528727403,4,1,0,87,0,0
118071,-97.2271596160683,4,1,0,87,0,0
118150,-96.5492895596152,4,1,0,87,0,0
118228,-95.8892102725918,4,1,0,87,0,0
118306,-95.2380952380953,4,1,0,88,0,0
118384,-94.5957630782534,4,1,0,88,0,0
118462,-93.9620372756163,4,1,0,88,0,0
118540,-93.3367460114325,4,1,0,88,0,0
118618,-92.7197220103399,4,1,0,88,0,0
118696,-92.1108023911762,4,1,0,88,0,0
118775,-91.5021746403479,4,1,0,89,0,0
118853,-90.9090909090909,4,1,0,89,0,0
118931,-90.3236459709379,4,1,0,89,0,0
119009,-89.7456931911403,4,1,0,89,0,0
119087,-89.1750896641669,4,1,0,89,0,0
119165,-88.6116960959015,4,1,0,89,0,0
119243,-88.0553766902769,4,1,0,90,0,0
119321,-87.5059990401536,4,1,0,90,0,0
119400,-86.9565217391304,4,1,0,90,0,0
119712,-105.263157894737,4,1,0,85,0,0
119790,-104.479037341228,4,1,0,85,0,0
119868,-103.706512465637,4,1,0,85,0,0
119946,-102.94532793827,4,1,0,86,0,0
120025,-102.18569026714,4,1,0,86,0,0
120103,-101.446587537092,4,1,0,86,0,0
120181,-100.718099797459,4,1,0,86,0,0
120259,-100,4,1,0,86,0,0
120337,-99.2920675258668,4,1,0,86,0,0
120415,-98.5940879596251,4,1,0,87,0,0
120493,-97.9058528727403,4,1,0,87,0,0
120571,-97.2271596160683,4,1,0,87,0,0
120650,-96.5492895596152,4,1,0,87,0,0
120728,-95.8892102725918,4,1,0,87,0,0
120806,-95.2380952380953,4,1,0,88,0,0
120884,-94.5957630782534,4,1,0,88,0,0
120962,-93.9620372756163,4,1,0,88,0,0
121040,-93.3367460114325,4,1,0,88,0,0
121118,-92.7197220103399,4,1,0,88,0,0
121196,-92.1108023911762,4,1,0,88,0,0
121275,-91.5021746403479,4,1,0,89,0,0
121353,-90.9090909090909,4,1,0,89,0,0
121431,-90.3236459709379,4,1,0,89,0,0
121509,-89.7456931911403,4,1,0,89,0,0
121587,-89.1750896641669,4,1,0,89,0,0
121665,-88.6116960959015,4,1,0,89,0,0
121743,-88.0553766902769,4,1,0,90,0,0
121821,-87.5059990401536,4,1,0,90,0,0
121900,-86.9565217391304,4,1,0,90,0,0
122212,-90.9090909090909,4,1,0,85,0,0
122290,-91.5021746403479,4,1,0,85,0,0
122368,-92.1030476511197,4,1,0,85,0,0
122446,-92.7118644067796,4,1,0,85,0,0
122525,-93.3367460114325,4,1,0,85,0,0
122603,-93.9620372756163,4,1,0,85,0,0
122681,-94.5957630782534,4,1,0,85,0,0
122759,-95.2380952380952,4,1,0,85,0,0
122837,-95.8892102725918,4,1,0,85,0,0
122993,-97.2185195059095,4,1,0,85,0,0
123150,-98.5940879596251,4,1,0,85,0,0
123254,-99.5269286754003,4,1,0,85,0,0
123358,-100.477590007348,4,1,0,85,0,0
123462,-101.446587537092,4,1,0,85,0,0
123566,-102.434456928839,4,1,0,85,0,0
123670,-103.441754916793,4,1,0,85,0,0
123775,-104.479037341228,4,1,0,85,0,0
123983,-106.596511741206,4,1,0,85,0,0
124087,-107.687764543754,4,1,0,85,0,0
124191,-108.801591248135,4,1,0,85,0,0
124295,-109.938699628178,4,1,0,85,0,0
124400,-111.111111111111,4,1,0,85,0,0
126900,-90.9090909090909,4,1,0,90,0,1
144556,-91.6892833565613,4,1,0,90,0,1
144712,-92.4829831311039,4,1,0,90,0,1
144790,-92.8850083596508,4,1,0,90,0,1
144868,-93.290544070453,4,1,0,90,0,1
145025,-94.1176470588235,4,1,0,90,0,1
145181,-94.9541371517557,4,1,0,90,0,1
145259,-95.3779829464167,4,1,0,90,0,1
145337,-95.8056295387917,4,1,0,90,0,1
145493,-96.672531466909,4,1,0,90,0,1
145650,-97.5609756097561,4,1,0,90,0,1
145728,-98.0084679316293,4,1,0,90,0,1
145806,-98.4600842818321,4,1,0,90,0,1
145884,-98.9158819340033,4,1,0,90,0,1
145962,-99.3759192272529,4,1,0,90,0,1
146118,-100.308951570838,4,1,0,90,0,1
146196,-100.782068854309,4,1,0,90,0,1
146275,-101.26582278481,4,1,0,90,0,1
146353,-101.748031175597,4,1,0,90,0,1
146431,-102.234853906394,4,1,0,90,0,1
146509,-102.726357528815,4,1,0,90,0,1
146587,-103.222609880468,4,1,0,90,0,1
146743,-104.229638740072,4,1,0,90,0,1
146900,-105.263157894737,4,1,0,90,0,0
152056,-105.263157894737,4,1,0,80,0,0
152993,-106.192686516472,4,1,0,80,0,0
153150,-107.14489691016,4,1,0,80,0,0
153306,-108.108108108108,4,1,0,80,0,0
153384,-108.596237337193,4,1,0,80,0,0
153462,-109.08879455719,4,1,0,80,0,0
153618,-110.087436183323,4,1,0,80,0,0
153775,-111.111111111111,4,1,0,80,0,0
154400,-117.647058823529,4,1,0,80,0,0
173931,-115.944717558668,4,1,0,80,0,0
174087,-114.290939014355,4,1,0,80,0,0
174243,-112.683674389255,4,1,0,80,0,0
174400,-111.111111111111,4,1,0,85,0,0
184712,-109.591443100123,4,1,0,85,0,0
185025,-108.108108108108,4,1,0,85,0,0
185337,-106.668942270768,4,1,0,85,0,0
185650,-105.263157894737,4,1,0,85,0,0
185962,-103.898262821046,4,1,0,85,0,0
186275,-102.564102564103,4,1,0,85,0,0
186353,-102.236944342207,4,1,0,85,0,0
186431,-101.911866617749,4,1,0,85,0,0
186509,-101.588849607867,4,1,0,85,0,0
186587,-101.267873779722,4,1,0,85,0,0
186665,-100.948919846558,4,1,0,85,0,0
186743,-100.631968763837,4,1,0,85,0,0
186821,-100.317001725452,4,1,0,85,0,0
186900,-100,4,1,0,85,0,0
187212,-111.111111111111,4,1,0,85,0,0
187368,-109.892427757857,4,1,0,85,0,0
187525,-108.692628650904,4,1,0,85,0,0
187681,-107.526141992295,4,1,0,85,0,0
187837,-106.384426898993,4,1,0,85,0,0
187993,-105.266702586207,4,1,0,85,0,0
188150,-104.165278240587,4,1,0,85,0,0
188228,-103.626599482861,4,1,0,85,0,0
188306,-103.093463491854,4,1,0,85,0,0
188384,-102.565785156506,4,1,0,85,0,0
188462,-102.043481099432,4,1,0,85,0,0
188540,-101.526469632998,4,1,0,85,0,0
188618,-101.014670716732,4,1,0,85,0,0
188696,-100.508005916018,4,1,0,85,0,0
188775,-100,4,1,0,85,0,0
189400,-90.9090909090909,4,1,0,90,0,1
209556,-90.5665845529633,4,1,0,90,0,1
209712,-90.22664934315,4,1,0,90,0,1
209790,-90.0576368876081,4,1,0,90,0,1
209868,-89.8892564360708,4,1,0,90,0,1
210025,-89.5522388059701,4,1,0,90,0,1
210181,-89.2198615307749,4,1,0,90,0,1
210259,-89.0545964045691,4,1,0,90,0,1
210337,-88.8899423993173,4,1,0,90,0,1
210415,-88.7258961315509,4,1,0,90,0,1
210493,-88.562454242732,4,1,0,90,0,1
210571,-88.3996133990241,4,1,0,90,0,1
210650,-88.2352941176471,4,1,0,90,0,1
210806,-87.9126031507877,4,1,0,90,0,1
210962,-87.5922638512566,4,1,0,90,0,1
211040,-87.4329680578223,4,1,0,90,0,1
211118,-87.2742506051015,4,1,0,90,0,1
211275,-86.9565217391304,4,1,0,90,0,1
211431,-86.6430997435364,4,1,0,90,0,1
211587,-86.3319290006216,4,1,0,90,0,1
211665,-86.1771802826611,4,1,0,90,0,1
211743,-86.0229853416833,4,1,0,90,0,1
211821,-85.8693412104142,4,1,0,90,0,1
211900,-85.7142857142857,4,1,0,90,0,1
212056,-85.4097389878377,4,1,0,90,0,1
212212,-85.1073487358722,4,1,0,90,0,1
212368,-84.8070921344249,4,1,0,90,0,1
212525,-84.5070422535211,4,1,0,90,0,1
212681,-84.2109990792931,4,1,0,90,0,1
212759,-84.0637539509964,4,1,0,90,0,1
212837,-83.9170228478081,4,1,0,90,0,1
212993,-83.6250919876012,4,1,0,90,0,1
213150,-83.3333333333333,4,1,0,90,0,0
214087,-100,4,1,0,90,0,0
224400,-90.9090909090909,4,1,0,90,0,1
229556,-90.643657938573,4,1,0,90,0,1
229634,-90.511521856953,4,1,0,90,0,1
229712,-90.379770458151,4,1,0,90,0,1
229868,-90.117415009025,4,1,0,90,0,1
230025,-89.854911128428,4,1,0,90,0,1
230103,-89.725062990959,4,1,0,90,0,1
230181,-89.59558959559,4,1,0,90,0,1
230337,-89.337760560782,4,1,0,90,0,1
230415,-89.209401709402,4,1,0,90,0,1
230493,-89.081411176103,4,1,0,90,0,1
230571,-88.953787377856,4,1,0,90,0,1
230650,-88.824899583662,4,1,0,90,0,1
230806,-88.571480824448,4,1,0,90,0,1
230962,-88.319503966445,4,1,0,90,0,1
231040,-88.194052410176,4,1,0,90,0,1
231118,-88.068956738375,4,1,0,90,0,1
231275,-87.818234568797,4,1,0,90,0,1
231431,-87.570519311442,4,1,0,90,0,1
231509,-87.447185005959,4,1,0,90,0,1
231587,-87.324197619906,4,1,0,90,0,1
231743,-87.079257767549,4,1,0,90,0,1
231900,-86.834131210442,4,1,0,90,0,1
232056,-86.591929052906,4,1,0,90,0,1
232134,-86.4713339404,4,1,0,90,0,1
232212,-86.35107426228,4,1,0,90,0,1
232290,-86.231148620978,4,1,0,90,0,1
232368,-86.111555626678,4,1,0,90,0,1
232446,-85.992293897264,4,1,0,90,0,1
232525,-85.87183942693,4,1,0,90,0,1
232603,-85.75324031447,4,1,0,90,0,1
232681,-85.634968348835,4,1,0,90,0,1
232759,-85.517022178274,4,1,0,90,0,1
232837,-85.399400458473,4,1,0,90,0,1
233150,-84.93064202164,4,1,0,90,0,1
233306,-84.698927928085,4,1,0,90,0,1
233462,-84.468474753641,4,1,0,90,0,1
233618,-84.239272233915,4,1,0,90,0,1
233775,-84.009852900361,4,1,0,90,0,1
233931,-83.783129195211,4,1,0,90,0,1
234009,-83.670225631457,4,1,0,90,0,1
234087,-83.55762594893,4,1,0,90,0,1
234243,-83.333333333333,4,1,0,90,0,0

[HitObjects]
256,192,19400,5,12,0:0:0:0:
256,192,19556,1,12,0:0:0:0:
256,192,19712,1,0,0:0:0:0:
256,192,20025,1,0,0:0:0:0:
256,192,20337,1,0,0:0:0:0:
256,192,20650,1,0,0:0:0:0:
256,192,20962,1,0,0:0:0:0:
256,192,21275,1,0,0:0:0:0:
256,192,21587,1,0,0:0:0:0:
256,192,21900,1,12,0:0:0:0:
256,192,22056,1,12,0:0:0:0:
256,192,22212,1,0,0:0:0:0:
256,192,22525,1,0,0:0:0:0:
256,192,22837,1,0,0:0:0:0:
256,192,23150,1,0,0:0:0:0:
256,192,23462,1,0,0:0:0:0:
256,192,23775,1,0,0:0:0:0:
256,192,24087,1,0,0:0:0:0:
256,192,24400,1,12,0:0:0:0:
256,192,24556,1,0,0:0:0:0:
256,192,24712,1,0,0:0:0:0:
256,192,24868,1,8,0:2:0:0:
256,192,25025,1,0,0:0:0:0:
256,192,25181,1,0,0:0:0:0:
256,192,25337,1,8,0:2:0:0:
256,192,25493,1,0,0:0:0:0:
256,192,25650,1,0,0:0:0:0:
256,192,25806,1,8,0:2:0:0:
256,192,25962,1,0,0:0:0:0:
256,192,26118,1,0,0:0:0:0:
256,192,26275,1,12,0:0:0:0:
256,192,26431,1,0,0:0:0:0:
256,192,26587,1,12,0:0:0:0:
256,192,26900,1,8,0:0:0:0:
256,192,26978,1,8,0:0:0:0:
256,192,27056,1,0,0:0:0:0:
256,192,27134,1,0,0:0:0:0:
256,192,27212,1,8,0:0:0:0:
256,192,27290,1,0,0:0:0:0:
256,192,27368,1,8,0:0:0:0:
256,192,27446,1,8,0:0:0:0:
256,192,27525,1,0,0:0:0:0:
256,192,27603,1,0,0:0:0:0:
256,192,27681,1,8,0:0:0:0:
256,192,27759,1,0,0:0:0:0:
256,192,27837,1,8,0:0:0:0:
256,192,27915,1,0,0:0:0:0:
256,192,27993,1,0,0:0:0:0:
256,192,28071,1,0,0:0:0:0:
256,192,28150,1,8,0:0:0:0:
256,192,28228,1,8,0:0:0:0:
256,192,28306,1,0,0:0:0:0:
256,192,28384,1,0,0:0:0:0:
256,192,28462,1,8,0:0:0:0:
256,192,28540,1,0,0:0:0:0:
256,192,28618,1,8,0:0:0:0:
256,192,28696,1,8,0:0:0:0:
256,192,28775,1,0,0:0:0:0:
256,192,29087,1,8,0:0:0:0:
256,192,29400,1,4,0:0:0:0:
256,192,29556,1,0,0:0:0:0:
256,192,29634,1,0,0:0:0:0:
256,192,29712,1,8,0:0:0:0:
256,192,29868,1,0,0:0:0:0:
256,192,30025,1,8,0:0:0:0:
256,192,30103,1,8,0:0:0:0:
256,192,30181,1,0,0:0:0:0:
256,192,30337,1,8,0:0:0:0:
256,192,30493,1,0,0:0:0:0:
256,192,30571,1,8,0:0:0:0:
256,192,30650,1,0,0:0:0:0:
256,192,30806,1,0,0:0:0:0:
256,192,30962,1,8,0:0:0:0:
256,192,31040,1,8,0:0:0:0:
256,192,31118,1,0,0:0:0:0:
256,192,31275,1,8,0:0:0:0:
256,192,31431,1,0,0:0:0:0:
256,192,31509,1,0,0:0:0:0:
256,192,31587,1,8,0:0:0:0:
256,192,31665,1,0,0:0:0:0:
256,192,31743,1,8,0:0:0:0:
256,192,31821,1,8,0:0:0:0:
256,192,31900,1,0,0:0:0:0:
256,192,32056,1,0,0:0:0:0:
256,192,32134,1,0,0:0:0:0:
256,192,32212,1,8,0:0:0:0:
256,192,32368,1,0,0:0:0:0:
256,192,32525,1,8,0:0:0:0:
256,192,32603,1,8,0:0:0:0:
256,192,32681,1,0,0:0:0:0:
256,192,32837,1,8,0:0:0:0:
256,192,32993,1,0,0:0:0:0:
256,192,33071,1,8,0:0:0:0:
256,192,33150,1,0,0:0:0:0:
256,192,33306,1,0,0:0:0:0:
256,192,33462,1,8,0:0:0:0:
256,192,33540,1,8,0:0:0:0:
256,192,33618,1,0,0:0:0:0:
256,192,33775,1,8,0:0:0:0:
256,192,33853,1,8,0:0:0:0:
256,192,33931,1,0,0:0:0:0:
256,192,34009,1,0,0:0:0:0:
256,192,34087,1,8,0:0:0:0:
256,192,34165,1,0,0:0:0:0:
256,192,34243,1,8,0:0:0:0:
256,192,34321,1,8,0:0:0:0:
256,192,34400,1,0,0:0:0:0:
256,192,34556,1,0,0:0:0:0:
256,192,34634,1,0,0:0:0:0:
256,192,34712,1,8,0:0:0:0:
256,192,34868,1,0,0:0:0:0:
256,192,35025,1,8,0:0:0:0:
256,192,35103,1,8,0:0:0:0:
256,192,35181,1,0,0:0:0:0:
256,192,35337,1,8,0:0:0:0:
256,192,35493,1,0,0:0:0:0:
256,192,35571,1,8,0:0:0:0:
256,192,35650,1,0,0:0:0:0:
256,192,35806,1,0,0:0:0:0:
256,192,35962,1,8,0:0:0:0:
256,192,36040,1,8,0:0:0:0:
256,192,36118,1,0,0:0:0:0:
256,192,36275,1,8,0:0:0:0:
256,192,36431,1,0,0:0:0:0:
256,192,36587,1,8,0:0:0:0:
256,192,36665,1,8,0:0:0:0:
256,192,36743,1,8,0:0:0:0:
256,192,36821,1,8,0:0:0:0:
256,192,36900,1,0,0:0:0:0:
256,192,36978,1,8,0:0:0:0:
256,192,37056,1,0,0:0:0:0:
256,192,37134,1,0,0:0:0:0:
256,192,37212,1,8,0:0:0:0:
256,192,37290,1,0,0:0:0:0:
256,192,37368,1,8,0:0:0:0:
256,192,37446,1,8,0:0:0:0:
256,192,37525,1,0,0:0:0:0:
256,192,37603,1,0,0:0:0:0:
256,192,37681,1,8,0:0:0:0:
256,192,37759,1,0,0:0:0:0:
256,192,37837,1,8,0:0:0:0:
256,192,37915,1,8,0:0:0:0:
256,192,37993,1,0,0:0:0:0:
256,192,38071,1,0,0:0:0:0:
256,192,38150,1,8,0:0:0:0:
256,192,38228,1,8,0:0:0:0:
256,192,38306,1,8,0:0:0:0:
256,192,38384,1,8,0:0:0:0:
256,192,38462,1,0,0:0:0:0:
256,192,38540,1,8,0:0:0:0:
256,192,38618,1,0,0:0:0:0:
256,192,38696,1,0,0:0:0:0:
256,192,38775,1,8,0:0:0:0:
256,192,38931,1,8,0:0:0:0:
256,192,39400,1,4,0:0:0:0:
256,192,39556,1,0,0:0:0:0:
256,192,39634,1,0,0:0:0:0:
256,192,39712,1,8,0:0:0:0:
256,192,39868,1,0,0:0:0:0:
256,192,40025,1,8,0:0:0:0:
256,192,40103,1,8,0:0:0:0:
256,192,40181,1,0,0:0:0:0:
256,192,40337,1,8,0:0:0:0:
256,192,40493,1,0,0:0:0:0:
256,192,40571,1,8,0:0:0:0:
256,192,40650,1,0,0:0:0:0:
256,192,40806,1,0,0:0:0:0:
256,192,40962,1,8,0:0:0:0:
256,192,41040,1,8,0:0:0:0:
256,192,41118,1,0,0:0:0:0:
256,192,41275,1,8,0:0:0:0:
256,192,41431,1,0,0:0:0:0:
256,192,41509,1,0,0:0:0:0:
256,192,41587,1,8,0:0:0:0:
256,192,41665,1,0,0:0:0:0:
256,192,41743,1,8,0:0:0:0:
256,192,41821,1,8,0:0:0:0:
256,192,41900,1,0,0:0:0:0:
256,192,42056,1,0,0:0:0:0:
256,192,42134,1,0,0:0:0:0:
256,192,42212,1,8,0:0:0:0:
256,192,42368,1,0,0:0:0:0:
256,192,42525,1,8,0:0:0:0:
256,192,42603,1,8,0:0:0:0:
256,192,42681,1,0,0:0:0:0:
256,192,42837,1,8,0:0:0:0:
256,192,42993,1,0,0:0:0:0:
256,192,43071,1,8,0:0:0:0:
256,192,43150,1,0,0:0:0:0:
256,192,43306,1,0,0:0:0:0:
256,192,43462,1,8,0:0:0:0:
256,192,43540,1,8,0:0:0:0:
256,192,43618,1,0,0:0:0:0:
256,192,43775,1,8,0:0:0:0:
256,192,43853,1,8,0:0:0:0:
256,192,43931,1,0,0:0:0:0:
256,192,44009,1,0,0:0:0:0:
256,192,44087,1,8,0:0:0:0:
256,192,44165,1,0,0:0:0:0:
256,192,44243,1,8,0:0:0:0:
256,192,44321,1,8,0:0:0:0:
256,192,44400,1,0,0:0:0:0:
256,192,44556,1,0,0:0:0:0:
256,192,44634,1,0,0:0:0:0:
256,192,44712,1,8,0:0:0:0:
256,192,44868,1,0,0:0:0:0:
256,192,45025,1,8,0:0:0:0:
256,192,45103,1,8,0:0:0:0:
256,192,45181,1,0,0:0:0:0:
256,192,45337,1,8,0:0:0:0:
256,192,45493,1,0,0:0:0:0:
256,192,45571,1,8,0:0:0:0:
256,192,45650,1,0,0:0:0:0:
256,192,45806,1,0,0:0:0:0:
256,192,45962,1,8,0:0:0:0:
256,192,46040,1,8,0:0:0:0:
256,192,46118,1,0,0:0:0:0:
256,192,46275,1,8,0:0:0:0:
256,192,46431,1,0,0:0:0:0:
256,192,46509,1,0,0:0:0:0:
256,192,46587,1,12,0:0:0:0:
256,192,46900,1,8,0:0:0:0:
256,192,46978,1,0,0:0:0:0:
256,192,47056,1,8,0:0:0:0:
256,192,47134,1,8,0:0:0:0:
256,192,47212,1,0,0:0:0:0:
256,192,47290,1,0,0:0:0:0:
256,192,47368,1,8,0:0:0:0:
256,192,47446,1,0,0:0:0:0:
256,192,47525,1,8,0:0:0:0:
256,192,47603,1,8,0:0:0:0:
256,192,47681,1,0,0:0:0:0:
256,192,47759,1,0,0:0:0:0:
256,192,47837,1,12,0:0:0:0:
256,192,47993,1,0,0:0:0:0:
256,192,48150,1,8,0:0:0:0:
256,192,48228,1,0,0:0:0:0:
256,192,48306,1,8,0:0:0:0:
256,192,48384,1,8,0:0:0:0:
256,192,48462,1,0,0:0:0:0:
256,192,48618,1,0,0:0:0:0:
256,192,48775,1,8,0:0:0:0:
256,192,48853,1,0,0:0:0:0:
256,192,48931,1,0,0:0:0:0:
256,192,49009,1,0,0:0:0:0:
256,192,49087,1,8,0:0:0:0:
256,192,49165,1,8,0:0:0:0:
256,192,49243,1,0,0:0:0:0:
256,192,49321,1,0,0:0:0:0:
256,192,49400,1,12,0:0:0:0:
256,192,49712,1,8,0:0:0:0:
256,192,49868,1,8,0:0:0:0:
256,192,49946,1,8,0:0:0:0:
256,192,50025,1,0,0:0:0:0:
256,192,50181,1,0,0:0:0:0:
256,192,50337,1,8,0:0:0:0:
256,192,50493,1,0,0:0:0:0:
256,192,50571,1,0,0:0:0:0:
256,192,50650,1,8,0:0:0:0:
256,192,50806,1,0,0:0:0:0:
256,192,50962,1,8,0:0:0:0:
256,192,51275,1,0,0:0:0:0:
256,192,51431,1,0,0:0:0:0:
256,192,51509,1,0,0:0:0:0:
256,192,51587,1,8,0:0:0:0:
256,192,51743,1,8,0:0:0:0:
256,192,51900,1,0,0:0:0:0:
256,192,52212,1,8,0:0:0:0:
256,192,52368,1,8,0:0:0:0:
256,192,52446,1,0,0:0:0:0:
256,192,52525,1,0,0:0:0:0:
256,192,52681,1,0,0:0:0:0:
256,192,52837,1,8,0:0:0:0:
256,192,52993,1,8,0:0:0:0:
256,192,53071,1,8,0:0:0:0:
256,192,53150,1,0,0:0:0:0:
256,192,53306,1,0,0:0:0:0:
256,192,53384,1,0,0:0:0:0:
256,192,53462,1,8,0:0:0:0:
256,192,53775,1,0,0:0:0:0:
256,192,53931,1,0,0:0:0:0:
256,192,54009,1,0,0:0:0:0:
256,192,54087,1,8,0:0:0:0:
256,192,54243,1,8,0:0:0:0:
256,192,54400,1,0,0:0:0:0:
256,192,54712,1,8,0:0:0:0:
256,192,54868,1,0,0:0:0:0:
256,192,54946,1,0,0:0:0:0:
256,192,55025,1,8,0:0:0:0:
256,192,55181,1,0,0:0:0:0:
256,192,55337,1,8,0:0:0:0:
256,192,55415,1,0,0:0:0:0:
256,192,55493,1,8,0:0:0:0:
256,192,55571,1,8,0:0:0:0:
256,192,55650,1,0,0:0:0:0:
256,192,55962,1,8,0:0:0:0:
256,192,56118,1,0,0:0:0:0:
256,192,56196,1,8,0:0:0:0:
256,192,56275,1,0,0:0:0:0:
256,192,56431,1,0,0:0:0:0:
256,192,56587,1,8,0:0:0:0:
256,192,56743,1,8,0:0:0:0:
256,192,56821,1,0,0:0:0:0:
256,192,56900,1,0,0:0:0:0:
256,192,57212,1,8,0:0:0:0:
256,192,57368,1,8,0:0:0:0:
256,192,57446,1,8,0:0:0:0:
256,192,57525,1,0,0:0:0:0:
256,192,57681,1,0,0:0:0:0:
256,192,57759,1,0,0:0:0:0:
256,192,57837,1,8,0:0:0:0:
256,192,57993,1,0,0:0:0:0:
256,192,58150,1,8,0:0:0:0:
256,192,58228,1,8,0:0:0:0:
256,192,58306,1,0,0:0:0:0:
256,192,58384,1,0,0:0:0:0:
256,192,58462,1,8,0:0:0:0:
256,192,58540,1,0,0:0:0:0:
256,192,58618,1,8,0:0:0:0:
256,192,58696,1,8,0:0:0:0:
256,192,58775,1,0,0:0:0:0:
256,192,58853,1,0,0:0:0:0:
256,192,58931,1,0,0:0:0:0:
256,192,59009,1,0,0:0:0:0:
256,192,59087,1,12,0:0:0:0:
256,192,59400,1,4,0:0:0:0:
256,192,59556,1,0,0:0:0:0:
256,192,59712,1,8,0:0:0:0:
256,192,59868,1,8,0:0:0:0:
256,192,59946,1,8,0:0:0:0:
256,192,60025,1,0,0:0:0:0:
256,192,60181,1,0,0:0:0:0:
256,192,60259,1,0,0:0:0:0:
256,192,60337,1,8,0:0:0:0:
256,192,60493,1,8,0:0:0:0:
256,192,60806,1,0,0:0:0:0:
256,192,60962,1,8,0:0:0:0:
256,192,61118,1,8,0:0:0:0:
256,192,61196,1,0,0:0:0:0:
256,192,61275,1,8,0:0:0:0:
256,192,61431,1,0,0:0:0:0:
256,192,61587,1,8,0:0:0:0:
256,192,61743,1,0,0:0:0:0:
256,192,61821,1,0,0:0:0:0:
256,192,61900,1,8,0:0:0:0:
256,192,62056,1,0,0:0:0:0:
256,192,62212,1,8,0:0:0:0:
256,192,62290,1,0,0:0:0:0:
256,192,62368,1,8,0:0:0:0:
256,192,62446,1,8,0:0:0:0:
256,192,62525,1,0,0:0:0:0:
256,192,62681,1,8,0:0:0:0:
256,192,62837,1,0,0:0:0:0:
256,192,62915,1,0,0:0:0:0:
256,192,62993,1,8,0:0:0:0:
256,192,63306,1,0,0:0:0:0:
256,192,63462,1,8,0:0:0:0:
256,192,63618,1,8,0:0:0:0:
256,192,63696,1,0,0:0:0:0:
256,192,63775,1,8,0:0:0:0:
256,192,63931,1,0,0:0:0:0:
256,192,64087,1,8,0:0:0:0:
256,192,64243,1,8,0:0:0:0:
256,192,64321,1,8,0:0:0:0:
256,192,64400,1,4,0:0:0:0:
256,192,64712,1,8,0:0:0:0:
256,192,64868,1,0,0:0:0:0:
256,192,64946,1,0,0:0:0:0:
256,192,65025,1,8,0:0:0:0:
256,192,65181,1,0,0:0:0:0:
256,192,65337,1,8,0:0:0:0:
256,192,65415,1,8,0:0:0:0:
256,192,65493,1,0,0:0:0:0:
256,192,65650,1,8,0:0:0:0:
256,192,65806,1,0,0:0:0:0:
256,192,65962,1,8,0:0:0:0:
256,192,66118,1,0,0:0:0:0:
256,192,66196,1,0,0:0:0:0:
256,192,66275,1,8,0:0:0:0:
256,192,66587,1,8,0:0:0:0:
256,192,66665,1,8,0:0:0:0:
256,192,66743,1,0,0:0:0:0:
256,192,66821,1,0,0:0:0:0:
256,192,66900,1,12,0:0:0:0:
256,192,67056,1,0,0:0:0:0:
256,192,67212,1,0,0:0:0:0:
256,192,67368,1,12,0:0:0:0:
256,192,67525,1,0,0:0:0:0:
256,192,67681,1,0,0:0:0:0:
256,192,67837,1,8,0:0:0:0:
256,192,67915,1,8,0:0:0:0:
256,192,67993,1,0,0:0:0:0:
256,192,68071,1,0,0:0:0:0:
256,192,68150,1,8,0:0:0:0:
256,192,68306,1,4,0:0:0:0:
256,192,68618,1,4,0:0:0:0:
256,192,69400,1,4,0:0:0:0:
256,192,69556,1,0,0:0:0:0:
256,192,69712,1,8,0:0:0:0:
256,192,69790,1,0,0:0:0:0:
256,192,69868,1,8,0:0:0:0:
256,192,69946,1,8,0:0:0:0:
256,192,70025,1,0,0:0:0:0:
256,192,70181,1,0,0:0:0:0:
256,192,70337,1,8,0:0:0:0:
256,192,70415,1,8,0:0:0:0:
256,192,70493,1,0,0:0:0:0:
256,192,70571,1,0,0:0:0:0:
256,192,70650,1,8,0:0:0:0:
256,192,70806,1,0,0:0:0:0:
256,192,70962,1,8,0:0:0:0:
256,192,71118,1,0,0:0:0:0:
256,192,71196,1,0,0:0:0:0:
256,192,71275,1,8,0:0:0:0:
256,192,71431,1,0,0:0:0:0:
256,192,71509,1,8,0:0:0:0:
256,192,71665,1,8,0:0:0:0:
256,192,71743,1,0,0:0:0:0:
256,192,71900,1,12,0:0:0:0:
256,192,72056,1,0,0:0:0:0:
256,192,72212,1,8,0:0:0:0:
256,192,72290,1,0,0:0:0:0:
256,192,72368,1,8,0:0:0:0:
256,192,72446,1,8,0:0:0:0:
256,192,72525,1,0,0:0:0:0:
256,192,72681,1,0,0:0:0:0:
256,192,72837,1,8,0:0:0:0:
256,192,72915,1,0,0:0:0:0:
256,192,72993,1,8,0:0:0:0:
256,192,73150,1,8,0:0:0:0:
256,192,73306,1,0,0:0:0:0:
256,192,73462,1,8,0:0:0:0:
256,192,73540,1,8,0:0:0:0:
256,192,73618,1,0,0:0:0:0:
256,192,73696,1,0,0:0:0:0:
256,192,73775,1,8,0:0:0:0:
256,192,73931,1,0,0:0:0:0:
256,192,74087,1,8,0:0:0:0:
256,192,74165,1,8,0:0:0:0:
256,192,74243,1,8,0:0:0:0:
256,192,74321,1,8,0:0:0:0:
256,192,74400,1,4,0:0:0:0:
256,192,74556,1,0,0:0:0:0:
256,192,74712,1,8,0:0:0:0:
256,192,74790,1,0,0:0:0:0:
256,192,74868,1,8,0:0:0:0:
256,192,74946,1,8,0:0:0:0:
256,192,75025,1,0,0:0:0:0:
256,192,75181,1,0,0:0:0:0:
256,192,75337,1,8,0:0:0:0:
256,192,75493,1,0,0:0:0:0:
256,192,75571,1,0,0:0:0:0:
256,192,75650,1,8,0:0:0:0:
256,192,75806,1,0,0:0:0:0:
256,192,75962,1,8,0:0:0:0:
256,192,76040,1,8,0:0:0:0:
256,192,76118,1,0,0:0:0:0:
256,192,76196,1,8,0:0:0:0:
256,192,76275,1,0,0:0:0:0:
256,192,76431,1,0,0:0:0:0:
256,192,76509,1,0,0:0:0:0:
256,192,76587,1,8,0:0:0:0:
256,192,76743,1,0,0:0:0:0:
256,192,76900,1,12,0:0:0:0:
256,192,77056,1,0,0:0:0:0:
256,192,77134,1,0,0:0:0:0:
256,192,77212,1,8,0:0:0:0:
256,192,77368,1,0,0:0:0:0:
256,192,77525,1,8,0:0:0:0:
256,192,77681,1,8,0:0:0:0:
256,192,77759,1,0,0:0:0:0:
256,192,77837,1,8,0:0:0:0:
256,192,77993,1,0,0:0:0:0:
256,192,78150,1,8,0:0:0:0:
256,192,78228,1,8,0:0:0:0:
256,192,78306,1,0,0:0:0:0:
256,192,78462,1,12,0:0:0:0:
256,192,78618,1,0,0:0:0:0:
256,192,78775,1,8,0:0:0:0:
256,192,78853,1,8,0:0:0:0:
256,192,78931,1,0,0:0:0:0:
256,192,79009,1,0,0:0:0:0:
256,192,79087,1,8,0:0:0:0:
256,192,79165,1,8,0:0:0:0:
256,192,79243,1,8,0:0:0:0:
256,192,79321,1,8,0:0:0:0:
256,192,79400,1,4,0:0:0:0:
256,192,79556,1,0,0:0:0:0:
256,192,79712,1,8,0:0:0:0:
256,192,79790,1,0,0:0:0:0:
256,192,79868,1,0,0:0:0:0:
256,192,79946,1,0,0:0:0:0:
256,192,80025,1,8,0:0:0:0:
256,192,80181,1,0,0:0:0:0:
256,192,80337,1,8,0:0:0:0:
256,192,80493,1,8,0:0:0:0:
256,192,80571,1,8,0:0:0:0:
256,192,80650,1,0,0:0:0:0:
256,192,80728,1,0,0:0:0:0:
256,192,80806,1,0,0:0:0:0:
256,192,80962,1,8,0:0:0:0:
256,192,81118,1,0,0:0:0:0:
256,192,81196,1,0,0:0:0:0:
256,192,81275,1,8,0:0:0:0:
256,192,81431,1,0,0:0:0:0:
256,192,81509,1,8,0:0:0:0:
256,192,81665,1,8,0:0:0:0:
256,192,81743,1,0,0:0:0:0:
256,192,81900,1,12,0:0:0:0:
256,192,82056,1,0,0:0:0:0:
256,192,82212,1,8,0:0:0:0:
256,192,82290,1,0,0:0:0:0:
256,192,82368,1,8,0:0:0:0:
256,192,82446,1,8,0:0:0:0:
256,192,82525,1,0,0:0:0:0:
256,192,82681,1,0,0:0:0:0:
256,192,82759,1,0,0:0:0:0:
256,192,82837,1,8,0:0:0:0:
256,192,82915,1,0,0:0:0:0:
256,192,82993,1,0,0:0:0:0:
256,192,83071,1,0,0:0:0:0:
256,192,83150,1,8,0:0:0:0:
256,192,83306,1,0,0:0:0:0:
256,192,83462,1,8,0:0:0:0:
256,192,83540,1,8,0:0:0:0:
256,192,83618,1,0,0:0:0:0:
256,192,83696,1,0,0:0:0:0:
256,192,83775,1,8,0:0:0:0:
256,192,83931,1,0,0:0:0:0:
256,192,84087,1,8,0:0:0:0:
256,192,84165,1,8,0:0:0:0:
256,192,84243,1,8,0:0:0:0:
256,192,84321,1,8,0:0:0:0:
256,192,84400,1,4,0:0:0:0:
256,192,84556,1,0,0:0:0:0:
256,192,84712,1,8,0:0:0:0:
256,192,84868,1,0,0:0:0:0:
256,192,84946,1,0,0:0:0:0:
256,192,85025,1,8,0:0:0:0:
256,192,85181,1,0,0:0:0:0:
256,192,85337,1,8,0:0:0:0:
256,192,85415,1,8,0:0:0:0:
256,192,85493,1,0,0:0:0:0:
256,192,85571,1,0,0:0:0:0:
256,192,85650,1,8,0:0:0:0:
256,192,85806,1,0,0:0:0:0:
256,192,85962,1,8,0:0:0:0:
256,192,86040,1,0,0:0:0:0:
256,192,86118,1,8,0:0:0:0:
256,192,86196,1,8,0:0:0:0:
256,192,86275,1,0,0:0:0:0:
256,192,86431,1,0,0:0:0:0:
256,192,86587,1,8,0:0:0:0:
256,192,86665,1,0,0:0:0:0:
256,192,86743,1,0,0:0:0:0:
256,192,86900,1,12,0:0:0:0:
256,192,87056,1,0,0:0:0:0:
256,192,87134,1,0,0:0:0:0:
256,192,87212,1,8,0:0:0:0:
256,192,87368,1,0,0:0:0:0:
256,192,87525,1,8,0:0:0:0:
256,192,87681,1,0,0:0:0:0:
256,192,87759,1,0,0:0:0:0:
256,192,87837,1,8,0:0:0:0:
256,192,87993,1,0,0:0:0:0:
256,192,88150,1,8,0:0:0:0:
256,192,88228,1,8,0:0:0:0:
256,192,88306,1,0,0:0:0:0:
256,192,88384,1,0,0:0:0:0:
256,192,88462,1,8,0:0:0:0:
256,192,88618,1,8,0:0:0:0:
256,192,88696,1,0,0:0:0:0:
256,192,88775,1,8,0:0:0:0:
256,192,88853,1,8,0:0:0:0:
256,192,88931,1,0,0:0:0:0:
256,192,89009,1,0,0:0:0:0:
256,192,89087,1,8,0:0:0:0:
256,192,89243,1,0,0:0:0:0:
256,192,89400,1,12,0:0:0:0:
256,192,89556,1,0,0:0:0:0:
256,192,89712,1,0,0:0:0:0:
256,192,89868,1,12,0:0:0:0:
256,192,90025,1,0,0:0:0:0:
256,192,90181,1,0,0:0:0:0:
256,192,90337,1,12,0:0:0:0:
256,192,90493,1,0,0:0:0:0:
256,192,90650,1,0,0:0:0:0:
256,192,90806,1,12,0:0:0:0:
256,192,90962,1,0,0:0:0:0:
256,192,91118,1,0,0:0:0:0:
256,192,91275,1,12,0:0:0:0:
256,192,91431,1,0,0:0:0:0:
256,192,91587,1,12,0:0:0:0:
256,192,91743,1,0,0:0:0:0:
256,192,91900,1,12,0:0:0:0:
256,192,92212,1,8,0:0:0:0:
256,192,92290,1,8,0:0:0:0:
256,192,92368,1,0,0:0:0:0:
256,192,92446,1,0,0:0:0:0:
256,192,92525,1,8,0:0:0:0:
256,192,92603,1,0,0:0:0:0:
256,192,92681,1,0,0:0:0:0:
256,192,92759,1,0,0:0:0:0:
256,192,92837,1,8,0:0:0:0:
256,192,92915,1,0,0:0:0:0:
256,192,92993,1,8,0:0:0:0:
256,192,93071,1,8,0:0:0:0:
256,192,93150,1,4,0:0:0:0:
256,192,94087,1,8,0:0:0:0:
256,192,94400,1,4,0:0:0:0:
256,192,94556,1,0,0:0:0:0:
256,192,94634,1,0,0:0:0:0:
256,192,94712,1,8,0:0:0:0:
256,192,94868,1,0,0:0:0:0:
256,192,95025,1,8,0:0:0:0:
256,192,95103,1,8,0:0:0:0:
256,192,95181,1,0,0:0:0:0:
256,192,95337,1,8,0:0:0:0:
256,192,95493,1,0,0:0:0:0:
256,192,95571,1,8,0:0:0:0:
256,192,95650,1,0,0:0:0:0:
256,192,95806,1,0,0:0:0:0:
256,192,95962,1,8,0:0:0:0:
256,192,96040,1,8,0:0:0:0:
256,192,96118,1,0,0:0:0:0:
256,192,96275,1,8,0:0:0:0:
256,192,96431,1,0,0:0:0:0:
256,192,96509,1,0,0:0:0:0:
256,192,96587,1,8,0:0:0:0:
256,192,96665,1,0,0:0:0:0:
256,192,96743,1,8,0:0:0:0:
256,192,96821,1,8,0:0:0:0:
256,192,96900,1,0,0:0:0:0:
256,192,97056,1,0,0:0:0:0:
256,192,97134,1,0,0:0:0:0:
256,192,97212,1,8,0:0:0:0:
256,192,97368,1,0,0:0:0:0:
256,192,97525,1,8,0:0:0:0:
256,192,97603,1,8,0:0:0:0:
256,192,97681,1,0,0:0:0:0:
256,192,97837,1,8,0:0:0:0:
256,192,97993,1,0,0:0:0:0:
256,192,98071,1,8,0:0:0:0:
256,192,98150,1,0,0:0:0:0:
256,192,98306,1,0,0:0:0:0:
256,192,98462,1,8,0:0:0:0:
256,192,98540,1,8,0:0:0:0:
256,192,98618,1,0,0:0:0:0:
256,192,98775,1,8,0:0:0:0:
256,192,98853,1,8,0:0:0:0:
256,192,98931,1,0,0:0:0:0:
256,192,99009,1,0,0:0:0:0:
256,192,99087,1,8,0:0:0:0:
256,192,99165,1,0,0:0:0:0:
256,192,99243,1,8,0:0:0:0:
256,192,99321,1,8,0:0:0:0:
256,192,99400,1,0,0:0:0:0:
256,192,99556,1,0,0:0:0:0:
256,192,99634,1,0,0:0:0:0:
256,192,99712,1,8,0:0:0:0:
256,192,99868,1,0,0:0:0:0:
256,192,100025,1,8,0:0:0:0:
256,192,100103,1,8,0:0:0:0:
256,192,100181,1,0,0:0:0:0:
256,192,100337,1,8,0:0:0:0:
256,192,100493,1,0,0:0:0:0:
256,192,100571,1,8,0:0:0:0:
256,192,100650,1,0,0:0:0:0:
256,192,100806,1,0,0:0:0:0:
256,192,100962,1,8,0:0:0:0:
256,192,101040,1,8,0:0:0:0:
256,192,101118,1,0,0:0:0:0:
256,192,101275,1,8,0:0:0:0:
256,192,101353,1,8,0:0:0:0:
256,192,101431,1,0,0:0:0:0:
256,192,101509,1,0,0:0:0:0:
256,192,101587,1,8,0:0:0:0:
256,192,101900,1,0,0:0:0:0:
256,192,101978,1,0,0:0:0:0:
256,192,102056,1,8,0:0:0:0:
256,192,102134,1,0,0:0:0:0:
256,192,102212,1,8,0:0:0:0:
256,192,102290,1,0,0:0:0:0:
256,192,102368,1,0,0:0:0:0:
256,192,102446,1,0,0:0:0:0:
256,192,102525,1,8,0:0:0:0:
256,192,102603,1,0,0:0:0:0:
256,192,102681,1,8,0:0:0:0:
256,192,102759,1,8,0:0:0:0:
256,192,102837,1,0,0:0:0:0:
256,192,102915,1,0,0:0:0:0:
256,192,102993,1,8,0:0:0:0:
256,192,103071,1,0,0:0:0:0:
256,192,103150,1,8,0:0:0:0:
256,192,103228,1,8,0:0:0:0:
256,192,103306,1,0,0:0:0:0:
256,192,103384,1,0,0:0:0:0:
256,192,103462,1,8,0:0:0:0:
256,192,103540,1,0,0:0:0:0:
256,192,103618,1,8,0:0:0:0:
256,192,103696,1,8,0:0:0:0:
256,192,103775,1,0,0:0:0:0:
256,192,103931,1,8,0:0:0:0:
256,192,104087,1,0,0:0:0:0:
256,192,104243,1,0,0:0:0:0:
256,192,104400,1,12,0:0:0:0:
256,192,104556,1,0,0:0:0:0:
256,192,104868,1,0,0:0:0:0:
256,192,105025,1,8,0:0:0:0:
256,192,105103,1,8,0:0:0:0:
256,192,105181,1,0,0:0:0:0:
256,192,105337,1,8,0:0:0:0:
256,192,105493,1,0,0:0:0:0:
256,192,105806,1,0,0:0:0:0:
256,192,105962,1,8,0:0:0:0:
256,192,106118,1,0,0:0:0:0:
256,192,106196,1,0,0:0:0:0:
256,192,106275,1,8,0:0:0:0:
256,192,106431,1,8,0:0:0:0:
256,192,106587,1,0,0:0:0:0:
256,192,106743,1,8,0:0:0:0:
256,192,106900,1,0,0:0:0:0:
256,192,106978,1,8,0:0:0:0:
256,192,107056,1,0,0:0:0:0:
256,192,107134,1,0,0:0:0:0:
256,192,107212,1,8,0:0:0:0:
256,192,107368,1,0,0:0:0:0:
256,192,107446,1,0,0:0:0:0:
256,192,107525,1,8,0:0:0:0:
256,192,107681,1,0,0:0:0:0:
256,192,107837,1,8,0:0:0:0:
256,192,107915,1,8,0:0:0:0:
256,192,107993,1,0,0:0:0:0:
256,192,108150,1,8,0:0:0:0:
256,192,108306,1,0,0:0:0:0:
256,192,108462,1,0,0:0:0:0:
256,192,108540,1,0,0:0:0:0:
256,192,108618,1,8,0:0:0:0:
256,192,108696,1,0,0:0:0:0:
256,192,108775,1,8,0:0:0:0:
256,192,108931,1,0,0:0:0:0:
256,192,109009,1,0,0:0:0:0:
256,192,109087,1,8,0:0:0:0:
256,192,109243,1,8,0:0:0:0:
256,192,109400,1,4,0:0:0:0:
256,192,109556,1,0,0:0:0:0:
256,192,109868,1,0,0:0:0:0:
256,192,110025,1,8,0:0:0:0:
256,192,110181,1,8,0:0:0:0:
256,192,110259,1,8,0:0:0:0:
256,192,110337,1,0,0:0:0:0:
256,192,110493,1,0,0:0:0:0:
256,192,110806,1,0,0:0:0:0:
256,192,110962,1,8,0:0:0:0:
256,192,111040,1,8,0:0:0:0:
256,192,111118,1,0,0:0:0:0:
256,192,111196,1,0,0:0:0:0:
256,192,111275,1,8,0:0:0:0:
256,192,111431,1,8,0:0:0:0:
256,192,111587,1,0,0:0:0:0:
256,192,111665,1,0,0:0:0:0:
256,192,111743,1,8,0:0:0:0:
256,192,111900,1,12,0:0:0:0:
256,192,112056,1,0,0:0:0:0:
256,192,112134,1,0,0:0:0:0:
256,192,112212,1,8,0:0:0:0:
256,192,112368,1,0,0:0:0:0:
256,192,112525,1,8,0:0:0:0:
256,192,112603,1,0,0:0:0:0:
256,192,112681,1,8,0:0:0:0:
256,192,112837,1,0,0:0:0:0:
256,192,112993,1,0,0:0:0:0:
256,192,113071,1,0,0:0:0:0:
256,192,113150,1,8,0:0:0:0:
256,192,113306,1,8,0:0:0:0:
256,192,113384,1,0,0:0:0:0:
256,192,113462,1,8,0:0:0:0:
256,192,113618,1,0,0:0:0:0:
256,192,113775,1,8,0:0:0:0:
256,192,113853,1,8,0:0:0:0:
256,192,113931,1,0,0:0:0:0:
256,192,114009,1,0,0:0:0:0:
256,192,114087,1,12,0:0:0:0:
256,192,114400,1,4,0:0:0:0:
256,192,114712,1,8,0:0:0:0:
256,192,114790,1,8,0:0:0:0:
256,192,114868,1,0,0:0:0:0:
256,192,114946,1,0,0:0:0:0:
256,192,115025,1,8,0:0:0:0:
256,192,115103,1,0,0:0:0:0:
256,192,115181,1,0,0:0:0:0:
256,192,115259,1,0,0:0:0:0:
256,192,115337,1,8,0:0:0:0:
256,192,115415,1,0,0:0:0:0:
256,192,115493,1,8,0:0:0:0:
256,192,115571,1,8,0:0:0:0:
256,192,115650,1,0,0:0:0:0:
256,192,115728,1,0,0:0:0:0:
256,192,115806,1,8,0:0:0:0:
256,192,115884,1,0,0:0:0:0:
256,192,115962,1,8,0:0:0:0:
256,192,116040,1,8,0:0:0:0:
256,192,116118,1,0,0:0:0:0:
256,192,116196,1,0,0:0:0:0:
256,192,116275,1,8,0:0:0:0:
256,192,116353,1,0,0:0:0:0:
256,192,116431,1,0,0:0:0:0:
256,192,116509,1,0,0:0:0:0:
256,192,116587,1,8,0:0:0:0:
256,192,116665,1,8,0:0:0:0:
256,192,116743,1,8,0:0:0:0:
256,192,116821,1,8,0:0:0:0:
256,192,116900,1,4,0:0:0:0:
256,192,117212,1,8,0:0:0:0:
256,192,117290,1,8,0:0:0:0:
256,192,117368,1,0,0:0:0:0:
256,192,117446,1,0,0:0:0:0:
256,192,117525,1,8,0:0:0:0:
256,192,117603,1,0,0:0:0:0:
256,192,117681,1,8,0:0:0:0:
256,192,117759,1,0,0:0:0:0:
256,192,117837,1,8,0:0:0:0:
256,192,117915,1,8,0:0:0:0:
256,192,117993,1,0,0:0:0:0:
256,192,118071,1,0,0:0:0:0:
256,192,118150,1,0,0:0:0:0:
256,192,118228,1,0,0:0:0:0:
256,192,118306,1,8,0:0:0:0:
256,192,118384,1,0,0:0:0:0:
256,192,118462,1,8,0:0:0:0:
256,192,118540,1,8,0:0:0:0:
256,192,118618,1,0,0:0:0:0:
256,192,118696,1,0,0:0:0:0:
256,192,118775,1,8,0:0:0:0:
256,192,118853,1,0,0:0:0:0:
256,192,118931,1,0,0:0:0:0:
256,192,119009,1,0,0:0:0:0:
256,192,119087,1,8,0:0:0:0:
256,192,119165,1,8,0:0:0:0:
256,192,119243,1,8,0:0:0:0:
256,192,119321,1,8,0:0:0:0:
256,192,119400,1,4,0:0:0:0:
256,192,119712,1,8,0:0:0:0:
256,192,119790,1,8,0:0:0:0:
256,192,119868,1,0,0:0:0:0:
256,192,119946,1,0,0:0:0:0:
256,192,120025,1,8,0:0:0:0:
256,192,120103,1,0,0:0:0:0:
256,192,120181,1,8,0:0:0:0:
256,192,120259,1,8,0:0:0:0:
256,192,120337,1,0,0:0:0:0:
256,192,120415,1,0,0:0:0:0:
256,192,120493,1,8,0:0:0:0:
256,192,120571,1,8,0:0:0:0:
256,192,120650,1,8,0:0:0:0:
256,192,120728,1,8,0:0:0:0:
256,192,120806,1,0,0:0:0:0:
256,192,120884,1,8,0:0:0:0:
256,192,120962,1,0,0:0:0:0:
256,192,121040,1,0,0:0:0:0:
256,192,121118,1,8,0:0:0:0:
256,192,121196,1,0,0:0:0:0:
256,192,121275,1,8,0:0:0:0:
256,192,121353,1,8,0:0:0:0:
256,192,121431,1,0,0:0:0:0:
256,192,121509,1,0,0:0:0:0:
256,192,121587,1,8,0:0:0:0:
256,192,121665,1,8,0:0:0:0:
256,192,121743,1,8,0:0:0:0:
256,192,121821,1,8,0:0:0:0:
256,192,121900,1,4,0:0:0:0:
256,192,122212,1,8,0:0:0:0:
256,192,122290,1,8,0:0:0:0:
256,192,122368,1,0,0:0:0:0:
256,192,122446,1,0,0:0:0:0:
256,192,122525,1,8,0:0:0:0:
256,192,122603,1,0,0:0:0:0:
256,192,122681,1,8,0:0:0:0:
256,192,122759,1,8,0:0:0:0:
256,192,122837,1,0,0:0:0:0:
256,192,122993,1,8,0:0:0:0:
256,192,123150,1,8,0:0:0:0:
256,192,123254,1,0,0:0:0:0:
256,192,123358,1,0,0:0:0:0:
256,192,123462,1,8,0:0:0:0:
256,192,123566,1,8,0:0:0:0:
256,192,123670,1,0,0:0:0:0:
256,192,123775,1,8,0:0:0:0:
256,192,123983,1,0,0:0:0:0:
256,192,124087,1,8,0:0:0:0:
256,192,124191,1,0,0:0:0:0:
256,192,124295,1,0,0:0:0:0:
256,192,124400,1,8,0:0:0:0:
256,192,126900,1,4,0:0:0:0:
256,192,127056,1,0,0:0:0:0:
256,192,127212,1,8,0:0:0:0:
256,192,127290,1,0,0:0:0:0:
256,192,127368,1,8,0:0:0:0:
256,192,127446,1,8,0:0:0:0:
256,192,127525,1,0,0:0:0:0:
256,192,127681,1,0,0:0:0:0:
256,192,127837,1,8,0:0:0:0:
256,192,127915,1,8,0:0:0:0:
256,192,127993,1,0,0:0:0:0:
256,192,128071,1,0,0:0:0:0:
256,192,128150,1,8,0:0:0:0:
256,192,128306,1,0,0:0:0:0:
256,192,128462,1,8,0:0:0:0:
256,192,128618,1,0,0:0:0:0:
256,192,128696,1,0,0:0:0:0:
256,192,128775,1,8,0:0:0:0:
256,192,128931,1,0,0:0:0:0:
256,192,129009,1,8,0:0:0:0:
256,192,129165,1,8,0:0:0:0:
256,192,129243,1,0,0:0:0:0:
256,192,129400,1,12,0:0:0:0:
256,192,129556,1,0,0:0:0:0:
256,192,129712,1,8,0:0:0:0:
256,192,129790,1,0,0:0:0:0:
256,192,129868,1,8,0:0:0:0:
256,192,129946,1,8,0:0:0:0:
256,192,130025,1,0,0:0:0:0:
256,192,130181,1,0,0:0:0:0:
256,192,130337,1,8,0:0:0:0:
256,192,130415,1,0,0:0:0:0:
256,192,130493,1,8,0:0:0:0:
256,192,130650,1,8,0:0:0:0:
256,192,130806,1,0,0:0:0:0:
256,192,130962,1,8,0:0:0:0:
256,192,131040,1,8,0:0:0:0:
256,192,131118,1,0,0:0:0:0:
256,192,131196,1,0,0:0:0:0:
256,192,131275,1,8,0:0:0:0:
256,192,131431,1,0,0:0:0:0:
256,192,131587,1,8,0:0:0:0:
256,192,131665,1,8,0:0:0:0:
256,192,131743,1,8,0:0:0:0:
256,192,131821,1,8,0:0:0:0:
256,192,131900,1,4,0:0:0:0:
256,192,132056,1,0,0:0:0:0:
256,192,132212,1,8,0:0:0:0:
256,192,132290,1,0,0:0:0:0:
256,192,132368,1,8,0:0:0:0:
256,192,132446,1,8,0:0:0:0:
256,192,132525,1,0,0:0:0:0:
256,192,132681,1,0,0:0:0:0:
256,192,132837,1,8,0:0:0:0:
256,192,132993,1,0,0:0:0:0:
256,192,133071,1,0,0:0:0:0:
256,192,133150,1,8,0:0:0:0:
256,192,133306,1,0,0:0:0:0:
256,192,133462,1,8,0:0:0:0:
256,192,133540,1,8,0:0:0:0:
256,192,133618,1,0,0:0:0:0:
256,192,133696,1,8,0:0:0:0:
256,192,133775,1,0,0:0:0:0:
256,192,133931,1,0,0:0:0:0:
256,192,134009,1,0,0:0:0:0:
256,192,134087,1,8,0:0:0:0:
256,192,134243,1,0,0:0:0:0:
256,192,134400,1,12,0:0:0:0:
256,192,134556,1,0,0:0:0:0:
256,192,134634,1,0,0:0:0:0:
256,192,134712,1,8,0:0:0:0:
256,192,134868,1,0,0:0:0:0:
256,192,135025,1,8,0:0:0:0:
256,192,135181,1,8,0:0:0:0:
256,192,135259,1,0,0:0:0:0:
256,192,135337,1,8,0:0:0:0:
256,192,135493,1,0,0:0:0:0:
256,192,135650,1,8,0:0:0:0:
256,192,135728,1,8,0:0:0:0:
256,192,135806,1,0,0:0:0:0:
256,192,135962,1,12,0:0:0:0:
256,192,136118,1,0,0:0:0:0:
256,192,136275,1,8,0:0:0:0:
256,192,136353,1,8,0:0:0:0:
256,192,136431,1,0,0:0:0:0:
256,192,136509,1,0,0:0:0:0:
256,192,136587,1,8,0:0:0:0:
256,192,136665,1,8,0:0:0:0:
256,192,136743,1,8,0:0:0:0:
256,192,136821,1,8,0:0:0:0:
256,192,136900,1,4,0:0:0:0:
256,192,137056,1,0,0:0:0:0:
256,192,137212,1,8,0:0:0:0:
256,192,137290,1,0,0:0:0:0:
256,192,137368,1,0,0:0:0:0:
256,192,137446,1,0,0:0:0:0:
256,192,137525,1,8,0:0:0:0:
256,192,137681,1,0,0:0:0:0:
256,192,137837,1,8,0:0:0:0:
256,192,137993,1,8,0:0:0:0:
256,192,138071,1,8,0:0:0:0:
256,192,138150,1,0,0:0:0:0:
256,192,138228,1,0,0:0:0:0:
256,192,138306,1,0,0:0:0:0:
256,192,138462,1,8,0:0:0:0:
256,192,138618,1,0,0:0:0:0:
256,192,138696,1,0,0:0:0:0:
256,192,138775,1,8,0:0:0:0:
256,192,138931,1,0,0:0:0:0:
256,192,139009,1,8,0:0:0:0:
256,192,139165,1,8,0:0:0:0:
256,192,139243,1,0,0:0:0:0:
256,192,139400,1,12,0:0:0:0:
256,192,139556,1,0,0:0:0:0:
256,192,139712,1,8,0:0:0:0:
256,192,139790,1,0,0:0:0:0:
256,192,139868,1,8,0:0:0:0:
256,192,139946,1,8,0:0:0:0:
256,192,140025,1,0,0:0:0:0:
256,192,140181,1,0,0:0:0:0:
256,192,140259,1,0,0:0:0:0:
256,192,140337,1,8,0:0:0:0:
256,192,140415,1,0,0:0:0:0:
256,192,140493,1,0,0:0:0:0:
256,192,140571,1,0,0:0:0:0:
256,192,140650,1,8,0:0:0:0:
256,192,140806,1,0,0:0:0:0:
256,192,140962,1,8,0:0:0:0:
256,192,141040,1,8,0:0:0:0:
256,192,141118,1,0,0:0:0:0:
256,192,141196,1,0,0:0:0:0:
256,192,141275,1,8,0:0:0:0:
256,192,141431,1,0,0:0:0:0:
256,192,141587,1,8,0:0:0:0:
256,192,141665,1,8,0:0:0:0:
256,192,141743,1,8,0:0:0:0:
256,192,141821,1,8,0:0:0:0:
256,192,141900,1,4,0:0:0:0:
256,192,142056,1,0,0:0:0:0:
256,192,142212,1,8,0:0:0:0:
256,192,142368,1,0,0:0:0:0:
256,192,142446,1,0,0:0:0:0:
256,192,142525,1,8,0:0:0:0:
256,192,142681,1,0,0:0:0:0:
256,192,142837,1,8,0:0:0:0:
256,192,142915,1,8,0:0:0:0:
256,192,142993,1,0,0:0:0:0:
256,192,143071,1,0,0:0:0:0:
256,192,143150,1,8,0:0:0:0:
256,192,143306,1,0,0:0:0:0:
256,192,143462,1,8,0:0:0:0:
256,192,143540,1,0,0:0:0:0:
256,192,143618,1,8,0:0:0:0:
256,192,143696,1,8,0:0:0:0:
256,192,143775,1,0,0:0:0:0:
256,192,143931,1,0,0:0:0:0:
256,192,144087,1,8,0:0:0:0:
256,192,144165,1,0,0:0:0:0:
256,192,144243,1,0,0:0:0:0:
256,192,144400,1,12,0:0:0:0:
256,192,144556,1,0,0:0:0:0:
256,192,144712,1,8,0:0:0:0:
256,192,144790,1,8,0:0:0:0:
256,192,144868,1,0,0:0:0:0:
256,192,145025,1,8,0:0:0:0:
256,192,145181,1,0,0:0:0:0:
256,192,145259,1,0,0:0:0:0:
256,192,145337,1,8,0:0:0:0:
256,192,145493,1,0,0:0:0:0:
256,192,145650,1,8,0:0:0:0:
256,192,145728,1,0,0:0:0:0:
256,192,145806,1,0,0:0:0:0:
256,192,145884,1,0,0:0:0:0:
256,192,145962,1,8,0:0:0:0:
256,192,146118,1,0,0:0:0:0:
256,192,146196,1,0,0:0:0:0:
256,192,146275,1,8,0:0:0:0:
256,192,146353,1,0,0:0:0:0:
256,192,146431,1,8,0:0:0:0:
256,192,146509,1,8,0:0:0:0:
256,192,146587,1,0,0:0:0:0:
256,192,146743,1,0,0:0:0:0:
256,192,146900,1,12,0:0:0:0:
256,192,147056,1,0,0:0:0:0:
256,192,147368,1,0,0:0:0:0:
256,192,147525,1,8,0:0:0:0:
256,192,147837,1,8,0:0:0:0:
256,192,147993,1,0,0:0:0:0:
256,192,148306,1,8,0:0:0:0:
256,192,148462,1,0,0:0:0:0:
256,192,148618,1,0,0:0:0:0:
256,192,148775,1,8,0:0:0:0:
256,192,149087,1,8,0:0:0:0:
256,192,149243,1,8,0:0:0:0:
256,192,149400,1,0,0:0:0:0:
256,192,149556,1,0,0:0:0:0:
256,192,149868,1,0,0:0:0:0:
256,192,150025,1,8,0:0:0:0:
256,192,150337,1,0,0:0:0:0:
256,192,150493,1,0,0:0:0:0:
256,192,150650,1,8,0:0:0:0:
256,192,150806,1,0,0:0:0:0:
256,192,150962,1,8,0:0:0:0:
256,192,151275,1,8,0:0:0:0:
256,192,151431,1,8,0:0:0:0:
256,192,151587,1,8,0:0:0:0:
256,192,151743,1,8,0:0:0:0:
256,192,151900,1,0,0:0:0:0:
256,192,152056,1,0,0:0:0:0:
256,192,152368,1,0,0:0:0:0:
256,192,152525,1,8,0:0:0:0:
256,192,152837,1,0,0:0:0:0:
256,192,152993,1,8,0:0:0:0:
256,192,153150,1,0,0:0:0:0:
256,192,153306,1,8,0:0:0:0:
256,192,153384,1,8,0:0:0:0:
256,192,153462,1,8,0:0:0:0:
256,192,153618,1,8,0:0:0:0:
256,192,153775,1,0,0:0:0:0:
256,192,154400,1,4,0:0:0:0:
256,192,155025,1,8,0:0:0:0:
256,192,156275,1,8,0:0:0:0:
256,192,156900,1,4,0:0:0:0:
256,192,157525,1,8,0:0:0:0:
256,192,158775,1,8,0:0:0:0:
256,192,159400,1,4,0:0:0:0:
256,192,160025,1,8,0:0:0:0:
256,192,161275,1,8,0:0:0:0:
256,192,161900,1,4,0:0:0:0:
256,192,162525,1,8,0:0:0:0:
256,192,163150,1,8,0:0:0:0:
256,192,163306,1,0,0:0:0:0:
256,192,163618,1,0,0:0:0:0:
256,192,163775,1,8,0:0:0:0:
256,192,163931,1,0,0:0:0:0:
256,192,164087,1,0,0:0:0:0:
256,192,164400,1,4,0:0:0:0:
256,192,165025,1,8,0:0:0:0:
256,192,166275,1,8,0:0:0:0:
256,192,166587,1,0,0:0:0:0:
256,192,166900,1,12,0:0:0:0:
256,192,167525,1,8,0:0:0:0:
256,192,168775,1,8,0:0:0:0:
256,192,169087,1,0,0:0:0:0:
256,192,169400,1,12,0:0:0:0:
256,192,170025,1,8,0:0:0:0:
256,192,171275,1,8,0:0:0:0:
256,192,171587,1,0,0:0:0:0:
256,192,171900,1,12,0:0:0:0:
256,192,172056,1,0,0:0:0:0:
256,192,172368,1,0,0:0:0:0:
256,192,172525,1,8,0:0:0:0:
256,192,172681,1,8,0:0:0:0:
256,192,172837,1,0,0:0:0:0:
256,192,173150,1,8,0:0:0:0:
256,192,173306,1,8,0:0:0:0:
256,192,173462,1,4,0:0:0:0:
256,192,173775,1,0,0:0:0:0:
256,192,173931,1,8,0:0:0:0:
256,192,174087,1,0,0:0:0:0:
256,192,174243,1,0,0:0:0:0:
256,192,174400,1,12,0:0:0:0:
256,192,174556,1,0,0:0:0:0:
256,192,174868,1,0,0:0:0:0:
256,192,175025,1,8,0:0:0:0:
256,192,175181,1,0,0:0:0:0:
256,192,175493,1,8,0:0:0:0:
256,192,175650,1,0,0:0:0:0:
256,192,175806,1,0,0:0:0:0:
256,192,176118,1,0,0:0:0:0:
256,192,176275,1,8,0:0:0:0:
256,192,176431,1,0,0:0:0:0:
256,192,176743,1,8,0:0:0:0:
256,192,176900,1,0,0:0:0:0:
256,192,177056,1,0,0:0:0:0:
256,192,177368,1,0,0:0:0:0:
256,192,177446,1,0,0:0:0:0:
256,192,177525,1,8,0:0:0:0:
256,192,177681,1,0,0:0:0:0:
256,192,177993,1,8,0:0:0:0:
256,192,178150,1,0,0:0:0:0:
256,192,178306,1,0,0:0:0:0:
256,192,178618,1,0,0:0:0:0:
256,192,178775,1,8,0:0:0:0:
256,192,178931,1,8,0:0:0:0:
256,192,179087,1,8,0:0:0:0:
256,192,179243,1,8,0:0:0:0:
256,192,179400,1,4,0:0:0:0:
256,192,179556,1,0,0:0:0:0:
256,192,179868,1,0,0:0:0:0:
256,192,180025,1,8,0:0:0:0:
256,192,180181,1,0,0:0:0:0:
256,192,180493,1,8,0:0:0:0:
256,192,180650,1,0,0:0:0:0:
256,192,180806,1,0,0:0:0:0:
256,192,181118,1,0,0:0:0:0:
256,192,181275,1,8,0:0:0:0:
256,192,181431,1,0,0:0:0:0:
256,192,181743,1,8,0:0:0:0:
256,192,181900,1,0,0:0:0:0:
256,192,182056,1,0,0:0:0:0:
256,192,182368,1,0,0:0:0:0:
256,192,182446,1,0,0:0:0:0:
256,192,182525,1,8,0:0:0:0:
256,192,182681,1,0,0:0:0:0:
256,192,182993,1,8,0:0:0:0:
256,192,183150,1,0,0:0:0:0:
256,192,183306,1,0,0:0:0:0:
256,192,183618,1,0,0:0:0:0:
256,192,183775,1,8,0:0:0:0:
256,192,183853,1,8,0:0:0:0:
256,192,183931,1,0,0:0:0:0:
256,192,184009,1,0,0:0:0:0:
256,192,184087,1,8,0:0:0:0:
256,192,184243,1,8,0:0:0:0:
256,192,184321,1,8,0:0:0:0:
256,192,184400,1,0,0:0:0:0:
256,192,184712,1,8,0:0:0:0:
256,192,185025,1,0,0:0:0:0:
256,192,185337,1,8,0:0:0:0:
256,192,185650,1,0,0:0:0:0:
256,192,185962,1,8,0:0:0:0:
256,192,186275,1,8,0:0:0:0:
256,192,186353,1,8,0:0:0:0:
256,192,186431,1,0,0:0:0:0:
256,192,186509,1,0,0:0:0:0:
256,192,186587,1,8,0:0:0:0:
256,192,186665,1,0,0:0:0:0:
256,192,186743,1,8,0:0:0:0:
256,192,186821,1,8,0:0:0:0:
256,192,186900,1,4,0:0:0:0:
256,192,187212,1,8,0:0:0:0:
256,192,187368,1,8,0:0:0:0:
256,192,187525,1,0,0:0:0:0:
256,192,187681,1,8,0:0:0:0:
256,192,187837,1,8,0:0:0:0:
256,192,187993,1,8,0:0:0:0:
256,192,188150,1,8,0:0:0:0:
256,192,188228,1,8,0:0:0:0:
256,192,188306,1,0,0:0:0:0:
256,192,188384,1,0,0:0:0:0:
256,192,188462,1,8,0:0:0:0:
256,192,188540,1,8,0:0:0:0:
256,192,188618,1,8,0:0:0:0:
256,192,188696,1,8,0:0:0:0:
256,192,188775,1,0,0:0:0:0:
256,192,189400,1,4,0:0:0:0:
256,192,189556,1,0,0:0:0:0:
256,192,189712,1,8,0:0:0:0:
256,192,189790,1,0,0:0:0:0:
256,192,189868,1,8,0:0:0:0:
256,192,189946,1,8,0:0:0:0:
256,192,190025,1,0,0:0:0:0:
256,192,190181,1,0,0:0:0:0:
256,192,190337,1,8,0:0:0:0:
256,192,190415,1,8,0:0:0:0:
256,192,190493,1,0,0:0:0:0:
256,192,190571,1,0,0:0:0:0:
256,192,190650,1,8,0:0:0:0:
256,192,190806,1,0,0:0:0:0:
256,192,190962,1,8,0:0:0:0:
256,192,191118,1,0,0:0:0:0:
256,192,191196,1,0,0:0:0:0:
256,192,191275,1,8,0:0:0:0:
256,192,191431,1,0,0:0:0:0:
256,192,191509,1,8,0:0:0:0:
256,192,191665,1,8,0:0:0:0:
256,192,191743,1,0,0:0:0:0:
256,192,191900,1,12,0:0:0:0:
256,192,192056,1,0,0:0:0:0:
256,192,192212,1,8,0:0:0:0:
256,192,192290,1,0,0:0:0:0:
256,192,192368,1,8,0:0:0:0:
256,192,192446,1,8,0:0:0:0:
256,192,192525,1,0,0:0:0:0:
256,192,192681,1,0,0:0:0:0:
256,192,192837,1,8,0:0:0:0:
256,192,192915,1,0,0:0:0:0:
256,192,192993,1,8,0:0:0:0:
256,192,193150,1,8,0:0:0:0:
256,192,193306,1,0,0:0:0:0:
256,192,193462,1,8,0:0:0:0:
256,192,193540,1,8,0:0:0:0:
256,192,193618,1,0,0:0:0:0:
256,192,193696,1,0,0:0:0:0:
256,192,193775,1,8,0:0:0:0:
256,192,193931,1,0,0:0:0:0:
256,192,194087,1,8,0:0:0:0:
256,192,194165,1,8,0:0:0:0:
256,192,194243,1,8,0:0:0:0:
256,192,194321,1,8,0:0:0:0:
256,192,194400,1,4,0:0:0:0:
256,192,194556,1,0,0:0:0:0:
256,192,194712,1,8,0:0:0:0:
256,192,194790,1,0,0:0:0:0:
256,192,194868,1,8,0:0:0:0:
256,192,194946,1,8,0:0:0:0:
256,192,195025,1,0,0:0:0:0:
256,192,195181,1,0,0:0:0:0:
256,192,195337,1,8,0:0:0:0:
256,192,195493,1,0,0:0:0:0:
256,192,195571,1,0,0:0:0:0:
256,192,195650,1,8,0:0:0:0:
256,192,195806,1,0,0:0:0:0:
256,192,195962,1,8,0:0:0:0:
256,192,196040,1,8,0:0:0:0:
256,192,196118,1,0,0:0:0:0:
256,192,196196,1,8,0:0:0:0:
256,192,196275,1,0,0:0:0:0:
256,192,196431,1,0,0:0:0:0:
256,192,196509,1,0,0:0:0:0:
256,192,196587,1,8,0:0:0:0:
256,192,196743,1,0,0:0:0:0:
256,192,196900,1,12,0:0:0:0:
256,192,197056,1,0,0:0:0:0:
256,192,197134,1,0,0:0:0:0:
256,192,197212,1,8,0:0:0:0:
256,192,197368,1,0,0:0:0:0:
256,192,197525,1,8,0:0:0:0:
256,192,197681,1,8,0:0:0:0:
256,192,197759,1,0,0:0:0:0:
256,192,197837,1,8,0:0:0:0:
256,192,197993,1,0,0:0:0:0:
256,192,198150,1,8,0:0:0:0:
256,192,198228,1,8,0:0:0:0:
256,192,198306,1,0,0:0:0:0:
256,192,198462,1,12,0:0:0:0:
256,192,198618,1,0,0:0:0:0:
256,192,198775,1,8,0:0:0:0:
256,192,198853,1,8,0:0:0:0:
256,192,198931,1,0,0:0:0:0:
256,192,199009,1,0,0:0:0:0:
256,192,199087,1,8,0:0:0:0:
256,192,199165,1,8,0:0:0:0:
256,192,199243,1,8,0:0:0:0:
256,192,199321,1,8,0:0:0:0:
256,192,199400,1,4,0:0:0:0:
256,192,199556,1,0,0:0:0:0:
256,192,199712,1,8,0:0:0:0:
256,192,199790,1,0,0:0:0:0:
256,192,199868,1,0,0:0:0:0:
256,192,199946,1,0,0:0:0:0:
256,192,200025,1,8,0:0:0:0:
256,192,200181,1,0,0:0:0:0:
256,192,200337,1,8,0:0:0:0:
256,192,200493,1,8,0:0:0:0:
256,192,200571,1,8,0:0:0:0:
256,192,200650,1,0,0:0:0:0:
256,192,200728,1,0,0:0:0:0:
256,192,200806,1,0,0:0:0:0:
256,192,200962,1,8,0:0:0:0:
256,192,201118,1,0,0:0:0:0:
256,192,201196,1,0,0:0:0:0:
256,192,201275,1,8,0:0:0:0:
256,192,201431,1,0,0:0:0:0:
256,192,201509,1,8,0:0:0:0:
256,192,201665,1,8,0:0:0:0:
256,192,201743,1,0,0:0:0:0:
256,192,201900,1,12,0:0:0:0:
256,192,202056,1,0,0:0:0:0:
256,192,202212,1,8,0:0:0:0:
256,192,202290,1,0,0:0:0:0:
256,192,202368,1,8,0:0:0:0:
256,192,202446,1,8,0:0:0:0:
256,192,202525,1,0,0:0:0:0:
256,192,202681,1,0,0:0:0:0:
256,192,202759,1,0,0:0:0:0:
256,192,202837,1,8,0:0:0:0:
256,192,202915,1,0,0:0:0:0:
256,192,202993,1,0,0:0:0:0:
256,192,203071,1,0,0:0:0:0:
256,192,203150,1,8,0:0:0:0:
256,192,203306,1,0,0:0:0:0:
256,192,203462,1,8,0:0:0:0:
256,192,203540,1,8,0:0:0:0:
256,192,203618,1,0,0:0:0:0:
256,192,203696,1,0,0:0:0:0:
256,192,203775,1,8,0:0:0:0:
256,192,203931,1,0,0:0:0:0:
256,192,204087,1,8,0:0:0:0:
256,192,204165,1,8,0:0:0:0:
256,192,204243,1,8,0:0:0:0:
256,192,204321,1,8,0:0:0:0:
256,192,204400,1,4,0:0:0:0:
256,192,204556,1,0,0:0:0:0:
256,192,204712,1,8,0:0:0:0:
256,192,204868,1,8,0:0:0:0:
256,192,204946,1,8,0:0:0:0:
256,192,205025,1,0,0:0:0:0:
256,192,205181,1,0,0:0:0:0:
256,192,205337,1,8,0:0:0:0:
256,192,205415,1,8,0:0:0:0:
256,192,205493,1,0,0:0:0:0:
256,192,205571,1,0,0:0:0:0:
256,192,205650,1,8,0:0:0:0:
256,192,205806,1,0,0:0:0:0:
256,192,205962,1,8,0:0:0:0:
256,192,206040,1,0,0:0:0:0:
256,192,206118,1,8,0:0:0:0:
256,192,206196,1,8,0:0:0:0:
256,192,206275,1,0,0:0:0:0:
256,192,206431,1,0,0:0:0:0:
256,192,206587,1,8,0:0:0:0:
256,192,206665,1,0,0:0:0:0:
256,192,206743,1,0,0:0:0:0:
256,192,206900,1,12,0:0:0:0:
256,192,207056,1,0,0:0:0:0:
256,192,207134,1,0,0:0:0:0:
256,192,207212,1,8,0:0:0:0:
256,192,207368,1,0,0:0:0:0:
256,192,207525,1,8,0:0:0:0:
256,192,207681,1,0,0:0:0:0:
256,192,207759,1,0,0:0:0:0:
256,192,207837,1,8,0:0:0:0:
256,192,207993,1,0,0:0:0:0:
256,192,208150,1,8,0:0:0:0:
256,192,208228,1,8,0:0:0:0:
256,192,208306,1,0,0:0:0:0:
256,192,208384,1,0,0:0:0:0:
256,192,208462,1,8,0:0:0:0:
256,192,208618,1,8,0:0:0:0:
256,192,208696,1,0,0:0:0:0:
256,192,208775,1,8,0:0:0:0:
256,192,208853,1,8,0:0:0:0:
256,192,208931,1,0,0:0:0:0:
256,192,209009,1,0,0:0:0:0:
256,192,209087,1,8,0:0:0:0:
256,192,209243,1,0,0:0:0:0:
256,192,209400,1,12,0:0:0:0:
256,192,209556,1,0,0:0:0:0:
256,192,209712,1,8,0:0:0:0:
256,192,209790,1,8,0:0:0:0:
256,192,209868,1,0,0:0:0:0:
256,192,210025,1,8,0:0:0:0:
256,192,210181,1,0,0:0:0:0:
256,192,210259,1,0,0:0:0:0:
256,192,210337,1,8,0:0:0:0:
256,192,210415,1,0,0:0:0:0:
256,192,210493,1,0,0:0:0:0:
256,192,210571,1,0,0:0:0:0:
256,192,210650,1,8,0:0:0:0:
256,192,210806,1,0,0:0:0:0:
256,192,210962,1,8,0:0:0:0:
256,192,211040,1,8,0:0:0:0:
256,192,211118,1,0,0:0:0:0:
256,192,211275,1,8,0:0:0:0:
256,192,211431,1,0,0:0:0:0:
256,192,211587,1,8,0:0:0:0:
256,192,211665,1,8,0:0:0:0:
256,192,211743,1,0,0:0:0:0:
256,192,211821,1,0,0:0:0:0:
256,192,211900,1,12,0:0:0:0:
256,192,212056,1,0,0:0:0:0:
256,192,212212,1,0,0:0:0:0:
256,192,212368,1,12,0:0:0:0:
256,192,212525,1,0,0:0:0:0:
256,192,212681,1,0,0:0:0:0:
256,192,212759,1,0,0:0:0:0:
256,192,212837,1,12,0:0:0:0:
256,192,212993,1,12,0:0:0:0:
256,192,213150,1,4,0:0:0:0:
256,192,214087,1,8,0:0:0:0:
256,192,214400,1,4,0:0:0:0:
256,192,214556,1,0,0:0:0:0:
256,192,214634,1,0,0:0:0:0:
256,192,214712,1,8,0:0:0:0:
256,192,214868,1,0,0:0:0:0:
256,192,215025,1,8,0:0:0:0:
256,192,215103,1,8,0:0:0:0:
256,192,215181,1,0,0:0:0:0:
256,192,215337,1,8,0:0:0:0:
256,192,215493,1,0,0:0:0:0:
256,192,215571,1,8,0:0:0:0:
256,192,215650,1,0,0:0:0:0:
256,192,215806,1,0,0:0:0:0:
256,192,215962,1,8,0:0:0:0:
256,192,216040,1,8,0:0:0:0:
256,192,216118,1,0,0:0:0:0:
256,192,216275,1,8,0:0:0:0:
256,192,216431,1,0,0:0:0:0:
256,192,216509,1,0,0:0:0:0:
256,192,216587,1,8,0:0:0:0:
256,192,216665,1,0,0:0:0:0:
256,192,216743,1,8,0:0:0:0:
256,192,216821,1,8,0:0:0:0:
256,192,216900,1,0,0:0:0:0:
256,192,217056,1,0,0:0:0:0:
256,192,217134,1,0,0:0:0:0:
256,192,217212,1,8,0:0:0:0:
256,192,217368,1,0,0:0:0:0:
256,192,217525,1,8,0:0:0:0:
256,192,217603,1,8,0:0:0:0:
256,192,217681,1,0,0:0:0:0:
256,192,217837,1,8,0:0:0:0:
256,192,217993,1,0,0:0:0:0:
256,192,218071,1,8,0:0:0:0:
256,192,218150,1,0,0:0:0:0:
256,192,218306,1,0,0:0:0:0:
256,192,218462,1,8,0:0:0:0:
256,192,218540,1,8,0:0:0:0:
256,192,218618,1,0,0:0:0:0:
256,192,218775,1,8,0:0:0:0:
256,192,218853,1,8,0:0:0:0:
256,192,218931,1,0,0:0:0:0:
256,192,219009,1,0,0:0:0:0:
256,192,219087,1,8,0:0:0:0:
256,192,219165,1,0,0:0:0:0:
256,192,219243,1,8,0:0:0:0:
256,192,219321,1,8,0:0:0:0:
256,192,219400,1,0,0:0:0:0:
256,192,219556,1,0,0:0:0:0:
256,192,219634,1,0,0:0:0:0:
256,192,219712,1,8,0:0:0:0:
256,192,219868,1,0,0:0:0:0:
256,192,220025,1,8,0:0:0:0:
256,192,220103,1,8,0:0:0:0:
256,192,220181,1,0,0:0:0:0:
256,192,220337,1,8,0:0:0:0:
256,192,220493,1,0,0:0:0:0:
256,192,220571,1,8,0:0:0:0:
256,192,220650,1,0,0:0:0:0:
256,192,220806,1,0,0:0:0:0:
256,192,220962,1,8,0:0:0:0:
256,192,221040,1,8,0:0:0:0:
256,192,221118,1,0,0:0:0:0:
256,192,221275,1,8,0:0:0:0:
256,192,221431,1,0,0:0:0:0:
256,192,221587,1,8,0:0:0:0:
256,192,221665,1,8,0:0:0:0:
256,192,221743,1,8,0:0:0:0:
256,192,221821,1,8,0:0:0:0:
256,192,221900,1,0,0:0:0:0:
256,192,221978,1,8,0:0:0:0:
256,192,222056,1,0,0:0:0:0:
256,192,222134,1,0,0:0:0:0:
256,192,222212,1,8,0:0:0:0:
256,192,222290,1,0,0:0:0:0:
256,192,222368,1,8,0:0:0:0:
256,192,222446,1,8,0:0:0:0:
256,192,222525,1,0,0:0:0:0:
256,192,222603,1,0,0:0:0:0:
256,192,222681,1,8,0:0:0:0:
256,192,222759,1,0,0:0:0:0:
256,192,222837,1,8,0:0:0:0:
256,192,222915,1,8,0:0:0:0:
256,192,222993,1,0,0:0:0:0:
256,192,223071,1,0,0:0:0:0:
256,192,223150,1,8,0:0:0:0:
256,192,223228,1,8,0:0:0:0:
256,192,223306,1,8,0:0:0:0:
256,192,223384,1,8,0:0:0:0:
256,192,223462,1,0,0:0:0:0:
256,192,223540,1,8,0:0:0:0:
256,192,223618,1,0,0:0:0:0:
256,192,223696,1,0,0:0:0:0:
256,192,223775,1,8,0:0:0:0:
256,192,223931,1,8,0:0:0:0:
256,192,224400,1,12,0:0:0:0:
256,192,224556,1,0,0:0:0:0:
256,192,224634,1,0,0:0:0:0:
256,192,224712,1,0,0:0:0:0:
256,192,224868,1,12,0:0:0:0:
256,192,225025,1,0,0:0:0:0:
256,192,225181,1,0,0:0:0:0:
256,192,225337,1,12,0:0:0:0:
256,192,225493,1,0,0:0:0:0:
256,192,225571,1,0,0:0:0:0:
256,192,225650,1,0,0:0:0:0:
256,192,225806,1,12,0:0:0:0:
256,192,225962,1,0,0:0:0:0:
256,192,226118,1,0,0:0:0:0:
256,192,226275,1,12,0:0:0:0:
256,192,226431,1,0,0:0:0:0:
256,192,226587,1,12,0:0:0:0:
256,192,226743,1,0,0:0:0:0:
256,192,226900,1,12,0:0:0:0:
256,192,227056,1,0,0:0:0:0:
256,192,227134,1,0,0:0:0:0:
256,192,227212,1,0,0:0:0:0:
256,192,227368,1,12,0:0:0:0:
256,192,227525,1,0,0:0:0:0:
256,192,227681,1,0,0:0:0:0:
256,192,227837,1,12,0:0:0:0:
256,192,227993,1,0,0:0:0:0:
256,192,228071,1,0,0:0:0:0:
256,192,228150,1,0,0:0:0:0:
256,192,228306,1,12,0:0:0:0:
256,192,228462,1,0,0:0:0:0:
256,192,228618,1,0,0:0:0:0:
256,192,228775,1,8,0:0:0:0:
256,192,228853,1,8,0:0:0:0:
256,192,228931,1,0,0:0:0:0:
256,192,229009,1,0,0:0:0:0:
256,192,229087,1,12,0:0:0:0:
256,192,229400,1,12,0:0:0:0:
256,192,229556,1,0,0:0:0:0:
256,192,229634,1,0,0:0:0:0:
256,192,229712,1,8,0:0:0:0:
256,192,229868,1,0,0:0:0:0:
256,192,230025,1,8,0:0:0:0:
256,192,230103,1,0,0:0:0:0:
256,192,230181,1,0,0:0:0:0:
256,192,230337,1,8,0:0:0:0:
256,192,230415,1,8,0:0:0:0:
256,192,230493,1,0,0:0:0:0:
256,192,230571,1,0,0:0:0:0:
256,192,230650,1,8,0:0:0:0:
256,192,230806,1,0,0:0:0:0:
256,192,230962,1,8,0:0:0:0:
256,192,231040,1,0,0:0:0:0:
256,192,231118,1,0,0:0:0:0:
256,192,231275,1,8,0:0:0:0:
256,192,231431,1,0,0:0:0:0:
256,192,231509,1,0,0:0:0:0:
256,192,231587,1,8,0:0:0:0:
256,192,231743,1,0,0:0:0:0:
256,192,231900,1,12,0:0:0:0:
256,192,232056,1,0,0:0:0:0:
256,192,232134,1,0,0:0:0:0:
256,192,232212,1,8,0:0:0:0:
256,192,232290,1,0,0:0:0:0:
256,192,232368,1,0,0:0:0:0:
256,192,232446,1,0,0:0:0:0:
256,192,232525,1,8,0:0:0:0:
256,192,232603,1,8,0:0:0:0:
256,192,232681,1,0,0:0:0:0:
256,192,232759,1,0,0:0:0:0:
256,192,232837,1,12,0:0:0:0:
256,192,233150,1,0,0:0:0:0:
256,192,233306,1,8,0:0:0:0:
256,192,233462,1,0,0:0:0:0:
256,192,233618,1,0,0:0:0:0:
256,192,233775,1,8,0:0:0:0:
256,192,233931,1,0,0:0:0:0:
256,192,234009,1,0,0:0:0:0:
256,192,234087,1,8,0:0:0:0:
256,192,234243,1,8,0:0:0:0:
