osu file format v14

[General]
AudioFilename: audio.mp3
AudioLeadIn: 0
PreviewTime: 68775
Countdown: 0
SampleSet: Normal
StackLeniency: 0.7
Mode: 1
LetterboxInBreaks: 0
WidescreenStoryboard: 1

[Editor]
Bookmarks: 690,19440,24440,26940,29440,49440,59440,64440,66940,69440,93190,104440,114440,116940,119440,121940,124440,126940,146940,151940,154440,164440,171940,174440,184440,186940,189440,213190,224440,234283
DistanceSpacing: 0.1
BeatDivisor: 4
GridSize: 32
TimelineZoom: 2.3

[Metadata]
Title:5150
TitleUnicode:5150
Artist:THE ORAL CIGARETTES
ArtistUnicode:THE ORAL CIGARETTES
Creator:KyeX
Version:Futsuu
Source:
Tags:japanese rock jrock j-rock before it’s too late takuya yamanaka 山中拓也 akira akirakani あきらかにあきら gaston_2199 toc
BeatmapID:3332163
BeatmapSetID:1587293

[Difficulty]
HPDrainRate:7
CircleSize:2
OverallDifficulty:4
ApproachRate:10
SliderMultiplier:1.4
SliderTickRate:1

[Events]
//Background and Video events
0,0,"bg.jpg",0,-100
//Break Periods
//Storyboard Layer 0 (Background)
//Storyboard Layer 1 (Fail)
//Storyboard Layer 2 (Pass)
//Storyboard Layer 3 (Foreground)
//Storyboard Layer 4 (Overlay)
//Storyboard Sound Samples

[TimingPoints]
19400,312.5,4,1,0,80,1,0
19400,-117.647058823529,4,1,0,80,0,0
24400,-111.111111111111,4,1,0,85,0,0
27056,-110.093359168575,4,1,0,85,0,0
27212,-109.094082736952,4,1,0,85,0,0
27368,-108.112783255492,4,1,0,85,0,0
27525,-107.142857142857,4,1,0,85,0,0
27837,-105.266112732989,4,1,0,85,0,0
28150,-103.448275862069,4,1,0,85,0,0
28306,-102.565505169302,4,1,0,85,0,0
28462,-101.697673157238,4,1,0,85,0,0
28775,-100,4,1,0,85,0,0
29400,-100,4,1,0,90,0,0
48306,-101.263771872975,4,1,0,90,0,0
48462,-102.559894978668,4,1,0,90,0,0
48775,-105.263157894737,4,1,0,90,0,0
49087,-108.103433365044,4,1,0,90,0,0
49400,-111.111111111111,4,1,0,90,0,0
49712,-111.111111111111,4,1,0,85,0,0
59400,-105.263157894737,4,1,0,85,0,0
69400,-100,4,1,0,90,0,1
93150,-100,4,1,0,90,0,0
101900,-101.12092545871,4,1,0,90,0,0
102056,-101.690916560569,4,1,0,90,0,0
102212,-102.267369857102,4,1,0,90,0,0
102368,-102.850395871174,4,1,0,90,0,0
102525,-103.440000662016,4,1,0,90,0,0
102837,-104.639944415262,4,1,0,90,0,0
103150,-105.867942445952,4,1,0,90,0,0
103306,-106.492870302333,4,1,0,90,0,0
103462,-107.125219740607,4,1,0,90,0,0
103775,-108.412601013441,4,1,0,90,0,0
104087,-109.731421373047,4,1,0,90,0,0
104400,-111.111111111111,4,1,0,90,0,0
126900,-100,4,1,0,90,0,1
145650,-102.03217482601,4,1,0,90,0,1
145806,-103.079606318368,4,1,0,90,0,1
145962,-104.148657627952,4,1,0,90,0,1
146118,-105.240226603256,4,1,0,90,0,1
146275,-106.354806014152,4,1,0,90,0,1
146587,-108.656441371157,4,1,0,90,0,1
146900,-111.111111111111,4,1,0,90,0,0
154400,-117.647058823529,4,1,0,80,0,0
174087,-114.290939014355,4,1,0,80,0,0
174400,-111.111111111111,4,1,0,85,0,0
184400,-105.263157894737,4,1,0,85,0,0
189400,-100,4,1,0,90,0,1
213150,-100,4,1,0,90,0,0
224400,-90.9090909090909,4,1,0,90,0,1
234243,-90.9090909090909,4,1,0,90,0,0

[HitObjects]
256,192,19400,5,12,0:0:0:0:
256,192,20025,1,0,0:0:0:0:
256,192,20337,1,0,0:0:0:0:
256,192,20650,1,0,0:0:0:0:
256,192,20962,1,0,0:0:0:0:
256,192,21275,1,0,0:0:0:0:
256,192,21587,1,0,0:0:0:0:
256,192,21900,1,12,0:0:0:0:
256,192,22525,1,0,0:0:0:0:
256,192,22837,1,0,0:0:0:0:
256,192,23150,1,0,0:0:0:0:
256,192,23462,1,0,0:0:0:0:
256,192,23775,1,0,0:0:0:0:
256,192,24087,1,0,0:0:0:0:
256,192,24400,1,12,0:0:0:0:
256,192,24868,1,12,0:0:0:0:
256,192,25337,1,12,0:0:0:0:
256,192,25650,1,0,0:0:0:0:
256,192,25806,1,12,0:0:0:0:
256,192,26275,1,12,0:0:0:0:
256,192,26587,1,12,0:0:0:0:
256,192,26900,1,0,0:0:0:0:
256,192,27056,1,8,0:0:0:0:
256,192,27212,1,0,0:0:0:0:
256,192,27368,1,0,0:0:0:0:
256,192,27525,1,8,0:0:0:0:
256,192,27837,1,0,0:0:0:0:
256,192,28150,1,8,0:0:0:0:
256,192,28306,1,0,0:0:0:0:
256,192,28462,1,8,0:0:0:0:
256,192,28775,1,0,0:0:0:0:
256,160,29400,1,4,0:0:0:0:
256,192,30025,1,8,0:0:0:0:
256,192,30337,1,8,0:0:0:0:
256,192,30493,1,8,0:0:0:0:
256,192,30650,1,0,0:0:0:0:
256,192,30962,1,8,0:0:0:0:
256,192,31275,1,0,0:0:0:0:
256,192,31431,1,8,0:0:0:0:
256,192,31900,1,0,0:0:0:0:
256,192,32056,1,8,0:0:0:0:
256,192,32212,1,0,0:0:0:0:
256,192,32525,1,8,0:0:0:0:
256,192,32837,1,8,0:0:0:0:
256,192,32993,1,8,0:0:0:0:
256,192,33150,1,0,0:0:0:0:
256,192,33462,1,8,0:0:0:0:
256,192,33775,1,8,0:0:0:0:
256,192,33931,1,8,0:0:0:0:
256,192,34087,1,8,0:0:0:0:
256,160,34400,1,4,0:0:0:0:
256,192,35025,1,8,0:0:0:0:
256,192,35337,1,8,0:0:0:0:
256,192,35493,1,8,0:0:0:0:
256,192,35650,1,0,0:0:0:0:
256,192,35962,1,8,0:0:0:0:
256,192,36275,1,0,0:0:0:0:
256,192,36431,1,8,0:0:0:0:
256,192,36900,1,0,0:0:0:0:
256,192,37056,1,0,0:0:0:0:
256,192,37212,1,8,0:0:0:0:
256,192,37368,1,8,0:0:0:0:
256,192,37525,1,0,0:0:0:0:
256,192,37837,1,8,0:0:0:0:
256,192,38150,1,8,0:0:0:0:
256,192,38306,1,8,0:0:0:0:
256,192,38462,1,0,0:0:0:0:
256,192,38775,1,8,0:0:0:0:
256,160,39400,1,4,0:0:0:0:
256,192,40025,1,8,0:0:0:0:
256,192,40337,1,8,0:0:0:0:
256,192,40493,1,8,0:0:0:0:
256,192,40650,1,0,0:0:0:0:
256,192,40962,1,8,0:0:0:0:
256,192,41275,1,0,0:0:0:0:
256,192,41431,1,8,0:0:0:0:
256,192,41900,1,0,0:0:0:0:
256,192,42056,1,8,0:0:0:0:
256,192,42212,1,0,0:0:0:0:
256,192,42525,1,8,0:0:0:0:
256,192,42837,1,8,0:0:0:0:
256,192,42993,1,8,0:0:0:0:
256,192,43150,1,0,0:0:0:0:
256,192,43462,1,8,0:0:0:0:
256,192,43775,1,8,0:0:0:0:
256,192,43931,1,8,0:0:0:0:
256,192,44087,1,8,0:0:0:0:
256,160,44400,1,0,0:0:0:0:
256,192,45025,1,8,0:0:0:0:
256,192,45337,1,0,0:0:0:0:
256,192,45493,1,8,0:0:0:0:
256,192,45650,1,0,0:0:0:0:
256,192,45962,1,8,0:0:0:0:
256,192,46275,1,0,0:0:0:0:
256,192,46431,1,0,0:0:0:0:
256,192,46587,1,8,0:0:0:0:
256,192,46900,1,8,0:0:0:0:
256,192,47212,1,0,0:0:0:0:
256,192,47368,1,8,0:0:0:0:
256,192,47525,1,0,0:0:0:0:
256,192,47837,1,12,0:0:0:0:
256,192,48150,1,8,0:0:0:0:
256,192,48306,1,8,0:0:0:0:
256,192,48462,1,8,0:0:0:0:
256,192,48775,1,8,0:0:0:0:
256,192,49087,1,8,0:0:0:0:
256,192,49400,1,4,0:0:0:0:
256,192,50025,1,0,0:0:0:0:
256,192,50181,1,0,0:0:0:0:
256,192,50337,1,8,0:0:0:0:
256,192,50650,1,0,0:0:0:0:
256,192,50962,1,8,0:0:0:0:
256,192,51275,1,8,0:0:0:0:
256,192,51431,1,0,0:0:0:0:
256,192,51587,1,8,0:0:0:0:
256,192,51900,1,0,0:0:0:0:
256,192,52212,1,8,0:0:0:0:
256,192,52525,1,0,0:0:0:0:
256,192,52837,1,8,0:0:0:0:
256,192,52993,1,0,0:0:0:0:
256,192,53306,1,8,0:0:0:0:
256,192,53775,1,0,0:0:0:0:
256,192,54087,1,8,0:0:0:0:
256,192,54400,1,0,0:0:0:0:
256,192,54712,1,8,0:0:0:0:
256,192,54868,1,0,0:0:0:0:
256,192,55025,1,0,0:0:0:0:
256,192,55337,1,8,0:0:0:0:
256,192,55650,1,0,0:0:0:0:
256,192,56118,1,8,0:0:0:0:
256,192,56275,1,0,0:0:0:0:
256,192,56587,1,8,0:0:0:0:
256,192,56900,1,0,0:0:0:0:
256,192,57525,1,0,0:0:0:0:
256,192,57837,1,8,0:0:0:0:
256,192,58150,1,8,0:0:0:0:
256,192,58306,1,8,0:0:0:0:
256,192,58462,1,8,0:0:0:0:
256,192,58775,1,0,0:0:0:0:
256,192,59087,1,12,0:0:0:0:
256,192,59400,1,0,0:0:0:0:
256,192,59868,1,8,0:0:0:0:
256,192,60337,1,0,0:0:0:0:
256,192,60493,1,8,0:0:0:0:
256,192,60962,1,8,0:0:0:0:
256,192,61275,1,0,0:0:0:0:
256,192,61587,1,8,0:0:0:0:
256,192,61743,1,0,0:0:0:0:
256,192,62212,1,8,0:0:0:0:
256,192,62525,1,8,0:0:0:0:
256,192,62837,1,0,0:0:0:0:
256,192,62993,1,8,0:0:0:0:
256,192,63306,1,0,0:0:0:0:
256,192,63618,1,8,0:0:0:0:
256,192,63775,1,0,0:0:0:0:
256,192,64400,1,4,0:0:0:0:
256,192,64712,1,8,0:0:0:0:
256,192,64868,1,0,0:0:0:0:
256,192,65025,1,8,0:0:0:0:
256,192,65337,1,8,0:0:0:0:
256,192,65650,1,0,0:0:0:0:
256,192,65962,1,8,0:0:0:0:
256,192,66118,1,0,0:0:0:0:
256,192,66275,1,8,0:0:0:0:
256,192,66587,1,0,0:0:0:0:
256,192,66900,1,12,0:0:0:0:
256,192,67212,1,0,0:0:0:0:
256,192,67368,1,12,0:0:0:0:
256,192,67837,1,0,0:0:0:0:
256,192,68306,1,4,0:0:0:0:
256,192,68618,1,4,0:0:0:0:
256,160,69400,1,12,0:0:0:0:
256,160,69712,1,8,0:0:0:0:
256,160,69868,1,8,0:0:0:0:
256,160,70025,1,0,0:0:0:0:
256,160,70337,1,8,0:0:0:0:
256,160,70493,1,0,0:0:0:0:
256,160,70650,1,8,0:0:0:0:
256,160,70962,1,8,0:0:0:0:
256,160,71275,1,0,0:0:0:0:
256,160,71900,1,0,0:0:0:0:
256,160,72212,1,8,0:0:0:0:
256,160,72368,1,0,0:0:0:0:
256,160,72681,1,0,0:0:0:0:
256,160,72837,1,8,0:0:0:0:
256,160,73150,1,0,0:0:0:0:
256,160,73462,1,8,0:0:0:0:
256,160,74087,1,8,0:0:0:0:
256,160,74400,1,4,0:0:0:0:
256,160,74712,1,8,0:0:0:0:
256,160,74868,1,0,0:0:0:0:
256,160,75337,1,8,0:0:0:0:
256,160,75650,1,0,0:0:0:0:
256,160,75962,1,8,0:0:0:0:
256,160,76118,1,8,0:0:0:0:
256,160,76431,1,0,0:0:0:0:
256,160,76743,1,8,0:0:0:0:
256,160,76900,1,0,0:0:0:0:
256,160,77212,1,8,0:0:0:0:
256,160,77525,1,0,0:0:0:0:
256,160,77681,1,0,0:0:0:0:
256,160,77837,1,8,0:0:0:0:
256,160,78150,1,0,0:0:0:0:
256,160,78775,1,8,0:0:0:0:
256,160,78931,1,8,0:0:0:0:
256,160,79087,1,8,0:0:0:0:
256,160,79400,1,4,0:0:0:0:
256,160,79712,1,8,0:0:0:0:
256,160,79868,1,8,0:0:0:0:
256,160,80025,1,0,0:0:0:0:
256,160,80337,1,8,0:0:0:0:
256,160,80493,1,0,0:0:0:0:
256,160,80650,1,8,0:0:0:0:
256,160,80962,1,8,0:0:0:0:
256,160,81275,1,0,0:0:0:0:
256,160,81900,1,0,0:0:0:0:
256,160,82212,1,8,0:0:0:0:
256,160,82368,1,0,0:0:0:0:
256,160,82681,1,0,0:0:0:0:
256,160,82837,1,8,0:0:0:0:
256,160,83150,1,0,0:0:0:0:
256,160,83462,1,8,0:0:0:0:
256,160,84087,1,8,0:0:0:0:
256,160,84400,1,4,0:0:0:0:
256,160,84712,1,8,0:0:0:0:
256,160,84868,1,0,0:0:0:0:
256,160,85337,1,8,0:0:0:0:
256,160,85650,1,0,0:0:0:0:
256,160,85962,1,8,0:0:0:0:
256,160,86118,1,8,0:0:0:0:
256,160,86431,1,0,0:0:0:0:
256,160,86587,1,8,0:0:0:0:
256,160,86900,1,0,0:0:0:0:
256,160,87212,1,8,0:0:0:0:
256,160,87525,1,0,0:0:0:0:
256,160,87681,1,0,0:0:0:0:
256,160,87837,1,8,0:0:0:0:
256,160,88150,1,0,0:0:0:0:
256,160,88462,1,8,0:0:0:0:
256,160,88618,1,0,0:0:0:0:
256,160,88775,1,8,0:0:0:0:
256,160,89400,1,4,0:0:0:0:
255,145,89712,1,0,0:0:0:0:
255,145,89868,1,8,0:0:0:0:
255,145,90181,1,0,0:0:0:0:
255,145,90337,1,8,0:0:0:0:
274,136,90650,1,0,0:0:0:0:
274,136,90806,1,8,0:0:0:0:
274,136,91118,1,0,0:0:0:0:
274,136,91275,1,8,0:0:0:0:
274,136,91587,1,8,0:0:0:0:
268,123,91900,1,12,0:0:0:0:
274,136,92212,1,8,0:0:0:0:
274,136,92525,1,8,0:0:0:0:
271,129,92681,1,0,0:0:0:0:
268,123,92837,1,8,0:0:0:0:
274,136,93150,1,4,0:0:0:0:
256,160,94400,1,4,0:0:0:0:
256,192,95025,1,8,0:0:0:0:
256,192,95337,1,8,0:0:0:0:
256,192,95493,1,8,0:0:0:0:
256,192,95650,1,0,0:0:0:0:
256,192,95962,1,8,0:0:0:0:
256,192,96275,1,0,0:0:0:0:
256,192,96431,1,8,0:0:0:0:
256,192,96900,1,0,0:0:0:0:
256,192,97056,1,8,0:0:0:0:
256,192,97212,1,0,0:0:0:0:
256,192,97525,1,8,0:0:0:0:
256,192,97837,1,8,0:0:0:0:
256,192,97993,1,8,0:0:0:0:
256,192,98150,1,0,0:0:0:0:
256,192,98462,1,8,0:0:0:0:
256,192,98775,1,8,0:0:0:0:
256,192,98931,1,8,0:0:0:0:
256,192,99087,1,8,0:0:0:0:
256,160,99400,1,4,0:0:0:0:
256,192,100025,1,8,0:0:0:0:
256,192,100337,1,8,0:0:0:0:
256,192,100493,1,8,0:0:0:0:
256,192,100650,1,0,0:0:0:0:
256,192,100962,1,8,0:0:0:0:
256,192,101275,1,0,0:0:0:0:
256,192,101431,1,0,0:0:0:0:
256,192,101587,1,8,0:0:0:0:
256,192,101900,1,0,0:0:0:0:
256,192,102056,1,8,0:0:0:0:
256,192,102212,1,8,0:0:0:0:
256,192,102368,1,0,0:0:0:0:
256,192,102525,1,8,0:0:0:0:
256,192,102837,1,0,0:0:0:0:
256,192,103150,1,8,0:0:0:0:
256,192,103306,1,0,0:0:0:0:
256,192,103462,1,8,0:0:0:0:
256,192,103775,1,0,0:0:0:0:
256,192,104400,1,4,0:0:0:0:
256,192,105025,1,8,0:0:0:0:
256,192,105337,1,0,0:0:0:0:
256,192,105493,1,0,0:0:0:0:
256,190,105806,1,8,0:0:0:0:
256,192,105962,1,0,0:0:0:0:
256,192,106275,1,8,0:0:0:0:
256,192,106587,1,8,0:0:0:0:
256,192,106900,1,0,0:0:0:0:
256,192,107056,1,8,0:0:0:0:
256,192,107525,1,8,0:0:0:0:
256,192,107837,1,0,0:0:0:0:
256,192,107993,1,8,0:0:0:0:
252,180,108306,1,0,0:0:0:0:
252,180,108462,1,8,0:0:0:0:
252,180,108775,1,8,0:0:0:0:
252,180,109087,1,0,0:0:0:0:
252,180,109400,1,4,0:0:0:0:
256,192,110025,1,8,0:0:0:0:
256,192,110337,1,8,0:0:0:0:
256,192,110493,1,0,0:0:0:0:
256,190,110806,1,0,0:0:0:0:
256,192,110962,1,8,0:0:0:0:
256,192,111275,1,8,0:0:0:0:
256,192,111587,1,8,0:0:0:0:
256,192,111743,1,0,0:0:0:0:
256,192,111900,1,8,0:0:0:0:
256,185,112212,1,0,0:0:0:0:
256,192,112525,1,8,0:0:0:0:
256,192,112837,1,0,0:0:0:0:
256,192,112993,1,8,0:0:0:0:
252,180,113306,1,8,0:0:0:0:
252,180,113462,1,0,0:0:0:0:
252,180,113775,1,8,0:0:0:0:
252,180,114087,1,8,0:0:0:0:
252,180,114400,1,4,0:0:0:0:
259,162,115025,1,8,0:0:0:0:
259,162,115181,1,0,0:0:0:0:
259,162,115337,1,0,0:0:0:0:
259,162,115493,1,8,0:0:0:0:
259,162,115806,1,0,0:0:0:0:
259,162,115962,1,8,0:0:0:0:
259,162,116118,1,0,0:0:0:0:
259,162,116275,1,8,0:0:0:0:
259,162,116587,1,8,0:0:0:0:
259,162,116900,1,4,0:0:0:0:
260,156,117525,1,8,0:0:0:0:
260,156,117681,1,8,0:0:0:0:
260,156,117837,1,0,0:0:0:0:
260,156,117993,1,8,0:0:0:0:
260,156,118306,1,0,0:0:0:0:
260,156,118462,1,8,0:0:0:0:
260,156,118618,1,8,0:0:0:0:
260,156,118775,1,0,0:0:0:0:
260,156,119087,1,8,0:0:0:0:
260,156,119400,1,4,0:0:0:0:
259,162,120025,1,8,0:0:0:0:
259,160,120181,1,0,0:0:0:0:
259,162,120337,1,0,0:0:0:0:
259,162,120493,1,8,0:0:0:0:
259,162,120806,1,0,0:0:0:0:
259,162,120962,1,8,0:0:0:0:
259,162,121118,1,0,0:0:0:0:
259,162,121275,1,8,0:0:0:0:
259,162,121587,1,8,0:0:0:0:
259,162,121900,1,4,0:0:0:0:
260,156,122525,1,8,0:0:0:0:
260,156,122681,1,8,0:0:0:0:
260,156,122837,1,0,0:0:0:0:
260,156,122993,1,0,0:0:0:0:
260,156,123150,1,8,0:0:0:0:
260,156,123462,1,0,0:0:0:0:
260,156,123775,1,8,0:0:0:0:
260,156,124087,1,0,0:0:0:0:
260,156,124400,1,12,0:0:0:0:
256,160,126900,1,12,0:0:0:0:
256,160,127212,1,8,0:0:0:0:
256,160,127368,1,8,0:0:0:0:
256,160,127525,1,0,0:0:0:0:
256,160,127837,1,8,0:0:0:0:
256,160,127993,1,0,0:0:0:0:
256,160,128150,1,8,0:0:0:0:
256,160,128462,1,8,0:0:0:0:
256,160,128775,1,0,0:0:0:0:
256,160,129400,1,0,0:0:0:0:
256,160,129712,1,8,0:0:0:0:
256,160,129868,1,0,0:0:0:0:
256,160,130181,1,0,0:0:0:0:
256,160,130337,1,8,0:0:0:0:
256,160,130650,1,0,0:0:0:0:
256,160,130962,1,8,0:0:0:0:
256,160,131587,1,8,0:0:0:0:
256,160,131900,1,4,0:0:0:0:
256,160,132212,1,8,0:0:0:0:
256,160,132368,1,0,0:0:0:0:
256,160,132837,1,8,0:0:0:0:
256,160,133150,1,0,0:0:0:0:
256,160,133462,1,8,0:0:0:0:
256,160,133618,1,8,0:0:0:0:
256,160,133931,1,0,0:0:0:0:
256,160,134243,1,8,0:0:0:0:
256,160,134400,1,0,0:0:0:0:
256,160,134712,1,8,0:0:0:0:
256,160,135025,1,0,0:0:0:0:
256,160,135181,1,0,0:0:0:0:
256,160,135337,1,8,0:0:0:0:
256,160,135650,1,0,0:0:0:0:
256,160,136275,1,8,0:0:0:0:
256,160,136431,1,8,0:0:0:0:
256,160,136587,1,8,0:0:0:0:
256,160,136900,1,4,0:0:0:0:
256,160,137212,1,8,0:0:0:0:
256,160,137368,1,8,0:0:0:0:
256,160,137525,1,0,0:0:0:0:
256,160,137837,1,8,0:0:0:0:
256,160,137993,1,0,0:0:0:0:
256,160,138150,1,8,0:0:0:0:
256,160,138462,1,8,0:0:0:0:
256,160,138775,1,0,0:0:0:0:
256,160,139400,1,0,0:0:0:0:
256,160,139712,1,8,0:0:0:0:
256,160,139868,1,0,0:0:0:0:
256,160,140181,1,0,0:0:0:0:
256,160,140337,1,8,0:0:0:0:
256,160,140650,1,0,0:0:0:0:
256,160,140962,1,8,0:0:0:0:
256,160,141587,1,8,0:0:0:0:
256,160,141900,1,4,0:0:0:0:
256,160,142212,1,8,0:0:0:0:
256,160,142368,1,0,0:0:0:0:
256,160,142837,1,8,0:0:0:0:
256,160,143150,1,0,0:0:0:0:
256,160,143462,1,8,0:0:0:0:
256,160,143618,1,8,0:0:0:0:
256,160,143931,1,0,0:0:0:0:
256,160,144087,1,8,0:0:0:0:
256,160,144400,1,0,0:0:0:0:
256,160,144712,1,8,0:0:0:0:
256,160,145025,1,0,0:0:0:0:
256,160,145181,1,0,0:0:0:0:
256,160,145337,1,8,0:0:0:0:
256,160,145650,1,0,0:0:0:0:
256,160,145806,1,0,0:0:0:0:
256,160,145962,1,0,0:0:0:0:
256,160,146118,1,0,0:0:0:0:
256,160,146275,1,0,0:0:0:0:
256,160,146587,1,0,0:0:0:0:
256,160,146900,1,12,0:0:0:0:
256,192,147525,1,8,0:0:0:0:
256,192,147837,1,0,0:0:0:0:
256,192,147993,1,0,0:0:0:0:
256,192,148462,1,0,0:0:0:0:
256,192,148775,1,8,0:0:0:0:
256,192,149087,1,0,0:0:0:0:
256,192,149400,1,0,0:0:0:0:
256,192,149556,1,0,0:0:0:0:
256,192,150025,1,8,0:0:0:0:
256,192,150337,1,0,0:0:0:0:
252,180,150493,1,0,0:0:0:0:
252,180,150962,1,0,0:0:0:0:
252,180,151275,1,8,0:0:0:0:
252,180,151431,1,8,0:0:0:0:
252,180,151587,1,8,0:0:0:0:
252,180,151900,1,0,0:0:0:0:
252,180,152525,1,8,0:0:0:0:
256,192,152993,1,8,0:0:0:0:
252,180,153150,1,0,0:0:0:0:
252,180,153306,1,8,0:0:0:0:
252,180,153775,1,0,0:0:0:0:
258,156,154400,1,12,0:0:0:0:
251,250,156900,1,4,0:0:0:0:
258,154,159400,1,12,0:0:0:0:
251,248,161900,1,4,0:0:0:0:
254,201,163150,1,8,0:0:0:0:
254,201,163306,1,0,0:0:0:0:
254,201,163618,1,0,0:0:0:0:
254,201,163775,1,8,0:0:0:0:
254,201,164087,1,0,0:0:0:0:
258,156,164400,1,12,0:0:0:0:
258,156,166587,1,0,0:0:0:0:
251,250,166900,1,4,0:0:0:0:
265,168,169087,1,0,0:0:0:0:
258,154,169400,1,12,0:0:0:0:
258,154,171587,1,0,0:0:0:0:
251,248,171900,1,12,0:0:0:0:
258,154,172368,1,0,0:0:0:0:
258,154,172525,1,8,0:0:0:0:
258,154,172681,1,0,0:0:0:0:
254,201,173150,1,8,0:0:0:0:
254,201,173306,1,8,0:0:0:0:
252,194,173462,1,0,0:0:0:0:
254,201,173775,1,8,0:0:0:0:
254,201,174087,1,0,0:0:0:0:
258,156,174400,1,12,0:0:0:0:
258,156,175025,1,8,0:0:0:0:
258,156,175181,1,0,0:0:0:0:
258,156,175493,1,8,0:0:0:0:
258,156,175650,1,0,0:0:0:0:
256,192,175806,1,0,0:0:0:0:
258,156,176275,1,8,0:0:0:0:
258,156,176431,1,0,0:0:0:0:
249,148,176743,1,8,0:0:0:0:
251,250,176900,1,0,0:0:0:0:
256,192,177368,1,0,0:0:0:0:
240,223,177525,1,8,0:0:0:0:
237,217,177681,1,0,0:0:0:0:
232,206,177993,1,8,0:0:0:0:
230,201,178150,1,8,0:0:0:0:
256,192,178306,1,0,0:0:0:0:
220,177,178775,1,8,0:0:0:0:
256,192,178931,1,8,0:0:0:0:
256,192,179087,1,8,0:0:0:0:
258,154,179400,1,4,0:0:0:0:
235,143,180025,1,8,0:0:0:0:
229,142,180181,1,0,0:0:0:0:
217,139,180493,1,8,0:0:0:0:
211,138,180650,1,0,0:0:0:0:
256,192,180806,1,0,0:0:0:0:
186,132,181275,1,8,0:0:0:0:
180,131,181431,1,0,0:0:0:0:
167,128,181743,1,8,0:0:0:0:
161,127,181900,1,0,0:0:0:0:
256,192,182368,1,0,0:0:0:0:
161,111,182525,1,8,0:0:0:0:
162,106,182681,1,0,0:0:0:0:
170,98,182993,1,8,0:0:0:0:
174,93,183150,1,0,0:0:0:0:
256,192,183306,1,0,0:0:0:0:
256,192,183775,1,8,0:0:0:0:
184,74,183931,1,0,0:0:0:0:
184,74,184087,1,8,0:0:0:0:
193,68,184400,1,0,0:0:0:0:
191,56,184712,1,8,0:0:0:0:
191,56,185337,1,8,0:0:0:0:
191,56,185962,1,8,0:0:0:0:
191,56,186275,1,8,0:0:0:0:
191,56,186431,1,8,0:0:0:0:
191,56,186587,1,8,0:0:0:0:
191,56,186743,1,8,0:0:0:0:
191,56,186900,1,4,0:0:0:0:
177,55,187212,1,8,0:0:0:0:
170,54,187368,1,8,0:0:0:0:
164,53,187525,1,0,0:0:0:0:
151,53,187837,1,8,0:0:0:0:
144,53,188150,1,8,0:0:0:0:
144,53,188306,1,8,0:0:0:0:
144,53,188462,1,8,0:0:0:0:
144,53,188775,1,0,0:0:0:0:
256,160,189400,1,12,0:0:0:0:
256,160,189712,1,8,0:0:0:0:
256,160,189868,1,0,0:0:0:0:
256,160,190025,1,0,0:0:0:0:
256,160,190337,1,8,0:0:0:0:
256,160,190493,1,0,0:0:0:0:
256,160,190650,1,8,0:0:0:0:
256,160,190962,1,8,0:0:0:0:
256,160,191275,1,0,0:0:0:0:
256,160,191900,1,0,0:0:0:0:
256,160,192212,1,8,0:0:0:0:
256,160,192368,1,0,0:0:0:0:
256,160,192681,1,0,0:0:0:0:
256,160,192837,1,8,0:0:0:0:
256,160,192993,1,8,0:0:0:0:
256,160,193150,1,0,0:0:0:0:
256,160,193462,1,8,0:0:0:0:
256,160,194087,1,8,0:0:0:0:
256,160,194400,1,4,0:0:0:0:
256,160,194712,1,8,0:0:0:0:
256,160,194868,1,0,0:0:0:0:
256,160,195337,1,8,0:0:0:0:
256,160,195650,1,0,0:0:0:0:
256,160,195962,1,8,0:0:0:0:
256,160,196118,1,8,0:0:0:0:
256,160,196431,1,0,0:0:0:0:
256,160,196743,1,8,0:0:0:0:
256,160,196900,1,0,0:0:0:0:
256,160,197212,1,8,0:0:0:0:
256,160,197525,1,0,0:0:0:0:
256,160,197681,1,0,0:0:0:0:
256,160,197837,1,8,0:0:0:0:
256,160,198150,1,0,0:0:0:0:
256,160,198775,1,8,0:0:0:0:
256,160,198931,1,8,0:0:0:0:
256,160,199087,1,8,0:0:0:0:
256,160,199400,1,4,0:0:0:0:
256,160,199712,1,8,0:0:0:0:
256,160,199868,1,8,0:0:0:0:
256,160,200025,1,0,0:0:0:0:
256,160,200337,1,8,0:0:0:0:
256,160,200493,1,0,0:0:0:0:
256,160,200650,1,8,0:0:0:0:
256,160,200962,1,8,0:0:0:0:
256,160,201275,1,0,0:0:0:0:
256,160,201900,1,0,0:0:0:0:
256,160,202212,1,8,0:0:0:0:
256,160,202368,1,0,0:0:0:0:
256,160,202681,1,0,0:0:0:0:
256,160,202837,1,8,0:0:0:0:
256,160,203150,1,0,0:0:0:0:
256,160,203306,1,0,0:0:0:0:
256,160,203462,1,8,0:0:0:0:
256,160,204087,1,8,0:0:0:0:
256,160,204400,1,4,0:0:0:0:
256,160,204712,1,8,0:0:0:0:
256,160,204868,1,0,0:0:0:0:
256,160,205337,1,8,0:0:0:0:
256,160,205650,1,0,0:0:0:0:
256,160,205962,1,8,0:0:0:0:
256,160,206118,1,8,0:0:0:0:
256,160,206431,1,0,0:0:0:0:
256,160,206587,1,8,0:0:0:0:
256,160,206900,1,0,0:0:0:0:
256,160,207212,1,8,0:0:0:0:
256,160,207525,1,0,0:0:0:0:
256,160,207681,1,0,0:0:0:0:
256,160,207837,1,8,0:0:0:0:
256,160,208150,1,0,0:0:0:0:
256,160,208462,1,8,0:0:0:0:
256,160,208618,1,0,0:0:0:0:
256,160,208775,1,8,0:0:0:0:
256,160,209400,1,4,0:0:0:0:
255,145,209712,1,0,0:0:0:0:
255,145,209868,1,8,0:0:0:0:
255,145,210181,1,0,0:0:0:0:
255,145,210337,1,8,0:0:0:0:
274,136,210650,1,0,0:0:0:0:
274,136,210962,1,8,0:0:0:0:
274,136,211118,1,0,0:0:0:0:
274,136,211275,1,8,0:0:0:0:
274,136,211587,1,8,0:0:0:0:
268,123,211900,1,12,0:0:0:0:
256,192,212212,1,0,0:0:0:0:
274,136,212368,1,8,0:0:0:0:
268,123,212837,1,8,0:0:0:0:
256,192,212993,1,8,0:0:0:0:
274,136,213150,1,4,0:0:0:0:
256,160,214400,1,4,0:0:0:0:
256,192,215025,1,8,0:0:0:0:
256,192,215337,1,8,0:0:0:0:
256,192,215493,1,8,0:0:0:0:
256,192,215650,1,0,0:0:0:0:
256,192,215962,1,8,0:0:0:0:
256,192,216275,1,0,0:0:0:0:
256,192,216431,1,8,0:0:0:0:
256,192,216900,1,0,0:0:0:0:
256,192,217056,1,8,0:0:0:0:
256,192,217212,1,0,0:0:0:0:
256,192,217525,1,8,0:0:0:0:
256,192,217837,1,8,0:0:0:0:
256,192,217993,1,8,0:0:0:0:
256,192,218150,1,0,0:0:0:0:
256,192,218462,1,8,0:0:0:0:
256,192,218775,1,8,0:0:0:0:
256,192,218931,1,8,0:0:0:0:
256,192,219087,1,8,0:0:0:0:
256,160,219400,1,4,0:0:0:0:
256,192,220025,1,8,0:0:0:0:
256,192,220337,1,8,0:0:0:0:
256,192,220493,1,8,0:0:0:0:
256,192,220650,1,0,0:0:0:0:
256,192,220962,1,8,0:0:0:0:
256,192,221275,1,0,0:0:0:0:
256,192,221431,1,8,0:0:0:0:
256,192,221900,1,0,0:0:0:0:
256,192,222056,1,0,0:0:0:0:
256,192,222212,1,8,0:0:0:0:
256,192,222368,1,8,0:0:0:0:
256,192,222525,1,0,0:0:0:0:
256,192,222837,1,8,0:0:0:0:
256,192,223150,1,8,0:0:0:0:
256,192,223306,1,8,0:0:0:0:
256,192,223462,1,0,0:0:0:0:
256,192,223775,1,8,0:0:0:0:
256,192,224400,1,12,0:0:0:0:
256,192,224868,1,12,0:0:0:0:
256,192,225337,1,12,0:0:0:0:
256,192,225806,1,12,0:0:0:0:
256,192,226275,1,12,0:0:0:0:
256,192,226587,1,12,0:0:0:0:
256,192,226900,1,12,0:0:0:0:
256,192,227368,1,12,0:0:0:0:
256,192,227837,1,12,0:0:0:0:
256,192,228306,1,12,0:0:0:0:
256,192,228775,1,0,0:0:0:0:
256,192,228931,1,0,0:0:0:0:
256,192,229087,1,8,0:0:0:0:
256,192,229400,1,8,0:0:0:0:
256,192,229868,1,0,0:0:0:0:
256,192,230025,1,8,0:0:0:0:
256,192,230337,1,8,0:0:0:0:
256,192,230493,1,0,0:0:0:0:
256,192,230650,1,0,0:0:0:0:
256,192,230806,1,0,0:0:0:0:
256,192,230962,1,8,0:0:0:0:
256,192,231275,1,8,0:0:0:0:
256,192,231900,1,8,0:0:0:0:
256,192,232212,1,8,0:0:0:0:
256,192,232368,1,0,0:0:0:0:
256,192,232525,1,8,0:0:0:0:
256,192,232837,1,12,0:0:0:0:
256,192,233150,1,0,0:0:0:0:
256,192,233306,1,8,0:0:0:0:
256,192,233462,1,0,0:0:0:0:
256,192,233775,1,8,0:0:0:0:
256,192,234087,1,8,0:0:0:0:
256,192,234243,1,8,0:0:0:0:
