osu file format v14

[General]
AudioFilename: audio.mp3
AudioLeadIn: 0
PreviewTime: 68775
Countdown: 0
SampleSet: Normal
StackLeniency: 0.7
Mode: 1
LetterboxInBreaks: 0
WidescreenStoryboard: 1

[Editor]
Bookmarks: 690,19440,24440,26940,29440,49440,59440,64440,66940,69440,79440,93190,104440,114440,116940,119440,121940,124440,126940,146940,151940,154440,164440,171940,174440,184440,186940,189440,213190,224440,234283
DistanceSpacing: 0.1
BeatDivisor: 4
GridSize: 32
TimelineZoom: 2.3

[Metadata]
Title:5150
TitleUnicode:5150
Artist:THE ORAL CIGARETTES
ArtistUnicode:THE ORAL CIGARETTES
Creator:KyeX
Version:2199's Oni
Source:
Tags:japanese rock jrock j-rock before it’s too late takuya yamanaka 山中拓也 akira akirakani あきらかにあきら gaston_2199 toc
BeatmapID:3266468
BeatmapSetID:1587293

[Difficulty]
HPDrainRate:6
CircleSize:2
OverallDifficulty:5.5
ApproachRate:10
SliderMultiplier:1.4
SliderTickRate:1

[Events]
//Background and Video events
0,0,"bg.jpg",0,-100
//Break Periods
//Storyboard Layer 0 (Background)
//Storyboard Layer 1 (Fail)
//Storyboard Layer 2 (Pass)
//Storyboard Layer 3 (Foreground)
//Storyboard Layer 4 (Overlay)
//Storyboard Sound Samples

[TimingPoints]
19400,312.5,4,1,0,80,1,0
19400,-117.647058823529,4,1,0,80,0,0
24395,-111.111111111111,4,1,0,85,0,0
26973,-110.599893824102,4,1,0,85,0,0
27051,-110.093359168575,4,1,0,85,0,0
27129,-109.591443100123,4,1,0,85,0,0
27207,-109.094082736952,4,1,0,85,0,0
27285,-108.601216333623,4,1,0,85,0,0
27363,-108.112783255492,4,1,0,85,0,0
27441,-107.628723953849,4,1,0,85,0,0
27520,-107.142857142857,4,1,0,85,0,0
27598,-106.667425190579,4,1,0,85,0,0
27676,-106.19619392841,4,1,0,85,0,0
27754,-105.729107928273,4,1,0,85,0,0
27832,-105.266112732989,4,1,0,85,0,0
27910,-104.807154835103,4,1,0,85,0,0
27988,-104.352181656278,4,1,0,85,0,0
28066,-103.901141527208,4,1,0,85,0,0
28145,-103.448275862069,4,1,0,85,0,0
28223,-103.00499917596,4,1,0,85,0,0
28301,-102.565505169302,4,1,0,85,0,0
28379,-102.129745628847,4,1,0,85,0,0
28457,-101.697673157238,4,1,0,85,0,0
28535,-101.26924115582,4,1,0,85,0,0
28613,-100.844403807885,4,1,0,85,0,0
28691,-100.423116062343,4,1,0,85,0,0
28770,-100,4,1,0,85,0,0
29395,-100,4,1,0,90,0,0
48223,-100.627918209628,4,1,0,90,0,0
48301,-101.263771872975,4,1,0,90,0,0
48379,-101.907712375673,4,1,0,90,0,0
48457,-102.559894978668,4,1,0,90,0,0
48613,-103.889627659575,4,1,0,90,0,0
48770,-105.263157894737,4,1,0,90,0,0
48848,-105.959142154785,4,1,0,90,0,0
48926,-106.664391159655,4,1,0,90,0,0
49004,-107.379091143373,4,1,0,90,0,0
49082,-108.103433365044,4,1,0,90,0,0
49160,-108.837614279495,4,1,0,90,0,0
49238,-109.581835714912,4,1,0,90,0,0
49316,-110.336305057816,4,1,0,90,0,0
49395,-111.111111111111,4,1,0,90,0,0
49707,-111.111111111111,4,1,0,85,0,0
59395,-105.263157894737,4,1,0,85,0,0
64863,-104.091341579448,4,1,0,85,0,0
64941,-103.51516298434,4,1,0,85,0,0
65020,-102.938063089553,4,1,0,85,0,0
65176,-101.817166523186,4,1,0,85,0,0
65332,-100.720417980528,4,1,0,85,0,0
65410,-100.180856665369,4,1,0,85,0,0
65488,-99.647045428669,4,1,0,85,0,0
65645,-98.5896453836795,4,1,0,85,0,0
65801,-97.5609756097561,4,1,0,85,0,0
65957,-96.5535501522439,4,1,0,85,0,0
66113,-95.5667176239353,4,1,0,85,0,0
66191,-95.0808273944029,4,1,0,85,0,0
66270,-94.5937182507944,4,1,0,85,0,0
66582,-92.7177574845859,4,1,0,85,0,0
66660,-92.2603360671291,4,1,0,85,0,0
66738,-91.8074058533515,4,1,0,85,0,0
66816,-91.3589010208981,4,1,0,85,0,0
66895,-90.9090909090909,4,1,0,85,0,0
68301,-83.3333333333333,4,1,0,85,0,0
69400,-100,4,1,0,90,0,1
93150,-100,4,1,0,90,0,0
101582,-100,4,1,0,90,0,0
101895,-101.12092545871,4,1,0,90,0,0
102051,-101.690916560569,4,1,0,90,0,0
102207,-102.267369857102,4,1,0,90,0,0
102363,-102.850395871174,4,1,0,90,0,0
102520,-103.440000662016,4,1,0,90,0,0
102676,-104.036512654481,4,1,0,90,0,0
102832,-104.639944415262,4,1,0,90,0,0
102988,-105.250417054778,4,1,0,90,0,0
103066,-105.558276613353,4,1,0,90,0,0
103145,-105.867942445952,4,1,0,90,0,0
103301,-106.492870302333,4,1,0,90,0,0
103457,-107.125219740607,4,1,0,90,0,0
103613,-107.765007624374,4,1,0,90,0,0
103770,-108.412601013441,4,1,0,90,0,0
103926,-109.068024636285,4,1,0,90,0,0
104082,-109.731421373047,4,1,0,90,0,0
104238,-110.402815713412,4,1,0,90,0,0
104395,-111.111111111111,4,1,0,90,0,0
114785,-110.671936758893,4,1,0,85,0,0
114863,-110.236220472441,4,1,0,85,0,0
114941,-109.803921568627,4,1,0,86,0,0
115020,-109.375,4,1,0,86,0,0
115098,-108.949416342412,4,1,0,86,0,0
115176,-108.527131782946,4,1,0,86,0,0
115254,-108.108108108108,4,1,0,86,0,0
115332,-107.692307692308,4,1,0,86,0,0
115410,-107.27969348659,4,1,0,87,0,0
115488,-106.870229007634,4,1,0,87,0,0
115566,-106.463878326996,4,1,0,87,0,0
115645,-106.060606060606,4,1,0,87,0,0
115723,-105.660377358491,4,1,0,87,0,0
115801,-105.263157894737,4,1,0,88,0,0
115879,-104.868913857678,4,1,0,88,0,0
115957,-104.477611940299,4,1,0,88,0,0
116035,-104.089219330855,4,1,0,88,0,0
116113,-103.703703703704,4,1,0,88,0,0
116191,-103.321033210332,4,1,0,88,0,0
116270,-102.941176470588,4,1,0,89,0,0
116348,-102.564102564103,4,1,0,89,0,0
116426,-102.189781021898,4,1,0,89,0,0
116504,-101.818181818182,4,1,0,89,0,0
116582,-101.449275362319,4,1,0,89,0,0
116660,-101.083032490975,4,1,0,89,0,0
116738,-100.719424460432,4,1,0,90,0,0
116816,-100.358422939068,4,1,0,90,0,0
116895,-100,4,1,0,90,0,0
117207,-111.111111111111,4,1,0,85,0,0
117285,-110.671936758893,4,1,0,85,0,0
117363,-110.236220472441,4,1,0,85,0,0
117441,-109.803921568627,4,1,0,86,0,0
117520,-109.375,4,1,0,86,0,0
117598,-108.949416342412,4,1,0,86,0,0
117676,-108.527131782946,4,1,0,86,0,0
117754,-108.108108108108,4,1,0,86,0,0
117832,-107.692307692308,4,1,0,86,0,0
117910,-107.27969348659,4,1,0,87,0,0
117988,-106.870229007634,4,1,0,87,0,0
118066,-106.463878326996,4,1,0,87,0,0
118145,-106.060606060606,4,1,0,87,0,0
118223,-105.660377358491,4,1,0,87,0,0
118301,-105.263157894737,4,1,0,88,0,0
118379,-104.868913857678,4,1,0,88,0,0
118457,-104.477611940299,4,1,0,88,0,0
118535,-104.089219330855,4,1,0,88,0,0
118613,-103.703703703704,4,1,0,88,0,0
118691,-103.321033210332,4,1,0,88,0,0
118770,-102.941176470588,4,1,0,89,0,0
118848,-102.564102564103,4,1,0,89,0,0
118926,-102.189781021898,4,1,0,89,0,0
119004,-101.818181818182,4,1,0,89,0,0
119082,-101.449275362319,4,1,0,89,0,0
119160,-101.083032490975,4,1,0,89,0,0
119238,-100.719424460432,4,1,0,90,0,0
119316,-100.358422939068,4,1,0,90,0,0
119395,-100,4,1,0,90,0,0
119707,-111.111111111111,4,1,0,85,0,0
119785,-110.671936758893,4,1,0,85,0,0
119863,-110.236220472441,4,1,0,85,0,0
119941,-109.803921568627,4,1,0,86,0,0
120020,-109.375,4,1,0,86,0,0
120098,-108.949416342412,4,1,0,86,0,0
120176,-108.527131782946,4,1,0,86,0,0
120254,-108.108108108108,4,1,0,86,0,0
120332,-107.692307692308,4,1,0,86,0,0
120410,-107.27969348659,4,1,0,87,0,0
120488,-106.870229007634,4,1,0,87,0,0
120566,-106.463878326996,4,1,0,87,0,0
120645,-106.060606060606,4,1,0,87,0,0
120723,-105.660377358491,4,1,0,87,0,0
120801,-105.263157894737,4,1,0,88,0,0
120879,-104.868913857678,4,1,0,88,0,0
120957,-104.477611940299,4,1,0,88,0,0
121035,-104.089219330855,4,1,0,88,0,0
121113,-103.703703703704,4,1,0,88,0,0
121191,-103.321033210332,4,1,0,88,0,0
121270,-102.941176470588,4,1,0,89,0,0
121348,-102.564102564103,4,1,0,89,0,0
121426,-102.189781021898,4,1,0,89,0,0
121504,-101.818181818182,4,1,0,89,0,0
121582,-101.449275362319,4,1,0,89,0,0
121660,-101.083032490975,4,1,0,89,0,0
121738,-100.719424460432,4,1,0,90,0,0
121816,-100.358422939068,4,1,0,90,0,0
121895,-100,4,1,0,90,0,0
122207,-111.111111111111,4,1,0,85,0,0
122285,-110.599078341014,4,1,0,85,0,0
122363,-110.091743119266,4,1,0,85,0,0
122441,-109.58904109589,4,1,0,86,0,0
122520,-109.090909090909,4,1,0,86,0,0
122598,-108.597285067873,4,1,0,86,0,0
122676,-108.108108108108,4,1,0,86,0,0
122754,-107.62331838565,4,1,0,86,0,0
122832,-107.142857142857,4,1,0,86,0,0
122910,-106.666666666667,4,1,0,87,0,0
122988,-106.194690265487,4,1,0,87,0,0
123066,-105.726872246696,4,1,0,87,0,0
123145,-105.263157894737,4,1,0,87,0,0
123249,-106.382978723404,4,1,0,87,0,0
123353,-107.52688172043,4,1,0,87,0,0
123457,-108.695652173913,4,1,0,87,0,0
123561,-109.89010989011,4,1,0,87,0,0
123665,-111.111111111111,4,1,0,87,0,0
123770,-112.359550561798,4,1,0,87,0,0
123978,-113.636363636364,4,1,0,87,0,0
124082,-114.942528735632,4,1,0,87,0,0
124186,-116.279069767442,4,1,0,87,0,0
124395,-117.647058823529,4,1,0,87,0,0
126900,-100,4,1,0,90,0,1
145645,-102.03217482601,4,1,0,90,0,1
145801,-103.079606318368,4,1,0,90,0,1
145957,-104.148657627952,4,1,0,90,0,1
146113,-105.240226603256,4,1,0,90,0,1
146191,-105.794580778394,4,1,0,90,0,1
146270,-106.354806014152,4,1,0,90,0,1
146426,-107.493362284879,4,1,0,90,0,1
146582,-108.656441371157,4,1,0,90,0,1
146738,-109.845085475953,4,1,0,90,0,1
146900,-111.111111111111,4,1,0,90,0,0
152051,-113.475177304965,4,1,0,90,0,0
152363,-115.942028985507,4,1,0,90,0,0
152520,-118.518518518519,4,1,0,90,0,0
152988,-121.212121212121,4,1,0,90,0,0
153145,-124.031007751938,4,1,0,90,0,0
153301,-126.984126984127,4,1,0,90,0,0
153613,-130.081300813008,4,1,0,90,0,0
153770,-133.333333333333,4,1,0,90,0,0
154395,-117.647058823529,4,1,0,80,0,0
173926,-115.944717558668,4,1,0,80,0,0
174082,-114.290939014355,4,1,0,80,0,0
174238,-112.683674389255,4,1,0,80,0,0
174395,-111.111111111111,4,1,0,85,0,0
184707,-109.591443100123,4,1,0,85,0,0
185020,-108.108108108108,4,1,0,85,0,0
185332,-106.668942270768,4,1,0,85,0,0
185645,-105.263157894737,4,1,0,85,0,0
185957,-103.898262821046,4,1,0,85,0,0
186270,-102.564102564103,4,1,0,85,0,0
186348,-102.236944342207,4,1,0,85,0,0
186426,-101.911866617749,4,1,0,85,0,0
186504,-101.588849607867,4,1,0,85,0,0
186582,-101.267873779722,4,1,0,85,0,0
186660,-100.948919846558,4,1,0,85,0,0
186738,-100.631968763837,4,1,0,85,0,0
186816,-100.317001725452,4,1,0,85,0,0
186895,-100,4,1,0,85,0,0
187207,-111.111111111111,4,1,0,85,0,0
187363,-109.892427757857,4,1,0,85,0,0
187520,-108.692628650904,4,1,0,85,0,0
187676,-107.526141992295,4,1,0,85,0,0
187832,-106.384426898993,4,1,0,85,0,0
187988,-105.266702586207,4,1,0,85,0,0
188145,-104.165278240587,4,1,0,85,0,0
188223,-103.626599482861,4,1,0,85,0,0
188301,-103.093463491854,4,1,0,85,0,0
188379,-102.565785156506,4,1,0,85,0,0
188457,-102.043481099432,4,1,0,85,0,0
188535,-101.526469632998,4,1,0,85,0,0
188613,-101.014670716732,4,1,0,85,0,0
188691,-100.508005916018,4,1,0,85,0,0
188770,-100,4,1,0,85,0,0
189400,-100,4,1,0,90,0,1
213150,-100,4,1,0,90,0,0
224400,-90.9090909090909,4,1,0,90,0,1
234243,-90.9090909090909,4,1,0,90,0,0

[HitObjects]
256,192,19400,5,12,0:0:0:0:
256,192,19556,1,12,0:0:0:0:
256,192,20025,1,0,0:0:0:0:
256,192,20337,1,0,0:0:0:0:
256,192,20650,1,0,0:0:0:0:
256,192,20962,1,0,0:0:0:0:
256,192,21275,1,0,0:0:0:0:
256,192,21587,1,0,0:0:0:0:
256,192,21900,1,12,0:0:0:0:
256,192,22056,1,12,0:0:0:0:
256,192,22525,1,0,0:0:0:0:
256,192,22837,1,0,0:0:0:0:
256,192,23150,1,0,0:0:0:0:
256,192,23462,1,0,0:0:0:0:
256,192,23775,1,0,0:0:0:0:
256,192,24087,1,0,0:0:0:0:
256,192,24400,1,12,0:0:0:0:
256,192,24712,1,0,0:0:0:0:
256,192,24868,1,12,0:0:0:0:
256,192,25025,1,0,0:0:0:0:
256,192,25181,1,0,0:0:0:0:
256,192,25337,1,12,0:0:0:0:
256,192,25650,1,0,0:0:0:0:
256,192,25806,1,12,0:0:0:0:
256,192,25962,1,0,0:0:0:0:
256,192,26118,1,0,0:0:0:0:
256,192,26275,1,12,0:0:0:0:
256,192,26431,1,0,0:0:0:0:
256,192,26587,1,12,0:0:0:0:
256,192,26900,1,0,0:0:0:0:
256,192,27056,1,8,0:0:0:0:
256,192,27134,1,8,0:0:0:0:
256,192,27212,1,0,0:0:0:0:
256,192,27368,1,0,0:0:0:0:
256,192,27525,1,8,0:0:0:0:
256,192,27603,1,8,0:0:0:0:
256,192,27681,1,8,0:0:0:0:
256,192,27837,1,0,0:0:0:0:
256,192,27993,1,8,0:0:0:0:
256,192,28071,1,8,0:0:0:0:
256,192,28150,1,0,0:0:0:0:
256,192,28306,1,0,0:0:0:0:
256,192,28384,1,0,0:0:0:0:
256,192,28462,1,8,0:0:0:0:
256,192,28540,1,8,0:0:0:0:
256,192,28618,1,0,0:0:0:0:
256,192,28775,1,8,0:0:0:0:
256,160,29400,1,4,0:0:0:0:
256,160,29556,1,0,0:0:0:0:
256,192,29712,1,8,0:0:0:0:
256,192,29868,1,0,0:0:0:0:
256,192,30025,1,8,0:0:0:0:
256,192,30103,1,8,0:0:0:0:
256,192,30181,1,8,0:0:0:0:
256,192,30337,1,0,0:0:0:0:
256,192,30493,1,0,0:0:0:0:
256,192,30571,1,0,0:0:0:0:
256,192,30650,1,8,0:0:0:0:
256,192,30806,1,0,0:0:0:0:
256,192,30962,1,8,0:0:0:0:
256,192,31275,1,0,0:0:0:0:
256,192,31431,1,8,0:0:0:0:
256,192,31587,1,8,0:0:0:0:
256,192,31665,1,8,0:0:0:0:
256,192,31743,1,8,0:0:0:0:
256,192,31900,1,0,0:0:0:0:
256,192,32056,1,0,0:0:0:0:
256,192,32212,1,8,0:0:0:0:
256,192,32368,1,0,0:0:0:0:
256,192,32446,1,0,0:0:0:0:
256,192,32525,1,8,0:0:0:0:
256,192,32681,1,0,0:0:0:0:
256,192,32837,1,8,0:0:0:0:
256,192,32993,1,8,0:0:0:0:
256,192,33071,1,0,0:0:0:0:
256,192,33150,1,8,0:0:0:0:
256,192,33306,1,0,0:0:0:0:
256,192,33462,1,8,0:0:0:0:
256,192,33775,1,8,0:0:0:0:
256,192,33853,1,8,0:0:0:0:
256,192,33931,1,0,0:0:0:0:
256,192,34087,1,8,0:0:0:0:
256,192,34165,1,8,0:0:0:0:
256,192,34243,1,8,0:0:0:0:
256,192,34321,1,8,0:0:0:0:
256,160,34400,1,0,0:0:0:0:
256,192,34556,1,0,0:0:0:0:
256,192,34712,1,8,0:0:0:0:
256,192,34868,1,0,0:0:0:0:
256,192,35025,1,8,0:0:0:0:
256,192,35103,1,8,0:0:0:0:
256,192,35181,1,8,0:0:0:0:
256,192,35337,1,0,0:0:0:0:
256,192,35493,1,0,0:0:0:0:
256,192,35571,1,0,0:0:0:0:
256,192,35650,1,8,0:0:0:0:
256,192,35806,1,0,0:0:0:0:
256,192,35962,1,8,0:0:0:0:
256,192,36275,1,0,0:0:0:0:
256,192,36431,1,8,0:0:0:0:
256,192,36587,1,8,0:0:0:0:
256,192,36665,1,8,0:0:0:0:
256,192,36743,1,8,0:0:0:0:
256,192,36900,1,0,0:0:0:0:
256,192,37056,1,0,0:0:0:0:
256,192,37212,1,8,0:0:0:0:
256,192,37368,1,0,0:0:0:0:
256,192,37446,1,0,0:0:0:0:
256,192,37525,1,8,0:0:0:0:
256,192,37681,1,0,0:0:0:0:
256,192,37837,1,8,0:0:0:0:
256,192,37993,1,0,0:0:0:0:
256,192,38071,1,0,0:0:0:0:
256,192,38150,1,8,0:0:0:0:
256,192,38228,1,8,0:0:0:0:
256,192,38306,1,0,0:0:0:0:
256,192,38462,1,8,0:0:0:0:
256,192,38618,1,0,0:0:0:0:
256,192,38775,1,8,0:0:0:0:
256,192,38931,1,8,0:0:0:0:
256,160,39400,1,4,0:0:0:0:
256,160,39556,1,0,0:0:0:0:
256,192,39712,1,8,0:0:0:0:
256,192,39868,1,0,0:0:0:0:
256,192,40025,1,8,0:0:0:0:
256,192,40103,1,8,0:0:0:0:
256,192,40181,1,8,0:0:0:0:
256,192,40337,1,0,0:0:0:0:
256,192,40493,1,0,0:0:0:0:
256,192,40571,1,0,0:0:0:0:
256,192,40650,1,8,0:0:0:0:
256,192,40806,1,0,0:0:0:0:
256,192,40962,1,8,0:0:0:0:
256,192,41275,1,0,0:0:0:0:
256,192,41431,1,8,0:0:0:0:
256,192,41587,1,8,0:0:0:0:
256,192,41665,1,8,0:0:0:0:
256,192,41743,1,8,0:0:0:0:
256,192,41900,1,0,0:0:0:0:
256,192,42056,1,0,0:0:0:0:
256,192,42212,1,8,0:0:0:0:
256,192,42368,1,0,0:0:0:0:
256,192,42446,1,0,0:0:0:0:
256,192,42525,1,8,0:0:0:0:
256,192,42681,1,0,0:0:0:0:
256,192,42837,1,8,0:0:0:0:
256,192,42993,1,8,0:0:0:0:
256,192,43071,1,0,0:0:0:0:
256,192,43150,1,8,0:0:0:0:
256,192,43306,1,0,0:0:0:0:
256,192,43462,1,8,0:0:0:0:
256,192,43775,1,8,0:0:0:0:
256,192,43853,1,8,0:0:0:0:
256,192,43931,1,0,0:0:0:0:
256,192,44087,1,8,0:0:0:0:
256,192,44165,1,8,0:0:0:0:
256,192,44243,1,8,0:0:0:0:
255,189,44321,1,8,0:0:0:0:
256,160,44400,1,0,0:0:0:0:
256,192,44556,1,0,0:0:0:0:
256,192,44712,1,8,0:0:0:0:
256,192,44868,1,0,0:0:0:0:
256,192,45025,1,8,0:0:0:0:
256,192,45103,1,8,0:0:0:0:
256,192,45181,1,8,0:0:0:0:
256,192,45337,1,0,0:0:0:0:
256,192,45493,1,0,0:0:0:0:
256,192,45571,1,0,0:0:0:0:
256,192,45650,1,8,0:0:0:0:
256,192,45806,1,0,0:0:0:0:
256,192,45962,1,8,0:0:0:0:
256,192,46275,1,0,0:0:0:0:
256,192,46353,1,0,0:0:0:0:
256,192,46431,1,0,0:0:0:0:
256,192,46509,1,0,0:0:0:0:
256,192,46587,1,8,0:0:0:0:
256,192,46900,1,8,0:0:0:0:
256,192,47056,1,0,0:0:0:0:
256,192,47212,1,0,0:0:0:0:
256,192,47368,1,8,0:0:0:0:
256,192,47525,1,0,0:0:0:0:
256,192,47681,1,0,0:0:0:0:
256,192,47837,1,12,0:0:0:0:
256,192,48150,1,8,0:0:0:0:
256,192,48228,1,8,0:0:0:0:
256,192,48306,1,0,0:0:0:0:
256,192,48462,1,8,0:0:0:0:
256,192,48618,1,0,0:0:0:0:
256,192,48775,1,8,0:0:0:0:
256,192,48853,1,8,0:0:0:0:
256,192,48931,1,0,0:0:0:0:
256,192,49009,1,0,0:0:0:0:
256,192,49087,1,0,0:0:0:0:
256,192,49243,1,8,0:0:0:0:
256,192,49400,1,4,0:0:0:0:
256,192,49712,1,8,0:0:0:0:
256,192,50025,1,0,0:0:0:0:
256,192,50181,1,0,0:0:0:0:
256,192,50337,1,8,0:0:0:0:
256,192,50493,1,8,0:0:0:0:
256,192,50571,1,8,0:0:0:0:
256,192,50650,1,0,0:0:0:0:
256,192,50806,1,0,0:0:0:0:
256,192,50962,1,8,0:0:0:0:
256,192,51275,1,8,0:0:0:0:
256,192,51431,1,0,0:0:0:0:
256,192,51587,1,8,0:0:0:0:
256,192,51743,1,8,0:0:0:0:
256,192,51900,1,0,0:0:0:0:
256,192,52212,1,8,0:0:0:0:
256,192,52525,1,0,0:0:0:0:
256,192,52681,1,0,0:0:0:0:
256,192,52837,1,8,0:0:0:0:
256,192,52993,1,0,0:0:0:0:
256,192,53071,1,8,0:0:0:0:
256,192,53150,1,0,0:0:0:0:
256,192,53306,1,0,0:0:0:0:
256,192,53462,1,8,0:0:0:0:
256,192,53775,1,0,0:0:0:0:
256,192,53931,1,0,0:0:0:0:
256,192,54087,1,8,0:0:0:0:
256,192,54243,1,0,0:0:0:0:
256,192,54400,1,8,0:0:0:0:
256,192,54712,1,8,0:0:0:0:
256,192,55025,1,0,0:0:0:0:
256,192,55181,1,0,0:0:0:0:
256,192,55337,1,8,0:0:0:0:
256,192,55493,1,8,0:0:0:0:
256,192,55571,1,8,0:0:0:0:
256,192,55650,1,8,0:0:0:0:
256,192,55806,1,0,0:0:0:0:
256,192,55962,1,8,0:0:0:0:
256,192,56275,1,0,0:0:0:0:
256,192,56431,1,0,0:0:0:0:
256,192,56587,1,8,0:0:0:0:
256,192,56743,1,0,0:0:0:0:
256,192,56900,1,0,0:0:0:0:
256,192,57212,1,8,0:0:0:0:
256,192,57525,1,0,0:0:0:0:
256,192,57681,1,0,0:0:0:0:
256,192,57837,1,8,0:0:0:0:
256,192,58150,1,8,0:0:0:0:
256,192,58228,1,8,0:0:0:0:
256,192,58306,1,0,0:0:0:0:
256,192,58384,1,0,0:0:0:0:
256,192,58462,1,8,0:0:0:0:
256,192,58618,1,0,0:0:0:0:
256,192,58775,1,0,0:0:0:0:
256,192,58853,1,0,0:0:0:0:
256,192,58931,1,0,0:0:0:0:
256,192,59087,1,12,0:0:0:0:
256,192,59400,1,0,0:0:0:0:
256,192,59556,1,0,0:0:0:0:
256,192,59712,1,8,0:0:0:0:
256,192,59868,1,8,0:0:0:0:
256,192,60025,1,0,0:0:0:0:
256,192,60181,1,8,0:0:0:0:
256,192,60493,1,8,0:0:0:0:
256,192,60806,1,0,0:0:0:0:
256,192,60962,1,8,0:0:0:0:
256,192,61118,1,8,0:0:0:0:
256,192,61196,1,8,0:0:0:0:
256,192,61275,1,0,0:0:0:0:
256,192,61431,1,0,0:0:0:0:
256,192,61587,1,8,0:0:0:0:
256,192,61900,1,0,0:0:0:0:
256,192,62056,1,0,0:0:0:0:
256,192,62212,1,8,0:0:0:0:
256,192,62368,1,8,0:0:0:0:
256,192,62525,1,0,0:0:0:0:
256,192,62681,1,0,0:0:0:0:
256,192,62993,1,8,0:0:0:0:
256,192,63306,1,0,0:0:0:0:
256,192,63462,1,8,0:0:0:0:
256,192,63618,1,8,0:0:0:0:
256,192,63696,1,0,0:0:0:0:
256,192,63775,1,8,0:0:0:0:
256,192,63931,1,0,0:0:0:0:
256,192,64087,1,8,0:0:0:0:
256,192,64243,1,8,0:0:0:0:
256,192,64400,1,4,0:0:0:0:
256,192,64712,1,8,0:0:0:0:
256,192,64868,1,0,0:0:0:0:
256,192,64946,1,0,0:0:0:0:
256,192,65025,1,8,0:0:0:0:
256,192,65181,1,0,0:0:0:0:
256,192,65337,1,8,0:0:0:0:
256,192,65493,1,0,0:0:0:0:
256,192,65650,1,8,0:0:0:0:
256,192,65806,1,0,0:0:0:0:
256,192,65962,1,8,0:0:0:0:
256,192,66118,1,0,0:0:0:0:
256,192,66196,1,0,0:0:0:0:
256,192,66275,1,8,0:0:0:0:
256,192,66431,1,0,0:0:0:0:
256,192,66587,1,0,0:0:0:0:
256,192,66665,1,0,0:0:0:0:
256,192,66743,1,0,0:0:0:0:
256,192,66900,1,12,0:0:0:0:
256,192,67212,1,0,0:0:0:0:
256,192,67368,1,12,0:0:0:0:
256,192,67681,1,0,0:0:0:0:
256,192,67837,1,0,0:0:0:0:
256,192,67915,1,0,0:0:0:0:
256,192,67993,1,0,0:0:0:0:
256,192,68150,1,8,0:0:0:0:
256,192,68306,1,4,0:0:0:0:
256,192,68618,1,4,0:0:0:0:
256,160,69400,1,12,0:0:0:0:
256,160,69712,1,8,0:0:0:0:
256,160,69868,1,0,0:0:0:0:
256,160,69946,1,8,0:0:0:0:
256,160,70025,1,0,0:0:0:0:
256,160,70181,1,0,0:0:0:0:
256,160,70337,1,8,0:0:0:0:
256,160,70493,1,8,0:0:0:0:
256,160,70571,1,8,0:0:0:0:
256,160,70650,1,0,0:0:0:0:
256,160,70806,1,0,0:0:0:0:
256,160,70962,1,8,0:0:0:0:
256,160,71275,1,8,0:0:0:0:
256,160,71431,1,0,0:0:0:0:
256,160,71509,1,8,0:0:0:0:
256,160,71665,1,0,0:0:0:0:
256,160,71743,1,8,0:0:0:0:
256,160,71900,1,4,0:0:0:0:
256,160,72212,1,8,0:0:0:0:
256,160,72368,1,8,0:0:0:0:
256,160,72446,1,8,0:0:0:0:
256,160,72525,1,0,0:0:0:0:
256,160,72681,1,0,0:0:0:0:
256,160,72837,1,8,0:0:0:0:
256,160,72993,1,0,0:0:0:0:
256,160,73071,1,0,0:0:0:0:
256,160,73150,1,8,0:0:0:0:
256,160,73306,1,0,0:0:0:0:
256,160,73462,1,8,0:0:0:0:
256,160,73618,1,0,0:0:0:0:
256,160,73696,1,8,0:0:0:0:
256,160,73775,1,0,0:0:0:0:
256,160,73931,1,0,0:0:0:0:
256,160,74087,1,8,0:0:0:0:
256,160,74165,1,8,0:0:0:0:
256,160,74243,1,8,0:0:0:0:
256,160,74321,1,8,0:0:0:0:
256,160,74400,1,0,0:0:0:0:
256,160,74712,1,8,0:0:0:0:
256,160,74868,1,0,0:0:0:0:
256,160,75181,1,0,0:0:0:0:
256,160,75337,1,8,0:0:0:0:
256,160,75493,1,0,0:0:0:0:
256,160,75571,1,0,0:0:0:0:
256,160,75650,1,8,0:0:0:0:
256,160,75806,1,0,0:0:0:0:
256,160,75962,1,8,0:0:0:0:
256,160,76118,1,0,0:0:0:0:
256,160,76196,1,8,0:0:0:0:
256,160,76275,1,0,0:0:0:0:
256,160,76431,1,0,0:0:0:0:
256,160,76587,1,8,0:0:0:0:
256,160,76743,1,8,0:0:0:0:
256,160,76900,1,4,0:0:0:0:
256,160,77212,1,8,0:0:0:0:
256,160,77368,1,8,0:0:0:0:
256,160,77525,1,0,0:0:0:0:
256,160,77681,1,0,0:0:0:0:
256,160,77837,1,8,0:0:0:0:
256,160,78150,1,0,0:0:0:0:
256,160,78306,1,0,0:0:0:0:
256,160,78462,1,12,0:0:0:0:
256,160,78618,1,0,0:0:0:0:
256,160,78775,1,8,0:0:0:0:
256,160,78853,1,8,0:0:0:0:
256,160,78931,1,0,0:0:0:0:
256,160,79009,1,0,0:0:0:0:
256,160,79087,1,8,0:0:0:0:
256,160,79243,1,8,0:0:0:0:
256,160,79400,1,4,0:0:0:0:
256,160,79712,1,8,0:0:0:0:
256,160,79868,1,0,0:0:0:0:
256,160,79946,1,8,0:0:0:0:
256,160,80025,1,0,0:0:0:0:
256,160,80181,1,0,0:0:0:0:
256,160,80337,1,8,0:0:0:0:
256,160,80493,1,8,0:0:0:0:
256,160,80571,1,8,0:0:0:0:
256,160,80650,1,0,0:0:0:0:
256,160,80806,1,0,0:0:0:0:
256,160,80962,1,8,0:0:0:0:
256,160,81275,1,8,0:0:0:0:
256,160,81431,1,0,0:0:0:0:
256,160,81509,1,8,0:0:0:0:
256,160,81665,1,0,0:0:0:0:
256,160,81743,1,0,0:0:0:0:
256,160,81900,1,12,0:0:0:0:
256,160,82212,1,8,0:0:0:0:
256,160,82368,1,0,0:0:0:0:
256,160,82446,1,8,0:0:0:0:
256,160,82525,1,0,0:0:0:0:
256,160,82681,1,0,0:0:0:0:
256,160,82837,1,8,0:0:0:0:
256,160,82993,1,8,0:0:0:0:
256,160,83071,1,8,0:0:0:0:
256,160,83150,1,8,0:0:0:0:
256,160,83306,1,0,0:0:0:0:
256,160,83462,1,8,0:0:0:0:
256,160,83618,1,0,0:0:0:0:
256,160,83696,1,0,0:0:0:0:
256,160,83775,1,0,0:0:0:0:
256,160,83931,1,0,0:0:0:0:
256,160,84087,1,8,0:0:0:0:
256,160,84165,1,8,0:0:0:0:
256,160,84243,1,8,0:0:0:0:
256,160,84321,1,8,0:0:0:0:
256,160,84400,1,0,0:0:0:0:
256,160,84712,1,8,0:0:0:0:
256,160,84868,1,0,0:0:0:0:
256,160,85181,1,0,0:0:0:0:
256,160,85337,1,8,0:0:0:0:
256,160,85493,1,0,0:0:0:0:
256,160,85571,1,0,0:0:0:0:
256,160,85650,1,8,0:0:0:0:
256,160,85806,1,0,0:0:0:0:
256,160,85962,1,8,0:0:0:0:
256,160,86118,1,8,0:0:0:0:
256,160,86275,1,0,0:0:0:0:
256,160,86431,1,0,0:0:0:0:
256,160,86587,1,8,0:0:0:0:
256,160,86665,1,0,0:0:0:0:
256,160,86743,1,8,0:0:0:0:
256,160,86900,1,4,0:0:0:0:
256,160,87212,1,8,0:0:0:0:
256,160,87368,1,8,0:0:0:0:
256,160,87525,1,0,0:0:0:0:
256,160,87681,1,0,0:0:0:0:
256,160,87837,1,8,0:0:0:0:
256,160,88150,1,0,0:0:0:0:
256,160,88306,1,0,0:0:0:0:
256,160,88462,1,12,0:0:0:0:
256,160,88618,1,0,0:0:0:0:
256,160,88775,1,8,0:0:0:0:
256,160,88853,1,0,0:0:0:0:
256,160,88931,1,0,0:0:0:0:
256,160,89009,1,0,0:0:0:0:
256,160,89087,1,8,0:0:0:0:
256,160,89243,1,0,0:0:0:0:
256,160,89400,1,12,0:0:0:0:
255,145,89712,1,0,0:0:0:0:
255,145,89868,1,8,0:0:0:0:
255,145,90025,1,0,0:0:0:0:
255,145,90181,1,0,0:0:0:0:
255,145,90337,1,8,0:0:0:0:
274,136,90650,1,0,0:0:0:0:
274,136,90806,1,8,0:0:0:0:
274,136,90962,1,0,0:0:0:0:
274,136,91118,1,0,0:0:0:0:
274,136,91275,1,8,0:0:0:0:
273,134,91431,1,0,0:0:0:0:
271,130,91509,1,0,0:0:0:0:
274,136,91587,1,8,0:0:0:0:
271,129,91743,1,0,0:0:0:0:
268,123,91900,1,12,0:0:0:0:
274,136,92212,1,8,0:0:0:0:
274,136,92290,1,8,0:0:0:0:
273,134,92368,1,0,0:0:0:0:
273,134,92446,1,0,0:0:0:0:
271,130,92525,1,8,0:0:0:0:
271,129,92681,1,0,0:0:0:0:
268,123,92837,1,8,0:0:0:0:
268,123,92915,1,8,0:0:0:0:
274,136,92993,1,8,0:0:0:0:
274,136,93150,1,4,0:0:0:0:
256,160,94400,1,4,0:0:0:0:
256,160,94556,1,0,0:0:0:0:
256,192,94712,1,8,0:0:0:0:
256,192,94868,1,0,0:0:0:0:
256,192,95025,1,8,0:0:0:0:
256,192,95103,1,8,0:0:0:0:
256,192,95181,1,8,0:0:0:0:
256,192,95337,1,0,0:0:0:0:
256,192,95493,1,0,0:0:0:0:
256,192,95571,1,0,0:0:0:0:
256,192,95650,1,8,0:0:0:0:
256,192,95806,1,0,0:0:0:0:
256,192,95962,1,8,0:0:0:0:
256,192,96275,1,0,0:0:0:0:
256,192,96431,1,8,0:0:0:0:
256,192,96587,1,8,0:0:0:0:
256,192,96665,1,8,0:0:0:0:
256,192,96743,1,8,0:0:0:0:
256,192,96900,1,0,0:0:0:0:
256,192,97056,1,0,0:0:0:0:
256,192,97212,1,8,0:0:0:0:
256,192,97368,1,0,0:0:0:0:
256,192,97446,1,0,0:0:0:0:
256,192,97525,1,8,0:0:0:0:
256,192,97681,1,0,0:0:0:0:
256,192,97837,1,8,0:0:0:0:
256,192,97993,1,8,0:0:0:0:
256,192,98071,1,0,0:0:0:0:
256,192,98150,1,8,0:0:0:0:
256,192,98306,1,0,0:0:0:0:
256,192,98462,1,8,0:0:0:0:
256,192,98775,1,8,0:0:0:0:
256,192,98853,1,8,0:0:0:0:
256,192,98931,1,0,0:0:0:0:
256,192,99087,1,8,0:0:0:0:
256,192,99165,1,8,0:0:0:0:
256,192,99243,1,8,0:0:0:0:
256,192,99321,1,8,0:0:0:0:
256,160,99400,1,0,0:0:0:0:
256,192,99556,1,0,0:0:0:0:
256,192,99712,1,8,0:0:0:0:
256,192,99868,1,0,0:0:0:0:
256,192,100025,1,8,0:0:0:0:
256,192,100103,1,8,0:0:0:0:
256,192,100181,1,8,0:0:0:0:
256,192,100337,1,0,0:0:0:0:
256,192,100493,1,0,0:0:0:0:
256,192,100571,1,0,0:0:0:0:
256,192,100650,1,8,0:0:0:0:
256,192,100806,1,0,0:0:0:0:
256,192,100962,1,8,0:0:0:0:
256,192,101275,1,0,0:0:0:0:
255,187,101353,1,0,0:0:0:0:
256,192,101431,1,0,0:0:0:0:
256,192,101509,1,0,0:0:0:0:
256,192,101587,1,8,0:0:0:0:
256,192,101900,5,0,0:0:0:0:
256,192,102056,1,8,0:0:0:0:
256,192,102212,1,8,0:0:0:0:
256,192,102368,1,0,0:0:0:0:
256,192,102525,1,8,0:0:0:0:
256,192,102681,1,8,0:0:0:0:
256,192,102837,1,0,0:0:0:0:
256,192,102993,1,8,0:0:0:0:
256,192,103071,1,0,0:0:0:0:
256,192,103150,1,8,0:0:0:0:
256,192,103306,1,0,0:0:0:0:
256,192,103462,1,8,0:0:0:0:
256,192,103618,1,8,0:0:0:0:
256,192,103775,1,0,0:0:0:0:
256,192,103931,1,0,0:0:0:0:
256,192,104087,1,0,0:0:0:0:
256,192,104243,1,8,0:0:0:0:
256,192,104400,1,4,0:0:0:0:
256,192,104556,1,0,0:0:0:0:
256,190,104868,1,0,0:0:0:0:
256,192,105025,1,8,0:0:0:0:
256,192,105337,1,0,0:0:0:0:
256,192,105493,1,0,0:0:0:0:
256,190,105806,1,0,0:0:0:0:
256,192,105962,1,0,0:0:0:0:
256,192,106118,5,0,0:0:0:0:
256,192,106275,1,8,0:0:0:0:
256,192,106431,1,0,0:0:0:0:
256,192,106587,1,8,0:0:0:0:
255,189,106665,1,0,0:0:0:0:
256,192,106743,1,8,0:0:0:0:
256,192,106900,1,0,0:0:0:0:
256,192,107056,1,0,0:0:0:0:
256,192,107368,1,0,0:0:0:0:
256,192,107525,1,8,0:0:0:0:
256,192,107837,1,0,0:0:0:0:
256,192,107993,1,0,0:0:0:0:
252,180,108306,1,0,0:0:0:0:
252,180,108462,1,0,0:0:0:0:
252,180,108618,1,0,0:0:0:0:
252,180,108775,1,8,0:0:0:0:
251,176,108853,1,0,0:0:0:0:
252,180,108931,1,8,0:0:0:0:
252,180,109087,1,0,0:0:0:0:
252,180,109243,1,8,0:0:0:0:
252,180,109400,1,4,0:0:0:0:
256,192,109556,1,0,0:0:0:0:
256,190,109868,1,0,0:0:0:0:
256,192,110025,1,8,0:0:0:0:
256,192,110337,1,0,0:0:0:0:
256,192,110493,1,0,0:0:0:0:
256,190,110806,1,0,0:0:0:0:
256,192,110962,1,0,0:0:0:0:
256,192,111118,5,0,0:0:0:0:
256,192,111275,1,8,0:0:0:0:
256,192,111431,1,0,0:0:0:0:
256,192,111587,1,8,0:0:0:0:
255,189,111665,1,0,0:0:0:0:
256,192,111743,1,8,0:0:0:0:
256,192,111900,1,0,0:0:0:0:
256,192,112056,1,0,0:0:0:0:
256,185,112212,1,8,0:0:0:0:
256,192,112368,1,0,0:0:0:0:
256,192,112525,1,8,0:0:0:0:
256,192,112837,1,0,0:0:0:0:
256,192,112993,1,8,0:0:0:0:
256,185,113150,1,8,0:0:0:0:
252,180,113306,1,0,0:0:0:0:
252,180,113462,1,0,0:0:0:0:
252,180,113618,1,8,0:0:0:0:
252,180,113775,1,0,0:0:0:0:
250,175,113853,1,0,0:0:0:0:
252,180,113931,1,0,0:0:0:0:
251,176,114009,1,0,0:0:0:0:
252,180,114087,1,8,0:0:0:0:
252,180,114243,1,0,0:0:0:0:
252,180,114400,1,12,0:0:0:0:
257,168,114712,1,8,0:0:0:0:
259,162,114868,1,0,0:0:0:0:
259,162,114946,1,0,0:0:0:0:
259,162,115025,1,8,0:0:0:0:
259,162,115103,1,0,0:0:0:0:
259,162,115181,1,0,0:0:0:0:
259,162,115337,1,8,0:0:0:0:
259,162,115493,1,8,0:0:0:0:
259,162,115571,1,8,0:0:0:0:
259,162,115650,1,0,0:0:0:0:
259,162,115806,1,8,0:0:0:0:
259,162,115884,1,0,0:0:0:0:
259,162,115962,1,8,0:0:0:0:
259,162,116118,1,0,0:0:0:0:
259,162,116275,1,8,0:0:0:0:
259,162,116353,1,8,0:0:0:0:
259,162,116431,1,0,0:0:0:0:
259,162,116509,1,0,0:0:0:0:
259,162,116587,1,8,0:0:0:0:
259,162,116743,1,0,0:0:0:0:
259,162,116900,1,12,0:0:0:0:
259,162,117212,1,8,0:0:0:0:
260,156,117368,1,0,0:0:0:0:
260,156,117525,1,8,0:0:0:0:
258,153,117603,1,8,0:0:0:0:
260,156,117681,1,0,0:0:0:0:
260,156,117759,1,0,0:0:0:0:
260,156,117837,1,8,0:0:0:0:
260,156,117993,1,0,0:0:0:0:
260,156,118071,1,8,0:0:0:0:
260,156,118150,1,0,0:0:0:0:
260,156,118306,1,0,0:0:0:0:
260,156,118462,1,8,0:0:0:0:
260,156,118540,1,0,0:0:0:0:
260,156,118618,1,8,0:0:0:0:
260,156,118696,1,0,0:0:0:0:
260,156,118775,1,8,0:0:0:0:
260,156,118931,1,0,0:0:0:0:
260,156,119087,1,8,0:0:0:0:
260,156,119165,1,8,0:0:0:0:
260,156,119243,1,0,0:0:0:0:
260,156,119400,1,12,0:0:0:0:
257,168,119712,1,8,0:0:0:0:
259,162,119868,1,0,0:0:0:0:
259,162,119946,1,0,0:0:0:0:
259,162,120025,1,8,0:0:0:0:
259,162,120103,1,8,0:0:0:0:
259,160,120181,1,0,0:0:0:0:
259,162,120337,1,8,0:0:0:0:
259,162,120493,1,8,0:0:0:0:
259,162,120571,1,8,0:0:0:0:
259,162,120650,1,0,0:0:0:0:
259,162,120806,1,8,0:0:0:0:
259,162,120884,1,0,0:0:0:0:
259,162,120962,1,8,0:0:0:0:
259,162,121118,1,0,0:0:0:0:
259,162,121275,1,8,0:0:0:0:
259,162,121353,1,8,0:0:0:0:
259,162,121431,1,0,0:0:0:0:
259,162,121509,1,0,0:0:0:0:
259,162,121587,1,8,0:0:0:0:
259,162,121743,1,0,0:0:0:0:
259,162,121900,1,12,0:0:0:0:
259,162,122212,1,8,0:0:0:0:
260,156,122368,1,0,0:0:0:0:
260,154,122446,1,0,0:0:0:0:
260,156,122525,1,8,0:0:0:0:
258,153,122603,1,8,0:0:0:0:
260,156,122681,1,0,0:0:0:0:
260,156,122837,1,8,0:0:0:0:
260,156,122993,1,0,0:0:0:0:
260,156,123150,1,8,0:0:0:0:
259,154,123254,1,8,0:0:0:0:
257,151,123358,1,0,0:0:0:0:
260,156,123462,1,8,0:0:0:0:
260,156,123566,1,0,0:0:0:0:
260,153,123670,1,0,0:0:0:0:
260,156,123775,1,8,0:0:0:0:
260,156,123983,1,0,0:0:0:0:
260,156,124087,1,8,0:0:0:0:
258,152,124191,1,0,0:0:0:0:
260,156,124400,1,12,0:0:0:0:
256,160,126900,1,12,0:0:0:0:
256,160,127212,1,8,0:0:0:0:
256,160,127368,1,0,0:0:0:0:
256,160,127446,1,8,0:0:0:0:
256,160,127525,1,0,0:0:0:0:
256,160,127681,1,0,0:0:0:0:
256,160,127837,1,8,0:0:0:0:
256,160,127993,1,8,0:0:0:0:
256,160,128071,1,8,0:0:0:0:
256,160,128150,1,0,0:0:0:0:
256,160,128306,1,0,0:0:0:0:
256,160,128462,1,8,0:0:0:0:
256,160,128775,1,8,0:0:0:0:
256,160,128931,1,0,0:0:0:0:
256,160,129009,1,8,0:0:0:0:
256,160,129165,1,0,0:0:0:0:
256,160,129243,1,8,0:0:0:0:
256,160,129400,1,4,0:0:0:0:
256,160,129712,1,8,0:0:0:0:
256,160,129868,1,8,0:0:0:0:
256,160,129946,1,8,0:0:0:0:
256,160,130025,1,0,0:0:0:0:
256,160,130181,1,0,0:0:0:0:
256,160,130337,1,8,0:0:0:0:
256,160,130493,1,0,0:0:0:0:
256,160,130571,1,0,0:0:0:0:
256,160,130650,1,8,0:0:0:0:
256,160,130806,1,0,0:0:0:0:
256,160,130962,1,8,0:0:0:0:
256,160,131118,1,0,0:0:0:0:
256,160,131196,1,8,0:0:0:0:
256,160,131275,1,0,0:0:0:0:
256,160,131431,1,0,0:0:0:0:
256,160,131587,1,8,0:0:0:0:
256,160,131665,1,8,0:0:0:0:
256,160,131743,1,8,0:0:0:0:
256,160,131821,1,8,0:0:0:0:
256,160,131900,1,0,0:0:0:0:
256,160,132212,1,8,0:0:0:0:
256,160,132368,1,0,0:0:0:0:
256,160,132681,1,0,0:0:0:0:
256,160,132837,1,8,0:0:0:0:
256,160,132993,1,0,0:0:0:0:
256,160,133071,1,0,0:0:0:0:
256,160,133150,1,8,0:0:0:0:
256,160,133306,1,0,0:0:0:0:
256,160,133462,1,8,0:0:0:0:
256,160,133618,1,0,0:0:0:0:
256,160,133696,1,8,0:0:0:0:
256,160,133775,1,0,0:0:0:0:
256,160,133931,1,0,0:0:0:0:
256,160,134087,1,8,0:0:0:0:
256,160,134243,1,8,0:0:0:0:
256,160,134400,1,4,0:0:0:0:
256,160,134712,1,8,0:0:0:0:
256,160,134868,1,8,0:0:0:0:
256,160,135025,1,0,0:0:0:0:
256,160,135181,1,0,0:0:0:0:
256,160,135337,1,8,0:0:0:0:
256,160,135650,1,0,0:0:0:0:
256,160,135806,1,0,0:0:0:0:
256,160,135962,1,12,0:0:0:0:
256,160,136118,1,0,0:0:0:0:
256,160,136275,1,8,0:0:0:0:
256,160,136353,1,8,0:0:0:0:
256,160,136431,1,0,0:0:0:0:
256,160,136509,1,0,0:0:0:0:
256,160,136587,1,8,0:0:0:0:
256,160,136743,1,8,0:0:0:0:
256,160,136900,1,4,0:0:0:0:
256,160,137212,1,8,0:0:0:0:
256,160,137368,1,0,0:0:0:0:
256,160,137446,1,8,0:0:0:0:
256,160,137525,1,0,0:0:0:0:
256,160,137681,1,0,0:0:0:0:
256,160,137837,1,8,0:0:0:0:
256,160,137993,1,8,0:0:0:0:
256,160,138071,1,8,0:0:0:0:
256,160,138150,1,0,0:0:0:0:
256,160,138306,1,0,0:0:0:0:
256,160,138462,1,8,0:0:0:0:
256,160,138775,1,8,0:0:0:0:
256,160,138931,1,0,0:0:0:0:
256,160,139009,1,8,0:0:0:0:
256,160,139165,1,0,0:0:0:0:
256,160,139243,1,0,0:0:0:0:
256,160,139400,1,12,0:0:0:0:
256,160,139712,1,8,0:0:0:0:
256,160,139868,1,0,0:0:0:0:
256,160,139946,1,8,0:0:0:0:
256,160,140025,1,0,0:0:0:0:
256,160,140181,1,0,0:0:0:0:
256,160,140337,1,8,0:0:0:0:
256,160,140493,1,8,0:0:0:0:
256,160,140571,1,8,0:0:0:0:
256,160,140650,1,8,0:0:0:0:
256,160,140806,1,0,0:0:0:0:
256,160,140962,1,8,0:0:0:0:
256,160,141118,1,0,0:0:0:0:
256,160,141196,1,0,0:0:0:0:
256,160,141275,1,0,0:0:0:0:
256,160,141431,1,0,0:0:0:0:
256,160,141587,1,8,0:0:0:0:
256,160,141665,1,8,0:0:0:0:
256,160,141743,1,8,0:0:0:0:
256,160,141821,1,8,0:0:0:0:
256,160,141900,1,0,0:0:0:0:
256,160,142212,1,8,0:0:0:0:
256,160,142368,1,0,0:0:0:0:
256,160,142681,1,0,0:0:0:0:
256,160,142837,1,8,0:0:0:0:
256,160,142993,1,0,0:0:0:0:
256,160,143071,1,0,0:0:0:0:
256,160,143150,1,8,0:0:0:0:
256,160,143306,1,0,0:0:0:0:
256,160,143462,1,8,0:0:0:0:
256,160,143618,1,8,0:0:0:0:
256,160,143775,1,0,0:0:0:0:
256,160,143931,1,0,0:0:0:0:
256,160,144087,1,8,0:0:0:0:
256,160,144165,1,0,0:0:0:0:
256,160,144243,1,8,0:0:0:0:
256,160,144400,1,4,0:0:0:0:
256,160,144712,1,8,0:0:0:0:
256,160,144868,1,8,0:0:0:0:
256,160,145025,1,0,0:0:0:0:
256,160,145181,1,0,0:0:0:0:
256,160,145337,1,8,0:0:0:0:
256,160,145650,1,8,0:0:0:0:
256,160,145806,1,8,0:0:0:0:
256,160,145962,1,0,0:0:0:0:
256,160,146118,1,8,0:0:0:0:
255,157,146196,1,8,0:0:0:0:
256,160,146275,1,0,0:0:0:0:
256,160,146431,1,0,0:0:0:0:
256,160,146587,1,8,0:0:0:0:
256,160,146743,1,8,0:0:0:0:
256,192,146900,1,4,0:0:0:0:
256,192,147056,1,0,0:0:0:0:
256,190,147368,1,0,0:0:0:0:
256,192,147525,1,8,0:0:0:0:
256,192,147837,1,0,0:0:0:0:
256,192,147993,1,0,0:0:0:0:
256,190,148306,1,8,0:0:0:0:
256,192,148462,1,8,0:0:0:0:
256,192,148618,5,0,0:0:0:0:
256,192,148775,1,8,0:0:0:0:
256,192,149087,1,8,0:0:0:0:
256,192,149400,1,0,0:0:0:0:
256,192,149556,1,0,0:0:0:0:
256,192,149868,1,0,0:0:0:0:
256,192,150025,1,8,0:0:0:0:
256,192,150337,1,0,0:0:0:0:
256,192,150493,1,0,0:0:0:0:
252,180,150806,1,0,0:0:0:0:
252,180,150962,1,8,0:0:0:0:
252,180,151275,1,8,0:0:0:0:
252,180,151431,1,8,0:0:0:0:
252,180,151587,1,8,0:0:0:0:
252,180,151743,1,8,0:0:0:0:
252,180,151900,1,0,0:0:0:0:
252,180,152056,1,0,0:0:0:0:
252,180,152368,1,0,0:0:0:0:
252,180,152525,1,8,0:0:0:0:
252,180,152993,1,8,0:0:0:0:
252,180,153150,1,0,0:0:0:0:
252,180,153306,1,8,0:0:0:0:
252,180,153618,1,8,0:0:0:0:
252,180,153775,1,0,0:0:0:0:
258,156,154400,1,12,0:0:0:0:
251,250,156900,1,4,0:0:0:0:
258,154,159400,1,12,0:0:0:0:
251,248,161900,1,4,0:0:0:0:
254,201,163150,1,8,0:0:0:0:
254,201,163306,1,0,0:0:0:0:
254,201,163618,1,0,0:0:0:0:
254,201,163775,1,8,0:0:0:0:
254,201,163931,1,0,0:0:0:0:
254,201,164087,1,0,0:0:0:0:
258,156,164400,1,12,0:0:0:0:
258,156,166587,1,0,0:0:0:0:
251,250,166900,1,4,0:0:0:0:
265,168,169087,1,0,0:0:0:0:
258,154,169400,1,12,0:0:0:0:
258,154,171587,1,0,0:0:0:0:
251,248,171900,1,12,0:0:0:0:
258,154,172056,1,0,0:0:0:0:
258,154,172368,1,0,0:0:0:0:
258,154,172525,1,8,0:0:0:0:
258,154,172681,1,0,0:0:0:0:
258,154,172837,1,0,0:0:0:0:
254,201,173150,1,8,0:0:0:0:
254,201,173306,1,8,0:0:0:0:
252,194,173462,1,0,0:0:0:0:
254,201,173775,1,0,0:0:0:0:
254,201,173931,1,0,0:0:0:0:
254,201,174087,1,0,0:0:0:0:
257,195,174243,1,0,0:0:0:0:
258,156,174400,1,12,0:0:0:0:
258,156,174556,1,0,0:0:0:0:
258,156,174868,1,0,0:0:0:0:
258,156,175025,1,8,0:0:0:0:
258,156,175181,1,0,0:0:0:0:
258,156,175493,1,8,0:0:0:0:
258,156,175650,1,0,0:0:0:0:
258,156,175806,1,8,0:0:0:0:
258,156,176118,1,8,0:0:0:0:
258,156,176275,1,8,0:0:0:0:
258,156,176431,1,0,0:0:0:0:
249,148,176743,1,8,0:0:0:0:
251,250,176900,1,0,0:0:0:0:
248,243,177056,1,8,0:0:0:0:
243,230,177368,1,0,0:0:0:0:
240,223,177525,1,8,0:0:0:0:
237,217,177681,1,8,0:0:0:0:
232,206,177993,1,8,0:0:0:0:
230,201,178150,1,0,0:0:0:0:
228,195,178306,1,8,0:0:0:0:
223,184,178618,1,0,0:0:0:0:
220,177,178775,1,8,0:0:0:0:
217,170,178931,1,8,0:0:0:0:
264,167,179087,1,8,0:0:0:0:
260,162,179243,1,0,0:0:0:0:
258,154,179400,1,12,0:0:0:0:
253,148,179556,1,0,0:0:0:0:
241,145,179868,1,0,0:0:0:0:
235,143,180025,1,8,0:0:0:0:
229,142,180181,1,0,0:0:0:0:
217,139,180493,1,8,0:0:0:0:
211,138,180650,1,0,0:0:0:0:
206,137,180806,1,8,0:0:0:0:
193,134,181118,1,0,0:0:0:0:
186,132,181275,1,8,0:0:0:0:
180,131,181431,1,8,0:0:0:0:
167,128,181743,1,8,0:0:0:0:
161,127,181900,1,0,0:0:0:0:
155,126,182056,1,8,0:0:0:0:
159,116,182368,1,0,0:0:0:0:
161,111,182525,1,8,0:0:0:0:
162,106,182681,1,0,0:0:0:0:
170,98,182993,1,8,0:0:0:0:
174,93,183150,1,0,0:0:0:0:
178,89,183306,1,0,0:0:0:0:
183,77,183618,1,0,0:0:0:0:
183,77,183775,1,8,0:0:0:0:
184,74,183853,1,0,0:0:0:0:
184,74,183931,1,0,0:0:0:0:
184,74,184009,1,0,0:0:0:0:
184,74,184087,1,8,0:0:0:0:
189,71,184243,1,8,0:0:0:0:
191,69,184321,1,8,0:0:0:0:
193,68,184400,1,0,0:0:0:0:
191,56,184712,1,8,0:0:0:0:
191,56,185025,1,0,0:0:0:0:
191,56,185337,1,8,0:0:0:0:
191,56,185650,1,0,0:0:0:0:
191,56,185962,1,8,0:0:0:0:
191,56,186275,1,8,0:0:0:0:
191,56,186353,1,8,0:0:0:0:
191,56,186431,1,8,0:0:0:0:
191,56,186509,1,8,0:0:0:0:
191,56,186587,1,8,0:0:0:0:
191,56,186743,1,8,0:0:0:0:
191,56,186900,1,4,0:0:0:0:
177,55,187212,1,0,0:0:0:0:
170,54,187368,1,0,0:0:0:0:
164,53,187525,1,0,0:0:0:0:
158,53,187681,1,0,0:0:0:0:
151,53,187837,1,0,0:0:0:0:
144,53,187993,1,0,0:0:0:0:
144,53,188150,1,8,0:0:0:0:
144,53,188228,1,8,0:0:0:0:
144,53,188306,1,8,0:0:0:0:
144,53,188384,1,8,0:0:0:0:
144,53,188462,1,0,0:0:0:0:
144,53,188540,1,0,0:0:0:0:
144,53,188618,1,0,0:0:0:0:
144,53,188696,1,0,0:0:0:0:
144,53,188775,1,8,0:0:0:0:
256,160,189400,1,12,0:0:0:0:
256,160,189712,1,8,0:0:0:0:
256,160,189868,1,8,0:0:0:0:
256,160,189946,1,8,0:0:0:0:
256,160,190025,1,0,0:0:0:0:
256,160,190181,1,0,0:0:0:0:
256,160,190337,1,8,0:0:0:0:
256,160,190493,1,0,0:0:0:0:
256,160,190571,1,8,0:0:0:0:
256,160,190650,1,0,0:0:0:0:
256,160,190806,1,0,0:0:0:0:
256,160,190962,1,8,0:0:0:0:
256,160,191275,1,8,0:0:0:0:
256,160,191431,1,0,0:0:0:0:
256,160,191509,1,8,0:0:0:0:
256,160,191665,1,8,0:0:0:0:
256,160,191743,1,8,0:0:0:0:
256,160,191900,1,4,0:0:0:0:
256,160,192212,1,8,0:0:0:0:
256,160,192368,1,8,0:0:0:0:
256,160,192446,1,8,0:0:0:0:
256,160,192525,1,0,0:0:0:0:
256,160,192681,1,0,0:0:0:0:
256,160,192837,1,8,0:0:0:0:
255,157,192915,1,0,0:0:0:0:
256,160,192993,1,8,0:0:0:0:
256,160,193071,1,0,0:0:0:0:
256,160,193150,1,8,0:0:0:0:
256,160,193306,1,0,0:0:0:0:
256,160,193462,1,8,0:0:0:0:
256,160,193540,1,8,0:0:0:0:
256,160,193618,1,8,0:0:0:0:
256,160,193775,1,0,0:0:0:0:
256,160,193931,1,0,0:0:0:0:
256,160,194087,1,8,0:0:0:0:
256,160,194165,1,8,0:0:0:0:
256,160,194243,1,0,0:0:0:0:
256,160,194321,1,0,0:0:0:0:
256,160,194400,1,8,0:0:0:0:
256,160,194712,1,8,0:0:0:0:
256,160,194868,1,0,0:0:0:0:
256,160,195181,1,0,0:0:0:0:
256,160,195337,1,8,0:0:0:0:
256,160,195493,1,0,0:0:0:0:
256,160,195571,1,0,0:0:0:0:
256,160,195650,1,8,0:0:0:0:
256,160,195806,1,0,0:0:0:0:
256,160,195962,1,8,0:0:0:0:
256,160,196118,1,0,0:0:0:0:
256,160,196196,1,8,0:0:0:0:
256,160,196275,1,8,0:0:0:0:
256,160,196431,1,0,0:0:0:0:
255,156,196509,1,0,0:0:0:0:
256,160,196587,1,8,0:0:0:0:
256,160,196743,1,8,0:0:0:0:
256,160,196900,1,4,0:0:0:0:
256,160,197212,1,8,0:0:0:0:
256,160,197368,1,8,0:0:0:0:
256,160,197525,1,0,0:0:0:0:
256,160,197681,1,0,0:0:0:0:
256,160,197837,1,8,0:0:0:0:
256,160,198150,1,0,0:0:0:0:
256,160,198306,1,0,0:0:0:0:
256,160,198462,1,12,0:0:0:0:
256,160,198618,1,0,0:0:0:0:
256,160,198775,1,8,0:0:0:0:
256,160,198853,1,8,0:0:0:0:
256,160,198931,1,0,0:0:0:0:
256,160,199009,1,0,0:0:0:0:
256,160,199087,1,8,0:0:0:0:
256,160,199243,1,8,0:0:0:0:
256,160,199400,1,4,0:0:0:0:
256,160,199712,1,8,0:0:0:0:
256,160,199868,1,8,0:0:0:0:
256,160,199946,1,8,0:0:0:0:
256,160,200025,1,0,0:0:0:0:
256,160,200181,1,0,0:0:0:0:
256,160,200337,1,8,0:0:0:0:
256,160,200493,1,0,0:0:0:0:
256,160,200571,1,8,0:0:0:0:
256,160,200650,1,0,0:0:0:0:
256,160,200806,1,0,0:0:0:0:
256,160,200962,1,8,0:0:0:0:
256,160,201275,1,8,0:0:0:0:
256,160,201431,1,0,0:0:0:0:
256,160,201509,1,8,0:0:0:0:
256,160,201665,1,8,0:0:0:0:
256,160,201743,1,0,0:0:0:0:
256,160,201900,1,12,0:0:0:0:
256,160,202212,1,8,0:0:0:0:
256,160,202368,1,0,0:0:0:0:
256,160,202446,1,8,0:0:0:0:
256,160,202525,1,0,0:0:0:0:
256,160,202681,1,0,0:0:0:0:
256,160,202837,1,8,0:0:0:0:
256,160,202993,1,8,0:0:0:0:
256,160,203071,1,8,0:0:0:0:
256,160,203150,1,8,0:0:0:0:
256,156,203228,1,8,0:0:0:0:
256,160,203306,1,0,0:0:0:0:
256,160,203462,1,8,0:0:0:0:
256,160,203618,1,0,0:0:0:0:
256,160,203696,1,8,0:0:0:0:
256,160,203775,1,0,0:0:0:0:
256,160,203931,1,0,0:0:0:0:
256,160,204087,1,8,0:0:0:0:
256,160,204165,1,8,0:0:0:0:
256,160,204243,1,0,0:0:0:0:
256,160,204321,1,0,0:0:0:0:
256,160,204400,1,8,0:0:0:0:
256,160,204712,1,8,0:0:0:0:
256,160,204868,1,0,0:0:0:0:
256,160,205181,1,0,0:0:0:0:
256,160,205337,1,8,0:0:0:0:
256,160,205493,1,0,0:0:0:0:
256,160,205571,1,0,0:0:0:0:
256,160,205650,1,8,0:0:0:0:
256,160,205806,1,0,0:0:0:0:
256,160,205962,1,8,0:0:0:0:
256,160,206118,1,8,0:0:0:0:
254,157,206196,1,8,0:0:0:0:
256,160,206275,1,0,0:0:0:0:
256,160,206431,1,0,0:0:0:0:
256,160,206587,1,8,0:0:0:0:
256,160,206665,1,0,0:0:0:0:
256,160,206743,1,8,0:0:0:0:
256,160,206900,1,4,0:0:0:0:
256,160,207212,1,8,0:0:0:0:
256,160,207368,1,8,0:0:0:0:
256,160,207525,1,0,0:0:0:0:
256,160,207681,1,0,0:0:0:0:
256,160,207837,1,8,0:0:0:0:
256,160,208150,1,0,0:0:0:0:
256,160,208306,1,0,0:0:0:0:
256,160,208462,1,12,0:0:0:0:
256,160,208618,1,0,0:0:0:0:
256,160,208775,1,8,0:0:0:0:
256,160,208853,1,0,0:0:0:0:
256,160,208931,1,0,0:0:0:0:
256,160,209009,1,0,0:0:0:0:
256,160,209087,1,8,0:0:0:0:
256,160,209243,1,0,0:0:0:0:
256,160,209400,1,12,0:0:0:0:
255,145,209712,1,8,0:0:0:0:
255,145,209868,1,0,0:0:0:0:
255,145,210025,1,8,0:0:0:0:
255,145,210181,1,0,0:0:0:0:
256,139,210259,1,0,0:0:0:0:
255,145,210337,1,8,0:0:0:0:
256,139,210493,1,0,0:0:0:0:
274,136,210650,1,8,0:0:0:0:
274,136,210806,1,0,0:0:0:0:
274,136,210962,1,8,0:0:0:0:
274,136,211118,1,0,0:0:0:0:
274,136,211275,1,8,0:0:0:0:
273,134,211431,1,0,0:0:0:0:
271,130,211509,1,0,0:0:0:0:
274,136,211587,1,8,0:0:0:0:
271,129,211743,1,0,0:0:0:0:
268,123,211900,1,12,0:0:0:0:
263,116,212056,1,0,0:0:0:0:
274,136,212212,1,0,0:0:0:0:
273,134,212368,1,12,0:0:0:0:
271,130,212525,1,0,0:0:0:0:
271,129,212681,1,0,0:0:0:0:
268,123,212837,1,12,0:0:0:0:
263,116,212993,1,12,0:0:0:0:
274,136,213150,1,4,0:0:0:0:
256,160,214400,1,4,0:0:0:0:
256,160,214556,1,0,0:0:0:0:
256,192,214712,1,8,0:0:0:0:
256,192,214868,1,0,0:0:0:0:
256,192,215025,1,8,0:0:0:0:
256,192,215103,1,8,0:0:0:0:
256,192,215181,1,8,0:0:0:0:
256,192,215337,1,0,0:0:0:0:
256,192,215493,1,0,0:0:0:0:
256,192,215571,1,0,0:0:0:0:
256,192,215650,1,8,0:0:0:0:
256,192,215806,1,0,0:0:0:0:
256,192,215962,1,8,0:0:0:0:
256,192,216275,1,0,0:0:0:0:
256,192,216431,1,8,0:0:0:0:
256,192,216587,1,8,0:0:0:0:
256,192,216665,1,8,0:0:0:0:
256,192,216743,1,8,0:0:0:0:
256,192,216900,1,0,0:0:0:0:
256,192,217056,1,0,0:0:0:0:
256,192,217212,1,8,0:0:0:0:
256,192,217368,1,0,0:0:0:0:
256,192,217446,1,0,0:0:0:0:
256,192,217525,1,8,0:0:0:0:
256,192,217681,1,0,0:0:0:0:
256,192,217837,1,8,0:0:0:0:
256,192,217993,1,8,0:0:0:0:
256,192,218071,1,0,0:0:0:0:
256,192,218150,1,8,0:0:0:0:
256,192,218306,1,0,0:0:0:0:
256,192,218462,1,8,0:0:0:0:
256,192,218775,1,8,0:0:0:0:
256,192,218853,1,8,0:0:0:0:
256,192,218931,1,0,0:0:0:0:
256,192,219087,1,8,0:0:0:0:
256,192,219165,1,8,0:0:0:0:
256,192,219243,1,8,0:0:0:0:
256,192,219321,1,8,0:0:0:0:
256,160,219400,1,0,0:0:0:0:
256,192,219556,1,0,0:0:0:0:
256,192,219712,1,8,0:0:0:0:
256,192,219868,1,0,0:0:0:0:
256,192,220025,1,8,0:0:0:0:
256,192,220103,1,8,0:0:0:0:
256,192,220181,1,8,0:0:0:0:
256,192,220337,1,0,0:0:0:0:
256,192,220493,1,0,0:0:0:0:
256,192,220571,1,0,0:0:0:0:
256,192,220650,1,8,0:0:0:0:
256,192,220806,1,0,0:0:0:0:
256,192,220962,1,8,0:0:0:0:
256,192,221275,1,0,0:0:0:0:
256,192,221431,1,8,0:0:0:0:
256,192,221587,1,8,0:0:0:0:
256,192,221665,1,8,0:0:0:0:
256,192,221743,1,8,0:0:0:0:
256,192,221900,1,0,0:0:0:0:
256,192,222056,1,0,0:0:0:0:
256,192,222212,1,8,0:0:0:0:
256,192,222368,1,0,0:0:0:0:
256,192,222446,1,0,0:0:0:0:
256,192,222525,1,8,0:0:0:0:
256,192,222681,1,0,0:0:0:0:
256,192,222837,1,8,0:0:0:0:
256,192,222993,1,0,0:0:0:0:
256,192,223071,1,0,0:0:0:0:
256,192,223150,1,8,0:0:0:0:
256,192,223228,1,8,0:0:0:0:
256,192,223306,1,0,0:0:0:0:
256,192,223462,1,8,0:0:0:0:
256,192,223618,1,0,0:0:0:0:
256,192,223775,1,8,0:0:0:0:
256,192,223931,1,8,0:0:0:0:
256,192,224400,1,12,0:0:0:0:
256,192,224712,1,0,0:0:0:0:
256,192,224868,1,12,0:0:0:0:
256,192,225181,1,0,0:0:0:0:
256,192,225337,1,12,0:0:0:0:
256,192,225493,1,0,0:0:0:0:
256,192,225650,1,0,0:0:0:0:
256,192,225806,1,12,0:0:0:0:
256,192,226118,1,0,0:0:0:0:
256,192,226275,1,12,0:0:0:0:
256,192,226431,1,0,0:0:0:0:
256,192,226587,1,12,0:0:0:0:
256,192,226900,1,12,0:0:0:0:
256,192,227212,1,0,0:0:0:0:
256,192,227368,1,12,0:0:0:0:
256,192,227681,1,0,0:0:0:0:
256,192,227837,1,12,0:0:0:0:
256,192,227993,1,0,0:0:0:0:
256,192,228150,1,0,0:0:0:0:
256,192,228306,1,12,0:0:0:0:
256,192,228618,1,0,0:0:0:0:
256,192,228775,1,8,0:0:0:0:
255,190,228853,1,0,0:0:0:0:
255,191,228931,1,0,0:0:0:0:
253,187,229009,1,0,0:0:0:0:
256,192,229087,1,8,0:0:0:0:
256,192,229400,1,12,0:0:0:0:
256,192,229556,1,0,0:0:0:0:
255,189,229634,1,0,0:0:0:0:
256,192,229712,1,8,0:0:0:0:
256,192,229868,1,0,0:0:0:0:
256,192,230025,1,8,0:0:0:0:
256,192,230181,1,0,0:0:0:0:
256,192,230337,1,8,0:0:0:0:
256,192,230493,1,0,0:0:0:0:
255,188,230571,1,0,0:0:0:0:
256,192,230650,1,8,0:0:0:0:
256,192,230806,1,0,0:0:0:0:
256,192,230962,1,8,0:0:0:0:
256,192,231118,1,0,0:0:0:0:
256,192,231275,1,8,0:0:0:0:
256,192,231431,1,0,0:0:0:0:
255,188,231509,1,0,0:0:0:0:
256,192,231587,1,8,0:0:0:0:
256,192,231900,1,12,0:0:0:0:
256,192,232056,1,0,0:0:0:0:
254,188,232134,1,0,0:0:0:0:
256,192,232212,1,8,0:0:0:0:
256,192,232368,1,0,0:0:0:0:
256,192,232525,1,8,0:0:0:0:
254,188,232603,1,8,0:0:0:0:
256,192,232681,1,0,0:0:0:0:
256,192,232837,1,12,0:0:0:0:
256,192,233150,1,0,0:0:0:0:
256,192,233306,1,0,0:0:0:0:
256,192,233462,1,0,0:0:0:0:
256,192,233618,1,0,0:0:0:0:
256,192,233775,1,8,0:0:0:0:
256,192,233931,1,0,0:0:0:0:
255,189,234009,1,0,0:0:0:0:
256,192,234087,1,8,0:0:0:0:
256,192,234243,1,8,0:0:0:0:
