osu file format v14

[General]
AudioFilename: audio.mp3
AudioLeadIn: 0
PreviewTime: 38592
Countdown: 0
SampleSet: Soft
StackLeniency: 0.2
Mode: 0
LetterboxInBreaks: 0
WidescreenStoryboard: 0

[Editor]
Bookmarks: 3810,7288,10766,11636,12505,13375,13701,14244,14679,15114,15983,16853,17179,17723,18157,18375,18592,19027,19244,19462,19896,20114,20331,20766,20983,21201,21636,21853,22070,22505,22940,24679,38592,45549,52505,66418,80331,82940,83809,84679,85549,86418,87179,87288,87396,87723,89027,90766,91636,92505,93375,93483,93592,93701,93809,94027,94136,94244,96853,97723,98592,99462,100331,100983,108157
DistanceSpacing: 1
BeatDivisor: 4
GridSize: 4
TimelineZoom: 1.8

[Metadata]
Title:A Fool Moon Night (TV Size)
TitleUnicode:A Fool Moon Night (TV Size)
Artist:The Koxx
ArtistUnicode:The Koxx
Creator:Otaku_Gamer_45
Version:the moon never screams, only whispers during the palest of storms
Source:
Tags:
BeatmapID:1962045
BeatmapSetID:939344

[Difficulty]
HPDrainRate:0
CircleSize:3.8
OverallDifficulty:9
ApproachRate:9.5
SliderMultiplier:2
SliderTickRate:1

[Events]
//Background and Video events
0,0,"vibe.jpg",0,0
//Break Periods
//Storyboard Layer 0 (Background)
//Storyboard Layer 1 (Fail)
//Storyboard Layer 2 (Pass)
//Storyboard Layer 3 (Foreground)
//Storyboard Sound Samples

[TimingPoints]
3375,434.782608695652,4,2,0,50,1,0
3810,434.782608695652,4,2,0,50,1,0
3810,-200,4,2,0,50,0,0
4136,-133.333333333333,4,2,0,50,0,0
4462,-50,4,2,0,50,0,0
4679,-200,4,2,0,50,0,0
5005,-133.333333333333,4,2,0,50,0,0
5331,-50,4,2,0,50,0,0
5549,-200,4,2,0,50,0,0
5875,-133.333333333333,4,2,0,50,0,0
6201,-50,4,2,0,50,0,0
6418,-200,4,2,0,50,0,0
6744,-133.333333333333,4,2,0,50,0,0
7070,-50,4,2,0,50,0,0
7288,-200,4,2,0,50,0,0
7614,-133.333333333333,4,2,0,50,0,0
7940,-50,4,2,0,50,0,0
8157,-200,4,2,0,50,0,0
8483,-133.333333333333,4,2,0,50,0,0
8809,-50,4,2,0,50,0,0
9027,-200,4,2,0,50,0,0
9353,-133.333333333333,4,2,0,50,0,0
9679,-50,4,2,0,50,0,0
9896,-200,4,2,0,50,0,0
10222,-133.333333333333,4,2,0,50,0,0
10548,-50,4,2,0,50,0,0
10766,-200,4,2,0,55,0,0
11092,-133.333333333333,4,2,0,55,0,0
11418,-50,4,2,0,55,0,0
11636,-200,4,2,0,55,0,0
11962,-133.333333333333,4,2,0,55,0,0
12288,-50,4,2,0,55,0,0
12505,-200,4,2,0,55,0,0
12831,-133.333333333333,4,2,0,55,0,0
13157,-50,4,2,0,55,0,0
13375,-200,4,2,0,55,0,0
13701,-133.333333333333,4,2,0,55,0,0
14027,-50,4,2,0,55,0,0
14244,-200,4,2,0,55,0,0
14679,-66.6666666666667,4,2,0,55,0,0
14896,-50,4,2,0,55,0,0
15114,-200,4,2,0,55,0,0
15440,-133.333333333333,4,2,0,55,0,0
15766,-50,4,2,0,55,0,0
15983,-200,4,2,0,55,0,0
16309,-133.333333333333,4,2,0,55,0,0
16635,-50,4,2,0,55,0,0
16853,-200,4,2,0,55,0,0
17179,-133.333333333333,4,2,0,55,0,0
17505,-50,4,2,0,55,0,0
17723,-133.333333333333,4,2,0,60,0,0
18157,-57.1428571428571,4,2,0,60,0,0
18375,-44.4444444444445,4,2,0,60,0,0
18592,-133.333333333333,4,2,0,60,0,0
19026,-57.1428571428571,4,2,0,60,0,0
19244,-44.4444444444445,4,2,0,60,0,0
19462,-133.333333333333,4,2,0,60,0,0
19896,-57.1428571428571,4,2,0,60,0,0
20114,-44.4444444444445,4,2,0,60,0,0
20331,-133.333333333333,4,2,0,60,0,0
20765,-57.1428571428571,4,2,0,60,0,0
20983,-44.4444444444445,4,2,0,60,0,0
21201,-100,4,2,0,65,0,0
21527,-43.4782608695652,4,2,0,65,0,0
21853,-37.7358490566038,4,2,0,65,0,0
22070,-80,4,2,0,65,0,0
22396,-36.3636363636364,4,2,0,65,0,0
22723,-30.7692307692308,4,2,0,65,0,0
22940,-30.7692307692308,4,2,0,5,0,1
22967,-30.7692307692308,4,2,0,5,0,0
23809,-100,4,2,0,50,0,0
24027,-66.6666666666667,4,2,0,50,0,0
24353,-125,4,2,0,50,0,0
24679,-125,4,2,0,50,0,0
25114,-33.3333333333333,4,2,0,50,0,0
25549,-125,4,2,0,50,0,0
25983,-30.7692307692308,4,2,0,50,0,0
26418,-125,4,2,0,50,0,0
26853,-28.5714285714286,4,2,0,50,0,0
27288,-125,4,2,0,50,0,0
27723,-30.7692307692308,4,2,0,50,0,0
28157,-125,4,2,0,50,0,0
28592,-30.7692307692308,4,2,0,50,0,0
29027,-125,4,2,0,50,0,0
29462,-30.7692307692308,4,2,0,50,0,0
29896,-125,4,2,0,50,0,0
30331,-30.7692307692308,4,2,0,50,0,0
30766,-125,4,2,0,50,0,0
31201,-30.7692307692308,4,2,0,50,0,0
31636,-125,4,2,0,50,0,0
32070,-30.7692307692308,4,2,0,50,0,0
32505,-125,4,2,0,50,0,0
32940,-30.7692307692308,4,2,0,50,0,0
33375,-125,4,2,0,50,0,0
33809,-30.7692307692308,4,2,0,50,0,0
34244,-125,4,2,0,50,0,0
34679,-30.7692307692308,4,2,0,50,0,0
35114,-125,4,2,0,50,0,0
35549,-30.7692307692308,4,2,0,50,0,0
35983,-125,4,2,0,50,0,0
36418,-30.7692307692308,4,2,0,50,0,0
36853,-125,4,2,0,50,0,0
37288,-30.7692307692308,4,2,0,50,0,0
38592,-30.7692307692308,4,2,0,40,0,0
45549,-30.7692307692308,4,2,0,45,0,0
52505,-333.333333333333,4,2,0,50,0,0
53375,-100,4,2,0,50,0,0
53809,-30.7692307692308,4,2,0,50,0,0
54244,-125,4,2,0,50,0,0
54679,-30.7692307692308,4,2,0,50,0,0
55114,-125,4,2,0,50,0,0
55549,-30.7692307692308,4,2,0,50,0,0
55983,-125,4,2,0,50,0,0
56418,-30.7692307692308,4,2,0,50,0,0
56853,-125,4,2,0,50,0,0
57288,-30.7692307692308,4,2,0,50,0,0
57723,-125,4,2,0,50,0,0
58157,-30.7692307692308,4,2,0,50,0,0
58592,-125,4,2,0,50,0,0
59027,-30.7692307692308,4,2,0,50,0,0
59462,-125,4,2,0,50,0,0
59896,-30.7692307692308,4,2,0,50,0,0
60331,-125,4,2,0,50,0,0
60766,-30.7692307692308,4,2,0,50,0,0
61201,-125,4,2,0,50,0,0
61636,-30.7692307692308,4,2,0,50,0,0
62070,-125,4,2,0,50,0,0
62505,-30.7692307692308,4,2,0,50,0,0
62940,-125,4,2,0,55,0,0
63375,-30.7692307692308,4,2,0,55,0,0
63809,-100,4,2,0,60,0,0
64244,-28.5714285714286,4,2,0,60,0,0
64679,-83.3333333333333,4,2,0,65,0,0
65114,-26.6666666666667,4,2,0,65,0,0
66418,-83.3333333333333,4,2,0,65,0,0
66853,-30.7692307692308,4,2,0,65,0,0
67070,-83.3333333333333,4,2,0,65,0,0
67723,-30.7692307692308,4,2,0,65,0,0
69027,-83.3333333333333,4,2,0,65,0,0
70766,-142.857142857143,4,2,0,65,0,0
71201,-36.3636363636364,4,2,0,65,0,0
71636,-83.3333333333333,4,2,0,65,0,0
72505,-142.857142857143,4,2,0,65,0,0
72940,-36.3636363636364,4,2,0,65,0,0
73375,-83.3333333333333,4,2,0,65,0,0
73809,-30.7692307692308,4,2,0,65,0,0
74244,-83.3333333333333,4,2,0,65,0,0
74679,-30.7692307692308,4,2,0,65,0,0
75223,-30.7692307692308,4,2,0,65,0,0
75440,-30.7692307692308,4,2,0,65,0,0
76418,-30.7692307692308,4,2,0,65,0,0
76853,-83.3333333333333,4,2,0,65,0,0
77723,-142.857142857143,4,2,0,65,0,0
78157,-36.3636363636364,4,2,0,65,0,0
78592,-83.3333333333333,4,2,0,65,0,0
79462,-133.333333333333,4,2,0,65,0,0
79896,-30.7692307692308,4,2,0,65,0,0
80331,-66.6666666666667,4,2,0,75,0,0
82940,-62.5,4,2,0,75,0,0
83809,-66.6666666666667,4,2,0,75,0,0
84679,-76.9230769230769,4,2,0,75,0,0
85549,-83.3333333333333,4,2,0,75,0,0
86418,-90.9090909090909,4,2,0,75,0,0
87179,-125,4,2,0,75,0,0
89027,-166.666666666667,4,2,0,75,0,0
90766,-250,4,2,0,75,0,0
91636,-200,4,2,0,75,0,0
92505,-166.666666666667,4,2,0,75,0,0
93375,-100,4,2,0,75,0,0
94027,-66.6666666666667,4,2,0,75,0,0
96853,-62.5,4,2,0,75,0,0
97723,-66.6666666666667,4,2,0,75,0,0
98592,-76.9230769230769,4,2,0,75,0,0
99462,-83.3333333333333,4,2,0,75,0,0
100331,-100,4,2,0,75,0,0
100657,-111.111111111111,4,2,0,75,0,0
100983,-55.5555555555556,4,2,0,75,0,0

[HitObjects]
225,161,3592,5,0,0:0:0:0:
219,234,3701,1,0,0:0:0:0:
210,357,3810,2,0,L|213:307,1,50,4|0,2:1|0:0,0:0:0:0:
138,350,4136,2,0,L|145:262,1,75.0000028610231
66,343,4462,2,0,L|75:232,1,100
210,357,4679,2,0,L|214:301,1,50
138,350,5005,2,0,L|145:262,1,75.0000028610231
66,343,5331,2,0,L|75:232,1,100
210,357,5549,2,0,L|214:301,1,50
138,350,5875,2,0,L|145:262,1,75.0000028610231
66,343,6201,2,0,L|75:232,1,100
210,357,6418,2,0,L|214:301,1,50
138,350,6744,2,0,L|145:262,1,75.0000028610231
287,161,7070,1,0,0:0:0:0:
293,234,7179,1,0,0:0:0:0:
302,357,7288,6,0,L|298:307,1,50,4|0,2:1|0:0,0:0:0:0:
374,350,7614,2,0,L|367:262,1,75.0000028610231
446,343,7940,2,0,L|437:232,1,100
302,357,8157,2,0,L|298:301,1,50
374,350,8483,2,0,L|367:262,1,75.0000028610231
446,343,8809,2,0,L|437:232,1,100
302,357,9027,2,0,L|298:301,1,50
374,350,9353,2,0,L|367:262,1,75.0000028610231
446,343,9679,2,0,L|437:232,1,100
302,357,9896,2,0,L|298:301,1,50
374,350,10222,2,0,L|367:262,1,75.0000028610231
225,161,10549,1,0,0:0:0:0:
219,234,10658,1,0,0:0:0:0:
210,357,10767,6,0,L|213:307,1,50,4|0,2:1|0:0,0:0:0:0:
138,350,11092,2,0,L|145:262,1,75.0000028610231
66,343,11418,2,0,L|75:232,1,100
302,357,11636,6,0,L|298:307,1,50,4|0,2:1|0:0,0:0:0:0:
374,350,11962,2,0,L|367:262,1,75.0000028610231
446,343,12288,2,0,L|437:232,1,100
210,357,12505,6,0,L|213:307,1,50,4|0,2:1|0:0,0:0:0:0:
138,350,12831,2,0,L|145:262,1,75.0000028610231
66,343,13157,2,0,L|75:232,1,100
302,357,13375,6,0,L|298:307,1,50,4|0,2:1|0:0,0:0:0:0:
138,350,13701,2,0,L|145:262,1,75.0000028610231
66,343,14027,2,0,L|74:243,1,100
302,357,14244,6,0,L|298:307,1,50,4|0,2:1|0:0,0:0:0:0:
150,202,14570,1,0,0:0:0:0:
138,350,14679,2,0,L|143:275,1,75.0000028610231,4|0,2:1|0:0,0:0:0:0:
66,343,14896,2,0,L|74:243,1,100
302,357,15114,6,0,L|298:307,1,50,4|0,2:1|0:0,0:0:0:0:
374,350,15440,2,0,L|368:275,1,75.0000028610231
446,343,15766,2,0,L|437:243,1,100
210,357,15983,6,0,L|213:307,1,50,4|0,2:1|0:0,0:0:0:0:
138,350,16309,2,0,L|145:262,1,75.0000028610231
66,343,16635,2,0,L|75:232,1,100
302,357,16853,6,0,L|298:307,1,50,4|0,2:1|0:0,0:0:0:0:
138,350,17179,2,0,L|145:262,1,75.0000028610231
446,343,17505,2,0,L|437:243,1,100
210,357,17723,6,0,L|214:282,1,75.0000028610231,4|0,2:1|0:0,0:0:0:0:
361,190,18049,1,0,0:0:0:0:
374,350,18157,2,0,L|367:262,1,87.500000834465,4|0,2:1|0:0,0:0:0:0:
66,343,18375,2,0,L|76:230,1,112.500004291535
302,357,18592,6,0,L|297:281,1,75.0000028610231,4|0,2:1|0:0,0:0:0:0:
151,190,18918,1,0,0:0:0:0:
138,350,19027,2,0,L|145:262,1,87.500000834465,4|0,2:1|0:0,0:0:0:0:
446,343,19244,2,0,L|436:230,1,112.500004291535
210,357,19462,6,0,L|214:282,1,75.0000028610231,4|0,2:1|0:0,0:0:0:0:
361,190,19788,1,0,0:0:0:0:
374,350,19896,2,0,L|367:262,1,87.500000834465,4|0,2:1|0:0,0:0:0:0:
66,343,20114,2,0,L|76:230,1,112.500004291535
302,357,20331,6,0,L|297:281,1,75.0000028610231,4|0,2:1|0:0,0:0:0:0:
151,190,20657,1,0,0:0:0:0:
138,350,20766,2,0,L|145:262,1,87.500000834465,4|0,2:1|0:0,0:0:0:0:
446,343,20983,2,0,L|436:231,1,112.500004291535
210,357,21201,6,0,L|216:257,1,100,4|0,2:1|0:0,0:0:0:0:
358,162,21527,1,0,0:0:0:0:
374,350,21636,2,0,L|364:232,1,115.000002193451,4|0,2:1|0:0,0:0:0:0:
66,343,21853,2,0,L|78:206,1,132.500005559922
302,357,22070,6,0,L|293:222,1,125,4|0,2:1|0:0,0:0:0:0:
153,140,22396,1,0,0:0:0:0:
138,350,22505,2,0,L|148:212,1,137.500001311302,4|0,2:1|0:0,0:0:0:0:
446,343,22723,2,0,L|431:181,1,162.500004649162
210,357,22940,5,0,2:2:0:0:
112,153,23809,5,0,3:0:0:0:
144,162,23882,1,0,3:0:0:0:
172,147,23953,1,0,3:0:0:0:
210,114,24027,1,0,3:0:0:0:
162,102,24099,1,0,3:0:0:0:
113,108,24171,1,0,3:0:0:0:
70,132,24244,1,0,3:0:0:0:
476,203,24679,6,0,P|423:175|364:170,1,120,2|0,0:0|0:0,0:0:0:0:
235,230,25114,2,0,B|193:200|193:200|288:178,1,150.000005722046,2|0,1:2|0:0,0:0:0:0:
332,240,25331,1,2,0:0:0:0:
135,342,25549,2,0,P|89:303|63:250,1,120,2|0,0:0|0:0,0:0:0:0:
91,30,25983,2,0,B|43:94|43:94|45:177,1,162.500004649162,2|0,1:2|0:0,0:0:0:0:
117,198,26201,1,2,0:0:0:0:
488,129,26418,6,0,P|459:102|424:85,1,80
350,75,26744,1,2,0:0:0:0:
124,124,26853,2,0,B|163:75|163:75|275:72,1,175.00000166893,0|0,1:0|0:0,0:0:0:0:
311,138,27070,1,2,0:0:0:0:
327,368,27288,2,0,P|267:359|216:329,1,120,2|0,0:0|0:0,0:0:0:0:
236,147,27723,2,0,B|245:206|245:206|282:233|282:233|290:289,1,162.500004649162,2|0,1:2|0:0,0:0:0:0:
449,202,28157,6,0,P|429:145|390:100,1,120,2|0,0:0|0:0,0:0:0:0:
220,62,28592,2,0,B|211:20|211:20|323:61,1,162.500004649162,2|0,1:2|0:0,0:0:0:0:
325,141,28809,1,2,0:0:0:0:
193,280,29027,2,0,P|136:260|91:220,1,120,2|0,0:0|0:0,0:0:0:0:
82,4,29462,2,0,B|42:73|42:73|54:155,1,162.500004649162,2|0,1:2|0:0,0:0:0:0:
128,156,29679,1,2,0:0:0:0:
489,75,29896,6,0,P|455:52|417:41,1,80
343,34,30223,1,2,0:0:0:0:
122,83,30331,2,0,B|166:44|166:44|275:35,1,162.500004649162,0|0,1:0|0:0,0:0:0:0:
308,99,30549,1,2,0:0:0:0:
193,280,30766,1,2,0:0:0:0:
91,220,30983,1,0,0:0:0:0:
285,167,31201,1,2,1:2:0:0:
387,227,31418,1,0,0:0:0:0:
162,359,31636,6,0,P|125:310|110:252,1,120,2|0,0:0|0:0,0:0:0:0:
179,96,32070,2,0,B|150:65|150:65|119:180,1,162.500004649162,2|0,1:2|0:0,0:0:0:0:
180,224,32288,1,2,0:0:0:0:
391,278,32505,2,0,P|395:218|377:161,1,120,2|0,0:0|0:0,0:0:0:0:
209,7,32940,2,0,B|284:31|284:31|330:100,1,162.500004649162,2|0,1:2|0:0,0:0:0:0:
304,170,33157,1,2,0:0:0:0:
62,357,33375,6,0,P|46:318|43:279,1,80
52,206,33701,1,2,0:0:0:0:
213,51,33809,2,0,B|123:90|123:90|81:138,1,162.500004649162,0|0,1:0|0:0,0:0:0:0:
126,198,34027,1,2,0:0:0:0:
273,367,34244,2,0,P|309:318|323:260,1,120,2|0,0:0|0:0,0:0:0:0:
181,146,34679,2,0,B|216:194|216:194|209:239|209:239|243:284,1,162.500004649162,2|0,1:2|0:0,0:0:0:0:
497,206,35114,6,0,P|437:199|386:169,1,120,2|0,0:0|0:0,0:0:0:0:
322,27,35549,2,0,B|267:32|267:32|334:115,1,162.500004649162,2|0,1:2|0:0,0:0:0:0:
407,98,35766,1,2,0:0:0:0:
191,26,35983,2,0,P|139:56|103:103,1,120,2|0,0:0|0:0,0:0:0:0:
128,325,36418,2,0,B|83:260|83:260|90:178,1,162.500004649162,2|0,1:2|0:0,0:0:0:0:
161,153,36636,1,2,0:0:0:0:
484,144,36853,6,0,P|468:180|442:211,1,80
383,256,37179,1,2,0:0:0:0:
160,240,37288,2,0,B|246:285|246:285|314:276,1,162.500004649162,0|0,1:0|0:0,0:0:0:0:
330,205,37505,1,2,0:0:0:0:
336,36,37723,5,2,1:2:0:0:
261,20,37831,1,0,1:2:0:0:
188,44,37941,1,0,1:2:0:0:
137,99,38049,1,0,1:2:0:0:
119,172,38157,1,2,1:2:0:0:
194,188,38265,1,0,1:2:0:0:
267,164,38375,1,0,1:2:0:0:
318,109,38483,1,0,1:2:0:0:
336,36,38591,5,2,0:0:0:0:
504,192,39027,1,2,0:0:0:0:
432,254,39244,1,2,0:0:0:0:
360,316,39462,1,2,0:0:0:0:
360,316,39679,1,0,0:0:0:0:
292,130,39896,1,2,0:0:0:0:
220,192,40114,1,2,0:0:0:0:
220,0,40657,1,2,0:0:0:0:
148,62,40983,1,2,0:0:0:0:
76,124,41201,1,2,0:0:0:0:
76,124,41418,1,0,0:0:0:0:
4,192,41636,1,2,0:0:0:0:
4,384,42070,5,2,0:0:0:0:
4,192,42505,1,2,0:0:0:0:
76,254,42722,1,2,0:0:0:0:
148,316,42940,1,2,0:0:0:0:
148,316,43157,1,0,0:0:0:0:
220,128,43374,1,2,0:0:0:0:
292,192,43592,1,2,0:0:0:0:
288,0,44135,1,2,0:0:0:0:
360,62,44461,1,2,0:0:0:0:
432,124,44679,1,2,0:0:0:0:
432,124,44896,1,0,0:0:0:0:
504,192,45114,1,2,0:0:0:0:
504,384,45549,5,2,0:0:0:0:
504,192,45983,1,2,0:0:0:0:
432,254,46200,1,2,0:0:0:0:
360,316,46418,1,2,0:0:0:0:
360,316,46635,1,0,0:0:0:0:
292,130,46852,1,2,0:0:0:0:
220,192,47070,1,2,0:0:0:0:
220,192,47288,1,0,0:0:0:0:
220,0,47613,1,2,0:0:0:0:
220,0,47723,1,0,0:0:0:0:
148,62,47939,1,2,0:0:0:0:
76,124,48157,1,2,0:0:0:0:
76,124,48374,1,0,0:0:0:0:
4,192,48592,1,2,0:0:0:0:
4,384,49026,5,2,0:0:0:0:
4,192,49461,1,2,0:0:0:0:
76,254,49678,1,2,0:0:0:0:
148,316,49896,1,2,0:0:0:0:
148,316,50113,1,0,0:0:0:0:
220,128,50330,1,2,0:0:0:0:
292,192,50548,1,2,0:0:0:0:
292,192,50766,1,0,0:0:0:0:
288,0,51091,1,2,0:0:0:0:
360,62,51417,1,2,0:0:0:0:
432,124,51635,1,2,3:2:0:0:
432,124,51744,1,0,3:2:0:0:
432,124,51852,1,0,3:2:0:0:
432,124,51962,1,0,3:2:0:0:
504,192,52070,5,2,3:2:0:0:
360,316,52505,6,0,L|394:286,2,44.999998626709
128,368,53375,6,0,P|62:328|25:262,1,150,2|0,0:0|0:0,0:0:0:0:
91,114,53809,2,0,B|43:85|43:85|26:191,1,162.500004649162,2|0,1:2|0:0,0:0:0:0:
91,230,54027,1,2,0:0:0:0:
422,97,54244,6,0,P|397:65|365:43,1,80
292,22,54570,1,2,0:0:0:0:
91,114,54679,2,0,B|140:47|140:47|217:27,1,162.500004649162,0|0,1:2|0:0,0:0:0:0:
258,90,54896,1,2,0:0:0:0:
240,346,55114,2,0,P|182:326|137:288,1,120,2|0,0:0|0:0,0:0:0:0:
188,112,55549,2,0,B|186:171|186:171|218:204|218:204|216:261,1,162.500004649162,2|0,1:2|0:0,0:0:0:0:
314,257,55983,6,0,P|311:197|333:141,1,120,2|0,0:0|0:0,0:0:0:0:
486,69,56418,2,0,B|463:16|463:16|383:82,1,162.500004649162,2|0,1:2|0:0,0:0:0:0:
407,153,56636,1,2,0:0:0:0:
254,36,56853,2,0,P|196:51|149:88,1,120,2|0,0:0|0:0,0:0:0:0:
78,303,57288,2,0,B|66:221|66:221|106:152,1,162.500004649162,2|0,1:2|0:0,0:0:0:0:
180,157,57505,1,2,0:0:0:0:
493,277,57723,6,0,P|461:301|424:316,1,80
350,317,58049,1,2,0:0:0:0:
143,236,58157,2,0,B|173:286|173:286|276:306,1,162.500004649162,0|0,1:0|0:0,0:0:0:0:
324,248,58375,1,2,0:0:0:0:
161,111,58592,1,2,0:0:0:0:
59,171,58809,1,0,0:0:0:0:
253,224,59027,1,2,1:2:0:0:
355,164,59244,1,0,0:0:0:0:
177,26,59462,6,0,P|124:53|86:100,1,120,2|0,0:0|0:0,0:0:0:0:
99,259,59896,2,0,B|46:278|46:278|65:174,1,162.500004649162,2|0,1:2|0:0,0:0:0:0:
138,155,60114,1,2,0:0:0:0:
395,224,60331,2,0,P|362:274|313:308,1,120,2|0,0:0|0:0,0:0:0:0:
99,259,60766,2,0,B|157:313|157:313|239:320,1,162.500004649162,2|0,1:2|0:0,0:0:0:0:
266,250,60983,1,2,0:0:0:0:
499,146,61201,6,0,P|480:110|452:81,1,80
395,36,61527,1,2,0:0:0:0:
177,26,61636,2,0,B|222:-9|222:-9|326:8,1,162.500004649162,0|0,1:0|0:0,0:0:0:0:
337,82,61853,1,2,0:0:0:0:
208,162,62070,1,2,0:0:0:0:
195,139,62288,1,0,0:0:0:0:
352,234,62505,1,2,1:2:0:0:
365,257,62723,1,0,0:0:0:0:
169,322,62940,6,0,P|114:297|73:254,1,120,2|2,0:0|0:0,0:0:0:0:
88,35,63375,2,0,B|43:100|43:100|49:182,1,162.500004649162,0|0,1:0|0:0,0:0:0:0:
123,198,63592,1,2,0:0:0:0:
179,349,63809,6,0,P|111:318|59:264,1,150,2|2,0:0|0:0,0:0:0:0:
75,17,64244,2,0,B|27:87|27:87|33:176,1,175.00000166893,0|0,1:0|0:0,0:0:0:0:
123,198,64461,1,2,0:0:0:0:
186,378,64679,6,0,P|106:339|45:274,1,179.999994506836,2|2,0:0|0:0,0:0:0:0:
62,0,65114,2,0,B|11:76|11:76|18:171,1,187.500004470348,0|0,1:0|0:0,0:0:0:0:
123,198,65331,1,0,0:0:0:0:
350,190,65549,5,2,1:2:0:0:
330,114,65657,1,0,1:2:0:0:
276,54,65766,1,0,1:2:0:0:
203,32,65875,1,0,1:2:0:0:
128,46,65983,1,2,1:2:0:0:
146,123,66091,1,0,1:2:0:0:
199,180,66201,1,0,1:2:0:0:
272,202,66309,1,0,1:2:0:0:
350,190,66418,6,0,P|335:246|287:279,1,119.999996337891,2|0,0:0|0:0,0:0:0:0:
211,277,66744,1,2,0:0:0:0:
14,186,66853,2,0,B|79:169|79:169|159:223,1,162.500004649162,0|0,1:2|0:0,0:0:0:0:
137,296,67070,1,2,0:0:0:0:
163,86,67288,2,0,P|212:54|270:62,1,119.999996337891,2|0,0:0|0:0,0:0:0:0:
320,121,67614,1,2,0:0:0:0:
475,276,67723,2,0,B|399:255|399:255|350:190,1,162.500004649162,0|0,1:2|0:0,0:0:0:0:
395,131,67940,1,2,0:0:0:0:
317,338,68157,5,2,0:0:0:0:
208,148,68266,2,0,B|200:214|200:214|262:286,1,162.500004649162,0|0,1:0|0:0,0:0:0:0:
297,357,68483,1,2,0:0:0:0:
188,167,68592,2,0,B|180:233|180:233|242:305,1,162.500004649162,0|0,1:0|0:0,0:0:0:0:
277,376,68809,1,2,0:0:0:0:
248,110,69027,1,2,0:0:0:0:
108,243,69244,1,2,0:0:0:0:
337,319,69462,1,2,1:2:0:0:
477,186,69679,1,2,0:0:0:0:
282,229,69896,6,0,P|253:235|223:233,1,59.9999981689454,2|0,0:2|0:0,0:0:0:0:
62,184,70114,1,0,1:0:0:0:
131,151,70223,2,0,P|159:153|187:166,2,59.9999981689454,2|0|0,0:0|0:0|0:0,0:0:0:0:
62,184,70549,2,0,P|49:211|46:240,1,59.9999981689454,2|0,0:0|0:0,0:0:0:0:
50,381,70766,2,0,P|83:341|102:292,1,104.999996795654,2|0,2:3|0:0,0:0:0:0:
187,166,71201,2,0,B|158:134|158:134|122:222,1,137.500001311302,0|0,1:0|0:0,0:0:0:0:
175,274,71418,1,2,0:0:0:0:
275,309,71636,6,0,P|301:295|324:275,1,59.9999981689454,2|0,0:0|0:0,0:0:0:0:
376,134,71853,1,0,1:0:0:0:
304,155,71962,2,0,P|290:181|284:211,2,59.9999981689454,2|0|0,0:0|0:0|0:0,0:0:0:0:
360,207,72288,2,0,P|383:225|400:250,1,59.9999981689454,2|0,0:0|0:0,0:0:0:0:
326,379,72505,2,0,P|316:327|323:275,1,104.999996795654,2|0,2:3|0:0,0:0:0:0:
359,121,72940,2,0,B|402:122|402:122|360:207,1,137.500001311302,0|0,1:0|0:0,0:0:0:0:
284,211,73157,1,0,0:0:0:0:
177,56,73375,6,0,P|217:15|276:10,1,119.999996337891,2|0,0:0|0:0,0:0:0:0:
341,48,73701,1,2,0:0:0:0:
465,224,73810,2,0,B|400:206|400:206|357:119,1,162.500004649162,0|0,1:2|0:0,0:0:0:0:
413,68,74027,1,2,0:0:0:0:
281,237,74244,2,0,P|227:260|171:243,1,119.999996337891,2|0,0:0|0:0,0:0:0:0:
131,180,74570,1,2,0:0:0:0:
0,1,74679,2,0,B|71:33|71:33|110:105,1,162.500004649162,0|0,1:2|0:0,0:0:0:0:
59,162,74896,1,2,0:0:0:0:
172,47,75114,5,2,0:0:0:0:
281,237,75223,2,0,B|289:171|289:171|227:99,1,162.500004649162,0|0,1:0|0:0,0:0:0:0:
192,28,75440,1,2,0:0:0:0:
301,218,75549,2,0,B|309:152|309:152|247:80,1,162.500004649162,0|0,1:0|0:0,0:0:0:0:
212,9,75766,1,2,0:0:0:0:
241,275,75984,1,2,0:0:0:0:
381,142,76201,1,2,0:0:0:0:
152,66,76419,1,2,1:2:0:0:
12,199,76636,1,2,0:0:0:0:
203,175,76853,6,0,P|232:169|262:171,1,59.9999981689454,2|0,0:0|0:0,0:0:0:0:
415,205,77070,1,0,1:0:0:0:
346,238,77179,2,0,P|317:244|287:242,2,59.9999981689454,2|0|0,0:0|0:0|0:0,0:0:0:0:
415,205,77505,2,0,P|401:178|381:155,1,59.9999981689454,2|0,0:0|0:0,0:0:0:0:
252,38,77723,2,0,P|278:83|317:118,1,104.999996795654,2|0,2:3|0:0,0:0:0:0:
428,228,78157,2,0,B|463:204|463:204|382:156,1,137.500001311302,0|0,1:0|0:0,0:0:0:0:
317,194,78375,1,2,0:0:0:0:
260,281,78592,6,0,L|318:294,1,59.9999981689454
449,324,78809,1,0,1:0:0:0:
376,307,78918,2,0,L|317:293,2,59.9999981689454
449,324,79244,2,0,L|507:337,1,59.9999981689454
318,294,79462,2,0,L|208:269,1,112.500004291535,2|0,2:3|0:0,0:0:0:0:
449,324,79896,1,0,1:0:0:0:
374,91,80331,5,2,0:2:0:0:
319,142,80440,1,0,0:2:0:0:
245,158,80549,1,0,0:2:0:0:
173,135,80657,1,0,0:2:0:0:
122,79,80766,1,2,1:2:0:0:
177,28,80875,1,0,0:2:0:0:
251,12,80984,1,0,0:2:0:0:
323,35,81092,1,0,0:2:0:0:
374,91,81201,1,2,0:2:0:0:
391,163,81310,1,0,0:2:0:0:
368,235,81419,1,0,0:2:0:0:
312,286,81527,1,0,0:2:0:0:
238,302,81636,1,2,1:2:0:0:
221,230,81744,1,0,0:2:0:0:
244,158,81853,1,0,0:2:0:0:
300,107,81961,1,0,0:2:0:0:
374,91,82070,1,2,0:2:0:0:
444,112,82179,1,0,0:2:0:0:
495,168,82288,1,0,0:2:0:0:
511,242,82396,1,0,0:2:0:0:
488,314,82505,1,2,1:2:0:0:
417,292,82614,1,0,0:2:0:0:
366,236,82723,1,0,0:2:0:0:
349,162,82831,1,0,0:2:0:0:
374,91,82940,5,2,0:2:0:0:
294,102,83049,1,0,0:2:0:0:
263,176,83157,1,0,0:2:0:0:
311,239,83266,1,0,0:2:0:0:
389,228,83374,1,2,1:2:0:0:
342,164,83483,1,0,0:2:0:0:
263,176,83591,1,0,0:2:0:0:
228,247,83700,1,0,0:2:0:0:
277,304,83808,5,2,0:2:0:0:
217,351,83918,1,0,0:2:0:0:
141,362,84027,1,0,0:2:0:0:
70,334,84136,1,0,0:2:0:0:
21,274,84244,1,2,1:2:0:0:
80,227,84353,1,0,0:2:0:0:
155,216,84462,1,0,0:2:0:0:
226,243,84570,1,0,0:2:0:0:
277,304,84679,5,2,0:2:0:0:
265,241,84788,1,0,0:2:0:0:
225,187,84897,1,0,0:2:0:0:
163,162,85005,1,0,0:2:0:0:
99,171,85114,1,2,1:2:0:0:
107,236,85223,1,0,0:2:0:0:
148,288,85332,1,0,0:2:0:0:
210,313,85440,1,0,0:2:0:0:
277,304,85549,5,2,0:2:0:0:
225,339,85657,1,0,0:2:0:0:
164,349,85766,1,0,0:2:0:0:
108,325,85875,1,0,0:2:0:0:
69,279,85983,1,2,1:2:0:0:
117,242,86092,1,0,0:2:0:0:
178,233,86201,1,0,0:2:0:0:
234,255,86310,1,0,0:2:0:0:
277,304,86418,5,2,0:2:0:0:
267,248,86527,1,0,0:2:0:0:
233,204,86636,1,0,0:2:0:0:
180,182,86744,1,0,0:2:0:0:
122,189,86853,1,2,1:2:0:0:
131,244,86961,1,0,0:2:0:0:
166,290,87070,1,0,0:2:0:0:
219,312,87178,1,0,1:2:0:0:
277,304,87288,5,2,2:2:0:0:
245,329,87397,1,0,1:2:0:0:
204,335,87506,1,0,0:2:0:0:
166,320,87615,1,0,0:2:0:0:
141,289,87723,1,2,1:2:0:0:
173,264,87832,1,0,0:2:0:0:
214,257,87941,1,0,0:2:0:0:
251,272,88050,1,0,0:2:0:0:
277,304,88157,1,2,0:2:0:0:
302,336,88267,1,0,0:2:0:0:
340,350,88376,1,0,0:2:0:0:
381,344,88483,1,0,0:2:0:0:
412,318,88593,1,2,1:2:0:0:
387,286,88702,1,0,0:2:0:0:
349,271,88809,1,0,0:2:0:0:
309,278,88919,1,0,0:2:0:0:
277,304,89027,5,2,0:2:0:0:
256,280,89136,1,0,0:2:0:0:
228,269,89245,1,0,0:2:0:0:
199,275,89353,1,0,0:2:0:0:
175,292,89461,1,2,1:2:0:0:
196,315,89570,1,0,0:2:0:0:
224,326,89679,1,0,0:2:0:0:
253,320,89787,1,0,0:2:0:0:
277,304,89896,1,2,0:2:0:0:
302,285,90005,1,0,0:2:0:0:
331,280,90114,1,0,0:2:0:0:
358,292,90222,1,0,0:2:0:0:
378,313,90330,1,2,1:2:0:0:
353,332,90439,1,0,0:2:0:0:
323,337,90548,1,0,0:2:0:0:
296,325,90656,1,0,0:2:0:0:
277,304,90766,5,2,0:2:0:0:
262,317,90875,1,0,0:2:0:0:
242,321,90983,1,0,0:2:0:0:
223,313,91092,1,0,0:2:0:0:
210,296,91201,1,2,1:2:0:0:
223,282,91310,1,0,0:2:0:0:
243,278,91418,1,0,0:2:0:0:
262,286,91527,1,0,0:2:0:0:
277,304,91636,5,2,0:2:0:0:
296,288,91744,1,0,0:2:0:0:
320,285,91853,1,0,0:2:0:0:
342,293,91962,1,0,0:2:0:0:
356,312,92070,1,2,1:2:0:0:
336,325,92179,1,0,0:2:0:0:
312,328,92288,1,0,0:2:0:0:
290,320,92397,1,0,0:2:0:0:
277,304,92505,5,2,0:2:0:0:
253,320,92614,1,0,0:2:0:0:
224,326,92722,1,0,0:2:0:0:
196,315,92831,1,0,0:2:0:0:
175,292,92940,1,2,1:2:0:0:
199,275,93048,1,0,0:2:0:0:
228,269,93156,1,0,0:2:0:0:
256,280,93265,1,0,0:2:0:0:
277,304,93374,5,2,1:2:0:0:
314,270,93483,1,0,1:2:0:0:
361,287,93592,1,0,1:2:0:0:
370,334,93701,1,0,1:2:0:0:
331,364,93809,2,0,P|308:357|286:345,1,50,2|0,1:2|0:2,1:2:0:0:
141,251,94027,5,0,1:2:0:0:
100,187,94136,1,0,1:2:0:0:
98,114,94244,1,2,1:2:0:0:
164,149,94353,1,0,0:2:0:0:
239,145,94462,1,0,0:2:0:0:
303,104,94570,1,0,0:2:0:0:
338,37,94679,1,2,1:2:0:0:
271,2,94788,1,0,0:2:0:0:
196,5,94897,1,0,0:2:0:0:
132,46,95005,1,0,0:2:0:0:
98,114,95114,1,2,0:2:0:0:
100,187,95223,1,0,0:2:0:0:
141,251,95332,1,0,0:2:0:0:
208,286,95440,1,0,0:2:0:0:
283,282,95549,1,2,1:2:0:0:
281,208,95657,1,0,0:2:0:0:
240,145,95766,1,0,0:2:0:0:
173,110,95874,1,0,0:2:0:0:
98,114,95983,1,2,0:2:0:0:
35,152,96092,1,0,0:2:0:0:
1,219,96201,1,0,0:2:0:0:
4,295,96309,1,0,0:2:0:0:
45,358,96418,1,2,1:2:0:0:
108,319,96527,1,0,0:2:0:0:
143,251,96636,1,0,0:2:0:0:
140,176,96744,1,0,0:2:0:0:
98,114,96853,5,2,0:2:0:0:
178,103,96962,1,0,0:2:0:0:
227,167,97070,1,0,0:2:0:0:
197,240,97179,1,0,0:2:0:0:
119,250,97287,1,2,1:2:0:0:
148,176,97396,1,0,0:2:0:0:
227,167,97504,1,0,0:2:0:0:
280,226,97613,1,0,0:2:0:0:
255,301,97723,5,2,0:2:0:0:
314,347,97831,1,0,0:2:0:0:
390,358,97940,1,0,0:2:0:0:
462,330,98049,1,0,0:2:0:0:
510,270,98157,1,2,1:2:0:0:
452,223,98266,1,0,0:2:0:0:
376,211,98375,1,0,0:2:0:0:
305,239,98483,1,0,0:2:0:0:
255,301,98592,5,2,0:2:0:0:
266,238,98701,1,0,0:2:0:0:
306,183,98810,1,0,0:2:0:0:
368,159,98918,1,0,0:2:0:0:
432,167,99027,1,2,1:2:0:0:
424,233,99136,1,0,0:2:0:0:
383,284,99245,1,0,0:2:0:0:
321,310,99353,1,0,0:2:0:0:
255,301,99462,5,2,0:2:0:0:
311,273,99570,1,0,0:2:0:0:
350,225,99679,1,0,0:2:0:0:
357,165,99788,1,0,0:2:0:0:
337,108,99896,1,2,1:2:0:0:
281,131,100005,1,0,0:2:0:0:
243,179,100114,1,0,0:2:0:0:
234,239,100223,1,0,0:2:0:0:
255,301,100331,5,2,0:2:0:0:
197,290,100440,1,0,0:2:0:0:
154,256,100549,1,0,0:2:0:0:
132,202,100657,1,0,2:2:0:0:
87,211,100766,1,2,1:2:0:0:
53,180,100874,1,0,0:2:0:0:
59,134,100983,2,0,P|91:104|132:85,1,89.9999972534181,0|0,0:2|0:2,0:2:0:0:
256,192,101201,5,2,0:2:0:0:
245,280,101310,1,0,0:2:0:0:
190,350,101418,1,0,0:2:0:0:
107,383,101527,1,0,0:2:0:0:
18,369,101636,1,2,1:2:0:0:
29,281,101745,1,0,0:2:0:0:
84,211,101853,1,0,0:2:0:0:
167,178,101962,1,0,0:2:0:0:
256,192,102070,1,2,0:2:0:0:
345,206,102179,1,0,0:2:0:0:
428,173,102288,1,0,0:2:0:0:
483,103,102396,1,0,0:2:0:0:
494,15,102505,1,2,1:2:0:0:
405,1,102614,1,0,0:2:0:0:
322,34,102723,1,0,0:2:0:0:
267,104,102831,1,0,0:2:0:0:
256,192,102940,1,2,0:2:0:0:
267,280,103049,1,0,0:2:0:0:
322,350,103157,1,0,0:2:0:0:
405,383,103266,1,0,0:2:0:0:
494,369,103375,1,2,1:2:0:0:
483,281,103484,1,0,0:2:0:0:
428,211,103592,1,0,0:2:0:0:
345,178,103701,1,0,0:2:0:0:
256,192,103809,1,2,0:2:0:0:
167,206,103918,1,0,0:2:0:0:
84,173,104027,1,0,0:2:0:0:
29,103,104135,1,0,0:2:0:0:
18,15,104244,1,2,1:2:0:0:
107,1,104353,1,0,0:2:0:0:
190,34,104462,1,0,0:2:0:0:
245,104,104570,1,0,0:2:0:0:
256,192,104679,5,2,0:2:0:0:
220,272,104788,1,0,0:2:0:0:
258,192,104896,1,0,0:2:0:0:
217,271,105005,1,0,0:2:0:0:
260,194,105114,1,2,1:2:0:0:
215,269,105223,1,0,0:2:0:0:
262,195,105331,1,0,0:2:0:0:
213,268,105440,1,0,0:2:0:0:
263,196,105548,1,2,0:2:0:0:
212,267,105657,1,0,0:2:0:0:
265,198,105766,1,0,0:2:0:0:
210,265,105875,1,0,0:2:0:0:
267,199,105983,1,2,1:2:0:0:
208,264,106092,1,0,0:2:0:0:
269,201,106200,1,0,0:2:0:0:
206,262,106309,1,0,0:2:0:0:
270,202,106418,1,2,0:2:0:0:
205,261,106527,1,0,0:2:0:0:
272,204,106635,1,0,0:2:0:0:
203,259,106744,1,0,0:2:0:0:
273,206,106852,1,2,1:2:0:0:
202,257,106961,1,0,0:2:0:0:
274,208,107070,1,0,0:2:0:0:
201,255,107179,1,0,0:2:0:0:
267,214,107288,1,2,0:2:0:0:
207,248,107397,1,0,0:2:0:0:
260,219,107505,1,0,0:2:0:0:
214,243,107614,1,0,0:2:0:0:
253,223,107723,1,2,1:2:0:0:
220,238,107832,1,0,0:2:0:0:
247,227,107940,1,0,0:2:0:0:
227,234,108049,1,0,0:2:0:0:
238,231,108157,1,2,0:2:0:0:
