osu file format v14

[General]
AudioFilename: audio.mp3
AudioLeadIn: 0
PreviewTime: 32645
Countdown: 1
SampleSet: Normal
StackLeniency: 0.7
Mode: 0
LetterboxInBreaks: 0
WidescreenStoryboard: 0

[Editor]
Bookmarks: 220,4631,18748,32866,48748
DistanceSpacing: 1.2
BeatDivisor: 4
GridSize: 32
TimelineZoom: 1

[Metadata]
Title:Crazy Noisy Bizarre Town
TitleUnicode:Crazy Noisy Bizarre Town
Artist:THE DU
ArtistUnicode:THE DU
Creator:TheOnlyMuffin
Version:Crazy Diamond
Source:Jojo's Bizarre Adventure: Diamond is Unbreakable, ジョジョの奇妙な冒険 ダイヤモンドは砕けない, Jojo's Bizarre Adventure
Tags:Jojo's Bizarre Adventure: Diamond in Unbreakable, jjba, Japanese, anime
BeatmapID:949429
BeatmapSetID:441369

[Difficulty]
HPDrainRate:6
CircleSize:4
OverallDifficulty:6
ApproachRate:6.5
SliderMultiplier:1.4
SliderTickRate:2

[Events]
//Background and Video events
0,0,"The Du Crazy Noisy Bizarre Town.jpg",0,0
Video,-200,"Part 4 op new.avi"
//Break Periods
//Storyboard Layer 0 (Background)
//Storyboard Layer 1 (Fail)
//Storyboard Layer 2 (Pass)
//Storyboard Layer 3 (Foreground)
//Storyboard Sound Samples

[TimingPoints]
220,441.176470588235,4,1,0,100,1,0
220,-66.6666666666667,4,1,0,100,0,0
4630,441.176470588235,4,1,0,100,1,0
4631,-66.6666666666667,4,1,0,100,0,1
18748,-66.6666666666667,4,1,0,100,0,0
34188,-66.6666666666667,4,1,1,100,0,0
34409,-66.6666666666667,4,1,0,100,0,0
48748,-66.6666666666667,4,1,0,100,0,1
70145,-66.6666666666667,4,1,0,100,0,0

[Colours]
Combo1 : 255,43,149
Combo2 : 168,0,168
Combo3 : 43,255,43
Combo4 : 0,0,213

[HitObjects]
401,119,220,5,0,0:0:0:0:
349,137,330,1,0,0:0:0:0:
310,175,440,1,0,0:0:0:0:
288,224,550,1,0,0:0:0:0:
111,119,881,5,0,0:0:0:0:
163,137,991,1,0,0:0:0:0:
202,175,1101,1,0,0:0:0:0:
224,224,1211,1,0,0:0:0:0:
256,96,1543,5,0,0:0:0:0:
256,96,1653,1,0,0:0:0:0:
131,288,1984,6,0,L|189:288,3,48.750001859665
381,288,2646,2,0,L|323:288,3,48.750001859665
256,192,3308,5,0,0:0:0:0:
256,192,3418,1,0,0:0:0:0:
192,128,3749,6,4,P|256:64|337:145,1,210.000008010865,0|0,0:0|0:0,0:0:0:0:
256,288,4629,5,2,0:0:0:0:
336,258,4849,2,0,L|392:213,2,52.5000020027161,0|0|8,0:0|0:0|0:0,0:0:0:0:
256,96,5290,1,0,0:0:0:0:
176,126,5511,2,0,L|120:171,2,52.5000020027161
81,299,5952,5,8,0:0:0:0:
180,333,6173,1,0,0:0:0:0:
204,224,6393,1,0,0:0:0:0:
256,96,6614,6,4,P|384:96|384:256,1,315.000012016297,0|0,0:0|0:0,0:0:0:0:
172,219,7607,2,0,L|94:152,4,52.5000020027161,0|8|0|0|0,0:0|0:0|0:0|0:0|0:0,0:0:0:0:
218,139,8158,6,0,P|218:60|108:60,2,210.000008010865,0|8|0,0:0|0:0|0:0,0:0:0:0:
228,260,9261,1,0,0:0:0:0:
356,294,9481,1,8,0:0:0:0:
356,164,9702,1,0,0:0:0:0:
196,138,9923,6,0,L|117:52,1,105.000004005432,2|0,0:0|0:0,0:0:0:0:
316,246,10364,6,0,L|395:332,1,105.000004005432,8|0,0:0|0:0,0:0:0:0:
316,138,10806,6,0,L|395:52,1,105.000004005432,2|0,0:0|0:0,0:0:0:0:
196,246,11246,6,0,L|117:332,1,105.000004005432,8|0,0:0|0:0,0:0:0:0:
256,192,11688,6,0,L|256:128,4,52.5000020027161,0|0|0|0|8,0:0|0:0|0:0|0:0|0:0,0:0:0:0:
288,288,12349,5,0,0:0:0:0:
342,269,12459,1,0,0:0:0:0:
380,231,12570,1,0,0:0:0:0:
413,186,12680,1,0,0:0:0:0:
224,288,13011,5,8,0:0:0:0:
170,269,13121,1,0,0:0:0:0:
132,231,13232,1,0,0:0:0:0:
99,186,13342,1,0,0:0:0:0:
256,192,13673,12,8,14777,0:0:0:0:
128,64,14996,6,4,P|128:128|256:224,1,210.000008010865,2|0,0:0|0:0,0:0:0:0:
228,221,15658,1,8,0:0:0:0:
416,287,15878,6,4,P|399:187|315:130,1,210.000008010865,2|0,0:0|0:0,0:0:0:0:
320,128,16540,1,8,0:0:0:0:
96,256,16761,5,0,0:0:0:0:
256,320,16981,1,0,0:0:0:0:
416,256,17202,1,0,0:0:0:0:
416,128,17423,5,8,0:0:0:0:
256,64,17644,1,0,0:0:0:0:
96,128,17864,1,0,0:0:0:0:
256,192,18084,5,8,0:0:0:0:
256,192,18305,1,8,0:0:0:0:
256,192,18526,1,8,0:0:0:0:
128,320,18747,5,2,0:0:0:0:
256,320,18968,1,0,0:0:0:0:
384,320,19188,1,8,0:0:0:0:
384,192,19409,1,0,0:0:0:0:
256,192,19629,6,0,L|128:192,1,105.000004005432
160,288,20071,2,0,P|64:256|64:160,2,210.000008010865,8|0|8,0:0|0:0|0:0,0:0:0:0:
160,192,21174,1,0,0:0:0:0:
256,64,21615,5,0,0:0:0:0:
311,71,21725,1,0,0:0:0:0:
355,94,21835,1,8,0:0:0:0:
386,133,21946,1,0,0:0:0:0:
128,288,22277,6,0,B|128:256|128:256|192:192|192:192|192:192|192:160|192:160|96:160,2,210.000008010865,4|8|0,0:0|0:0|0:0,0:0:0:0:
320,288,23379,1,0,0:0:0:0:
320,192,23600,1,8,0:0:0:0:
320,96,23821,1,0,0:0:0:0:
224,192,24041,5,0,0:0:0:0:
128,192,24262,1,0,0:0:0:0:
32,96,24482,2,0,L|32:320,1,210.000008010865,8|0,0:0|0:0,0:0:0:0:
165,110,25144,5,0,0:0:0:0:
205,76,25254,1,0,0:0:0:0:
255,65,25364,1,8,0:0:0:0:
306,77,25474,1,0,0:0:0:0:
256,320,25806,6,0,L|352:224,1,105.000004005432,4|0,0:0|0:0,0:0:0:0:
256,320,26247,2,0,L|160:224,1,105.000004005432,8|0,0:0|0:0,0:0:0:0:
256,64,26909,5,0,0:0:0:0:
256,160,27129,1,8,0:0:0:0:
256,256,27350,2,0,B|384:256|384:256|384:128,1,210.000008010865
288,178,28012,6,0,B|288:96|288:96|160:96,1,210.000008010865,8|0,0:0|0:0,0:0:0:0:
192,192,28674,1,0,0:0:0:0:
96,192,28894,1,8,0:0:0:0:
96,288,29115,1,0,0:0:0:0:
256,192,29335,12,8,30659,0:0:0:0:
256,64,31100,5,2,0:0:0:0:
96,192,31541,1,10,0:0:0:0:
256,320,31982,1,2,0:0:0:0:
416,192,32424,1,10,0:0:0:0:
256,64,32644,5,0,0:0:0:0:
256,64,32754,1,0,0:0:0:0:
256,64,32865,1,0,0:0:0:0:
160,96,33084,1,0,0:0:0:0:
160,192,33305,1,8,0:0:0:0:
256,224,33526,1,0,0:0:0:0:
352,192,33746,1,0,0:0:0:0:
352,96,33967,2,0,B|480:96|480:96|480:224,1,210.000008010865
96,320,34629,6,0,L|96:192,1,105.000004005432
192,320,35071,1,8,0:0:0:0:
288,320,35291,1,0,0:0:0:0:
384,288,35512,2,0,B|384:256|384:256|320:192|320:192|320:192|320:160|320:160|416:160,1,210.000008010865,0|8,0:0|0:0,0:0:0:0:
192,64,36174,5,0,0:0:0:0:
146,88,36284,1,0,0:0:0:0:
113,131,36394,1,0,0:0:0:0:
96,224,36615,2,0,L|224:224,1,105.000004005432,0|8,0:0|0:0,0:0:0:0:
160,320,37056,2,0,L|288:320,1,105.000004005432
256,192,37497,5,0,0:0:0:0:
192,128,37718,1,8,0:0:0:0:
256,64,37938,1,0,0:0:0:0:
320,128,38159,2,0,B|448:128|448:128|448:256,2,210.000008010865,0|8|0,0:0|0:0|0:0,0:0:0:0:
320,32,39262,5,0,0:0:0:0:
224,128,39482,1,8,0:0:0:0:
320,224,39703,1,0,0:0:0:0:
320,224,39813,1,0,0:0:0:0:
320,224,39924,1,0,0:0:0:0:
192,288,40144,5,0,0:0:0:0:
263,283,40365,2,0,P|391:283|391:187,2,210.000008010865,8|0|8,0:0|0:0|0:0,0:0:0:0:
128,96,41468,6,0,L|256:96,1,105.000004005432
384,96,41909,2,0,L|256:96,1,105.000004005432,0|8,0:0|0:0,0:0:0:0:
256,192,42350,1,0,0:0:0:0:
256,288,42571,1,0,0:0:0:0:
160,288,42791,1,0,0:0:0:0:
352,288,43012,1,8,0:0:0:0:
256,288,43232,1,0,0:0:0:0:
256,192,43453,5,0,0:0:0:0:
352,192,43674,1,0,0:0:0:0:
256,96,43894,1,8,0:0:0:0:
160,192,44115,1,8,0:0:0:0:
256,288,44556,1,8,0:0:0:0:
256,192,45106,12,2,46761,0:0:0:0:
256,64,47203,5,8,0:0:0:0:
352,288,47424,5,8,0:0:0:0:
128,160,47645,5,8,0:0:0:0:
384,160,47866,5,8,0:0:0:0:
160,288,48307,5,4,2:0:0:0:
256,64,48746,5,2,0:0:0:0:
352,192,48967,1,0,0:0:0:0:
256,320,49187,1,8,0:0:0:0:
256,192,49408,2,0,L|128:192,1,105.000004005432
352,96,50070,5,8,0:0:0:0:
201,96,50512,2,0,L|96:96,2,105.000004005432,4|4|10,0:0|0:0|0:0,0:0:0:0:
96,192,51174,2,4,P|128:288|320:288,1,315.000012016297,0|8,0:0|0:0,0:0:0:0:
320,192,52056,1,0,0:0:0:0:
321,138,52166,1,0,0:0:0:0:
340,89,52277,1,0,0:0:0:0:
96,64,52718,6,0,P|192:64|192:192,2,210.000008010865,8|0|8,0:0|0:0|0:0,0:0:0:0:
128,160,53821,1,0,0:0:0:0:
127,241,54041,1,2,0:0:0:0:
224,192,54482,6,0,L|352:192,1,105.000004005432,8|0,0:0|0:0,0:0:0:0:
352,96,54924,1,0,0:0:0:0:
448,192,55144,1,0,0:0:0:0:
352,288,55365,1,8,0:0:0:0:
256,192,55585,1,0,0:0:0:0:
256,192,55696,1,0,0:0:0:0:
256,192,55806,1,0,0:0:0:0:
160,320,56027,6,0,P|96:320|96:256,2,105.000004005432,0|8|0,0:0|0:0|0:0,0:0:0:0:
96,192,56688,5,0,0:0:0:0:
256,96,56909,1,0,0:0:0:0:
416,192,57129,1,8,0:0:0:0:
256,192,57570,6,0,B|192:224|192:256|224:288|320:256|320:288|320:320,1,210.000008010865,0|8,0:0|0:0,0:0:0:0:
192,320,58232,1,0,0:0:0:0:
96,320,58453,1,0,0:0:0:0:
96,96,58674,5,0,0:0:0:0:
148,97,58784,1,0,0:0:0:0:
203,97,58894,1,8,0:0:0:0:
448,192,59335,6,0,L|288:32,1,210.000008010865,2|8,0:0|0:0,0:0:0:0:
448,192,60218,6,0,L|288:352,1,210.000008010865,2|8,0:0|0:0,0:0:0:0:
352,192,61100,6,0,L|128:192,1,210.000008010865,4|8,0:0|0:0,0:0:0:0:
128,96,61982,5,0,0:0:0:0:
64,192,62202,1,0,0:0:0:0:
128,288,62423,1,8,0:0:0:0:
256,192,62644,12,8,65953,0:0:0:0:
256,128,66394,6,0,L|256:32,3,52.5000020027161
256,256,67056,6,0,L|256:352,3,52.5000020027161
160,192,67718,6,0,L|96:192,3,52.5000020027161
352,192,68379,6,0,L|416:192,3,52.5000020027161
256,96,69262,1,0,0:0:0:0:
256,128,69372,1,0,0:0:0:0:
256,160,69482,1,0,0:0:0:0:
256,192,69593,1,0,0:0:0:0:
256,224,69703,1,0,0:0:0:0:
256,256,69813,6,0,B|288:288|352:256|352:160,1,157.500006008148,0|2,0:0|0:0,0:0:0:0:
