osu file format v14

[General]
AudioFilename: audio.mp3
AudioLeadIn: 0
PreviewTime: 58255
Countdown: 0
SampleSet: Soft
StackLeniency: 0.5
Mode: 0
LetterboxInBreaks: 0
WidescreenStoryboard: 1

[Editor]
Bookmarks: 17667,24726,31785,44138,58255,72373,86491,100608,107667,114726,125314,142961,157079,171197,178366,180241,192373,194138,201197,208254,229432,234725,243549,250608,259432,273991,287667,301564
DistanceSpacing: 4.9
BeatDivisor: 12
GridSize: 32
TimelineZoom: 4.099999

[Metadata]
Title:Vector Fish
TitleUnicode:ベクターフィッシュ
Artist:THE BINARY mido
ArtistUnicode:THE BINARY mido
Creator:NeonLights
Version:Love Theory
Source:
Tags:japanese jazz j-pop jpop pop jiu 煮ル果実 BNRY-05 あかまる melon BNRY-02
BeatmapID:2307246
BeatmapSetID:1104203

[Difficulty]
HPDrainRate:5.3
CircleSize:4.2
OverallDifficulty:9
ApproachRate:9.3
SliderMultiplier:2.96
SliderTickRate:1

[Events]
//Background and Video events
0,0,"warette.jpg",0,0
//Break Periods
//Storyboard Layer 0 (Background)
//Storyboard Layer 1 (Fail)
//Storyboard Layer 2 (Pass)
//Storyboard Layer 3 (Foreground)
//Storyboard Layer 4 (Overlay)
//Storyboard Sound Samples

[TimingPoints]
371,441.176470588235,4,2,1,5,1,0
812,-100,4,2,1,10,0,0
1253,-100,4,2,1,15,0,0
1694,-100,4,2,1,20,0,0
2135,-100,4,2,1,25,0,0
2576,-100,4,2,1,30,0,0
3018,-100,4,2,1,35,0,0
3155,441.176470588235,4,2,1,45,1,0
3597,441.176470588235,4,2,2,60,1,0
4038,-100,4,2,1,60,0,0
10435,-100,4,2,2,60,0,0
10766,-100,4,2,1,60,0,0
15949,-100,4,2,2,60,0,0
16060,-100,4,2,1,60,0,0
16611,-100,4,2,2,60,0,0
16721,-100,4,2,1,60,0,0
17273,-100,4,2,2,60,0,0
17383,-222.222222222222,4,2,1,60,0,0
17604,-222.222222222222,4,2,1,5,0,0
17714,-133.333333333333,4,2,2,30,0,0
18045,-133.333333333333,4,2,1,30,0,0
22733,-113.636363636364,4,2,1,30,0,0
23008,-133.333333333333,4,2,1,30,0,0
24773,-113.636363636364,4,2,3,45,0,0
25655,-100,4,2,3,45,0,0
26096,-113.636363636364,4,2,3,45,0,0
28302,-113.636363636364,4,2,1,45,0,0
28633,-113.636363636364,4,2,3,45,0,0
30067,-100,4,2,3,60,0,0
31832,-100,4,2,2,60,0,0
32052,-100,4,2,1,60,0,0
32273,-74.0740740740741,4,2,1,60,0,0
32714,-100,4,2,3,60,0,0
34699,-250,4,2,1,60,0,0
34920,-100,4,2,1,60,0,0
35141,-62.5,4,2,1,60,0,0
35361,-100,4,2,3,60,0,0
35802,-90.9090909090909,4,2,3,60,0,0
36244,-100,4,2,3,60,0,0
36354,-100,4,2,3,60,0,0
38229,-100,4,2,1,60,0,0
38891,-100,4,2,2,60,0,0
39332,-80,4,2,1,60,0,0
39773,-100,4,2,3,60,0,0
42199,-100,4,2,1,60,0,0
43302,-133.333333333333,4,2,1,60,0,0
44185,-100,4,2,2,70,0,0
45177,-100,4,2,1,70,0,0
46170,-250,4,2,1,70,0,0
46501,-50,4,2,1,70,0,0
46721,-100,4,2,1,70,0,0
47052,-100,4,2,3,70,0,0
47273,-100,4,2,1,70,0,0
47714,-100,4,2,2,70,0,0
48707,-100,4,2,1,70,0,0
49699,-250,4,2,1,70,0,0
50030,-50,4,2,1,70,0,0
50251,-100,4,2,1,70,0,0
50582,-100,4,2,3,70,0,0
50802,-100,4,2,1,35,0,0
51244,-100,4,2,2,60,0,0
51574,-100,4,2,3,60,0,0
54773,-66.6666666666667,4,2,2,50,0,0
54828,-66.6666666666667,4,2,2,5,0,0
55435,-66.6666666666667,4,2,2,50,0,0
55490,-66.6666666666667,4,2,2,5,0,0
56317,-66.6666666666667,4,2,2,50,0,0
56372,-66.6666666666667,4,2,2,5,0,0
56758,-66.6666666666667,4,2,1,50,0,0
57861,-100,4,2,1,50,0,0
58302,-66.6666666666667,4,2,2,75,0,1
58744,-80,4,2,1,75,0,1
59074,-100,4,2,1,75,0,1
59846,-74.0740740740741,4,2,1,75,0,1
60288,-100,4,2,1,75,0,1
61832,-83.3333333333333,4,2,1,75,0,1
62052,-71.4285714285714,4,2,1,75,0,1
63376,-83.3333333333333,4,2,1,75,0,1
64258,-100,4,2,2,75,0,1
64479,-125,4,2,1,75,0,1
65361,-83.3333333333333,4,2,2,75,0,1
65692,-83.3333333333333,4,2,1,75,0,1
68891,-83.3333333333333,4,2,2,75,0,1
69111,-83.3333333333333,4,2,1,75,0,1
69552,-83.3333333333333,4,2,2,75,0,1
69773,-83.3333333333333,4,2,1,75,0,1
70435,-83.3333333333333,4,2,2,75,0,1
70876,-83.3333333333333,4,2,1,75,0,1
71538,-83.3333333333333,4,2,2,75,0,1
71648,-83.3333333333333,4,2,1,75,0,1
72420,-66.6666666666667,4,2,2,75,0,1
72641,-66.6666666666667,4,2,1,75,0,1
72861,-76.9230769230769,4,2,1,75,0,1
73192,-100,4,2,1,75,0,1
73964,-83.3333333333333,4,2,1,75,0,1
78376,-83.3333333333333,4,2,2,75,0,1
78596,-83.3333333333333,4,2,1,75,0,1
85435,-100,4,2,1,60,0,0
86538,-100,4,2,2,60,0,0
86648,-100,4,2,1,60,0,0
93376,-100,4,2,2,60,0,0
93707,-100,4,2,1,60,0,0
100655,-142.857142857143,4,2,1,35,0,0
108376,-142.857142857143,4,2,3,45,0,0
111685,-83.3333333333333,4,2,3,45,0,0
112126,-125,4,2,1,45,0,0
113008,-142.857142857143,4,2,2,60,0,0
113063,-142.857142857143,4,2,2,5,0,0
114773,-83.3333333333333,4,2,2,60,0,0
115214,-100,4,2,3,60,0,0
116538,-100,4,2,3,60,0,0
117310,-125,4,2,1,60,0,0
117641,-100,4,2,3,60,0,0
118523,-83.3333333333333,4,2,1,60,0,0
118964,-125,4,2,3,60,0,0
120067,-100,4,2,1,60,0,0
120508,-80,4,2,1,60,0,0
120949,-90.9090909090909,4,2,3,60,0,0
121832,-90.9090909090909,4,2,2,60,0,0
122163,-90.9090909090909,4,2,1,60,0,0
122714,-125,4,2,1,60,0,0
123376,-133.333333333333,4,2,1,60,0,0
123817,-125,4,2,1,60,0,0
124699,-125,4,2,1,60,0,0
125361,-100,4,2,1,60,0,0
125802,-83.3333333333333,4,2,1,60,0,0
126244,-100,4,2,1,60,0,0
126574,-166.666666666667,4,2,1,60,0,0
126795,-100,4,2,1,60,0,0
127126,-100,4,2,2,60,0,0
128119,-100,4,2,1,60,0,0
129111,-250,4,2,1,60,0,0
129221,-50,4,2,1,60,0,0
129442,-50,4,2,1,60,0,0
129663,-100,4,2,1,60,0,0
130655,-100,4,2,2,60,0,0
131648,-100,4,2,1,60,0,0
132641,-250,4,2,1,60,0,0
132971,-50,4,2,1,60,0,0
133192,-100,4,2,1,60,0,0
133523,-100,4,2,3,60,0,0
133744,-100,4,2,1,60,0,0
134185,-100,4,2,2,60,0,0
134626,-100,4,2,1,60,0,0
135067,-100,4,2,3,60,0,0
137494,-100,4,2,1,60,0,0
137714,-66.6666666666667,4,2,2,60,0,0
137769,-66.6666666666667,4,2,2,5,0,0
138376,-66.6666666666667,4,2,2,60,0,0
138431,-66.6666666666667,4,2,2,5,0,0
139258,-66.6666666666667,4,2,2,60,0,0
139313,-66.6666666666667,4,2,2,5,0,0
139699,-66.6666666666667,4,2,1,60,0,0
141244,-100,4,2,1,60,0,0
141905,-100,4,2,2,60,0,0
142346,-111.111111111111,4,2,1,60,0,0
143008,-66.6666666666667,4,2,2,75,0,1
143229,-66.6666666666667,4,2,1,75,0,1
143449,-80,4,2,1,75,0,1
143780,-100,4,2,1,75,0,1
144552,-74.0740740740741,4,2,1,75,0,1
144994,-100,4,2,1,75,0,1
146538,-90.9090909090909,4,2,1,75,0,1
146979,-83.3333333333333,4,2,1,75,0,1
147420,-80,4,2,1,75,0,1
148964,-83.3333333333333,4,2,2,75,0,1
149074,-83.3333333333333,4,2,1,75,0,1
149405,-90.9090909090909,4,2,1,75,0,1
149626,-100,4,2,1,75,0,1
149846,-111.111111111111,4,2,1,75,0,1
150067,-83.3333333333333,4,2,2,75,0,1
150288,-83.3333333333333,4,2,1,75,0,1
153596,-83.3333333333333,4,2,2,75,0,1
153817,-83.3333333333333,4,2,1,75,0,1
154258,-83.3333333333333,4,2,2,75,0,1
154479,-83.3333333333333,4,2,1,75,0,1
155141,-83.3333333333333,4,2,2,75,0,1
155361,-83.3333333333333,4,2,1,75,0,1
156023,-83.3333333333333,4,2,2,75,0,1
156244,-83.3333333333333,4,2,1,75,0,1
157126,-66.6666666666667,4,2,2,75,0,1
157567,-74.0740740740741,4,2,1,75,0,1
158229,-100,4,2,1,75,0,1
160655,-66.6666666666667,4,2,1,75,0,1
161096,-74.0740740740741,4,2,1,75,0,1
162199,-100,4,2,1,75,0,1
162641,-74.0740740740741,4,2,1,75,0,1
163082,-74.0740740740741,4,2,2,75,0,1
163302,-74.0740740740741,4,2,1,75,0,1
164185,-74.0740740740741,4,2,2,75,0,1
164405,-74.0740740740741,4,2,1,75,0,1
165508,-90.9090909090909,4,2,1,75,0,1
165949,-76.9230769230769,4,2,1,75,0,1
166832,-111.111111111111,4,2,1,75,0,1
167273,-83.3333333333333,4,2,1,75,0,1
171244,-100,4,2,2,60,0,0
172788,-80,4,2,1,60,0,0
173008,-133.333333333333,4,2,1,40,0,0
173560,-133.333333333333,4,2,2,40,0,0
173670,-133.333333333333,4,2,1,40,0,0
173780,-133.333333333333,4,2,2,40,0,0
173891,-133.333333333333,4,2,1,40,0,0
174774,-133.333333333333,4,2,1,40,0,0
175435,-133.333333333333,4,2,1,30,0,0
175656,-133.333333333333,4,2,1,40,0,0
176290,497.326203088235,4,2,1,40,1,0
176290,-88.495575221239,4,2,2,40,0,0
176538,441.176470588235,4,2,1,40,1,0
176538,-133.333333333333,4,2,1,40,0,0
178413,-133.333333333333,4,2,2,40,0,0
179626,-133.333333333333,4,2,1,40,0,0
180067,425.206281617647,4,2,1,40,1,0
180067,-104.166666666667,4,2,1,40,0,0
180280,458.015267175573,4,2,1,50,1,0
180280,-133.333333333333,4,2,1,50,0,0
180831,441.176470588235,4,2,1,50,1,0
180831,-133.333333333333,4,2,1,50,0,0
181823,441.176470588235,4,2,1,50,1,0
181823,-133.333333333333,4,2,1,50,0,0
182265,-133.333333333333,4,2,2,50,0,0
182319,-133.333333333333,4,2,2,5,0,0
182834,428.571428571429,4,2,1,50,1,0
182834,-133.333333333333,4,2,1,50,0,0
183584,-75.187969924812,4,2,1,50,0,0
183716,441.176470588235,4,2,1,50,1,0
183716,-100,4,2,1,50,0,0
184469,441.176470588235,4,2,1,50,1,0
184469,-100,4,2,1,50,0,0
184700,441.176470588235,4,2,1,50,1,0
185356,441.176470588235,4,2,1,50,1,0
185356,-100,4,2,1,50,0,0
185687,657.754010735294,4,2,1,50,1,0
185687,-67.1140939597315,4,2,1,50,0,0
185784,413.793103448276,4,2,1,50,1,0
185784,-133.333333333333,4,2,1,50,0,0
186232,441.176470588235,4,2,1,50,1,0
186232,-133.333333333333,4,2,1,50,0,0
187107,441.176470588235,4,2,1,50,1,0
187107,-133.333333333333,4,2,1,50,0,0
187741,441.176470588235,4,2,1,50,1,0
187741,-133.333333333333,4,2,1,50,0,0
188001,441.176470588235,4,2,1,50,1,0
188001,-133.333333333333,4,2,1,50,0,0
189450,441.176470588235,4,2,1,50,1,0
189450,-133.333333333333,4,2,1,50,0,0
189753,441.176470588235,4,2,1,50,1,0
189753,-133.333333333333,4,2,1,50,0,0
190442,441.176470588235,4,2,1,50,1,0
190442,-133.333333333333,4,2,1,50,0,0
190652,441.176470588235,4,2,1,50,1,0
190652,-133.333333333333,4,2,1,50,0,0
192393,441.176470588235,4,2,1,50,1,0
192393,-100,4,2,1,50,0,0
192420,441.176470588235,4,2,1,55,1,0
192420,-100,4,2,2,55,0,0
192567,-100,4,2,2,55,0,0
194626,441.176470588235,4,2,1,50,1,0
195728,-100,4,2,2,50,0,0
195949,441.176470588235,4,2,2,50,1,0
195949,-100,4,2,2,50,0,0
196170,-100,4,2,1,50,0,0
197934,-100,4,2,2,50,0,0
198388,447.761194029851,4,2,1,50,1,0
198388,-100,4,2,1,50,0,0
198967,444.444444444444,4,2,1,50,1,0
199479,530.973451327434,4,2,1,60,1,0
199479,-100,4,2,2,60,0,0
200500,441.176470588235,4,2,1,60,1,0
201235,441.176470588235,4,2,1,40,1,0
201235,-100,4,2,1,40,0,0
208275,441.176470588235,4,2,1,60,1,1
208275,-66.6666666666667,4,2,2,60,0,1
208495,-66.6666666666667,4,2,1,60,0,1
208752,441.176470588235,4,2,1,60,1,1
208752,-66.6666666666667,4,2,1,60,0,1
209525,441.176470588235,4,2,1,60,1,1
209525,-76.9230769230769,4,2,1,60,0,1
210076,441.176470588235,4,2,1,60,1,1
210076,-76.9230769230769,4,2,1,60,0,1
211142,441.176470588235,4,2,1,60,1,1
211803,441.176470588235,4,2,1,60,1,1
212245,-133.333333333333,4,2,1,60,0,1
212905,-76.9230769230769,4,2,1,60,0,1
214230,-76.9230769230769,4,2,2,60,0,1
214341,-76.9230769230769,4,2,1,60,0,1
215333,-76.9230769230769,4,2,2,60,0,1
215554,-76.9230769230769,4,2,1,60,0,1
216877,-100,4,2,1,60,0,1
217359,441.176470588235,4,2,1,60,1,1
217557,500,4,2,1,60,1,1
217786,472.410202880931,4,2,1,60,1,1
217786,-93.4579439252336,4,2,1,60,0,1
217904,437.956204379562,4,2,1,60,1,1
217904,-100,4,2,1,60,0,1
218311,500,4,2,1,60,1,1
218436,441.176470588235,4,2,1,60,1,1
218862,441.176470588235,4,2,1,60,1,1
220635,441.176470588235,4,2,1,60,1,1
222399,-100,4,2,2,60,0,1
222620,-100,4,2,1,60,0,1
228355,-100,4,2,2,60,0,1
228465,-100,4,2,1,60,0,1
229470,441.176470588235,3,2,1,60,1,0
229470,-166.666666666667,3,2,2,65,0,0
229579,-166.666666666667,3,2,1,65,0,0
230131,-166.666666666667,3,2,2,65,0,0
230242,-166.666666666667,3,2,1,65,0,0
230793,-166.666666666667,3,2,2,65,0,0
230903,-166.666666666667,3,2,1,65,0,0
231455,-166.666666666667,3,2,2,65,0,0
231565,-166.666666666667,3,2,1,65,0,0
232117,-166.666666666667,3,2,2,65,0,0
232227,-166.666666666667,3,2,1,65,0,0
232778,-166.666666666667,3,2,2,65,0,0
232889,-166.666666666667,3,2,1,65,0,0
233440,-166.666666666667,3,2,2,65,0,0
233550,-166.666666666667,3,2,1,65,0,0
234102,-166.666666666667,3,2,2,65,0,0
234212,-166.666666666667,3,2,1,65,0,0
234764,-83.3333333333333,3,2,2,60,0,0
234984,-76.9230769230769,3,2,1,70,0,0
236087,-76.9230769230769,3,2,2,70,0,0
236197,-76.9230769230769,3,2,1,70,0,0
236371,441.176470588235,4,2,1,70,1,0
236544,441.176470588235,4,2,1,70,1,0
236764,-100,4,2,2,70,0,0
236874,-100,4,2,1,70,0,0
237021,441.176470588235,4,2,1,70,1,0
237426,441.176470588235,4,2,1,70,1,0
237426,-100,4,2,2,70,0,0
237674,-100,4,2,1,70,0,0
238098,441.176470588235,4,2,1,70,1,0
238098,-100,4,2,2,70,0,0
238263,-100,4,2,1,70,0,0
238439,441.176470588235,4,2,1,70,1,0
240093,441.176470588235,4,2,1,70,1,0
240093,-285.714285714286,4,2,2,60,0,0
243475,-434.782608695652,4,2,1,60,0,0
243594,441.176470588235,4,2,1,60,1,0
243594,-250,4,2,1,40,0,0
250542,-250,4,2,1,45,0,0
250652,-125,4,2,1,45,0,0
254182,-250,4,2,2,50,0,0
254237,-250,4,2,2,5,0,0
254844,-250,4,2,2,50,0,0
254899,-250,4,2,2,5,0,0
255726,-250,4,2,2,50,0,0
255781,-250,4,2,2,5,0,0
256167,-90.9090909090909,4,2,1,45,0,0
257491,-90.9090909090909,4,2,2,45,0,0
257821,-90.9090909090909,4,2,1,55,0,0
258152,-90.9090909090909,4,2,2,65,0,0
258373,-90.9090909090909,4,2,1,65,0,0
259476,-62.5,4,2,2,75,0,1
259917,-71.4285714285714,4,2,1,75,0,1
261020,-62.5,4,2,1,75,0,1
261461,-76.9230769230769,4,2,1,75,0,1
263005,-71.4285714285714,4,2,1,75,0,1
265432,-71.4285714285714,4,2,2,75,0,1
265542,-71.4285714285714,4,2,1,75,0,1
266535,-71.4285714285714,4,2,2,75,0,1
266755,-71.4285714285714,4,2,1,75,0,1
267417,-100,4,2,1,75,0,1
267858,-66.6666666666667,4,2,1,75,0,1
268299,-71.4285714285714,4,2,1,75,0,1
269182,-100,4,2,1,75,0,1
269513,-71.4285714285714,4,2,1,75,0,1
270064,-76.9230769230769,4,2,2,75,0,1
270285,-76.9230769230769,4,2,1,75,0,1
270726,-76.9230769230769,4,2,2,75,0,1
270946,-76.9230769230769,4,2,1,75,0,1
271608,-76.9230769230769,4,2,2,75,0,1
271939,-76.9230769230769,4,2,1,75,0,1
272491,-90.9090909090909,4,2,1,75,0,1
273594,-111.111111111111,4,2,2,75,0,0
274035,-58.8235294117647,4,2,2,75,0,1
274696,-66.6666666666667,4,2,1,75,0,1
275138,-58.8235294117647,4,2,2,75,0,1
275579,-58.8235294117647,4,2,1,75,0,1
276020,-66.6666666666667,4,2,1,75,0,1
277123,-58.8235294117647,4,2,2,75,0,1
277344,-58.8235294117647,4,2,1,75,0,1
277564,-62.5,4,2,1,75,0,1
278667,-100,4,2,1,75,0,1
279108,-66.6666666666667,4,2,1,75,0,1
279549,-66.6666666666667,4,2,2,75,0,1
279880,-66.6666666666667,4,2,1,75,0,1
280652,-58.8235294117647,4,2,2,75,0,1
280983,-58.8235294117647,4,2,1,75,0,1
281535,-100,4,2,1,75,0,1
281976,-66.6666666666667,4,2,1,75,0,1
283299,-58.8235294117647,4,2,1,75,0,1
283741,-66.6666666666667,4,2,1,75,0,1
287711,-100,4,2,2,70,0,0
293005,-66.6666666666667,4,2,1,65,0,0
294770,-66.6666666666667,4,2,2,65,0,0
294880,-66.6666666666667,4,2,1,65,0,0
295652,-100,4,2,1,60,0,0
296094,-66.6666666666667,4,2,1,60,0,0
297417,-100,4,2,1,60,0,0
297858,-66.6666666666667,4,2,1,60,0,0
299843,-100,4,2,1,60,0,0
300064,-100,4,2,2,45,0,0
300285,-100,4,2,1,50,0,0
301608,-100,4,2,2,50,0,0

[Colours]
Combo1 : 255,94,55
Combo2 : 173,255,95
Combo3 : 17,254,176
Combo4 : 255,88,100

[HitObjects]
256,192,371,12,0,3018,1:0:0:0:
79,68,3155,6,0,P|89:86|92:117,1,37,8|2,0:3|0:0,0:0:0:0:
116,106,3265,6,0,P|115:126|103:155,1,37,2|2,0:0|0:0,0:0:0:0:
141,165,3375,6,0,P|130:182|104:201,1,37,2|2,0:0|0:0,0:0:0:0:
141,233,3485,6,0,P|122:243|91:246,1,37,2|2,0:0|0:0,0:0:0:0:
25,233,3596,5,4,1:2:0:0:
171,364,3707,1,0,0:0:0:0:
181,370,3817,2,0,P|152:298|133:280,1,74
16,222,4038,2,0,P|52:222|87:233,2,74,12|0|0,0:0|0:0|0:0,0:0:0:0:
141,165,4369,6,0,P|174:150|200:124,1,74,2|4,0:0|1:2,0:0:0:0:
286,157,4589,2,0,P|290:120|280:84,1,74,2|0,0:0|1:0,0:0:0:0:
359,38,4810,2,0,P|329:16|293:6,1,74,2|12,0:0|0:0,0:0:0:0:
168,16,5030,1,0,0:0:0:0:
91,0,5141,2,0,P|120:21|156:31,1,74
280,84,5361,6,0,B|302:119|302:119|135:91,1,148,6|0,1:2|0:0,0:0:0:0:
9,67,5692,1,0,1:0:0:0:
91,106,5802,2,0,P|107:138|113:175,1,74,14|0,0:0|0:0,0:0:0:0:
75,251,6023,1,0,0:0:0:0:
190,211,6133,2,0,P|185:247|169:281,1,74,2|4,1:2|0:0,0:0:0:0:
75,251,6354,1,0,1:0:0:0:
284,339,6464,2,0,P|247:340|212:353,1,74,2|0,1:2|0:0,0:0:0:0:
288,202,6685,2,0,P|330:261|401:273,1,148,14|0,0:0|0:0,0:0:0:0:
352,302,7016,1,8,0:0:0:0:
489,264,7126,5,6,1:2:0:0:
420,357,7236,1,0,0:0:0:0:
503,278,7346,2,0,P|500:240|483:209,1,74,0|0,0:0|1:0,0:0:0:0:
348,57,7567,2,0,P|370:126|454:98,1,148,10|0,0:0|0:0,0:0:0:0:
288,202,7898,2,0,L|190:193,1,74,2|4,1:2|0:0,0:0:0:0:
116,36,8119,2,0,L|109:109,1,74,2|0,0:0|1:0,0:0:0:0:
146,334,8339,2,0,P|123:264|39:292,1,148,2|0,1:2|0:0,0:0:0:0:
35,381,8670,1,0,0:0:0:0:
37,41,8891,6,0,P|123:54|131:-43,1,148,6|0,1:2|0:0,0:0:0:0:
259,92,9221,1,0,1:2:0:0:
158,142,9332,2,0,P|138:172|138:208,1,74,14|0,0:0|0:0,0:0:0:0:
270,252,9552,2,0,P|290:222|290:186,1,74,2|0,0:0|1:0,0:0:0:0:
277,171,9883,5,0,0:0:0:0:
289,185,9994,2,0,P|290:221|270:252,1,74,0|0,1:0|0:0,0:0:0:0:
145,324,10214,2,0,P|176:305|212:307,1,74,14|0,0:0|0:0,0:0:0:0:
341,384,10435,2,0,P|309:366|292:333,1,74,8|8,0:0|0:0,0:0:0:0:
289,185,10655,5,4,1:2:0:0:
372,79,10766,1,0,0:0:0:0:
301,23,10876,2,0,P|281:67|285:103,1,74,0|0,0:0|1:0,0:0:0:0:
381,244,11096,2,0,P|369:189|278:198,1,148,10|0,0:0|0:0,0:0:0:0:
207,345,11427,2,0,P|212:297|233:267,1,74,2|4,1:2|0:0,0:0:0:0:
430,119,11648,2,0,P|399:87|365:78,1,74,2|0,0:0|1:0,0:0:0:0:
186,133,11869,1,2,0:0:0:0:
196,125,11979,2,0,P|219:189|287:183,1,148,8|0,0:0|0:0,0:0:0:0:
346,72,12310,1,0,0:0:0:0:
430,119,12420,6,0,B|397:144|397:144|411:250,1,148,6|0,1:2|0:0,0:0:0:0:
429,338,12751,1,0,1:0:0:0:
300,235,12861,2,0,P|311:270|338:295,1,74,14|0,0:0|0:0,0:0:0:0:
429,338,13082,1,0,0:0:0:0:
285,357,13192,2,0,P|315:379|351:384,1,74,2|4,1:2|0:0,0:0:0:0:
429,338,13413,1,0,0:0:0:0:
448,258,13523,2,0,P|423:230|387:218,1,74,2|0,1:2|0:0,0:0:0:0:
202,147,13744,2,0,B|237:148|267:108|267:108|293:69|352:74,1,148,14|0,0:0|0:0,0:0:0:0:
416,103,14074,1,8,0:0:0:0:
196,50,14185,5,4,1:2:0:0:
94,127,14295,1,2,0:0:0:0:
184,65,14405,2,0,P|148:55|119:34,1,74,2|0,0:0|1:0,0:0:0:0:
324,74,14626,1,14,0:0:0:0:
309,219,14736,2,0,P|330:189|340:153,1,74,2|0,0:0|0:0,0:0:0:0:
184,65,14957,2,0,P|180:101|189:137,1,74,2|4,1:2|0:0,0:0:0:0:
324,74,15214,5,10,0:0:0:0:
189,137,15361,5,10,0:0:0:0:
431,215,15508,5,10,0:2:0:0:
109,298,15655,5,8,0:3:0:0:
351,384,15802,5,8,0:3:0:0:
324,74,15949,5,6,0:0:0:0:
277,293,16060,1,8,0:0:0:0:
193,141,16611,5,2,0:0:0:0:
223,362,16722,1,8,0:0:0:0:
324,74,17052,6,0,P|342:125|415:133,1,111,0|0,1:0|0:0,0:0:0:0:
414,123,17273,1,8,0:0:0:0:
445,290,17383,2,0,B|464:273|464:273|471:229,1,66.5999979675294,0|0,1:0|0:0,0:0:0:0:
356,335,17714,5,4,0:0:0:0:
91,325,18045,1,0,0:0:0:0:
100,335,18155,2,0,B|158:331|158:331|214:356|214:356|280:348,1,166.500006351471,2|0,0:0|0:0,0:0:0:0:
232,251,18596,2,0,P|230:308|273:358,1,111.000004234314,2|0,0:0|0:0,0:0:0:0:
428,379,19038,2,0,P|439:347|439:318,1,55.5000021171571,2|0,0:0|0:0,0:0:0:0:
406,251,19258,1,2,0:0:0:0:
232,251,19479,5,0,0:0:0:0:
169,209,19699,2,0,P|193:185|219:176,1,55.5000021171571,2|0,0:0|0:0,0:0:0:0:
276,121,19920,2,0,P|308:130|328:148,1,55.5000021171571,2|0,0:0|0:0,0:0:0:0:
406,251,20141,2,0,P|394:205|437:140,1,111.000004234314,2|0,0:0|0:0,0:0:0:0:
470,313,20582,6,0,P|448:329|416:337,1,55.5000021171571,2|0,0:0|0:0,0:0:0:0:
348,384,20802,2,0,P|322:374|301:355,1,55.5000021171571,2|0,0:0|0:0,0:0:0:0:
208,369,21023,2,0,P|190:347|181:321,1,55.5000021171571,2|0,0:0|0:0,0:0:0:0:
181,321,21244,5,2,0:0:0:0:
278,45,21574,1,0,0:0:0:0:
270,36,21685,2,0,P|266:87|376:97,1,166.500006351471,2|0,0:0|0:0,0:0:0:0:
219,163,22126,2,0,P|191:164|166:176,1,55.5000021171571,2|0,0:0|0:0,0:0:0:0:
74,177,22346,2,0,P|61:201|59:248,1,55.5000021171571,2|0,0:0|0:0,0:0:0:0:
82,321,22567,1,0,0:0:0:0:
100,327,22677,2,0,B|128:298|128:298|228:305,1,111.000004234314,2|0,0:0|0:0,0:0:0:0:
314,370,23008,6,0,P|332:349|338:322,1,55.5000021171571,2|0,0:0|0:0,0:0:0:0:
334,176,23229,2,0,P|315:196|309:223,1,55.5000021171571,2|0,0:0|0:0,0:0:0:0:
415,252,23449,1,2,0:0:0:0:
87,293,23670,2,0,L|233:305,1,111.000004234314,2|0,0:0|0:0,0:0:0:0:
425,168,24111,6,0,P|418:135|407:116,1,55.5000021171571,2|0,0:0|0:0,0:0:0:0:
266,88,24332,2,0,P|297:98|320:98,1,55.5000021171571,2|0,0:0|0:0,0:0:0:0:
411,0,24552,2,0,P|386:21|374:41,1,55.5000021171571,2|0,0:0|0:0,0:0:0:0:
407,116,24773,5,4,1:2:0:0:
21,66,24993,1,4,0:0:0:0:
31,69,25104,1,0,0:0:0:0:
41,70,25214,2,0,P|74:14|136:30,1,130.240003974609,6|4,1:2|0:0,0:0:0:0:
172,121,25545,1,4,0:0:0:0:
266,88,25655,2,0,B|210:84|210:84|161:107|161:107|94:103,1,148,6|2,1:2|0:0,0:0:0:0:
62,353,26096,6,0,P|87:332|99:303,1,65.1200019873047,6|0,1:2|0:0,0:0:0:0:
18,217,26317,1,6,0:0:0:0:
23,234,26428,1,4,0:0:0:0:
29,252,26538,6,0,P|45:208|130:215,1,130.240003974609,6|4,1:2|0:0,0:0:0:0:
235,319,26869,1,0,0:0:0:0:
222,327,26979,2,0,B|186:301|186:301|204:187,1,130.240003974609,4|4,1:2|0:0,0:0:0:0:
335,215,27310,2,0,P|311:237|282:252,1,65.1200019873047,4|4,0:0|0:0,0:0:0:0:
435,101,27641,6,0,P|403:108|374:123,1,65.1200019873047,6|0,0:0|0:0,0:0:0:0:
277,48,27861,2,0,P|264:78|243:104,1,65.1200019873047,2|0,1:2|0:0,0:0:0:0:
130,56,28082,2,0,P|100:70|68:76,1,65.1200019873047,6|0,0:0|0:0,0:0:0:0:
0,16,28302,5,4,0:0:0:0:
20,312,28633,1,2,0:0:0:0:
27,305,28744,2,0,P|49:213|109:297,1,195.360005961914,6|0,1:2|0:0,0:0:0:0:
214,342,29185,2,0,L|135:335,1,65.1200019873047,2|0,0:0|0:0,0:0:0:0:
275,262,29405,1,0,1:0:0:0:
286,270,29516,2,0,P|303:297|311:329,1,65.1200019873047,2|8,0:0|0:0,0:0:0:0:
208,198,29846,6,0,P|253:175|287:172,1,65.1200019873047,10|8,0:0|0:0,0:0:0:0:
425,201,30067,6,0,P|402:132|324:117,1,148,6|0,1:2|0:0,0:0:0:0:
120,185,30398,2,0,L|269:172,1,148,2|0,0:0|0:0,0:0:0:0:
225,92,30729,2,0,P|191:155|212:307,1,222,8|8,0:0|0:0,0:0:0:0:
397,358,31170,2,0,P|360:358|326:343,1,74,2|0,1:2|1:0,0:0:0:0:
207,299,31391,2,0,P|171:299|137:314,1,74,10|0,0:2|0:0,0:0:0:0:
0,374,31611,1,0,3:3:0:0:
32,379,31721,1,0,3:3:0:0:
59,354,31832,6,0,L|51:271,1,74,4|0,1:2|0:0,0:0:0:0:
35,133,32052,2,0,P|63:156|99:161,1,74,0|0,1:0|0:0,0:0:0:0:
282,133,32273,6,0,B|250:97|189:111|189:111|165:179|216:235,1,199.800000762177,12|0,2:0|0:0,0:0:0:0:
349,292,32604,1,0,0:0:0:0:
192,366,32714,6,0,P|224:349|261:349,1,74,6|0,0:0|0:0,0:0:0:0:
356,306,32935,2,0,P|391:313|427:304,1,74,2|0,1:2|0:0,0:0:0:0:
195,206,33155,2,0,P|232:263|291:228,1,148,14|2,0:0|0:0,0:0:0:0:
282,133,33486,1,0,0:0:0:0:
108,199,33596,1,4,1:2:0:0:
108,199,33817,6,0,P|117:164|142:137,1,74,2|0,0:0|1:0,0:0:0:0:
318,193,34038,2,0,P|307:157|281:132,1,74,10|0,0:0|0:0,0:0:0:0:
174,309,34258,2,0,P|209:317|245:307,1,74,2|0,0:0|1:0,0:0:0:0:
424,342,34479,1,4,0:0:0:0:
411,307,34589,1,0,0:0:0:0:
378,294,34699,6,0,L|337:290,1,29.6,2|0,1:2|0:0,0:0:0:0:
222,376,34920,6,0,P|226:339|244:307,1,74,10|0,0:0|0:0,0:0:0:0:
433,181,35141,6,0,B|397:179|397:179|353:195|353:195|306:192,1,118.4,2|0,0:0|0:0,0:0:0:0:
122,151,35361,6,0,P|211:159|237:93,1,148,6|0,1:2|0:0,0:0:0:0:
166,251,35692,1,0,1:0:0:0:
277,304,35802,2,0,P|193:219|244:112,1,244.200007452393,14|0,0:0|1:0,0:0:0:0:
375,254,36244,2,0,P|383:289|376:325,1,74,6|0,1:2|0:0,0:0:0:0:
375,254,36464,2,0,P|395:285|398:321,1,74,2|0,1:2|0:0,0:0:0:0:
342,92,36685,2,0,P|330:126|334:162,1,74,14|0,0:0|0:0,0:0:0:0:
323,94,36905,2,0,P|319:130|335:163,1,74,2|0,0:0|0:0,0:0:0:0:
103,40,37126,6,0,B|71:60|71:60|138:47|187:84,1,148,6|0,1:2|0:0,0:0:0:0:
257,40,37457,1,0,1:0:0:0:
193,155,37567,2,0,P|179:195|184:231,1,74,14|0,0:2|0:0,0:0:0:0:
332,360,37788,2,0,P|298:283|203:339,1,222,2|8,0:0|0:0,0:0:0:0:
202,339,38229,2,0,P|227:313|263:303,1,74,6|0,0:0|0:0,0:0:0:0:
328,244,38449,2,0,P|364:254|388:280,1,74,10|0,0:0|0:0,0:0:0:0:
466,310,38670,2,0,P|474:345|464:381,1,74,2|0,1:2|1:0,0:0:0:0:
202,339,38891,5,6,0:0:0:0:
345,30,39221,1,0,1:0:0:0:
345,30,39332,2,0,B|324:76|266:82|266:82|338:75|338:75|402:89|402:89|460:81,1,277.5,12|0,1:2|0:0,0:0:0:0:
323,238,39773,2,0,P|315:190|335:147,1,74,6|0,1:2|0:0,0:0:0:0:
459,168,39994,2,0,P|424:177|397:202,1,74,2|0,1:2|0:0,0:0:0:0:
240,279,40214,2,0,P|264:308|297:325,1,74,14|0,0:0|0:0,0:0:0:0:
323,238,40435,1,2,0:0:0:0:
241,191,40545,1,0,0:0:0:0:
160,243,40655,6,0,B|130:215|130:215|147:85,1,148,4|2,1:2|0:0,0:0:0:0:
166,149,40986,1,0,1:0:0:0:
69,69,41096,2,0,P|95:41|129:27,1,74,14|0,0:0|0:0,0:0:0:0:
311,1,41317,2,0,P|280:60|207:51,1,148,2|4,0:0|0:0,0:0:0:0:
389,69,41758,6,0,P|421:85|441:116,1,74,2|0,1:2|0:0,0:0:0:0:
346,246,41979,2,0,P|343:210|360:177,1,74,12|0,0:0|0:0,0:0:0:0:
512,204,42199,2,0,P|482:223|445:225,1,74,6|0,0:0|0:0,0:0:0:0:
241,191,42420,5,8,0:0:0:0:
379,337,42641,1,0,1:0:0:0:
389,69,42861,1,10,0:2:0:0:
227,320,43082,1,0,1:0:0:0:
512,204,43302,1,10,0:0:0:0:
271,79,43523,1,8,0:0:0:0:
280,90,43633,2,0,P|319:68|402:74,1,111.000004234314,8|8,0:0|0:0,0:0:0:0:
211,135,43964,2,0,P|246:164|273:169,1,55.5000021171571
489,214,44185,5,2,1:2:0:0:
512,130,44295,1,2,1:2:0:0:
383,67,44405,1,2,1:2:0:0:
403,154,44516,1,2,1:2:0:0:
403,154,44626,1,2,1:2:0:0:
252,256,45177,6,0,L|257:305,2,37,8|8|4,0:3|0:3|0:3,0:0:0:0:
326,334,45398,1,0,1:0:0:0:
354,292,45508,1,4,0:3:0:0:
45,343,45729,1,8,0:3:0:0:
109,290,45839,1,0,1:3:0:0:
168,352,45949,1,4,0:3:0:0:
358,213,46170,6,0,P|355:193|356:170,1,29.6,8|0,0:0|0:0,0:0:0:0:
411,55,46391,1,0,0:0:0:0:
288,86,46501,6,0,P|335:141|357:212,1,148,8|0,0:0|0:0,0:0:0:0:
254,342,46721,6,0,P|252:292|267:249,1,74,8|0,0:0|0:0,0:0:0:0:
438,189,47052,1,4,0:0:0:0:
438,189,47273,5,8,0:3:0:0:
478,259,47383,1,8,1:3:0:0:
332,309,47494,1,4,0:3:0:0:
72,234,47714,5,2,1:2:0:0:
200,214,47825,1,2,1:2:0:0:
214,294,47935,1,2,1:2:0:0:
84,317,48045,1,2,1:2:0:0:
84,317,48155,1,2,1:2:0:0:
238,38,48707,6,0,L|243:87,2,37,8|8|8,0:3|0:3|0:3,0:0:0:0:
162,124,48927,1,8,0:3:0:0:
188,150,49038,1,4,0:3:0:0:
288,147,49148,2,0,L|280:246,1,74,4|4,0:3|0:3,0:0:0:0:
381,300,49369,1,4,1:3:0:0:
375,223,49479,1,0,1:0:0:0:
108,347,49699,6,0,P|105:327|106:304,1,29.6,12|0,0:0|0:0,0:0:0:0:
166,180,49920,1,0,0:0:0:0:
38,220,50030,6,0,P|85:275|107:346,1,148,8|0,0:0|0:0,0:0:0:0:
81,151,50251,6,0,P|109:109|201:93,1,148,8|0,0:0|0:0,0:0:0:0:
306,73,50582,6,0,P|285:43|257:20,1,74,4|0,0:0|0:0,0:0:0:0:
394,131,50802,6,0,P|404:148|406:179,1,37,2|2,0:0|0:0,0:0:0:0:
430,167,50913,6,0,P|429:186|417:214,1,37,2|2,0:0|0:0,0:0:0:0:
455,225,51023,6,0,P|443:241|417:260,1,37,2|2,0:0|0:0,0:0:0:0:
455,294,51133,6,0,P|435:302|405:306,1,37,2|2,0:0|0:0,0:0:0:0:
405,343,51244,6,0,B|327:336|327:336|259:350|259:350|182:343,1,222,4|0,0:0|1:0,0:0:0:0:
56,367,51685,2,0,P|51:319|86:280,1,74,14|0,0:0|0:0,0:0:0:0:
166,170,51905,2,0,P|115:218|81:74,1,296,2|0,1:2|1:0,0:0:0:0:
182,54,52457,1,0,0:0:0:0:
312,28,52567,2,0,P|315:68|290:118,1,74,14|0,0:0|0:0,0:0:0:0:
244,267,52788,2,0,P|241:202|259:170,1,74,0|0,1:0|0:0,0:0:0:0:
433,205,53008,6,0,P|358:182|331:251,1,148,2|0,1:2|0:0,0:0:0:0:
424,324,53339,1,0,1:0:0:0:
337,333,53449,2,0,L|417:340,1,74,12|0,0:0|0:0,0:0:0:0:
244,267,53670,2,4,P|160:286|149:213,1,148,0|4,0:0|0:0,0:0:0:0:
185,26,54111,1,0,1:2:0:0:
21,201,54332,1,12,0:0:0:0:
244,267,54552,1,0,1:2:0:0:
250,126,54773,6,0,P|259:157|256:210,1,55.5000021171571,2|0,0:0|0:0,0:0:0:0:
450,198,55435,6,0,P|426:220|402:267,1,55.5000021171571,2|0,0:0|0:0,0:0:0:0:
191,248,56317,6,0,P|222:255|266:284,1,55.5000021171571,2|0,0:0|0:0,0:0:0:0:
379,80,56758,5,2,0:0:0:0:
260,180,56979,1,2,0:0:0:0:
342,227,57199,1,2,0:0:0:0:
302,296,57420,1,2,0:0:0:0:
302,296,57530,1,2,0:0:0:0:
302,296,57641,1,2,0:0:0:0:
22,109,57861,6,0,P|29:128|51:150,1,37,2|2,0:0|0:0,0:0:0:0:
26,161,57972,6,0,P|41:173|71:182,1,37,2|2,0:0|0:0,0:0:0:0:
55,218,58082,6,0,P|75:220|106:212,1,37,2|2,0:0|0:0,0:0:0:0:
108,262,58192,6,0,P|127:253|150:232,1,37,2|2,0:0|0:0,0:0:0:0:
177,120,58302,6,0,P|207:74|323:170,1,222.000008468628,6|0,0:0|0:0,0:0:0:0:
306,315,58633,1,0,0:0:0:0:
498,281,58744,2,0,B|435:201|435:201|332:243,1,185,10|0,0:0|0:0,0:0:0:0:
462,41,59074,2,0,L|451:142,1,74,2|0,0:0|0:0,0:0:0:0:
89,315,59405,1,0,1:0:0:0:
78,227,59516,1,0,1:0:0:0:
86,219,59626,1,8,0:0:0:0:
86,219,59846,6,0,P|107:298|-6:317,1,199.800000762177,2|0,0:0|1:0,0:0:0:0:
0,120,60288,2,0,P|40:99|98:106,1,74,2|0,0:0|1:0,0:0:0:0:
133,165,60508,1,8,0:0:0:0:
102,16,60729,2,0,P|140:41|163:95,1,74,2|0,0:0|1:0,0:0:0:0:
75,195,60949,1,2,0:0:0:0:
80,208,61060,1,2,0:0:0:0:
86,219,61170,2,0,P|111:180|165:158,1,74,2|0,1:2|0:0,0:0:0:0:
225,79,61391,2,0,P|191:64|155:64,1,74,8|0,0:0|0:0,0:0:0:0:
327,33,61611,2,0,P|347:73|340:131,1,74,10|8,0:0|0:0,0:0:0:0:
294,279,61832,6,0,P|260:216|272:183,1,88.7999972900391,2|0,1:2|0:0,0:0:0:0:
452,214,62052,2,0,P|387:194|351:234,1,103.599996838379,2|0,0:0|1:0,0:0:0:0:
208,318,62273,2,0,P|271:308|299:254,1,103.599996838379,10|0,0:0|0:0,0:0:0:0:
328,141,62494,1,2,0:0:0:0:
275,76,62604,1,0,1:0:0:0:
265,92,62714,2,0,L|154:101,1,103.599996838379,2|0,0:0|0:0,0:0:0:0:
29,42,62935,2,0,P|63:84|52:144,1,103.599996838379,2|0,1:2|0:0,0:0:0:0:
0,240,63155,2,0,P|48:224|96:253,1,103.599996838379,10|0,0:0|0:0,0:0:0:0:
154,347,63376,2,0,B|117:317|117:317|128:187,1,177.599994580078,2|2,0:0|1:2,0:0:0:0:
340,65,63817,5,2,0:0:0:0:
234,4,63927,2,0,P|271:98|331:54,1,177.599994580078,0|0,1:0|0:0,0:0:0:0:
493,44,64258,2,0,P|445:91|444:115,1,74,4|0,0:0|0:0,0:0:0:0:
500,261,64479,2,0,P|439:231|422:235,1,59.2,2|0,1:2|0:0,0:0:0:0:
251,209,64699,1,2,0:0:0:0:
307,255,64810,1,0,0:0:0:0:
272,304,64920,1,10,0:0:0:0:
306,327,65030,1,0,0:0:0:0:
280,337,65141,1,2,0:0:0:0:
286,345,65251,1,0,0:0:0:0:
281,354,65361,6,0,L|274:142,1,177.599994580078,4|0,0:0|0:0,0:0:0:0:
405,21,65692,2,0,P|379:97|301:77,1,177.599994580078,0|0,1:0|0:0,0:0:0:0:
175,20,66023,1,2,0:0:0:0:
29,118,66133,1,0,1:0:0:0:
52,129,66244,2,0,P|63:61|214:34,1,177.599994580078,2|0,0:0|1:0,0:0:0:0:
222,384,66685,2,0,B|177:351|177:351|200:212,1,177.599994580078,8|0,0:0|0:0,0:0:0:0:
363,35,67126,6,0,P|397:124|395:135,1,88.7999972900391,0|0,1:0|0:0,0:0:0:0:
493,221,67346,2,0,P|449:222|409:202,2,88.7999972900391,0|0|8,0:0|1:0|0:0,0:0:0:0:
76,162,67788,2,0,P|115:141|159:142,1,88.7999972900391,2|0,0:0|1:0,0:0:0:0:
236,247,68008,2,0,P|255:171|330:197,1,177.599994580078,2|0,0:0|1:0,0:0:0:0:
211,322,68339,1,0,0:0:0:0:
303,353,68449,2,0,L|195:343,1,88.7999972900391,10|0,0:0|0:0,0:0:0:0:
144,379,68670,1,2,1:2:0:0:
65,251,68780,1,0,1:0:0:0:
51,345,68891,6,8,B|91:317|91:317|101:174,1,177.599994580078,12|8,0:0|0:3,0:0:0:0:
24,32,69332,1,4,0:3:0:0:
187,264,69552,1,4,1:2:0:0:
304,20,69773,2,0,P|273:73|179:30,2,177.599994580078,8|4|4,0:3|0:3|1:3,0:0:0:0:
411,307,70435,2,0,B|404:219|404:219|442:135|442:135|430:35,1,266.399991870117,4|0,0:0|0:0,0:0:0:0:
371,232,70876,6,0,P|454:225|493:299,1,177.599994580078,8|8,0:0|0:0,0:0:0:0:
204,351,71317,1,10,0:0:0:0:
227,254,71427,1,8,0:0:0:0:
222,356,71538,2,0,P|228:306|215:268,1,88.7999972900391,8|0,0:0|0:0,0:0:0:0:
45,216,71758,2,0,P|86:245|125:253,1,88.7999972900391,8|0,0:3|0:0,0:0:0:0:
188,79,71979,1,4,0:3:0:0:
171,171,72089,1,8,0:3:0:0:
180,183,72199,2,0,P|228:169|268:175,1,88.7999972900391,8|0,1:3|0:0,0:0:0:0:
436,276,72420,6,0,P|352:200|442:119,1,222.000008468628,4|0,0:0|0:0,0:0:0:0:
512,180,72751,1,0,1:0:0:0:
293,339,72861,2,0,B|230:259|230:259|126:304,1,192.399991192627,10|0,0:0|0:0,0:0:0:0:
39,340,73192,2,0,L|50:239,1,74,2|0,0:0|0:0,0:0:0:0:
243,38,73523,1,2,1:2:0:0:
254,126,73634,1,0,1:0:0:0:
265,134,73744,1,8,0:0:0:0:
510,278,73964,6,0,P|436:360|379:302,1,177.599994580078,6|0,0:0|1:0,0:0:0:0:
265,134,74405,2,0,P|321:146|345:184,1,88.7999972900391,2|0,0:0|1:0,0:0:0:0:
254,241,74626,1,8,0:0:0:0:
424,175,74846,6,0,P|411:231|373:255,1,88.7999972900391,2|0,0:0|0:0,0:0:0:0:
180,183,75067,1,2,0:0:0:0:
254,241,75177,1,2,0:0:0:0:
245,325,75288,2,0,P|257:268|295:244,1,88.7999972900391,2|0,1:2|0:0,0:0:0:0:
424,175,75508,5,8,0:0:0:0:
410,258,75619,1,0,0:0:0:0:
396,338,75729,1,0,0:0:0:0:
365,43,75949,6,0,P|342:128|248:122,1,177.599994580078,2|2,1:2|0:0,0:0:0:0:
144,41,76280,1,0,1:0:0:0:
159,29,76391,2,0,B|193:63|193:63|155:228,1,177.599994580078,10|2,0:0|0:0,0:0:0:0:
58,335,76721,2,0,P|122:263|176:311,1,177.599994580078,0|0,1:0|0:0,3:0:0:0:
313,340,77052,2,0,B|257:344|257:344|202:377|202:377|145:384,1,177.599994580078,0|8,1:0|0:0,0:0:0:0:
512,352,77494,6,0,P|453:307|458:116,1,266.399991870117,2|0,0:0|0:0,0:0:0:0:
448,128,77935,2,0,P|443:197|427:214,1,88.7999972900391,2|0,0:0|1:0,0:0:0:0:
321,339,78155,2,0,P|262:300|256:278,1,88.7999972900391,10|0,0:0|0:0,0:0:0:0:
229,117,78376,2,0,P|291:85|365:171,1,177.599994580078,4|0,0:0|0:0,0:0:0:0:
342,249,78707,1,0,0:0:0:0:
442,298,78817,2,0,L|431:198,1,88.7999972900391,2|0,1:2|0:0,0:0:0:0:
417,30,79038,5,10,0:0:0:0:
288,160,79258,1,2,0:0:0:0:
147,284,79479,2,0,B|110:243|110:243|140:97,1,177.599994580078,6|0,1:2|0:0,0:0:0:0:
234,217,79810,6,0,P|304:213|292:97,1,177.599994580078,0|0,1:0|0:0,0:0:0:0:
190,44,80141,1,2,0:0:0:0:
24,60,80251,1,0,1:0:0:0:
38,81,80362,2,0,P|81:27|225:79,1,177.599994580078,2|0,0:0|1:0,0:0:0:0:
231,341,80803,2,0,P|133:322|191:256,1,177.599994580078,10|0,0:0|0:0,0:0:0:0:
427,72,81244,6,0,P|338:106|327:104,1,88.7999972900391,0|0,1:0|0:0,0:0:0:0:
502,21,81464,2,0,P|516:63|512:107,2,88.7999972900391,0|0|8,1:0|1:0|0:0,0:0:0:0:
99,100,81905,2,0,P|79:139|80:183,1,88.7999972900391,2|0,0:0|1:0,0:0:0:0:
234,217,82126,2,0,P|194:129|155:181,1,177.599994580078,2|0,0:0|1:0,0:0:0:0:
141,297,82457,1,0,0:0:0:0:
47,273,82567,2,0,L|155:263,1,88.7999972900391,8|0,0:0|0:0,0:0:0:0:
80,183,82788,1,2,1:2:0:0:
310,342,83008,6,0,B|269:312|269:312|296:172,1,177.599994580078,2|2,1:2|0:0,0:0:0:0:
322,55,83339,1,0,1:0:0:0:
211,10,83449,2,0,P|242:86|322:68,1,177.599994580078,10|0,0:0|0:0,0:0:0:0:
470,111,83780,1,0,1:0:0:0:
413,314,83891,2,0,P|418:227|355:126,2,177.599994580078,2|0|8,1:2|0:0|0:0,0:0:0:0:
211,10,84552,6,0,P|242:86|322:68,1,177.599994580078,2|0,0:0|1:0,0:0:0:0:
49,252,84994,2,0,L|57:340,1,88.7999972900391,8|8,0:3|0:3,0:0:0:0:
203,83,85214,1,12,0:0:0:0:
203,83,85435,5,10,0:0:0:0:
121,174,85655,1,2,0:0:0:0:
190,211,85876,1,2,0:0:0:0:
130,266,86096,1,2,0:0:0:0:
149,285,86317,1,2,0:0:0:0:
428,207,86538,5,4,1:2:0:0:
358,348,86648,1,0,0:0:0:0:
370,356,86759,2,0,P|341:284|291:228,1,148,0|12,0:0|0:0,0:0:0:0:
190,211,87089,1,0,0:0:0:0:
330,156,87200,1,0,0:0:0:0:
325,140,87310,6,0,P|288:136|253:146,1,74,2|4,1:2|0:0,0:0:0:0:
190,67,87530,2,0,P|168:98|159:133,1,74,2|0,1:2|1:0,0:0:0:0:
102,213,87751,2,0,P|76:187|61:153,1,74,2|12,0:0|0:0,0:0:0:0:
97,69,87971,1,0,0:0:0:0:
205,162,88082,1,0,0:0:0:0:
188,248,88192,1,0,0:0:0:0:
180,240,88302,6,0,P|186:226|238:284,1,148,2|0,1:2|0:0,0:0:0:0:
235,357,88633,1,0,1:0:0:0:
319,310,88744,2,0,P|335:278|341:241,1,74,14|0,0:0|0:0,0:0:0:0:
303,165,88964,1,0,0:0:0:0:
418,205,89074,2,0,P|413:169|397:135,1,74,2|4,1:2|0:0,0:0:0:0:
303,165,89295,1,0,0:0:0:0:
512,77,89405,2,0,P|475:76|440:63,1,74,2|0,1:2|0:0,0:0:0:0:
328,25,89626,2,0,P|291:26|182:74,1,148,14|8,0:0|0:0,0:0:0:0:
200,22,89957,1,8,0:0:0:0:
94,63,90067,5,6,1:2:0:0:
182,147,90177,1,0,0:0:0:0:
82,57,90287,2,0,P|85:95|102:126,1,74,0|0,1:0|1:0,0:0:0:0:
130,337,90508,2,0,B|98:308|98:308|124:191,1,148,14|0,0:0|0:0,0:0:0:0:
280,89,90839,2,0,P|296:123|298:160,1,74,2|4,1:2|0:0,0:0:0:0:
424,241,91060,2,0,P|402:271|371:291,1,74,2|0,1:2|1:0,0:0:0:0:
211,317,91280,2,0,P|234:247|318:275,1,148,2|0,0:0|0:0,0:0:0:0:
296,346,91611,1,0,0:0:0:0:
383,36,91832,6,0,P|463:67|422:155,1,148,6|0,1:2|0:0,0:0:0:0:
424,241,92162,1,0,1:0:0:0:
413,316,92273,2,0,P|433:286|433:250,1,74,14|0,0:0|0:0,0:0:0:0:
317,213,92493,2,0,P|297:243|297:279,1,74,2|0,0:0|1:0,0:0:0:0:
309,288,92824,5,0,1:0:0:0:
297,279,92935,2,0,P|296:243|316:212,1,74,0|0,1:0|0:0,0:0:0:0:
432,249,93155,2,0,P|433:285|413:316,1,74,14|0,0:0|0:0,0:0:0:0:
266,357,93376,2,0,P|234:339|217:306,1,74,8|8,0:0|0:0,0:0:0:0:
223,185,93596,5,4,0:0:0:0:
268,120,93707,1,0,0:0:0:0:
268,120,93817,2,0,P|237:138|211:182,1,74,0|0,1:0|1:0,0:0:0:0:
398,234,94038,2,0,P|309:234|334:327,1,148,14|0,0:0|0:0,0:0:0:0:
486,256,94369,2,0,P|489:219|477:184,1,74,2|4,1:2|0:0,0:0:0:0:
501,69,94589,2,0,P|471:47|435:41,1,74,2|0,1:2|1:0,0:0:0:0:
259,130,94810,1,2,0:0:0:0:
266,119,94920,2,0,P|330:95|322:26,1,148,12|0,0:0|1:0,0:0:0:0:
114,157,95251,1,0,1:0:0:0:
146,239,95361,6,0,B|179:214|179:214|165:108,1,148,6|0,1:2|0:0,0:0:0:0:
160,29,95692,1,0,1:0:0:0:
20,55,95802,2,0,P|50:74|87:76,1,74,14|0,0:0|0:0,0:0:0:0:
160,29,96023,1,0,0:0:0:0:
114,157,96133,2,0,P|146:140|166:109,1,74,2|4,1:2|0:0,0:0:0:0:
160,29,96354,1,0,1:0:0:0:
18,157,96464,6,0,P|19:193|39:224,1,74,2|0,1:2|0:0,0:0:0:0:
217,256,96685,2,0,P|184:239|147:240,1,74,14|0,0:0|0:0,0:0:0:0:
23,377,96905,2,0,P|53:357|70:324,1,74,8|8,0:0|0:0,0:0:0:0:
104,73,97126,5,4,1:2:0:0:
27,146,97236,1,2,0:0:0:0:
119,84,97346,2,0,P|109:120|113:155,1,74,2|0,0:0|1:0,0:0:0:0:
147,240,97567,1,14,0:0:0:0:
266,340,97677,2,0,P|250:306|224:280,1,74,2|0,0:0|0:0,0:0:0:0:
273,136,97898,2,0,P|263:171|267:208,1,74,0|4,1:0|0:0,0:0:0:0:
324,74,98155,5,10,0:0:0:0:
297,278,98302,5,10,0:0:0:0:
149,154,98449,5,10,0:0:0:0:
458,89,98596,5,8,0:3:0:0:
382,363,98743,5,4,0:3:0:0:
324,74,98891,5,8,0:0:0:0:
297,278,99001,1,8,0:0:0:0:
149,154,99111,2,0,P|100:169|59:147,2,74,8|0|8,0:0|1:0|0:3,0:0:0:0:
228,94,99442,1,4,0:3:0:0:
237,105,99552,2,0,L|228:199,1,74,8|4,1:3|1:3,0:0:0:0:
186,322,99773,2,0,L|177:227,1,74,8|0,1:2|1:0,0:0:0:0:
352,199,99994,5,10,0:0:0:0:
352,199,100214,5,10,0:0:0:0:
149,154,100324,1,10,0:0:0:0:
402,119,100655,6,0,P|435:152|439:209,2,69.0666645589193,2|0|2,1:2|0:0|0:0,0:0:0:0:
426,259,101096,2,0,P|460:262|492:251,2,69.0666645589193,2|0|2,1:2|0:0|0:0,0:0:0:0:
352,199,101538,6,0,P|317:195|285:206,2,69.0666645589193,2|0|2,1:2|0:0|0:0,0:0:0:0:
223,150,101979,2,0,P|202:177|196:211,2,69.0666645589193,2|0|2,1:2|0:0|0:0,0:0:0:0:
112,232,102420,6,0,P|125:263|151:285,1,69.0666645589193,2|0,1:2|0:0,0:0:0:0:
240,286,102714,1,2,0:0:0:0:
392,298,102861,6,0,P|364:277|330:271,1,69.0666645589193,2|0,1:2|0:0,0:0:0:0:
240,286,103155,1,0,0:0:0:0:
207,374,103302,5,2,1:2:0:0:
240,286,103449,1,2,0:0:0:0:
196,211,103596,1,2,0:0:0:0:
151,285,103744,5,2,1:2:0:0:
240,286,103891,1,2,0:0:0:0:
280,210,104038,1,2,0:0:0:0:
132,160,104185,6,0,P|179:131|214:135,1,69.0666645589193,2|0,1:2|0:0,0:0:0:0:
196,211,104479,1,2,0:0:0:0:
114,70,104626,5,2,1:2:0:0:
188,44,104773,1,2,0:0:0:0:
250,86,104920,1,2,0:2:0:0:
331,55,105067,5,2,1:2:0:0:
257,116,105214,1,2,0:0:0:0:
280,210,105361,1,2,0:2:0:0:
358,198,105508,5,2,1:2:0:0:
207,190,105655,1,2,0:0:0:0:
279,313,105802,1,2,0:2:0:0:
257,116,105949,5,2,1:2:0:0:
358,198,106096,2,0,P|373:274|363:306,1,69.0666645589193,2|2,1:2|0:0,0:0:0:0:
347,118,106391,5,2,1:2:0:0:
207,190,106538,2,0,P|166:256|165:289,1,69.0666645589193,2|2,1:2|0:0,0:0:0:0:
212,39,106832,5,2,1:2:0:0:
262,246,106979,2,0,P|277:322|267:354,1,69.0666645589193,2|2,1:2|0:0,0:0:0:0:
416,36,107273,5,2,1:2:0:0:
347,118,107420,2,0,P|332:194|342:226,1,69.0666645589193,2|2,1:2|0:0,0:0:0:0:
462,299,107714,6,0,P|411:258|370:271,1,103.599996838379,2|0,1:2|0:0,0:0:0:0:
278,312,108155,1,0,1:0:0:0:
197,154,108376,1,4,0:0:0:0:
203,165,108486,1,4,0:0:0:0:
207,175,108596,2,0,L|196:293,1,103.599996838379,8|0,0:0|0:0,0:0:0:0:
92,329,109038,2,0,P|117:332|137:348,1,51.7999984191895
16,371,109258,1,4,1:2:0:0:
126,230,109479,5,0,0:0:0:0:
126,230,109699,5,0,1:2:0:0:
133,240,109810,2,0,L|184:244,1,51.7999984191895,4|4,0:0|0:0,0:0:0:0:
287,217,110030,1,6,0:0:0:0:
319,322,110141,1,4,0:0:0:0:
313,311,110251,2,0,L|234:318,1,51.7999984191895,4|8,0:0|0:0,0:0:0:0:
438,350,110582,2,0,P|424:278|462:236,2,103.599996838379,2|2|6,0:0|0:0|0:0,0:0:0:0:
421,247,111133,1,4,0:0:0:0:
495,184,111244,6,0,B|509:61|509:61|460:84,1,155.399995257568,2|0,1:2|0:0,0:0:0:0:
276,128,111685,6,0,P|370:147|322:33,1,266.399991870117,2|4,0:0|0:0,0:0:0:0:
185,73,112126,6,0,B|141:50|100:76|100:76|100:132|153:160,2,177.6,14|2|10,2:0|0:0|0:0,0:0:0:0:
100,299,113008,6,0,L|94:258,1,25.8999992095948,2|0,0:0|0:0,0:0:0:0:
256,167,114773,6,0,P|237:65|352:140,1,266.399991870117,4|0,0:0|1:0,0:0:0:0:
386,268,115214,2,0,B|398:159|398:159|457:132,1,148,14|0,0:0|0:0,0:0:0:0:
482,283,115545,1,0,1:0:0:0:
488,299,115655,2,0,P|467:347|403:361,1,74,2|0,0:0|0:0,0:0:0:0:
317,344,115876,2,0,P|285:301|305:239,1,74,2|0,1:2|0:0,0:0:0:0:
224,105,116096,2,0,P|255:147|235:209,1,74,14|0,0:0|0:0,0:0:0:0:
139,328,116317,2,0,P|135:252|206:267,1,148,2|4,0:0|1:2,0:0:0:0:
410,172,116758,5,2,1:2:0:0:
350,245,116869,1,0,1:2:0:0:
435,253,116979,2,0,P|361:241|337:213,1,74,14|0,0:0|0:0,0:0:0:0:
212,109,117199,1,2,1:2:0:0:
224,105,117310,2,0,P|272:151|222:219,1,118.4,0|0,1:2|0:0,0:0:0:0:
104,258,117641,6,0,L|194:265,1,74,2|0,1:2|0:0,0:0:0:0:
345,305,117861,2,0,L|254:312,1,74,14|0,0:0|0:0,0:0:0:0:
508,259,118082,2,0,L|434:252,1,74,10|8,0:0|0:0,0:0:0:0:
484,108,118302,5,4,1:2:0:0:
484,108,118523,2,0,B|444:174|368:165|368:165|325:93|383:11,1,266.399991870117,2|0,0:0|0:0,0:0:0:0:
364,42,118964,2,0,P|335:98|296:114,1,59.2,2|0,1:2|1:0,0:0:0:0:
281,158,119185,2,0,P|217:160|184:134,1,59.2,6|0,1:2|0:0,0:0:0:0:
142,163,119405,2,0,P|108:109|113:67,1,59.2,2|0,1:2|0:0,0:0:0:0:
91,68,119626,6,0,P|139:113|107:207,1,118.4,14|2,0:0|0:0,0:0:0:0:
45,279,119957,1,0,0:0:0:0:
51,289,120067,6,0,B|22:253|22:253|50:129,1,148,2|0,1:2|0:0,0:0:0:0:
395,310,120508,6,0,P|284:299|380:194,1,277.5,10|0,0:0|0:0,0:0:0:0:
459,130,120949,6,0,L|450:233,1,81.4000024841309,6|0,0:0|0:0,0:0:0:0:
293,60,121170,2,0,L|396:51,1,81.4000024841309,2|0,1:2|0:0,0:0:0:0:
119,38,121391,2,0,P|201:96|132:163,1,162.800004968262,10|8,0:0|0:0,0:0:0:0:
50,344,121721,1,8,0:0:0:0:
62,355,121832,6,0,B|55:277|55:277|89:204|89:204|78:116,1,244.200007452393,4|0,0:0|0:0,0:0:0:0:
78,119,122273,2,0,P|46:212|181:272,1,244.200007452393,10|0,0:0|1:0,0:0:0:0:
256,193,122714,2,0,P|286:256|269:291,1,59.2,2|0,0:0|0:0,0:0:0:0:
387,328,122935,2,0,P|317:322|295:290,1,59.2,2|0,1:2|0:3,0:3:0:0:
208,377,123155,2,0,P|247:319|286:316,1,59.2,10|0,0:0|0:3,0:3:0:0:
470,196,123376,6,0,P|415:238|374:163,1,166.500006351471,2|0,0:0|0:0,0:0:0:0:
444,107,123817,2,0,P|421:83|389:75,1,59.2,2|0,1:2|1:0,0:0:0:0:
332,22,124038,2,0,P|300:30|278:53,1,59.2,10|0,0:0|0:0,0:0:0:0:
209,81,124258,2,0,P|201:112|210:143,1,59.2,2|0,0:0|1:0,0:0:0:0:
207,138,124699,6,0,P|201:109|209:81,1,59.2,2|0,1:2|0:0,0:0:0:0:
281,48,124920,2,0,P|303:28|332:22,1,59.2,10|0,0:0|0:0,0:0:0:0:
396,75,125141,2,0,P|424:85|444:107,1,59.2,14|8,0:0|0:0,0:0:0:0:
357,315,125361,6,0,B|349:210|349:210|401:117,1,148,8|0,0:0|0:0,0:0:0:0:
118,59,125802,6,0,P|189:50|189:154,1,177.599994580078,10|0,0:0|0:0,0:0:0:0:
40,313,126133,1,0,0:0:0:0:
30,299,126244,6,0,B|93:208|93:208|204:254,1,222,10|0,0:0|0:0,0:0:0:0:
427,108,126795,5,8,0:3:0:0:
286,186,126905,1,4,0:3:0:0:
212,47,127015,1,8,1:3:0:0:
286,186,127126,5,2,1:2:0:0:
302,103,127236,1,2,1:2:0:0:
173,166,127346,1,2,1:2:0:0:
196,250,127457,1,2,1:2:0:0:
196,250,127567,1,2,1:2:0:0:
382,103,128119,6,0,L|387:54,2,37,8|8|4,0:3|0:3|0:3,0:0:0:0:
456,25,128340,1,0,1:0:0:0:
484,67,128450,1,4,0:3:0:0:
222,38,128671,1,8,0:3:0:0:
175,137,128781,1,0,1:0:0:0:
247,229,128891,1,0,0:0:0:0:
247,229,129112,6,0,P|227:232|204:231,1,29.6,8|0,0:2|0:0,0:0:0:0:
87,158,129333,1,0,0:0:0:0:
120,299,129443,6,0,P|175:252|246:230,1,148,8|0,0:0|0:0,0:0:0:0:
369,318,129663,6,0,P|332:325|296:321,1,74,8|0,0:0|0:0,0:0:0:0:
296,321,130214,5,0,1:0:0:0:
246,229,130324,1,8,0:3:0:0:
217,349,130435,1,4,0:3:0:0:
329,141,130655,5,2,1:2:0:0:
343,224,130766,1,2,1:2:0:0:
483,258,130876,1,2,1:2:0:0:
469,175,130987,1,2,1:2:0:0:
469,175,131096,1,2,1:2:0:0:
169,15,131648,6,0,L|164:64,2,37,8|8|4,0:3|0:3|0:3,0:0:0:0:
245,101,131868,1,8,0:3:0:0:
219,127,131979,1,4,0:3:0:0:
119,124,132089,2,0,L|128:211,1,74,4|4,0:3|0:3,0:0:0:0:
26,277,132310,1,4,1:3:0:0:
32,200,132420,1,0,1:0:0:0:
400,320,132641,6,0,P|403:300|402:277,1,29.6,8|0,0:0|0:0,0:0:0:0:
319,129,132862,1,0,0:0:0:0:
470,193,132971,6,0,P|423:248|401:319,1,148,8|0,0:0|0:0,0:0:0:0:
420,126,133193,6,0,P|405:78|376:43,1,74,8|0,0:0|0:0,0:0:0:0:
44,30,133523,6,0,P|24:61|15:97,1,74,6|0,0:0|0:0,0:0:0:0:
72,170,133744,2,0,P|145:178|102:308,1,222,8|0,0:3|0:0,0:0:0:0:
67,335,134185,6,0,B|139:330|139:330|209:361|209:361|291:351,1,222,4|0,0:0|0:0,0:0:0:0:
261,287,134626,2,0,P|257:317|308:359,1,74,10|0,0:0|0:0,0:0:0:0:
492,342,134846,2,0,P|445:301|368:321,1,148,2|4,0:0|0:0,0:0:0:0:
512,105,135288,1,2,1:2:0:0:
247,32,135508,2,0,L|261:195,1,148,10|0,0:0|1:0,0:0:0:0:
492,342,135949,6,0,P|466:281|382:311,1,148,2|4,1:2|0:0,0:0:0:0:
327,354,136280,1,0,1:0:0:0:
333,370,136391,2,0,L|231:360,1,74,8|0,0:0|0:0,0:0:0:0:
57,346,136611,2,0,P|119:371|92:227,1,296,2|4,1:2|0:0,0:0:0:0:
264,261,137273,1,8,0:0:0:0:
309,64,137494,1,4,0:0:0:0:
250,126,137714,6,0,P|259:157|256:210,1,55.5000021171571,2|0,0:0|0:0,0:0:0:0:
450,198,138376,6,0,P|426:220|402:267,1,55.5000021171571,2|0,0:0|0:0,0:0:0:0:
191,248,139258,6,0,P|222:255|266:284,1,55.5000021171571,2|0,0:0|0:0,0:0:0:0:
311,322,139700,5,2,0:0:0:0:
311,322,139920,1,2,0:0:0:0:
413,238,140141,1,2,0:0:0:0:
207,103,140361,1,2,0:0:0:0:
362,60,140582,5,2,0:0:0:0:
351,144,140692,1,2,0:0:0:0:
239,222,140913,5,2,0:0:0:0:
243,265,141023,1,2,0:0:0:0:
437,208,141244,6,0,P|440:134|469:66,1,148,2|8,0:0|0:3,0:0:0:0:
313,173,141685,1,4,0:0:0:0:
458,293,141905,1,0,0:0:0:0:
499,107,142126,1,4,0:3:0:0:
308,319,142346,6,0,P|337:306|372:299,1,66.5999979675294,8|0,1:3|0:3,0:3:0:0:
152,336,142567,2,0,P|164:307|189:279,1,66.5999979675294,4|0,1:3|0:0,0:0:0:0:
3,274,142788,2,0,P|34:268|67:252,1,66.5999979675294,8|8,0:0|0:0,0:0:0:0:
202,178,143008,6,0,B|237:135|211:72|211:72|141:56|104:98,1,222.000008468628,4|0,2:0|0:0,0:0:0:0:
63,252,143339,1,0,1:0:0:0:
283,297,143449,2,0,P|199:270|162:377,1,185,10|0,0:0|0:0,0:0:0:0:
317,376,143780,2,0,L|391:382,1,74,2|0,1:2|0:0,0:0:0:0:
102,183,144111,1,2,1:2:0:0:
190,172,144222,1,0,0:0:0:0:
202,178,144332,1,8,0:0:0:0:
202,178,144552,6,0,B|184:275|184:275|301:300,1,199.800000762177,2|0,0:0|1:0,0:0:0:0:
69,133,144994,2,0,P|109:112|167:119,1,74,2|0,0:2|1:0,0:0:0:0:
202,178,145214,1,8,0:0:0:0:
171,29,145435,2,0,P|209:54|232:108,1,74,2|0,0:0|1:0,0:0:0:0:
133,262,145655,1,0,0:0:0:0:
146,260,145766,1,0,0:0:0:0:
159,257,145876,2,0,P|127:222|120:164,1,74,0|0,1:0|0:0,0:0:0:0:
36,197,146096,2,0,P|50:152|96:117,1,74,8|0,0:0|0:0,0:0:0:0:
99,33,146317,2,0,P|144:23|197:45,1,74,10|8,0:0|0:0,0:0:0:0:
334,146,146538,6,0,P|265:156|247:148,1,81.4000024841309,2|0,1:2|0:0,0:0:0:0:
282,0,146758,2,0,P|294:68|289:93,1,81.4000024841309,2|0,0:0|1:0,0:0:0:0:
403,217,146979,2,0,P|470:229|491:218,1,88.7999972900391,10|0,0:0|2:0,0:0:0:0:
449,66,147199,2,0,P|439:132|445:152,1,88.7999972900391,2|0,0:0|1:0,0:0:0:0:
512,318,147420,1,2,0:0:0:0:
241,272,147641,1,2,1:2:0:0:
251,286,147751,2,0,P|297:243|329:239,1,92.5,2|8,0:0|2:0,0:0:0:0:
52,338,148082,6,0,P|137:342|146:247,1,185,2|0,0:0|1:0,0:0:0:0:
31,73,148523,1,2,0:2:0:0:
43,86,148633,2,0,B|80:45|80:45|87:206,1,185,0|0,1:0|0:0,0:0:0:0:
52,338,148964,2,0,P|90:293|147:296,1,88.7999972900391,4|0,0:0|0:0,0:0:0:0:
204,330,149185,2,0,P|261:318|287:267,1,88.7999972900391,2|0,0:0|0:0,0:0:0:0:
371,119,149405,1,2,1:2:0:0:
291,172,149516,1,0,0:0:0:0:
361,208,149626,1,10,0:0:0:0:
340,247,149736,1,8,0:0:0:0:
353,261,149846,1,2,0:0:0:0:
353,281,149957,1,0,0:0:0:0:
363,289,150067,6,0,P|367:226|332:105,1,177.599994580078,6|0,1:2|0:0,0:0:0:0:
162,67,150398,2,0,P|216:98|273:17,1,177.599994580078,0|0,1:0|0:0,0:0:0:0:
67,77,150729,1,2,0:0:0:0:
77,265,150839,1,0,1:0:0:0:
65,258,150949,2,0,B|61:200|61:200|86:144|86:144|78:78,1,177.599994580078,2|0,0:0|1:0,0:0:0:0:
0,305,151391,6,0,P|-10:280|145:240,1,266.399991870117,10|0,0:0|0:0,0:0:0:0:
226,329,151832,2,0,L|102:336,2,88.7999972900391,0|0|0,1:0|0:0|0:0,0:0:0:0:
319,288,152163,1,0,1:0:0:0:
329,271,152273,2,0,P|348:327|343:369,1,88.7999972900391,8|0,0:0|0:0,0:0:0:0:
450,144,152494,6,0,P|412:190|403:231,1,88.7999972900391,2|0,1:2|1:0,0:0:0:0:
224,169,152714,2,0,P|318:179|312:90,1,177.599994580078,2|0,0:0|1:0,0:0:0:0:
106,92,153045,1,0,0:0:0:0:
207,87,153155,2,0,L|118:78,1,88.7999972900391,10|0,0:0|0:0,0:0:0:0:
194,0,153376,1,10,0:0:0:0:
224,169,153486,1,8,0:0:0:0:
329,114,153596,5,4,0:0:0:0:
419,320,153817,2,0,L|427:223,1,88.7999972900391,8|0,0:3|0:0,0:0:0:0:
186,258,154038,1,4,0:3:0:0:
288,38,154258,1,4,0:0:0:0:
329,283,154479,6,0,P|352:181|303:81,2,177.599994580078,2|4|8,0:0|0:3|0:3,0:0:0:0:
64,42,155141,2,0,P|0:49|27:158,1,177.599994580078,4|0,0:0|0:0,0:0:0:0:
329,283,155582,6,0,L|222:293,1,88.7999972900391,10|0,0:0|0:0,0:0:0:0:
254,176,155802,1,8,0:0:0:0:
266,71,155913,1,8,0:0:0:0:
257,79,156023,2,0,L|269:199,1,88.7999972900391,10|8,0:0|0:0,0:0:0:0:
239,291,156244,2,0,P|205:263|184:225,1,88.7999972900391,10|0,0:0|0:0,0:0:0:0:
349,169,156464,2,0,P|332:214|298:242,1,88.7999972900391,10|0,0:0|0:0,0:0:0:0:
64,127,156685,2,0,P|111:133|169:185,1,88.7999972900391,8|8,0:3|0:3,0:0:0:0:
75,292,156905,5,4,0:3:0:0:
183,224,157016,1,4,0:3:0:0:
292,298,157126,2,0,P|277:302|268:174,1,222.000008468628,4|0,0:0|0:0,0:0:0:0:
393,234,157457,1,0,1:0:0:0:
374,31,157567,2,0,B|384:134|384:134|478:108,1,199.800000762177,10|0,0:0|0:0,0:0:0:0:
374,31,157898,1,2,0:0:0:0:
49,285,158229,2,0,L|40:212,1,74,2|0,1:2|0:0,0:0:0:0:
62,368,158449,1,8,0:0:0:0:
145,27,158670,6,0,B|96:31|96:31|49:59|49:59|-1:65,1,148,2|0,0:0|1:0,0:0:0:0:
330,72,159111,2,0,L|246:79,1,74,2|0,1:2|0:0,0:0:0:0:
393,234,159332,2,0,L|400:138,1,74,10|0,0:0|0:0,0:0:0:0:
309,295,159552,1,2,0:0:0:0:
160,117,159773,5,2,0:0:0:0:
244,196,159883,1,2,0:0:0:0:
148,133,159993,2,0,P|144:95|155:61,1,74,2|0,1:2|0:0,0:0:0:0:
140,268,160214,1,8,0:0:0:0:
48,318,160324,1,0,0:0:0:0:
145,286,160434,2,0,P|161:251|162:216,1,74,10|8,0:0|0:0,0:0:0:0:
42,112,160655,6,0,B|-7:124|-21:200|-21:200|31:249|84:231,1,222.000008468628,2|2,1:2|0:0,0:0:0:0:
225,112,160986,1,0,0:0:0:0:
233,125,161096,2,0,P|303:122|334:145,1,99.9000003810883,10|0,0:0|0:0,0:0:0:0:
374,68,161317,2,0,P|411:127|407:166,1,99.9000003810883,2|0,0:0|1:0,0:0:0:0:
334,368,161538,2,0,P|296:308|300:270,1,99.9000003810883,2|0,0:0|0:0,0:0:0:0:
212,273,161759,2,0,P|244:210|280:195,1,99.9000003810883,2|0,1:2|0:0,0:0:0:0:
233,125,161979,2,0,P|303:122|334:145,1,99.9000003810883,10|0,0:0|0:0,0:0:0:0:
409,255,162199,6,0,B|448:273|448:273|430:62,1,222,2|0,0:0|0:0,0:0:0:0:
507,43,162641,2,0,P|439:-1|383:28,1,99.9000003810883,2|0,0:0|1:0,0:0:0:0:
346,65,162861,2,0,P|304:91|256:85,1,99.9000003810883,10|0,0:0|0:0,0:0:0:0:
143,0,163082,2,0,B|178:34|178:34|144:229,1,199.800000762177,4|2,0:0|0:0,0:0:0:0:
0,71,163523,1,2,1:2:0:0:
57,357,163744,2,0,P|100:272|193:308,1,199.800000762177,10|0,0:0|0:0,0:0:0:0:
318,366,164185,6,0,B|273:334|273:334|307:154,1,199.800000762177,6|0,1:2|0:0,0:0:0:0:
389,213,164516,1,0,1:0:0:0:
265,105,164626,2,0,P|211:197|256:259,1,99.9000003810883,8|0,0:0|0:0,0:0:0:0:
243,267,164846,2,0,P|350:268|381:198,1,99.9000003810883,2|0,0:0|1:0,0:0:0:0:
430,111,165067,2,0,B|393:129|349:114|349:114|372:124|423:183|371:244,1,199.800000762177,2|0,0:0|1:0,0:0:0:0:
148,137,165508,6,0,P|180:163|258:74,1,162.800004968262,10|0,0:0|0:0,0:0:0:0:
60,96,165949,2,0,B|55:155|55:155|81:213|81:213|73:282,1,192.399991192627,0|0,1:2|0:0,0:0:0:0:
0,220,166280,1,0,1:0:0:0:
8,226,166391,2,0,P|66:195|139:233,1,96.1999955963137,8|0,0:0|0:0,0:0:0:0:
232,322,166611,2,0,P|176:287|172:205,1,96.1999955963137,2|0,0:0|1:0,0:0:0:0:
208,91,166832,6,0,B|237:111|239:152|239:152|192:185|141:160,1,133.199995935059,2|0,0:0|1:0,0:0:0:0:
442,75,167273,6,0,P|354:43|328:83,1,88.7999972900391,10|0,0:0|0:0,0:0:0:0:
311,100,167494,1,2,0:0:0:0:
307,355,167714,6,0,B|266:325|266:325|293:185,1,177.599994580078,2|2,1:2|0:0,0:0:0:0:
310,84,168045,1,0,1:0:0:0:
200,42,168155,2,0,P|231:118|311:100,1,177.599994580078,10|2,0:0|0:0,0:0:0:0:
470,111,168486,1,0,1:0:0:0:
415,326,168597,2,0,P|420:239|357:138,2,177.599994580078,2|2|10,0:0|1:2|0:0,0:0:0:0:
216,45,169258,6,0,P|249:128|317:77,1,177.599994580078,2|0,0:0|1:0,0:0:0:0:
199,290,169699,2,0,L|189:180,1,88.7999972900391,2|0,0:0|1:0,0:0:0:0:
325,257,169920,1,8,0:0:0:0:
118,88,170141,5,2,0:2:0:0:
269,130,170361,1,2,1:2:0:0:
164,209,170582,1,2,1:2:0:0:
234,248,170802,1,10,0:2:0:0:
199,290,171023,1,10,0:2:0:0:
276,347,171244,6,0,L|340:338,1,37,4|0,0:0|0:0,0:0:0:0:
261,242,172788,6,0,P|316:259|344:303,1,92.5,2|0,0:0|0:0,0:0:0:0:
338,285,173008,6,0,P|341:185|367:164,1,111.000004234314,2|4,0:0|0:0,0:0:0:0:
474,87,173449,1,4,0:0:0:0:
459,105,173560,2,0,P|403:109|380:94,1,55.5000021171571,8|4,0:0|0:0,0:0:0:0:
295,63,173780,1,8,0:0:0:0:
320,49,173891,1,4,0:0:0:0:
136,91,174111,2,0,L|213:95,1,55.5000021171571,8|0,0:0|0:0,0:0:0:0:
128,73,174332,1,8,0:3:0:0:
87,231,174442,2,0,P|72:161|36:132,1,111.000004234314,8|4,0:3|0:3,0:0:0:0:
74,244,174774,5,4,1:2:0:0:
33,349,174884,1,8,0:3:0:0:
165,331,174994,2,0,P|80:326|69:335,1,55.5000021171571,8|0,0:0|0:0,0:0:0:0:
237,365,175215,2,0,P|264:366|290:358,1,55.5000021171571,4|0,1:2|0:0,0:0:0:0:
440,310,175436,6,0,L|404:308,2,37.000001411438,8|8|8,0:0|0:0|0:0,0:0:0:0:
459,296,175656,2,0,P|417:273|341:296,1,111.000004234314,4|4,1:2|0:0,0:0:0:0:
290,358,175987,1,8,0:0:0:0:
259,255,176097,1,4,1:2:0:0:
361,119,176290,6,0,L|358:168,1,27.7500010585785,2|0,0:0|0:0,0:0:0:0:
224,88,176538,2,0,P|251:86|276:73,1,55.5000021171571,6|0,1:2|0:0,0:0:0:0:
144,55,176759,1,10,0:0:0:0:
116,184,176868,2,0,P|146:122|138:98,1,55.5000021171571,2|4,0:0|1:2,0:0:0:0:
144,55,177089,1,10,0:0:0:0:
144,55,177310,5,8,0:0:0:0:
224,88,177420,2,0,P|251:86|276:73,1,55.5000021171571,6|0,1:2|0:0,0:0:0:0:
384,4,177641,1,14,0:0:0:0:
357,34,177751,1,10,0:0:0:0:
361,76,177861,2,0,L|368:166,1,55.5000021171571,6|8,0:0|0:3,0:0:0:0:
454,217,178082,1,0,0:3:0:0:
470,119,178192,1,8,1:3:0:0:
233,189,178413,5,10,0:0:0:0:
281,321,178523,1,10,0:0:0:0:
327,231,178633,1,10,0:0:0:0:
307,237,178744,1,10,0:0:0:0:
166,268,178854,1,10,0:0:0:0:
270,69,179074,1,10,0:0:0:0:
464,186,179295,5,10,0:0:0:0:
307,237,179405,1,10,0:0:0:0:
327,231,179515,1,10,0:0:0:0:
431,341,179626,2,0,L|425:275,1,55.5000021171571,8|8,0:0|0:0,0:0:0:0:
333,336,179846,2,0,P|307:324|280:320,1,55.5000021171571,8|4,1:3|1:3,0:0:0:0:
190,352,180067,1,0,1:2:0:0:
110,116,180280,6,0,P|151:147|161:198,1,83.2500031757356,10|0,0:0|0:0,0:0:0:0:
154,187,180509,5,6,1:2:0:0:
165,43,180623,1,10,0:0:0:0:
165,43,180831,5,10,0:0:0:0:
303,138,180941,1,6,1:2:0:0:
290,152,181052,2,0,P|229:135|214:137,1,55.5000021171571,2|12,0:0|0:0,0:0:0:0:
23,197,181272,1,2,0:0:0:0:
23,197,181493,6,0,P|71:194|83:184,1,55.5000021171571,8|4,0:3|0:0,0:0:0:0:
167,58,181713,2,0,P|132:95|128:107,1,55.5000021171571,4|0,0:3|1:0,0:0:0:0:
133,121,181934,5,8,1:3:0:0:
56,13,182044,1,14,0:0:0:0:
386,70,182265,6,0,L|389:39,1,27.7500010585785,2|0,0:0|0:0,0:0:0:0:
286,124,182834,5,2,0:0:0:0:
290,152,182941,1,6,0:0:0:0:
402,232,183048,2,0,P|341:215|329:299,1,166.500006351471,10|12,0:0|0:0,0:0:0:0:
327,297,183584,5,2,1:2:0:0:
190,360,183717,6,0,L|114:352,2,74,2|14|2,0:0|0:0|0:0,0:0:0:0:
4,249,184046,5,6,1:2:0:0:
79,276,184157,1,10,0:0:0:0:
149,235,184267,1,6,0:0:0:0:
159,155,184377,1,10,0:0:0:0:
27,111,184469,6,0,L|107:105,1,74,6|0,1:2|0:0,0:0:0:0:
270,33,184700,6,0,L|193:27,1,74,10|0,0:2|0:0,0:0:0:0:
369,105,184920,5,6,1:2:0:0:
377,119,184993,5,2,0:0:0:0:
385,134,185067,5,2,0:0:0:0:
394,148,185141,6,0,P|384:180|387:201,2,55.5,6|0|0,0:3|0:0|0:0,0:0:0:0:
457,236,185356,6,0,P|464:285|448:322,2,74,6|10|2,0:0|0:0|1:2,0:0:0:0:
447,311,185687,1,2,0:0:0:0:
262,339,185784,6,0,L|373:344,1,111.000004234314,2|8,1:2|0:0,0:0:0:0:
167,361,186094,5,8,0:0:0:0:
175,376,186232,1,2,1:2:0:0:
211,116,186452,2,0,L|125:129,1,55.5000021171571
300,253,186673,2,0,L|293:210,5,37.000001411438,2|2|2|0|0|0,0:0|0:0|0:0|0:0|0:0|0:0,0:0:0:0:
288,262,187107,6,0,P|273:203|283:148,1,111.000004234314,10|4,1:2|0:0,0:0:0:0:
400,150,187438,2,0,P|383:91|347:48,1,111.000004234314,10|0,0:0|1:0,0:0:0:0:
352,53,187741,6,0,P|411:68|466:58,1,111.000004234314,10|0,0:0|0:0,0:0:0:0:
463,52,188001,5,2,0:0:0:0:
370,283,188221,5,10,0:0:0:0:
148,112,188552,6,0,P|204:58|267:194,1,277.500010585785,2|0,0:0|0:0,0:0:0:0:
175,267,189398,5,2,0:0:0:0:
185,252,189450,6,0,L|190:317,2,55.5000021171571,6|2|14,0:0|0:0|0:0,0:0:0:0:
193,241,189753,1,6,1:2:0:0:
111,228,189863,1,2,0:0:0:0:
70,156,189973,1,6,0:0:0:0:
100,79,190083,1,10,0:0:0:0:
230,36,190194,6,0,L|167:32,1,55.5000021171571,6|2,1:2|0:0,0:0:0:0:
308,95,190442,1,6,0:0:0:0:
445,36,190552,2,0,L|441:4,1,27.7500010585785,2|2,0:0|0:0,0:0:0:0:
431,47,190652,2,0,P|410:94|409:110,2,55.5000021171571,2|2|10,1:2|0:0|0:0,0:0:0:0:
361,238,191681,5,2,0:0:0:0:
360,253,191754,2,0,P|329:157|341:75,1,166.500006351471,2|8,0:0|0:3,0:0:0:0:
248,248,192196,1,4,0:3:0:0:
16,80,192420,5,4,0:0:0:0:
92,50,192567,5,8,0:0:0:0:
159,100,192714,5,10,0:0:0:0:
227,40,192861,5,8,1:2:0:0:
160,114,193008,1,8,0:3:0:0:
173,212,193155,1,8,0:3:0:0:
257,161,193302,5,14,0:3:0:0:
90,219,193449,1,4,1:3:0:0:
218,328,193596,1,8,0:0:0:0:
279,168,193743,5,10,1:3:0:0:
71,245,193891,1,8,1:3:0:0:
108,26,194038,1,4,1:3:0:0:
218,328,194185,5,4,0:0:0:0:
286,47,194626,5,8,0:0:0:0:
286,47,194736,1,8,0:0:0:0:
359,92,194846,6,0,P|378:146|378:159,2,49.3333333333333,8|8|4,0:3|0:3|0:3,0:0:0:0:
301,147,195067,5,8,0:0:0:0:
290,158,195140,5,8,0:0:0:0:
282,170,195214,5,8,0:0:0:0:
274,180,195287,6,0,L|281:224,3,37,8|8|4|4,0:3|0:3|0:3|0:3,0:0:0:0:
361,232,195507,6,0,P|356:256|342:277,2,49.3333333333333,8|8|8,1:3|1:3|1:3,0:0:0:0:
208,322,195728,6,0,L|291:328,1,74,8|8,0:0|0:0,0:0:0:0:
69,261,195949,2,0,L|142:254,1,74,8|8,0:0|0:0,0:0:0:0:
31,340,196170,5,8,0:3:0:0:
81,273,196280,1,4,0:3:0:0:
39,331,196390,5,8,1:3:0:0:
5,207,196501,1,4,1:3:0:0:
69,261,196611,5,8,0:0:0:0:
47,120,196721,1,4,0:0:0:0:
358,122,196942,5,0,1:0:0:0:
259,145,197052,1,8,0:0:0:0:
194,67,197162,1,8,0:3:0:0:
248,286,197383,5,8,0:0:0:0:
269,159,197493,1,4,0:3:0:0:
259,273,197714,5,8,1:3:0:0:
358,250,197824,1,4,1:3:0:0:
423,328,197934,1,4,0:0:0:0:
66,161,198388,6,0,L|78:323,2,148,8|4|0,0:3|0:3|1:0,0:0:0:0:
166,43,198967,1,0,0:0:0:0:
175,57,199041,2,0,L|286:60,2,98.6666666666667,8|8|0,0:0|0:3|0:3,0:0:0:0:
196,181,199479,5,12,0:3:0:0:
349,267,199655,1,8,0:3:0:0:
341,282,199832,5,4,0:0:0:0:
354,101,200009,1,8,0:3:0:0:
365,90,200186,5,4,0:0:0:0:
201,167,200363,1,8,0:3:0:0:
109,93,200500,5,8,0:3:0:0:
102,110,200573,1,8,0:3:0:0:
98,133,200647,1,4,0:3:0:0:
102,155,200720,1,4,0:3:0:0:
111,175,200794,5,8,1:3:0:0:
123,190,200867,1,8,1:3:0:0:
136,209,200941,1,4,1:3:0:0:
142,232,201014,1,4,1:3:0:0:
148,257,201088,6,0,L|142:308,2,49.3333333333333,0|0|8,1:0|0:0|0:0,0:0:0:0:
365,65,201676,6,0,P|396:118|400:150,1,74,6|0,0:0|0:0,0:0:0:0:
377,256,201896,1,2,0:0:0:0:
445,205,202007,2,0,P|391:235|372:261,1,74,2|4,0:0|0:0,0:0:0:0:
251,326,202227,1,2,0:0:0:0:
264,343,202337,2,0,P|300:343|335:330,1,74,2|2,0:0|0:0,0:0:0:0:
321,129,202558,1,6,0:0:0:0:
287,148,202668,1,2,0:0:0:0:
283,185,202779,2,0,L|290:273,1,74,2|0,0:0|0:0,0:0:0:0:
156,50,202999,6,0,L|206:55,2,37,6|2|0,0:0|0:0|0:0,0:0:0:0:
48,79,203220,2,0,P|76:131|69:166,1,74,2|2,0:0|0:0,0:0:0:0:
20,292,203440,2,0,P|51:240|85:229,1,74,6|0,0:0|0:0,0:0:0:0:
153,241,203661,1,2,0:0:0:0:
76,145,203771,2,0,P|136:146|162:170,1,74,2|4,0:0|0:0,0:0:0:0:
134,361,203992,1,2,0:0:0:0:
130,375,204102,2,0,P|101:322|108:287,1,74,2|2,0:0|0:0,0:0:0:0:
203,84,204323,2,0,P|231:136|224:171,1,74,6|2,0:0|0:0,0:0:0:0:
153,241,204543,1,2,0:0:0:0:
282,264,204764,6,0,L|332:269,1,37,6|0,0:0|0:0,0:0:0:0:
381,235,204874,2,0,P|315:240|304:246,1,74,2|0,0:0|0:0,0:0:0:0:
153,241,205095,1,2,0:0:0:0:
84,380,205205,2,0,P|85:343|101:309,1,74,6|0,0:0|0:0,0:0:0:0:
181,56,205426,6,0,L|175:106,1,37,2|0,0:0|0:0,0:0:0:0:
210,155,205536,2,0,P|205:88|199:77,1,74,2|4,0:0|0:0,0:0:0:0:
60,145,205757,1,2,0:0:0:0:
67,229,205867,2,0,P|47:158|55:132,1,74,2|0,0:0|0:0,0:0:0:0:
224,320,206087,2,0,P|190:335|162:359,1,74,6|0,0:0|0:0,0:0:0:0:
310,170,206308,2,0,P|313:236|386:228,1,148,2|4,0:0|0:0,0:0:0:0:
436,38,206639,5,2,0:0:0:0:
435,125,206749,2,0,L|423:32,1,74,2|2,0:0|0:0,0:0:0:0:
381,241,206970,1,4,0:0:0:0:
467,237,207080,2,0,P|417:221|380:237,1,74,2|2,0:0|0:0,0:0:0:0:
263,355,207301,2,0,P|301:319|306:279,1,74,2|4,0:0|0:0,0:0:0:0:
284,124,207521,1,10,0:0:0:0:
273,135,207632,2,0,P|284:186|316:210,1,74,2|0,0:0|0:0,0:0:0:0:
448,166,207852,5,8,0:0:0:0:
365,147,207962,1,8,0:0:0:0:
298,200,208073,1,8,0:3:0:0:
298,285,208183,1,4,0:3:0:0:
365,338,208275,6,0,B|295:333|295:333|229:362|229:362|150:353,1,222.000008468628,4|0,0:0|0:0,0:0:0:0:
28,331,208605,1,0,1:0:0:0:
95,239,208752,2,0,P|111:176|100:129,1,74.0000028228761,8|0,0:0|1:0,0:0:0:0:
39,33,208900,5,0,0:0:0:0:
32,35,208973,5,2,0:0:0:0:
26,40,209047,5,2,0:0:0:0:
20,46,209120,5,2,0:0:0:0:
16,54,209194,6,0,P|32:132|153:91,1,222.000008468628,6|2,0:0|0:0,0:0:0:0:
266,48,209525,2,0,B|224:12|224:12|247:172,1,192.399991192627,2|2,0:0|0:0,0:0:0:0:
23,367,209966,1,2,0:0:0:0:
33,346,210076,6,0,P|67:299|146:289,1,96.1999955963137,2|0,1:2|0:0,0:0:0:0:
221,331,210297,2,0,P|278:335|327:276,1,96.1999955963137,2|0,0:0|1:0,0:0:0:0:
435,184,210517,2,0,P|411:243|431:294,1,96.1999955963137,10|0,0:0|0:0,0:0:0:0:
489,239,210738,6,0,B|527:194|492:112|492:112|401:91|352:144,1,256.53332159017,2|0,2:0|0:0,0:0:0:0:
333,292,211142,5,2,1:2:0:0:
341,266,211252,1,2,0:2:0:0:
335,212,211362,1,10,0:2:0:0:
272,171,211472,1,2,0:2:0:0:
195,198,211583,1,2,1:2:0:0:
112,187,211693,1,10,0:2:0:0:
63,115,211803,1,2,1:2:0:0:
89,34,211913,1,2,0:2:0:0:
168,0,212023,1,2,0:2:0:0:
245,36,212133,1,2,1:2:0:0:
239,52,212245,6,0,B|317:45|317:45|370:64|370:64|467:55,1,222.000008468628,8|0,0:0|0:0,0:0:0:0:
376,384,212905,6,0,P|344:320|356:282,1,96.1999955963137,2|2,1:2|0:0,0:0:0:0:
405,151,213126,6,0,L|469:160,2,64.1333303975425,10|2|2,0:0|0:0|0:0,0:0:0:0:
511,113,213347,2,0,P|429:126|416:140,1,96.1999955963137,2|2,1:2|0:0,0:0:0:0:
396,237,213567,5,2,1:2:0:0:
347,298,213678,1,2,0:2:0:0:
270,308,213788,1,2,0:2:0:0:
208,259,213898,1,2,1:2:0:0:
200,181,214008,5,10,0:2:0:0:
182,129,214119,1,2,0:2:0:0:
134,106,214229,1,4,0:0:0:0:
83,123,214339,2,0,B|89:196|89:196|71:246|71:246|80:337,1,192.399991192627,2|0,0:0|0:0,0:0:0:0:
0,349,214670,2,0,P|66:309|111:335,1,96.1999955963137,0|0,1:0|0:0,0:0:0:0:
188,342,214891,2,0,P|260:321|277:274,1,96.1999955963137,8|0,0:0|0:0,0:0:0:0:
362,329,215111,2,0,P|353:253|316:217,1,96.1999955963137,0|0,1:0|1:0,0:0:0:0:
230,53,215332,5,4,0:0:0:0:
155,255,215553,2,0,L|142:122,1,96.1999955963137,2|0,0:0|1:0,0:0:0:0:
362,329,215773,2,0,L|374:196,1,96.1999955963137,10|0,0:0|0:0,0:0:0:0:
466,61,215994,2,0,P|420:31|341:52,1,128.266660795085,2|0,0:0|1:0,0:0:0:0:
147,61,216251,2,0,P|175:120|296:92,1,192.399991192627,2|0,0:0|1:0,0:0:0:0:
286,107,216545,1,2,0:0:0:0:
278,23,216655,1,8,0:0:0:0:
100,334,216877,6,0,P|90:255|237:305,1,296,2|0,1:2|0:0,0:0:0:0:
249,295,217359,5,2,1:2:0:0:
356,157,217557,6,0,L|352:222,1,55.5,10|2,0:0|0:0,0:0:0:0:
181,119,217786,6,0,P|221:97|267:105,1,79.1799975836182,2|2,0:0|1:2,0:0:0:0:
422,53,218040,6,0,P|395:29|336:27,1,92.5,2|2,0:0|0:0,0:0:0:0:
146,235,218311,1,2,0:0:0:0:
243,294,218436,2,0,L|231:176,1,111,10|2,0:0|0:0,0:0:0:0:
231,183,218711,1,2,0:0:0:0:
240,21,218862,6,0,P|294:40|274:129,1,148,2|0,1:2|0:0,0:0:0:0:
471,92,219192,1,2,1:2:0:0:
465,105,219303,2,0,P|383:118|363:130,1,74,10|0,0:0|0:0,0:0:0:0:
235,187,219523,2,0,L|249:242,1,37,2|2,0:0|0:0,0:0:0:0:
276,291,219634,2,0,P|263:209|251:189,1,74,2|0,1:2|0:0,0:0:0:0:
64,311,219854,1,0,0:0:0:0:
78,234,219964,2,0,P|163:200|168:201,2,74,2|2|10,1:2|0:0|0:0,0:0:0:0:
64,311,220295,1,2,0:0:0:0:
18,93,220406,2,0,P|42:120|53:156,1,74,2|0,1:2|0:0,0:0:0:0:
140,199,220635,6,0,P|105:209|78:234,2,74,2|2|2,1:2|0:0|0:0,0:0:0:0:
219,219,220965,1,2,1:2:0:0:
230,229,221076,6,0,P|265:218|292:194,1,74,10|2,0:0|0:0,0:0:0:0:
332,74,221296,1,2,0:0:0:0:
337,84,221407,2,0,P|348:128|448:105,1,148,2|0,1:2|0:0,0:0:0:0:
436,129,221737,1,2,1:2:0:0:
190,101,221958,1,10,0:0:0:0:
190,101,222178,5,4,0:3:0:0:
195,223,222289,1,4,0:3:0:0:
200,350,222399,1,4,0:0:0:0:
40,160,222620,6,0,L|48:265,1,74,2|0,1:2|0:0,0:0:0:0:
190,101,222840,2,0,L|104:95,1,74,10|0,0:0|0:0,0:0:0:0:
298,49,223061,1,2,0:0:0:0:
298,49,223282,6,0,P|291:124|369:132,1,166.5,2|0,0:2|1:0,0:0:0:0:
439,132,223612,1,2,0:0:0:0:
450,118,223723,1,8,0:0:0:0:
446,206,223943,6,0,L|437:100,1,74,2|2,0:0|0:0,0:0:0:0:
233,253,224164,1,2,1:2:0:0:
443,360,224385,1,2,0:0:0:0:
443,360,224605,2,0,L|369:366,1,74,10|2,0:0|0:0,0:0:0:0:
144,265,224936,2,0,P|166:333|243:326,1,148,2|0,1:2|0:0,0:0:0:0:
304,287,225267,1,2,1:2:0:0:
52,332,225487,1,10,0:0:0:0:
148,123,225708,1,2,0:0:0:0:
148,123,225929,6,0,P|186:173|200:226,2,111,2|2|2,1:2|0:0|1:2,0:0:0:0:
321,43,226370,2,0,P|274:86|251:135,2,111,10|2|2,0:0|0:0|1:2,0:0:0:0:
77,136,226811,6,0,P|139:150|183:181,1,111,2|0,1:2|0:0,0:0:0:0:
177,175,227032,2,0,P|168:129|174:94,1,74,2|0,1:2|0:0,0:0:0:0:
252,229,227252,2,0,L|248:286,2,49.3333333333333,10|2|2,0:0|0:0|0:0,0:0:0:0:
284,331,227473,2,0,P|279:264|273:253,1,74,2|2,1:2|0:0,0:0:0:0:
85,247,227693,5,2,1:2:0:0:
120,254,227804,1,2,0:0:0:0:
154,240,227914,1,2,0:0:0:0:
175,210,228024,1,2,1:2:0:0:
176,174,228135,2,0,L|169:97,1,74,10|0,0:0|0:0,0:0:0:0:
106,29,228355,1,4,0:0:0:0:
47,128,228465,2,0,P|38:79|120:43,1,148,2|0,0:0|0:0,0:0:0:0:
243,93,228796,2,0,L|166:100,1,74,2|2,1:2|0:0,0:0:0:0:
365,38,229017,6,0,P|335:101|351:144,2,111,10|4|4,0:0|0:3|0:3,0:0:0:0:
393,236,229470,5,4,0:0:0:0:
396,268,229580,1,2,0:0:0:0:
384,299,229690,1,2,0:0:0:0:
360,321,229800,1,2,0:0:0:0:
328,329,229911,2,0,L|275:324,1,44.3999986450196,2|0,0:0|0:0,0:0:0:0:
187,133,230131,5,4,0:0:0:0:
220,129,230241,1,2,0:0:0:0:
251,141,230351,1,2,0:0:0:0:
273,165,230461,1,2,0:0:0:0:
281,197,230572,2,0,L|275:249,1,44.3999986450196,8|0,0:3|0:0,0:0:0:0:
61,332,230793,5,4,0:0:0:0:
39,303,230903,1,2,0:0:0:0:
32,266,231013,1,2,0:0:0:0:
43,232,231123,1,2,0:0:0:0:
69,207,231234,2,0,L|123:183,1,44.3999986450196,2|0,0:0|0:0,0:0:0:0:
218,311,231455,5,4,0:0:0:0:
249,335,231565,1,2,0:0:0:0:
290,341,231675,1,2,0:0:0:0:
328,329,231785,1,2,0:0:0:0:
355,301,231896,2,0,L|374:274,2,22.1999993225098,8|4|0,0:3|0:3|0:0,0:0:0:0:
228,30,232117,5,4,0:0:0:0:
201,64,232227,1,2,0:0:0:0:
195,109,232337,1,2,0:0:0:0:
208,150,232447,1,2,0:0:0:0:
239,180,232558,2,0,L|296:203,1,44.3999986450196,2|0,0:0|0:0,0:0:0:0:
435,337,232778,5,4,0:0:0:0:
463,301,232888,1,2,0:0:0:0:
469,254,232998,1,2,0:0:0:0:
455,212,233108,1,2,0:0:0:0:
423,181,233219,2,0,L|363:157,1,44.3999986450196,2|0,0:0|0:0,0:0:0:0:
137,288,233440,5,4,0:0:0:0:
89,268,233550,1,2,0:0:0:0:
58,227,233660,1,2,0:0:0:0:
49,179,233770,1,2,0:0:0:0:
62,131,233881,2,0,L|96:85,1,44.3999986450196,2|0,0:0|0:0,0:0:0:0:
384,94,234102,5,4,0:0:0:0:
418,139,234212,1,2,0:0:0:0:
424,195,234322,1,2,0:0:0:0:
407,245,234432,1,2,0:0:0:0:
368,284,234543,2,0,L|310:309,1,44.3999986450196,2|0,0:0|0:0,0:0:0:0:
12,327,234764,6,0,B|198:340,1,177.599994580078,4|2,0:0|0:0,0:0:0:0:
420,321,235131,5,0,0:0:0:0:
405,354,235205,6,0,P|385:330|316:300,1,96.1999955963137,2|0,1:2|0:0,0:0:0:0:
120,313,235425,1,2,1:2:0:0:
187,111,235572,5,10,0:2:0:0:
184,120,235646,5,8,1:2:0:0:
180,128,235720,5,10,0:2:0:0:
248,357,235867,6,0,P|233:336|224:299,1,64.1333303975425,2|0,1:2|0:0,0:0:0:0:
281,212,236014,1,2,0:0:0:0:
294,198,236087,2,0,P|319:245|326:290,1,96.1999955963137,4|0,0:0|0:0,0:0:0:0:
28,54,236371,6,0,P|66:89|104:96,1,74,2|2,0:0|0:0,0:0:0:0:
223,12,236544,6,0,P|198:59|194:109,1,98.6666666666667,2|2,1:2|0:0,0:0:0:0:
171,278,236764,1,4,0:0:0:0:
142,192,236874,1,2,0:0:0:0:
180,268,237021,2,0,P|224:254|286:291,2,111,2|10|2,1:2|0:0|0:0,0:0:0:0:
384,364,237426,6,0,P|365:295|441:257,2,166.5,4|2|2,0:0|0:0|1:2,0:0:0:0:
429,265,237977,1,0,0:0:0:0:
299,188,238098,2,0,L|188:196,1,111,4|0,0:0|0:0,0:0:0:0:
188,196,238318,5,2,0:0:0:0:
429,265,238439,5,0,1:0:0:0:
450,240,238512,5,0,1:0:0:0:
465,210,238586,5,8,0:3:0:0:
471,178,238659,5,4,0:3:0:0:
470,145,238733,5,8,1:3:0:0:
457,111,238806,6,0,P|437:80|414:66,1,49.3333333333333,4|8,1:3|0:3,0:0:0:0:
363,13,238953,2,0,P|326:14|302:27,1,49.3333333333333,4|8,0:3|1:3,0:0:0:0:
227,29,239100,2,0,P|210:61|209:88,1,49.3333333333333,4|8,1:3|0:0,0:0:0:0:
189,198,239247,5,8,0:0:0:0:
181,169,239320,1,8,0:0:0:0:
161,147,239394,1,8,0:0:0:0:
134,138,239467,1,8,0:3:0:0:
105,142,239541,1,4,0:3:0:0:
81,159,239614,1,8,1:3:0:0:
32,254,239689,1,4,1:3:0:0:
26,271,239762,2,0,P|57:251|71:228,1,49.3333333333333,8|8,0:0|0:0,0:0:0:0:
195,245,239909,2,0,P|193:208|180:184,1,49.3333333333333,8|8,0:0|0:0,0:0:0:0:
268,134,240093,6,0,B|179:156|131:250|131:250|80:355|0:315|-13:259|39:178|114:199|223:252|315:242|359:152|359:152|334:196|345:247,1,794.266642427572
405,93,243594,6,0,P|425:113|437:140,1,59.2,6|0,0:0|0:0,0:0:0:0:
512,151,244035,2,0,P|504:178|487:202,1,59.2,2|0,0:0|0:0,0:0:0:0:
512,272,244476,2,0,P|484:279|455:276,1,59.2,2|0,0:0|0:0,0:0:0:0:
401,340,244917,2,0,P|381:320|369:293,1,59.2,2|0,0:0|0:0,0:0:0:0:
388,205,245359,5,6,0:0:0:0:
247,230,245579,2,0,L|307:235,1,59.2,2|0,0:0|0:0,0:0:0:0:
125,181,246020,2,0,L|185:175,1,59.2,2|0,0:0|0:0,0:0:0:0:
125,181,246462,1,2,0:0:0:0:
78,98,246682,1,2,0:0:0:0:
144,32,246903,1,2,0:0:0:0:
247,32,247123,6,0,P|237:85|227:98,2,59.2,6|2|2,0:0|0:0|0:0,0:0:0:0:
125,181,247785,2,0,P|144:160|230:197,1,118.4,2|2,0:0|0:0,0:0:0:0:
282,336,248667,1,2,0:0:0:0:
361,56,249109,6,0,L|352:160,1,103.6,2|2,0:0|0:0,0:0:0:0:
222,177,249770,2,0,L|224:272,2,88.8,2|2|2,0:0|0:0|0:0,0:0:0:0:
169,44,250542,5,0,1:0:0:0:
178,56,250652,2,0,P|138:101|64:61,1,118.4,8|0,1:2|0:0,0:0:0:0:
361,56,251094,2,0,L|350:173,1,118.4,0|0,1:0|0:0,0:0:0:0:
354,313,251424,5,0,1:0:0:0:
363,301,251534,2,0,P|323:256|249:296,1,118.4,8|0,1:2|0:0,0:0:0:0:
94,287,251976,2,0,P|134:332|208:292,1,118.4,8|0,1:2|0:0,0:0:0:0:
178,56,252417,6,0,L|188:173,1,118.4,0|0,1:0|0:0,0:0:0:0:
186,323,252748,5,0,1:0:0:0:
177,311,252858,2,0,P|217:266|291:306,1,118.4,8|0,1:2|0:0,0:0:0:0:
342,317,253189,5,0,1:0:0:0:
333,324,253299,2,0,P|392:332|423:254,1,118.4,8|0,1:2|0:0,0:0:0:0:
446,97,253741,5,8,0:0:0:0:
433,133,253851,1,8,0:0:0:0:
404,161,253961,1,8,0:0:0:0:
367,172,254071,1,8,0:0:0:0:
271,140,254182,6,0,P|277:153|277:161,1,14.8,2|0,0:0|0:0,0:0:0:0:
471,212,254844,6,0,P|461:221|455:234,1,14.8,10|0,0:0|0:0,0:0:0:0:
212,262,255726,6,0,P|224:264|237:272,1,14.8,2|0,0:0|0:0,0:0:0:0:
348,348,256167,5,2,0:0:0:0:
424,248,256388,1,2,0:0:0:0:
282,193,256609,1,2,0:0:0:0:
437,126,256829,1,2,0:0:0:0:
239,75,257049,1,2,0:0:0:0:
437,126,257270,1,2,0:0:0:0:
76,176,257491,6,0,P|172:200|109:306,1,244.200007452393,4|0,0:0|0:0,0:0:0:0:
125,304,257932,1,2,0:0:0:0:
71,27,258152,1,4,0:0:0:0:
1,265,258373,1,2,0:0:0:0:
325,195,258594,1,2,0:0:0:0:
179,18,258814,2,0,L|171:116,1,81.4000024841309,2|0,0:0|0:0,0:0:0:0:
123,337,259035,6,0,P|130:318|152:296,1,40.7000012420655,10|2,0:0|0:0,0:0:0:0:
127,285,259145,6,0,P|142:273|172:264,1,40.7000012420655,10|2,0:0|0:0,0:0:0:0:
156,228,259256,6,0,P|176:226|207:234,1,40.7000012420655,2|2,1:2|0:0,0:0:0:0:
209,184,259366,6,0,P|228:193|251:214,1,40.7000012420655,2|2,0:0|0:0,0:0:0:0:
418,325,259476,6,0,B|348:298|348:298|378:116,1,236.8,4|0,0:0|0:0,0:0:0:0:
209,184,259807,1,0,0:0:0:0:
179,18,259917,2,0,P|294:46|262:124,1,207.199993676758,10|0,0:0|0:0,0:0:0:0:
105,175,260248,2,0,L|227:185,1,103.599996838379,2|0,1:2|0:0,0:0:0:0:
501,55,260579,1,0,1:0:0:0:
413,44,260690,1,0,1:0:0:0:
406,34,260800,1,8,0:0:0:0:
144,379,261020,6,0,P|209:327|164:142,1,236.8,2|0,0:0|1:0,0:0:0:0:
3,33,261461,2,0,P|37:63|89:65,1,96.1999955963137,2|0,0:0|1:0,0:0:0:0:
161,15,261681,1,8,0:0:0:0:
335,273,261902,2,0,P|351:229|335:180,1,96.1999955963137,2|0,0:0|1:0,0:0:0:0:
314,30,262122,1,2,0:0:0:0:
254,100,262233,1,2,0:0:0:0:
324,45,262344,2,0,P|278:52|243:90,1,96.1999955963137,2|0,1:2|0:0,0:0:0:0:
181,252,262564,1,8,0:0:0:0:
79,192,262674,1,0,0:0:0:0:
173,268,262785,2,0,P|218:260|253:222,1,96.1999955963137,2|0,1:2|0:0,0:0:0:0:
125,18,263005,6,0,P|113:95|122:115,1,103.599996838379,2|0,1:2|0:0,0:0:0:0:
173,276,263226,2,0,P|187:199|181:171,1,103.599996838379,2|0,0:0|1:0,0:0:0:0:
6,217,263446,2,0,P|-9:265|4:315,1,103.599996838379,10|0,0:0|2:0,0:0:0:0:
173,276,263667,2,0,P|123:263|72:271,1,103.599996838379,2|0,0:0|1:0,0:0:0:0:
4,315,263888,1,2,0:0:0:0:
348,384,264108,1,2,1:2:0:0:
329,378,264219,2,0,P|343:316|326:281,1,103.599996838379,2|10,0:0|2:0,0:0:0:0:
86,30,264549,6,0,P|83:117|244:60,1,310.799990515137,10|0,0:0|0:0,0:0:0:0:
244,85,264991,2,0,B|207:119|207:119|242:279,1,207.199993676758,2|8,0:0|0:0,0:0:0:0:
422,310,265432,6,0,P|372:279|322:300,1,103.599996838379,4|0,0:0|0:0,0:0:0:0:
85,320,265652,2,0,P|135:351|185:330,1,103.599996838379,2|0,0:0|0:0,0:0:0:0:
244,85,265873,1,2,1:2:0:0:
199,109,265983,1,0,0:0:0:0:
183,157,266093,1,10,0:0:0:0:
205,203,266203,1,0,0:0:0:0:
252,221,266314,1,2,0:0:0:0:
299,203,266424,1,0,0:0:0:0:
307,220,266535,6,0,B|373:214|373:214|449:234|449:234|531:227,1,207.199993676758,6|0,0:0|0:0,0:0:0:0:
332,311,266866,1,0,0:0:0:0:
199,218,266976,2,0,P|224:160|274:131,1,103.599996838379,8|0,0:0|0:0,0:0:0:0:
456,88,267196,2,0,P|405:123|348:124,1,103.599996838379,2|0,0:0|1:0,0:0:0:0:
300,61,267417,6,0,B|297:16|333:-3|333:-3|376:13|389:59,1,148,2|0,0:0|1:0,0:0:0:0:
283,336,267858,6,0,P|289:274|138:269,1,222.000008468628,10|0,0:0|0:0,0:0:0:0:
87,335,268189,1,0,0:0:0:0:
48,147,268299,6,0,B|94:177|94:177|66:330,1,207.199993676758,0|0,1:0|0:0,0:0:0:0:
0,244,268630,1,0,1:0:0:0:
184,163,268741,2,0,P|235:171|275:204,1,103.599996838379,8|0,0:0|0:0,0:0:0:0:
376,341,268961,2,0,P|325:334|286:302,1,103.599996838379,2|0,0:0|1:0,0:0:0:0:
435,176,269182,6,0,P|501:199|512:269,1,148,2|0,0:0|1:0,0:0:0:0:
278,317,269513,1,0,0:0:0:0:
182,294,269623,2,0,L|287:302,1,103.599996838379,10|0,0:0|0:0,0:0:0:0:
345,101,269844,1,10,0:0:0:0:
444,249,269954,1,8,0:0:0:0:
507,69,270065,6,0,B|467:97|467:97|457:240,1,192.399991192627,4|8,0:0|0:3,0:0:0:0:
506,371,270505,1,4,0:3:0:0:
109,349,270726,2,0,P|232:294|338:329,2,192.399991192627,4|2|8,0:0|0:0|1:3,0:0:0:0:
345,101,271388,1,4,1:3:0:0:
32,33,271608,6,0,P|27:140|149:86,1,288.599986788941,4|0,0:0|0:0,0:0:0:0:
148,89,272049,1,8,0:0:0:0:
95,363,272270,1,8,0:0:0:0:
0,223,272380,1,8,0:0:0:0:
109,349,272491,2,0,L|106:250,1,81.4000024841309,0|8,0:0|0:0,0:0:0:0:
12,61,272711,1,8,0:0:0:0:
301,127,272932,1,8,0:3:0:0:
109,349,273152,1,4,0:3:0:0:
153,94,273373,1,8,1:3:0:0:
310,242,273594,6,2,L|152:231,1,133.199995935059,2|0,0:0|0:0,0:0:0:0:
503,263,274035,6,0,B|543:212|513:139|513:139|431:120|388:169,1,251.600004798889,6|2,2:0|0:0,0:0:0:0:
322,351,274366,2,0,P|326:256|281:230,1,125.800002399445,2|0,1:2|0:0,0:0:0:0:
310,16,274696,6,0,L|300:126,1,111.000004234314,2|0,1:2|0:0,0:0:0:0:
410,55,274917,1,8,0:0:0:0:
29,176,275138,6,0,P|200:177|188:344,1,377.400007198334,2|0,0:0|0:0,0:0:0:0:
190,343,275579,2,0,P|191:158|310:16,1,377.400007198334,2|0,1:2|0:0,0:0:0:0:
413,210,276020,2,0,P|368:251|316:248,1,111.000004234314,2|0,0:0|1:0,0:0:0:0:
185,210,276241,5,2,0:0:0:0:
225,105,276351,1,2,0:0:0:0:
337,117,276461,2,0,P|341:79|294:3,1,111.000004234314,2|0,1:2|0:0,0:0:0:0:
72,71,276682,1,8,0:0:0:0:
164,21,276792,1,0,0:0:0:0:
67,53,276902,2,0,P|51:88|71:168,1,111.000004234314,10|8,0:0|0:0,0:0:0:0:
195,372,277123,6,0,B|130:333|130:333|167:96,1,251.600004798889,2|0,1:2|0:0,0:0:0:0:
26,272,277454,1,0,1:0:0:0:
251,253,277564,2,0,L|368:242,1,118.4,10|0,0:0|0:0,0:0:0:0:
440,51,277785,2,0,L|450:168,1,118.4,2|0,0:0|1:0,0:0:0:0:
251,253,278005,6,0,L|368:242,1,118.4,2|0,0:0|0:0,0:0:0:0:
251,370,278226,2,0,L|134:360,1,118.4,2|0,1:2|0:0,0:0:0:0:
0,349,278446,1,10,0:0:0:0:
309,137,278667,6,0,B|334:75|308:28|308:28|234:21|194:82,1,222,2|0,0:0|0:0,0:0:0:0:
98,186,279108,6,0,B|144:150|144:150|222:171,1,111.000004234314,2|0,0:0|1:0,0:0:0:0:
251,253,279329,1,10,0:0:0:0:
251,253,279549,6,0,P|283:204|304:343,1,333.000012702942,6|0,0:0|0:0,0:0:0:0:
122,360,279991,2,0,L|239:370,1,111.000004234314,2|0,1:2|0:0,0:0:0:0:
507,172,280211,2,0,L|389:182,1,111.000004234314,10|0,0:0|0:0,0:0:0:0:
98,53,280432,2,0,L|215:63,1,111.000004234314,2|0,0:0|0:0,0:0:0:0:
426,21,280652,6,0,P|319:141|357:355,1,377.400007198334,6|0,0:0|1:0,0:0:0:0:
347,343,281094,2,0,P|315:304|230:300,1,125.800002399445,8|0,0:0|0:0,0:0:0:0:
46,340,281314,2,0,L|175:351,1,125.800002399445,2|0,0:0|1:0,0:0:0:0:
400,227,281535,6,0,B|428:200|422:159|422:159|370:135|325:168,1,148,2|0,0:0|1:0,0:0:0:0:
23,97,281976,6,0,B|69:0|69:0|180:34,1,222.000008468628,10|0,0:0|0:0,0:0:0:0:
261,378,282417,6,0,P|286:325|160:282,1,222.000008468628,0|0,1:0|0:0,0:0:0:0:
46,340,282748,1,0,1:0:0:0:
23,97,282858,2,0,L|33:219,1,111.000004234314,8|0,0:0|0:0,0:0:0:0:
267,51,283079,2,0,L|156:41,1,111.000004234314,2|0,0:0|1:0,0:0:0:0:
371,166,283299,6,0,P|353:106|500:89,1,251.600004798889,2|0,0:0|1:0,0:0:0:0:
165,295,283741,2,0,B|237:289|237:289|309:326|309:326|386:320,1,222.000008468628,10|10,0:0|0:0,0:0:0:0:
276,175,284071,1,8,0:0:0:0:
74,241,284182,2,0,P|53:301|73:360,1,111.000004234314,2|0,1:2|0:0,0:0:0:0:
78,136,284402,2,0,P|140:147|181:194,1,111.000004234314,2|0,0:0|1:0,0:0:0:0:
63,345,284623,2,0,P|53:291|74:241,1,111.000004234314,10|0,0:0|0:0,0:0:0:0:
163,74,284843,2,0,P|184:134|164:193,1,111.000004234314,2|0,0:0|1:0,0:0:0:0:
144,304,285064,6,0,P|190:263|288:370,2,222.000008468628,2|2|10,0:0|1:2|0:0,0:0:0:0:
237,121,285726,2,0,B|243:195|243:195|210:268|210:268|220:356,1,222.000008468628,2|0,0:0|1:0,0:0:0:0:
72,71,286167,1,2,0:0:0:0:
164,21,286277,1,0,1:0:0:0:
67,53,286387,2,0,P|51:88|71:168,1,111.000004234314,8|0,0:0|0:0,0:0:0:0:
285,282,286608,2,0,P|262:250|183:227,1,111.000004234314,2|0,0:0|1:0,0:0:0:0:
0,354,286829,6,0,P|29:384|51:276,1,222.000008468628,2|0,0:0|1:0,0:0:0:0:
230,33,287270,2,0,B|172:80|172:80|198:233,1,222.000008468628,10|0,0:0|0:0,0:0:0:0:
345,107,287711,5,4,0:0:0:0:
249,332,287932,1,0,1:0:0:0:
185,234,288042,1,0,1:0:0:0:
266,324,288152,5,12,0:0:0:0:
1,349,288373,1,0,1:0:0:0:
184,34,288594,5,12,0:0:0:0:
128,302,288815,1,0,1:0:0:0:
88,150,288924,1,0,1:0:0:0:
141,288,289035,5,12,0:0:0:0:
366,124,289256,1,0,1:0:0:0:
40,34,289476,5,12,0:0:0:0:
4,351,289696,1,0,1:0:0:0:
2,305,289806,1,0,1:0:0:0:
23,265,289916,1,12,0:0:0:0:
62,241,290026,1,0,0:0:0:0:
108,241,290137,1,0,1:0:0:0:
261,361,290358,5,12,0:0:0:0:
316,48,290579,1,0,1:0:0:0:
398,195,290689,1,0,1:0:0:0:
301,61,290799,5,12,0:0:0:0:
84,321,291020,1,0,1:0:0:0:
146,32,291241,5,12,0:0:0:0:
186,340,291461,1,0,1:0:0:0:
381,70,291682,5,12,0:0:0:0:
2,224,291902,1,0,1:0:0:0:
331,366,292123,5,12,0:0:0:0:
146,32,292344,1,0,1:0:0:0:
116,87,292454,1,0,1:0:0:0:
135,148,292564,1,12,0:0:0:0:
190,178,292674,1,0,0:0:0:0:
251,160,292785,1,0,1:0:0:0:
462,40,293005,6,0,B|450:107|450:107|479:193|479:193|469:261,1,222.000008468628,8|0,0:0|0:0,0:0:0:0:
244,377,293336,2,0,P|383:313|414:373,1,222.000008468628,8|0,0:0|0:0,0:0:0:0:
42,303,293667,2,0,B|62:347|129:363|129:363|175:309|159:258,1,222.000008468628,8|0,0:0|0:0,0:0:0:0:
116,87,293998,1,8,0:0:0:0:
251,160,294108,2,0,L|107:172,1,111.000004234314,0|0,1:0|0:0,0:0:0:0:
6,40,294329,1,8,0:0:0:0:
6,40,294549,5,8,0:0:0:0:
17,170,294659,1,8,0:0:0:0:
38,55,294770,2,0,P|115:2|183:50,1,111.000004234314,4|0,0:0|0:0,0:0:0:0:
313,17,294991,2,0,P|237:72|167:26,1,111.000004234314,0|0,1:0|0:0,0:0:0:0:
431,37,295211,1,8,0:0:0:0:
493,131,295321,1,0,0:0:0:0:
508,152,295432,2,0,L|496:285,1,111.000004234314,2|0,1:2|0:0,0:0:0:0:
304,334,295652,6,0,P|359:312|444:413,1,148,14|0,0:0|1:0,0:0:0:0:
85,297,296094,2,0,P|204:318|184:210,1,222.000008468628,14|0,0:0|1:0,0:0:0:0:
73,39,296535,5,14,0:0:0:0:
78,93,296645,1,2,0:0:0:0:
115,133,296755,1,2,1:2:0:0:
169,142,296865,1,2,0:0:0:0:
218,115,296976,2,0,P|283:89|339:119,1,111.000004234314,14|0,0:0|0:0,0:0:0:0:
376,6,297196,2,0,P|431:49|433:112,1,111.000004234314,2|0,1:2|0:0,0:0:0:0:
378,274,297417,6,0,B|361:196|361:196|472:170,1,148,12|0,0:0|1:0,0:0:0:0:
150,270,297858,2,0,P|231:234|237:356,1,222.000008468628,14|2,0:0|1:2,0:0:0:0:
147,352,298189,1,8,0:3:0:0:
248,145,298299,1,4,0:3:0:0:
248,145,298520,5,8,1:3:0:0:
248,145,298741,5,2,0:0:0:0:
205,38,298851,1,0,0:0:0:0:
225,29,298960,2,0,P|246:89|226:148,1,111.000004234314,4|0,0:3|0:0,0:0:0:0:
150,270,299182,2,0,P|231:234|237:356,2,222.000008468628,14|2|0,0:0|1:2|0:0,0:0:0:0:
385,44,299843,6,0,L|377:200,1,148,0|4,0:0|0:0,0:0:0:0:
368,371,300285,1,0,0:0:0:0:
127,66,300505,5,2,0:0:0:0:
76,234,300726,1,6,0:0:0:0:
120,331,300946,1,2,0:0:0:0:
18,55,301167,1,6,0:0:0:0:
392,81,301388,1,0,0:3:0:0:
242,99,301608,6,0,L|237:151,1,37,10|0,0:0|0:0,0:0:0:0:
