osu file format v14

[General]
AudioFilename: audio.mp3
AudioLeadIn: 0
PreviewTime: 243478
Countdown: 0
SampleSet: Soft
StackLeniency: 0.3
Mode: 0
LetterboxInBreaks: 0
WidescreenStoryboard: 0

[Editor]
Bookmarks: 3558,17675,31793,44146,58263,72381,86499,100616,114734,127087,142969,157087,172969,192381,208236,229431,243555,259437,273996,287672,301569
DistanceSpacing: 0.8
BeatDivisor: 4
GridSize: 16
TimelineZoom: 3.799998

[Metadata]
Title:Vector Fish
TitleUnicode:ベクターフィッシュ
Artist:THE BINARY mido
ArtistUnicode:THE BINARY mido
Creator:Mononymous
Version:Lowest Point
Source:
Tags:Jiu 煮ル果実 BNRY-05 あかまる melon BNRY-02 Jazz Japanese pop j-pop jpop
BeatmapID:3122138
BeatmapSetID:1526038

[Difficulty]
HPDrainRate:5
CircleSize:4.2
OverallDifficulty:9
ApproachRate:9.2
SliderMultiplier:3.59999990463257
SliderTickRate:1

[Events]
//Background and Video events
0,0,"please help.jpg",0,0
//Break Periods
//Storyboard Layer 0 (Background)
//Storyboard Layer 1 (Fail)
//Storyboard Layer 2 (Pass)
//Storyboard Layer 3 (Foreground)
//Storyboard Layer 4 (Overlay)
//Storyboard Sound Samples

[TimingPoints]
332,441.176470588235,4,2,1,5,1,0
3116,441.176470588235,4,2,1,45,1,0
3116,-66.6666666666667,4,2,1,50,0,0
3558,441.176470588235,4,2,1,60,1,0
3558,-100,4,2,1,80,0,0
17013,-125,4,2,1,70,0,0
17675,-166.666666666667,4,2,1,50,0,0
24734,-142.857142857143,4,2,1,60,0,0
31793,-111.111111111111,4,2,1,70,0,0
42381,-111.111111111111,4,2,1,75,0,0
44146,-117.647058823529,4,2,1,80,0,0
49660,-111.111111111111,4,2,1,80,0,0
51094,-111.111111111111,4,2,1,5,0,0
51205,-117.647058823529,4,2,1,75,0,0
54734,-58.8235294117647,4,2,1,70,0,0
54789,-58.8235294117647,4,2,1,5,0,0
55175,-117.647058823529,4,2,1,40,0,0
55285,-117.647058823529,4,2,1,5,0,0
55396,-58.8235294117647,4,2,1,70,0,0
55451,-58.8235294117647,4,2,1,5,0,0
56057,-117.647058823529,4,2,1,40,0,0
56168,-117.647058823529,4,2,1,5,0,0
56278,-58.8235294117647,4,2,1,70,0,0
56333,-58.8235294117647,4,2,1,5,0,0
56719,-166.666666666667,4,2,1,40,0,0
57822,-66.6666666666667,4,2,1,65,0,0
58263,-90.9090909090909,4,2,1,85,0,1
70396,-90.9090909090909,4,2,1,85,0,0
72381,-90.9090909090909,4,2,1,85,0,1
85396,-111.111111111111,4,2,1,75,0,0
86499,-100,4,2,1,80,0,0
99072,-125,4,2,1,75,0,0
99955,-100,4,2,1,80,0,0
100616,-142.857142857143,4,2,1,50,0,0
107675,-133.333333333333,4,2,1,65,0,0
108006,-133.333333333333,4,2,1,5,0,0
108116,-133.333333333333,4,2,1,65,0,0
111535,-133.333333333333,4,2,1,5,0,0
111646,-133.333333333333,4,2,1,65,0,0
114734,-111.111111111111,4,2,1,70,0,0
122124,-111.111111111111,4,2,1,5,0,0
122234,-111.111111111111,4,2,1,70,0,0
125322,-111.111111111111,4,2,1,75,0,0
127087,-117.647058823529,4,2,1,80,0,0
132602,-111.111111111111,4,2,1,80,0,0
134035,-111.111111111111,4,2,1,5,0,0
134146,-117.647058823529,4,2,1,75,0,0
137675,-58.8235294117647,4,2,1,70,0,0
137730,-58.8235294117647,4,2,1,5,0,0
138116,-117.647058823529,4,2,1,40,0,0
138226,-117.647058823529,4,2,1,5,0,0
138337,-58.8235294117647,4,2,1,70,0,0
138392,-58.8235294117647,4,2,1,5,0,0
138998,-117.647058823529,4,2,1,40,0,0
139109,-117.647058823529,4,2,1,5,0,0
139219,-58.8235294117647,4,2,1,70,0,0
139274,-58.8235294117647,4,2,1,5,0,0
139660,-166.666666666667,4,2,1,40,0,0
141205,-133.333333333333,4,2,1,75,0,0
142969,-90.9090909090909,4,2,1,85,0,1
155102,-90.9090909090909,4,2,1,85,0,0
157087,-90.9090909090909,4,2,1,85,0,1
171205,-62.5,4,2,1,80,0,0
171260,-62.5,4,2,1,5,0,0
172749,-90.9090909090909,4,2,1,60,0,0
172969,-142.857142857143,4,2,1,60,0,0
176251,497.326203088235,4,2,1,40,1,0
176251,-142.857142857143,4,2,1,40,0,0
176499,441.176470588235,4,2,1,40,1,0
176499,-142.857142857143,4,2,1,60,0,0
178374,-100,4,2,1,75,0,0
180028,425.206281617647,4,2,1,40,1,0
180028,-142.857142857143,4,2,1,40,0,0
180241,458.015267175573,4,2,1,50,1,0
180241,-142.857142857143,4,2,1,40,0,0
180792,441.176470588235,4,2,1,50,1,0
180792,-142.857142857143,4,2,1,50,0,0
181784,441.176470588235,4,2,1,50,1,0
181784,-142.857142857143,4,2,1,50,0,0
182795,428.571428571429,4,2,1,50,1,0
182795,-142.857142857143,4,2,1,50,0,0
183677,441.176470588235,4,2,1,50,1,0
184430,441.176470588235,4,2,1,50,1,0
184430,-142.857142857143,4,2,1,50,0,0
184661,441.176470588235,4,2,1,50,1,0
184661,-142.857142857143,4,2,1,50,0,0
185317,441.176470588235,4,2,1,50,1,0
185317,-142.857142857143,4,2,1,50,0,0
185648,657.754010735294,4,2,1,50,1,0
185648,-71.4285714285714,4,2,1,50,0,0
185745,413.793103448276,4,2,1,50,1,0
185745,-142.857142857143,4,2,1,50,0,0
186193,441.176470588235,4,2,1,50,1,0
186193,-142.857142857143,4,2,1,50,0,0
187068,441.176470588235,4,2,1,50,1,0
187068,-142.857142857143,4,2,1,50,0,0
187702,441.176470588235,4,2,1,50,1,0
187702,-142.857142857143,4,2,1,50,0,0
187962,441.176470588235,4,2,1,50,1,0
187962,-142.857142857143,4,2,1,50,0,0
189411,441.176470588235,4,2,1,50,1,0
189714,441.176470588235,4,2,1,50,1,0
189714,-142.857142857143,4,2,1,50,0,0
190403,441.176470588235,4,2,1,50,1,0
190613,441.176470588235,4,2,1,50,1,0
190613,-142.857142857143,4,2,1,50,0,0
192354,441.176470588235,4,2,1,50,1,0
192381,441.176470588235,4,2,1,55,1,0
192381,-100,4,2,1,55,0,0
192454,-100,4,2,1,5,0,0
192528,-100,4,2,1,55,0,0
192601,-100,4,2,1,5,0,0
192675,-100,4,2,1,55,0,0
192748,-100,4,2,1,5,0,0
192822,-100,4,2,1,55,0,0
192895,-100,4,2,1,5,0,0
192969,-100,4,2,1,55,0,0
193042,-100,4,2,1,5,0,0
193116,-100,4,2,1,55,0,0
193189,-100,4,2,1,5,0,0
193263,-100,4,2,1,55,0,0
194587,441.176470588235,4,2,1,50,1,0
194587,-125,4,2,1,50,0,0
195910,441.176470588235,4,2,1,50,1,0
198349,447.761194029851,4,2,1,50,1,0
198768,447.761194029851,4,2,1,50,1,0
198928,444.444444444444,4,2,1,50,1,0
199440,530.973451327434,4,2,1,60,1,0
200461,441.176470588235,4,2,1,60,1,0
201196,441.176470588235,4,2,1,40,1,0
201526,-100,4,2,1,5,0,0
201637,-142.857142857143,4,2,1,40,0,0
207482,-142.857142857143,4,2,1,60,0,0
208236,441.176470588235,4,2,1,75,1,1
208236,-90.9090909090909,4,2,1,75,0,1
208713,441.176470588235,4,2,1,75,1,1
208713,-90.9090909090909,4,2,1,75,0,1
209486,441.176470588235,4,2,1,75,1,1
209486,-90.9090909090909,4,2,1,75,0,1
210037,441.176470588235,4,2,1,75,1,1
210037,-90.9090909090909,4,2,1,75,0,1
211103,441.176470588235,4,2,1,75,1,1
211103,-90.9090909090909,4,2,1,75,0,1
211764,441.176470588235,4,2,1,75,1,1
211764,-90.9090909090909,4,2,1,75,0,1
217320,441.176470588235,4,2,1,75,1,1
217320,-90.9090909090909,4,2,1,75,0,1
217518,500,4,2,1,75,1,1
217518,-90.9090909090909,4,2,1,75,0,1
217747,472.410202880931,4,2,1,75,1,1
217747,-90.9090909090909,4,2,1,75,0,1
217865,437.956204379562,4,2,1,75,1,1
217865,-90.9090909090909,4,2,1,75,0,1
218272,500,4,2,1,75,1,1
218272,-90.9090909090909,4,2,1,75,0,1
218397,441.176470588235,4,2,1,75,1,1
218397,-90.9090909090909,4,2,1,75,0,1
218823,441.176470588235,4,2,1,75,1,1
218823,-90.9090909090909,4,2,1,75,0,1
220174,441.176470588235,4,2,1,75,1,1
220596,441.176470588235,4,2,1,75,1,1
220596,-90.9090909090909,4,2,1,75,0,1
229431,441.176470588235,3,2,1,60,1,0
229431,-111.111111111111,3,2,1,60,0,0
236332,441.176470588235,4,2,1,70,1,0
236505,441.176470588235,4,2,1,70,1,0
236982,441.176470588235,4,2,1,70,1,0
237387,441.176470588235,4,2,1,70,1,0
238059,441.176470588235,4,2,1,70,1,0
238390,441.176470588235,4,2,1,70,1,0
239660,441.176470588235,4,2,1,70,1,0
240054,441.176470588235,4,2,1,70,1,0
240054,-312.5,4,2,1,70,0,0
240081,-312.5,4,2,1,5,0,0
243473,-312.5,4,2,1,40,0,0
243555,441.176470588235,4,2,1,60,1,0
243555,-200,4,2,1,50,0,0
250613,-142.857142857143,4,2,1,65,0,0
254143,-58.8235294117647,4,2,1,75,0,0
254198,-58.8235294117647,4,2,1,5,0,0
254584,-117.647058823529,4,2,1,40,0,0
254694,-117.647058823529,4,2,1,5,0,0
254805,-58.8235294117647,4,2,1,75,0,0
254860,-58.8235294117647,4,2,1,5,0,0
255466,-117.647058823529,4,2,1,40,0,0
255577,-117.647058823529,4,2,1,5,0,0
255687,-58.8235294117647,4,2,1,75,0,0
255742,-58.8235294117647,4,2,1,5,0,0
256128,-166.666666666667,4,2,1,40,0,0
257452,-117.647058823529,4,2,1,75,0,0
258996,-66.6666666666667,4,2,1,70,0,0
259437,-83.3333333333333,4,2,1,85,0,1
273555,-83.3333333333333,4,2,1,75,0,0
273996,-83.3333333333333,4,2,1,85,0,1
287672,-76.9230769230769,4,2,1,85,0,0

[Colours]
Combo1 : 148,156,172
Combo2 : 184,118,136
Combo3 : 113,116,155
Combo4 : 91,92,105

[HitObjects]
256,192,332,12,0,2979,0:0:0:0:
234,63,3116,6,0,L|292:78,8,60.0000006993612,8|2|2|2|2|2|2|2|2,0:3|0:0|0:0|0:0|0:0|0:0|0:0|0:0|0:0,0:0:0:0:
304,90,3558,5,6,0:0:0:0:
445,35,3668,1,2,0:0:0:0:
431,22,3778,2,0,P|407:60|416:103,1,89.9999976158143,2|0,0:0|1:0,0:0:0:0:
491,169,3999,5,10,0:0:0:0:
487,263,4109,2,0,P|510:225|501:182,1,89.9999976158143,2|0,0:0|1:0,0:0:0:0:
304,90,4330,2,0,P|336:191|402:206,1,179.999995231629,2|2,1:2|0:0,0:0:0:0:
307,285,4660,5,0,1:0:0:0:
292,274,4771,1,2,0:0:0:0:
273,273,4881,2,0,P|230:269|200:236,1,89.9999976158143,8|0,0:0|0:0,0:0:0:0:
163,74,5102,2,0,P|201:96|213:138,1,89.9999976158143,2|0,1:2|0:0,0:0:0:0:
13,256,5322,6,0,P|35:164|60:83,1,179.999995231629,2|0,1:2|0:0,0:0:0:0:
79,58,5653,1,0,1:0:0:0:
246,174,5763,6,0,P|224:82|199:1,1,179.999995231629,10|2,0:0|0:0,0:0:0:0:
116,152,6094,2,0,P|134:197|177:215,1,89.9999976158143,2|0,1:2|0:0,0:0:0:0:
305,292,6315,5,8,0:0:0:0:
324,273,6425,2,0,P|306:228|263:210,1,89.9999976158143,2|0,1:2|0:0,0:0:0:0:
103,283,6646,2,0,P|147:302|190:284,1,89.9999976158143,10|0,0:0|0:0,0:0:0:0:
280,121,6866,5,0,0:0:0:0:
280,121,6977,1,8,0:0:0:0:
358,213,7087,5,2,1:2:0:0:
405,147,7197,1,2,0:0:0:0:
466,232,7307,2,0,P|412:236|370:222,1,89.9999976158143,2|0,0:0|0:0,0:0:0:0:
280,121,7528,6,0,P|215:182|129:205,1,179.999995231629,10|0,0:0|0:0,0:0:0:0:
129,33,7859,2,0,P|171:45|189:84,1,89.9999976158143,2|0,0:0|0:0,0:0:0:0:
29,211,8080,2,0,P|23:170|5:119,1,89.9999976158143,2|0,0:0|0:0,0:0:0:0:
141,333,8300,6,0,P|162:246|215:159,1,179.999995231629,2|0,0:0|0:0,0:0:0:0:
391,109,8631,2,0,P|405:145|367:131,1,89.9999976158143,2|0,0:0|0:0,0:0:0:0:
345,45,8852,1,0,1:0:0:0:
126,93,9072,5,2,0:0:0:0:
111,70,9182,1,2,1:2:0:0:
124,46,9293,2,0,P|166:46|205:80,1,89.9999976158143,10|0,0:0|0:0,0:0:0:0:
288,101,9513,1,2,0:0:0:0:
288,101,9624,2,0,P|312:135|306:186,1,89.9999976158143,2|0,1:2|0:0,0:0:0:0:
264,308,9844,2,0,P|222:302|172:178,1,179.999995231629,10|0,0:0|0:0,0:0:0:0:
288,101,10175,6,0,P|332:110|375:120,1,89.9999976158143,10|0,0:0|0:0,0:0:0:0:
491,207,10396,2,0,P|447:216|404:226,1,89.9999976158143,2|8,0:0|0:0,0:0:0:0:
341,270,10616,5,6,0:0:0:0:
448,365,10727,1,2,0:0:0:0:
462,349,10837,2,0,P|421:331|380:347,1,89.9999976158143,2|0,0:0|0:0,0:0:0:0:
272,380,11057,5,10,0:0:0:0:
198,313,11168,2,0,P|214:353|254:371,1,89.9999976158143,2|0,0:0|0:0,0:0:0:0:
341,270,11388,2,0,B|366:182|366:182|328:101,1,179.999995231629,2|2,1:2|0:0,0:0:0:0:
96,16,11719,5,0,0:0:0:0:
77,35,11830,1,2,0:0:0:0:
88,59,11940,2,0,B|138:34|180:57|180:57|225:78|265:65,1,179.999995231629,8|2,0:0|1:2,0:0:0:0:
377,8,12271,5,0,0:0:0:0:
377,8,12381,2,0,P|301:74|277:153,1,179.999995231629,2|0,1:2|0:0,0:0:0:0:
298,168,12712,1,0,1:0:0:0:
407,116,12822,6,0,P|445:94|485:112,1,89.9999976158143,10|0,0:0|0:0,0:0:0:0:
377,204,13043,1,2,0:0:0:0:
377,204,13153,2,0,P|333:194|297:167,1,89.9999976158143,2|0,1:2|0:0,0:0:0:0:
166,64,13374,5,8,0:0:0:0:
175,52,13484,2,0,P|217:34|253:57,1,89.9999976158143,2|0,1:2|0:0,0:0:0:0:
129,244,13705,2,0,P|120:199|100:147,1,89.9999976158143,10|0,0:0|0:0,0:0:0:0:
0,54,13925,5,0,0:0:0:0:
0,54,14035,2,0,P|47:39|90:35,1,89.9999976158143,8|0,0:0|1:0,1:0:0:0:
254,140,14256,5,2,0:0:0:0:
254,140,14366,2,0,P|276:104|254:67,1,89.9999976158143,2|0,0:0|1:0,0:0:0:0:
38,161,14587,1,10,0:0:0:0:
37,161,14697,2,0,P|82:170|123:186,1,89.9999976158143,2|0,0:0|0:0,0:0:0:0:
215,270,14918,2,0,P|258:245|304:235,1,89.9999976158143,2|0,1:2|0:0,0:0:0:0:
417,161,15138,5,10,0:0:0:0:
308,66,15304,1,10,0:0:0:0:
160,129,15469,1,10,0:0:0:0:
280,220,15607,1,10,1:2:0:0:
324,75,15745,1,10,1:2:0:0:
189,4,15910,5,14,1:2:0:0:
265,226,16021,1,10,0:0:0:0:
250,245,16572,5,10,0:0:0:0:
177,19,16683,1,10,0:0:0:0:
177,19,17013,6,0,P|147:39|105:35,1,71.9999980926514,8|0,0:3|0:0,0:0:0:0:
18,31,17234,1,0,1:0:0:0:
31,17,17344,2,0,P|45:91|57:177,1,143.999996185303,8|0,0:3|0:0,0:0:0:0:
38,232,17675,1,4,0:0:0:0:
292,145,18006,5,2,0:0:0:0:
278,170,18116,2,0,P|338:245|408:179,1,215.999987686158,2|2,0:0|0:0,0:0:0:0:
481,50,18778,6,0,P|459:63|427:64,1,53.9999969215394,2|0,0:0|0:0,0:0:0:0:
363,20,18999,1,2,0:0:0:0:
336,13,19109,1,2,0:0:0:0:
311,19,19219,1,2,0:0:0:0:
204,99,19440,6,0,P|233:143|230:205,1,107.999993843079,2|0,0:0|0:0,0:0:0:0:
176,253,19771,2,0,P|241:290|336:309,1,161.999990764618,2|0,0:0|0:0,0:0:0:0:
60,246,20543,6,0,P|69:220|66:194,1,53.9999969215394,2|0,0:0|0:0,0:0:0:0:
21,137,20763,1,2,0:0:0:0:
11,121,20874,2,0,L|21:53,1,53.9999969215394,2|0,0:0|0:0,0:0:0:0:
179,13,21205,6,0,P|227:36|272:66,1,107.999993843079,2|0,0:0|0:0,0:0:0:0:
321,123,21535,1,2,0:0:0:0:
506,240,22087,6,0,P|457:263|411:291,1,107.999993843079,2|0,0:0|0:0,0:0:0:0:
359,343,22417,1,2,0:0:0:0:
213,294,22749,5,0,0:0:0:0:
213,294,22969,2,0,P|244:251|229:202,1,107.999993843079,2|0,0:0|0:0,0:0:0:0:
168,163,23300,1,2,0:0:0:0:
273,84,23631,5,0,0:0:0:0:
273,84,23852,1,0,0:0:0:0:
374,178,24072,6,0,P|426:174|452:129,1,107.999993843079,2|0,0:0|0:0,0:0:0:0:
471,19,24403,1,2,0:0:0:0:
449,19,24513,2,0,P|389:28|372:84,1,107.999993843079,2|2,0:0|1:2,0:0:0:0:
434,281,24955,5,2,0:0:0:0:
416,294,25065,2,0,B|366:279|366:279|338:282|338:282|291:266,1,125.999992816925,2|0,0:0|0:0,0:0:0:0:
233,217,25396,1,2,0:0:0:0:
47,292,25616,6,0,P|87:304|134:278,1,83.9999952112835,2|0,1:2|0:0,0:0:0:0:
141,261,25837,2,0,P|123:209|114:132,1,125.999992816925,2|2,0:0|1:2,0:0:0:0:
238,29,26278,5,0,0:0:0:0:
268,43,26388,1,0,0:0:0:0:
289,77,26499,2,0,P|358:92|387:46,1,125.999992816925,2|0,0:0|0:0,0:0:0:0:
482,24,26830,5,2,0:0:0:0:
467,44,26940,2,0,P|452:108|443:184,1,125.999992816925,0|2,1:0|0:0,0:0:0:0:
485,256,27271,1,0,0:0:0:0:
476,267,27381,1,0,1:0:0:0:
294,208,27602,6,0,P|234:216|204:281,1,125.999992816925,2|0,0:0|1:0,0:0:0:0:
138,338,27932,1,2,0:0:0:0:
120,349,28043,2,0,P|87:342|54:330,1,62.9999964084627,2|0,0:0|0:0,0:0:0:0:
28,233,28263,6,0,P|45:177|103:183,1,125.999992816925,2|0,1:2|0:0,0:0:0:0:
164,223,28594,1,2,0:0:0:0:
164,223,28705,1,2,0:0:0:0:
343,87,28925,6,0,P|311:102|283:99,1,62.9999964084627,2|0,0:0|0:0,0:0:0:0:
210,51,29146,2,0,P|140:62|127:119,1,125.999992816925,2|0,0:0|1:0,0:0:0:0:
170,167,29477,1,2,0:0:0:0:
161,177,29587,1,8,0:0:0:0:
284,298,29807,5,10,0:0:0:0:
350,252,29918,1,8,0:0:0:0:
424,273,30028,2,0,P|471:233|471:171,1,125.999992816925,14|0,0:0|0:0,0:0:0:0:
341,79,30359,5,2,0:0:0:0:
317,97,30469,2,0,P|321:127|337:155,1,62.9999964084627,0|0,1:0|0:0,0:0:0:0:
490,47,30690,2,0,P|419:25|359:5,1,125.999992816925,10|0,0:0|0:0,0:0:0:0:
236,59,31021,5,8,0:0:0:0:
213,66,31131,2,0,P|204:38|236:14,1,62.9999964084627,2|0,1:2|0:0,0:0:0:0:
317,97,31352,5,10,0:0:0:0:
303,163,31462,1,0,1:0:0:0:
249,207,31572,1,8,1:2:0:0:
180,206,31682,1,8,1:2:0:0:
128,162,31793,2,0,P|50:202|62:275,1,161.999990764618,4|0,0:0|0:0,0:0:0:0:
134,340,32124,5,0,0:0:0:0:
251,270,32234,2,0,B|263:300|244:324|244:324|195:303|143:327,1,161.999990764618,10|0,0:0|0:0,0:0:0:0:
58,210,32565,1,0,0:0:0:0:
72,218,32675,2,0,P|96:202|134:146,1,80.9999953823091,2|0,0:0|0:0,0:0:0:0:
10,36,32896,2,0,P|19:63|55:115,1,80.9999953823091,2|0,0:0|0:0,0:0:0:0:
207,205,33116,2,0,P|212:176|205:114,1,80.9999953823091,10|0,0:0|0:0,0:0:0:0:
343,41,33337,6,0,P|276:9|202:45,1,161.999990764618,2|0,0:0|1:0,0:0:0:0:
320,176,33668,1,0,0:0:0:0:
340,191,33778,2,0,P|359:164|362:108,1,80.9999953823091,2|0,0:0|0:0,0:0:0:0:
207,205,33999,2,0,P|211:242|237:280,1,80.9999953823091,8|0,0:0|0:0,0:0:0:0:
355,384,34219,2,0,P|374:357|381:303,1,80.9999953823091,2|0,0:0|1:0,0:0:0:0:
338,250,34440,1,0,0:0:0:0:
498,89,34660,5,2,1:2:0:0:
479,113,34771,1,0,0:0:0:0:
496,137,34881,2,0,B|452:122|424:141|424:141|388:167|339:153,1,161.999990764618,10|2,0:0|1:2,0:0:0:0:
179,96,35212,5,8,0:0:0:0:
173,123,35322,2,0,P|261:131|283:72,1,161.999990764618,0|0,1:0|0:0,0:0:0:0:
90,31,35653,5,0,0:0:0:0:
67,48,35763,2,0,P|78:131|132:216,1,161.999990764618,10|0,0:0|0:0,0:0:0:0:
208,314,36094,5,0,1:0:0:0:
240,289,36205,2,0,P|207:270|167:281,1,80.9999953823091,2|0,0:0|0:0,0:0:0:0:
11,354,36425,2,0,P|43:372|90:355,1,80.9999953823091,2|0,1:2|0:0,0:0:0:0:
21,197,36646,6,0,P|32:238|50:289,1,80.9999953823091,10|0,0:0|0:0,0:0:0:0:
192,182,36866,2,0,P|203:145|213:101,1,80.9999953823091,2|0,0:0|0:0,0:0:0:0:
128,32,37087,1,2,1:2:0:0:
314,148,37307,5,2,0:0:0:0:
336,126,37418,1,0,1:0:0:0:
319,100,37528,2,0,P|286:178|348:253,1,161.999990764618,10|2,0:0|0:0,0:0:0:0:
466,313,37859,2,0,P|430:323|403:359,1,80.9999953823091,0|0,1:0|0:0,0:0:0:0:
266,365,38080,5,8,0:0:0:0:
277,352,38190,2,0,P|295:320|294:276,1,80.9999953823091,2|0,1:2|0:0,0:0:0:0:
166,158,38410,2,0,P|166:195|192:234,1,80.9999953823091,10|0,1:2|0:0,0:0:0:0:
351,152,38631,1,2,1:2:0:0:
335,125,38741,1,8,0:0:0:0:
305,117,38852,2,0,P|229:69|153:87,1,161.999990764618,4|0,0:0|0:0,0:0:0:0:
65,154,39182,5,0,1:0:0:0:
24,23,39293,2,0,B|1:102|1:102|54:172,1,161.999990764618,10|0,0:0|0:0,0:0:0:0:
168,243,39624,1,0,1:0:0:0:
187,232,39734,2,0,P|184:194|154:156,1,80.9999953823091,2|0,0:0|0:0,0:0:0:0:
11,280,39955,2,0,P|14:317|42:354,1,80.9999953823091,2|0,1:2|0:0,0:0:0:0:
186,373,40175,6,0,P|220:354|261:344,1,80.9999953823091,10|0,0:0|0:0,0:0:0:0:
398,285,40396,2,0,P|364:266|320:254,1,80.9999953823091,2|0,0:0|0:0,0:0:0:0:
199,93,40616,2,0,P|242:152|321:133,1,161.999990764618,0|2,1:0|0:0,0:0:0:0:
424,64,40947,5,0,1:0:0:0:
405,44,41057,2,0,P|398:126|385:212,1,161.999990764618,10|2,0:0|0:0,0:0:0:0:
299,347,41388,5,0,1:0:0:0:
280,323,41499,1,0,0:0:0:0:
299,292,41609,1,0,0:0:0:0:
334,309,41719,2,0,P|371:320|410:309,1,80.9999953823091,2|0,1:2|0:0,0:0:0:0:
512,157,41940,2,0,P|474:162|441:192,1,80.9999953823091,10|0,0:0|0:0,0:0:0:0:
479,362,42160,2,0,P|495:324|502:275,1,80.9999953823091,2|0,0:0|0:0,0:0:0:0:
294,107,42381,6,0,P|295:184|366:223,1,161.999990764618,12|0,1:2|1:0,0:0:0:0:
448,176,42712,1,0,0:0:0:0:
511,304,42822,6,0,P|509:226|438:188,1,161.999990764618,10|0,1:2|0:0,0:0:0:0:
291,289,43153,1,0,0:0:0:0:
399,376,43263,2,0,P|321:374|282:306,1,161.999990764618,8|0,1:2|0:0,0:0:0:0:
151,133,43594,6,0,P|73:135|34:203,1,161.999990764618,10|0,1:2|0:0,0:0:0:0:
199,360,43925,2,0,P|214:323|212:282,1,80.9999953823091,8|0,0:3|0:0,0:0:0:0:
124,213,44146,5,12,0:0:0:0:
141,309,44256,1,8,0:0:0:0:
298,266,44366,1,8,0:0:0:0:
281,362,44476,1,8,0:0:0:0:
289,249,44587,1,10,0:0:0:0:
395,194,45028,5,0,0:0:0:0:
402,210,45138,2,0,P|426:225|444:227,2,38.2499997162819,0|0|2,1:0|1:0|1:2,0:0:0:0:
334,148,45359,1,0,1:0:0:0:
258,171,45469,1,0,1:0:0:0:
31,25,45690,5,8,0:3:0:0:
107,48,45800,1,8,0:3:0:0:
145,114,45910,2,0,P|182:117|217:98,1,76.4999994325638,0|0,1:0|0:0,0:0:0:0:
336,19,46131,6,0,B|312:91|312:91|373:137,1,152.999998865128,14|0,0:0|1:0,0:0:0:0:
498,226,46462,1,8,0:0:0:0:
498,226,46572,2,0,B|506:186|506:186|475:163,1,76.4999994325638,0|8,0:0|0:0,0:0:0:0:
326,206,46793,1,0,0:0:0:0:
488,370,47013,6,0,P|487:334|452:314,1,76.4999994325638,0|0,1:0|0:0,0:0:0:0:
386,346,47234,2,0,P|346:350|314:335,2,76.4999994325638,8|8|8,0:0|0:3|0:3,0:0:0:0:
326,206,47675,5,12,0:0:0:0:
151,251,47785,1,8,0:0:0:0:
204,172,47896,1,10,0:0:0:0:
368,278,48006,1,8,0:0:0:0:
319,193,48116,1,8,0:0:0:0:
452,76,48646,5,8,0:3:0:0:
431,88,48695,2,0,P|402:86|379:71,1,57.3749995744229,8|8,0:3|0:3,0:0:0:0:
290,22,48888,5,8,0:3:0:0:
290,22,48999,1,0,1:0:0:0:
182,110,49109,5,8,0:3:0:0:
182,110,49219,1,8,0:3:0:0:
273,176,49330,5,8,0:3:0:0:
273,176,49440,2,0,P|235:201|218:233,1,76.4999994325638,0|0,1:0|0:0,0:0:0:0:
174,358,49660,6,0,P|229:303|219:226,1,161.999990764618,12|0,0:0|1:0,0:0:0:0:
81,155,49991,2,0,P|62:203|74:235,1,80.9999953823091,8|2,0:0|0:0,0:0:0:0:
216,122,50212,1,8,1:2:0:0:
87,345,50543,6,0,P|116:342|88:332,1,80.9999953823091
57,362,50763,2,0,P|60:241|13:130,1,242.999986146927,8|0,0:3|0:0,0:0:0:0:
78,36,51205,6,0,B|140:81|140:81|216:70,1,152.999998865128,6|0,0:0|0:0,0:0:0:0:
337,28,51535,1,0,0:0:0:0:
354,44,51646,2,0,P|342:86|318:114,1,76.4999994325638,10|0,0:0|0:0,0:0:0:0:
216,212,51866,6,0,P|296:188|372:198,1,152.999998865128,2|2,1:2|0:2,0:0:0:0:
464,281,52197,1,0,0:0:0:0:
488,273,52307,2,0,P|479:240|475:197,1,76.4999994325638,0|0,1:0|0:0,0:0:0:0:
502,132,52528,2,0,P|445:145|415:141,1,76.4999994325638,10|0,0:0|0:0,0:0:0:0:
310,34,52749,6,0,P|332:86|298:127,1,76.4999994325638,2|0,1:2|0:0,0:0:0:0:
256,179,52969,2,0,P|177:143|107:124,1,152.999998865128,2|0,1:2|0:0,0:0:0:0:
0,61,53300,1,0,1:0:0:0:
20,46,53410,2,0,P|34:82|39:120,1,76.4999994325638,8|0,0:0|0:0,0:0:0:0:
0,228,53631,2,0,P|34:243|65:266,1,76.4999994325638,2|0,1:2|0:0,0:0:0:0:
278,384,53852,6,0,P|297:310|315:235,1,152.999998865128
257,158,54182,1,0,0:0:0:0:
234,175,54293,2,0,P|159:137|183:80,1,152.999998865128,8|0,0:0|0:0,0:0:0:0:
335,18,54624,5,0,0:0:0:0:
323,36,54734,2,0,P|335:71|370:100,1,76.4999994325638,14|0,0:0|0:0,0:0:0:0:
464,345,55175,6,0,B|478:327|498:326|498:326|478:323|466:311,1,76.4999994325638
401,267,55396,2,0,P|389:302|354:331,1,76.4999994325638,14|0,0:0|0:0,0:0:0:0:
42,264,56057,6,0,B|28:282|8:283|8:283|28:286|40:298,1,76.4999994325638
120,344,56278,2,0,P|132:309|167:280,1,76.4999994325638,14|0,0:0|0:0,0:0:0:0:
326,139,56719,5,2,0:0:0:0:
385,80,56939,1,2,0:0:0:0:
350,5,57160,1,2,0:0:0:0:
267,13,57380,1,2,0:0:0:0:
267,13,57491,1,2,0:0:0:0:
267,13,57602,2,0,P|241:19|220:36,1,53.9999969215394
91,133,57822,6,0,L|28:114,8,60.0000006993612,8|2|2|2|2|2|2|2|2,0:3|0:0|0:0|0:0|0:0|0:0|0:0|0:0|0:0,0:0:0:0:
117,158,58263,6,0,P|202:104|277:160,1,198.000000797272,4|0,0:1|0:0,0:0:0:0:
393,250,58594,1,0,0:0:0:0:
472,186,58705,2,0,B|458:155|466:122|466:122|397:165|417:244,1,198.000000797272,10|0,0:0|0:0,0:0:0:0:
207,371,59035,6,0,P|234:275|192:180,1,198.000000797272,2|0,1:2|0:0,0:0:0:0:
18,49,59366,1,2,1:2:0:0:
30,64,59477,1,0,0:0:0:0:
113,101,59587,5,8,0:0:0:0:
113,101,59807,2,0,P|160:116|211:93,1,99.0000003986359,2|0,0:0|0:0,0:0:0:0:
258,40,60028,1,0,1:0:0:0:
466,178,60249,6,0,P|385:134|321:201,1,198.000000797272,2|8,0:0|0:0,0:0:0:0:
382,294,60580,1,0,0:0:0:0:
205,369,60690,2,0,P|315:352|395:316,1,198.000000797272,2|2,0:0|0:0,0:0:0:0:
234,200,61021,5,0,0:0:0:0:
232,226,61131,2,0,P|205:265|158:261,1,99.0000003986359,0|0,1:0|0:0,0:0:0:0:
55,137,61352,1,8,0:0:0:0:
5,241,61462,2,0,P|86:161|170:147,1,198.000000797272,0|8,0:0|0:0,0:0:0:0:
340,198,61793,6,0,P|338:149|306:112,1,99.0000003986359,2|0,1:2|0:0,0:0:0:0:
107,12,62013,2,0,P|129:54|174:74,1,99.0000003986359,2|0,0:0|1:0,0:0:0:0:
381,68,62234,2,0,P|344:34|296:31,1,99.0000003986359,10|0,0:0|0:0,0:0:0:0:
185,150,62455,5,2,0:0:0:0:
252,203,62565,1,0,1:0:0:0:
135,268,62675,2,0,P|179:288|208:328,1,99.0000003986359,2|0,0:0|0:0,0:0:0:0:
204,351,62896,2,0,P|175:311|130:290,1,99.0000003986359,2|0,1:2|0:0,0:0:0:0:
265,193,63116,6,0,P|312:207|354:232,1,99.0000003986359,10|0,0:0|0:0,0:0:0:0:
486,308,63337,2,0,P|438:322|396:347,1,99.0000003986359,2|0,0:0|0:0,0:0:0:0:
210,275,63557,6,0,B|154:194|154:194|210:109,1,198.000000797272,4|0,1:2|0:0,0:0:0:0:
436,2,63888,2,0,B|459:97|459:97|378:155,1,198.000000797272,0|0,1:0|0:0,0:0:0:0:
174,29,64219,6,0,P|222:18|266:40,1,99.0000003986359,6|0,0:0|0:0,0:0:0:0:
338,217,64440,2,0,P|290:227|259:185,1,99.0000003986359,2|0,0:0|0:0,0:0:0:0:
459,97,64660,2,0,P|466:145|474:201,1,99.0000003986359,2|0,0:0|0:0,0:0:0:0:
427,383,64881,5,10,0:0:0:0:
348,340,64991,1,8,0:0:0:0:
271,295,65102,1,10,0:0:0:0:
194,250,65212,1,8,0:0:0:0:
260,192,65322,6,0,P|273:294|198:345,1,198.000000797272,12|0,0:0|0:0,0:0:0:0:
38,273,65653,1,0,1:0:0:0:
47,251,65763,2,0,P|92:276|105:325,1,99.0000003986359,8|0,0:0|0:0,0:0:0:0:
235,114,65984,2,0,P|190:139|177:188,1,99.0000003986359,2|0,0:0|1:0,0:0:0:0:
19,6,66205,6,0,P|55:91|145:75,1,198.000000797272,2|0,0:0|1:0,0:0:0:0:
392,167,66646,2,0,P|338:258|260:229,1,198.000000797272,10|0,0:0|0:0,0:0:0:0:
138,158,66977,5,0,0:0:0:0:
163,164,67087,2,0,P|188:205|191:254,1,99.0000003986359,0|0,1:0|0:0,0:0:0:0:
54,314,67307,2,0,P|56:265|82:223,1,99.0000003986359,0|0,0:0|1:0,0:0:0:0:
284,316,67528,2,0,P|244:345|196:352,1,99.0000003986359,8|0,0:0|0:0,0:0:0:0:
81,223,67749,1,2,1:2:0:0:
265,235,67969,6,0,P|355:251|392:167,1,198.000000797272,2|0,0:0|1:0,0:0:0:0:
145,75,68410,2,0,P|55:91|19:6,1,198.000000797272,10|0,0:0|0:0,0:0:0:0:
19,152,68741,5,8,0:0:0:0:
33,163,68852,2,0,P|52:198|72:262,1,99.0000003986359,6|0,0:0|0:0,0:0:0:0:
218,369,69072,2,0,P|232:321|255:277,1,99.0000003986359,8|0,0:3|0:0,0:0:0:0:
376,206,69293,2,0,P|400:238|361:235,1,99.0000003986359,2|0,1:2|0:0,0:0:0:0:
280,102,69513,6,0,B|239:136|239:136|187:126,1,99.0000003986359,6|0,0:0|0:0,0:0:0:0:
331,18,69734,2,0,P|360:47|376:103,1,99.0000003986359,2|0,0:0|0:0,0:0:0:0:
461,309,69955,2,0,P|472:261|506:225,1,99.0000003986359,8|0,0:3|0:0,0:0:0:0:
356,323,70175,2,0,P|311:301|266:281,1,99.0000003986359,8|0,0:3|0:0,0:0:0:0:
33,317,70396,6,0,P|128:345|126:278,1,198.000000797272,6|0,0:0|0:0,0:0:0:0:
19,170,70727,1,0,0:0:0:0:
113,131,70837,2,0,P|65:123|20:165,1,99.0000003986359,10|0,0:0|0:0,0:0:0:0:
214,247,71057,5,8,1:2:0:0:
186,179,71168,2,0,L|282:198,1,99.0000003986359,8|10,0:0|0:0,0:0:0:0:
452,264,71388,5,8,1:2:0:0:
506,213,71499,2,0,P|456:212|413:189,1,99.0000003986359,8|0,0:0|0:0,0:0:0:0:
339,121,71719,1,8,0:3:0:0:
309,117,71830,1,8,0:3:0:0:
283,131,71940,5,8,0:3:0:0:
218,205,72050,1,8,0:3:0:0:
119,215,72160,1,8,0:3:0:0:
53,139,72271,1,8,0:3:0:0:
83,45,72381,6,0,P|147:110|124:209,1,198.000000797272,4|0,0:1|0:0,0:0:0:0:
33,327,72712,1,0,1:0:0:0:
226,357,72822,2,0,B|137:308|137:308|47:342,1,198.000000797272,10|0,0:0|1:0,0:0:0:0:
0,176,73153,2,0,B|90:210|90:210|179:161,1,198.000000797272,2|0,1:2|0:0,0:0:0:0:
282,29,73484,5,2,1:2:0:0:
270,47,73594,1,0,0:0:0:0:
291,142,73704,5,8,0:0:0:0:
291,142,73925,2,0,P|317:180|375:170,1,99.0000003986359,2|0,0:0|0:0,0:0:0:0:
494,238,74146,2,0,P|400:245|355:337,1,198.000000797272,0|2,1:0|0:0,0:0:0:0:
457,335,74477,1,0,1:0:0:0:
275,262,74587,6,0,P|228:274|181:292,1,99.0000003986359,8|0,0:0|0:0,0:0:0:0:
11,333,74807,2,0,P|58:345|105:363,1,99.0000003986359,2|0,0:0|1:0,0:0:0:0:
275,132,75028,5,2,0:0:0:0:
207,193,75138,1,2,0:0:0:0:
149,77,75249,2,0,P|177:116|194:163,1,99.0000003986359,2|0,1:2|0:0,0:0:0:0:
327,348,75469,2,0,P|343:301|372:261,1,99.0000003986359,8|0,0:0|0:0,0:0:0:0:
504,120,75690,5,2,0:0:0:0:
382,168,75800,1,10,0:0:0:0:
471,210,75910,2,0,P|436:109|358:35,1,198.000000797272,2|2,1:2|0:0,0:0:0:0:
248,7,76241,5,0,1:0:0:0:
222,27,76352,2,0,P|237:75|260:118,1,99.0000003986359,10|0,0:0|0:0,0:0:0:0:
339,280,76572,5,2,0:0:0:0:
259,310,76682,1,2,1:2:0:0:
183,265,76793,2,0,P|138:283|107:321,1,99.0000003986359,2|0,0:0|0:0,0:0:0:0:
41,136,77013,5,2,1:2:0:0:
127,178,77124,1,0,1:0:0:0:
12,250,77234,2,0,P|1:197|28:147,1,99.0000003986359,8|0,0:0|0:0,0:0:0:0:
190,26,77455,6,0,P|274:79|369:104,1,198.000000797272,2|0,0:0|1:0,0:0:0:0:
485,47,77785,1,0,0:0:0:0:
503,161,77896,2,0,P|464:264|382:246,1,198.000000797272,2|10,0:0|0:0,0:0:0:0:
255,186,78227,5,0,0:0:0:0:
224,299,78337,2,0,P|249:253|239:195,1,99.0000003986359,14|0,0:0|0:0,0:0:0:0:
328,63,78557,2,0,P|324:111|349:154,1,99.0000003986359,2|0,0:0|0:0,0:0:0:0:
141,19,78778,2,0,P|95:38|51:60,1,99.0000003986359,2|0,1:2|0:0,0:0:0:0:
0,210,78999,2,0,L|105:261,1,99.0000003986359,10|0,0:0|0:0,0:0:0:0:
306,354,79219,5,2,0:0:0:0:
306,354,79330,1,0,0:0:0:0:
305,354,79440,2,0,P|282:261|195:220,1,198.000000797272,6|2,0:0|0:0,0:0:0:0:
173,231,79771,1,0,1:0:0:0:
424,124,79881,6,0,P|341:172|251:139,1,198.000000797272,10|2,0:0|0:0,0:0:0:0:
235,126,80212,1,0,1:0:0:0:
25,23,80322,6,0,P|53:118|65:216,1,198.000000797272,2|0,0:0|1:0,0:0:0:0:
305,354,80763,2,0,P|317:255|345:161,1,198.000000797272,10|0,0:0|1:0,0:0:0:0:
424,124,81094,5,0,0:0:0:0:
451,108,81205,2,0,P|395:94|370:58,1,99.0000003986359,0|0,1:0|0:0,0:0:0:0:
190,0,81425,1,0,0:0:0:0:
137,71,81535,1,0,1:0:0:0:
193,140,81646,2,0,P|247:120|299:109,1,99.0000003986359,8|0,0:0|0:0,0:0:0:0:
512,302,81866,6,0,P|463:290|417:272,1,99.0000003986359,2|0,0:0|0:0,0:0:0:0:
345,161,82087,2,0,P|317:255|305:354,1,198.000000797272,2|0,0:0|1:0,0:0:0:0:
65,216,82528,2,0,P|53:118|25:23,1,198.000000797272,10|2,0:0|1:2,0:0:0:0:
125,62,82859,5,8,0:0:0:0:
125,62,82969,1,10,0:0:0:0:
218,162,83190,1,2,1:2:0:0:
479,30,83410,1,10,0:0:0:0:
229,86,83631,2,0,P|275:97|297:140,1,99.0000003986359,2|0,1:2|0:0,0:0:0:0:
197,313,83852,6,0,P|159:282|158:234,1,99.0000003986359,2|0,0:0|1:0,0:0:0:0:
408,140,84072,2,0,P|387:185|378:233,1,99.0000003986359,2|0,0:0|0:0,0:0:0:0:
351,243,84293,2,0,P|359:194|379:149,1,99.0000003986359,10|0,0:0|1:0,0:0:0:0:
278,1,84513,5,0,1:0:0:0:
278,1,84624,1,0,1:0:0:0:
278,1,84734,2,0,P|172:13|128:94,1,198.000000797272,6|8,1:2|0:3,0:0:0:0:
190,245,85065,1,0,0:0:0:0:
205,254,85175,2,0,P|223:196|204:161,1,99.0000003986359,8|0,0:0|0:0,0:0:0:0:
35,270,85396,5,8,0:3:0:0:
35,270,85837,2,0,P|12:249|41:257,1,80.9999953823091,2|0,0:0|0:0,0:0:0:0:
108,324,86057,2,0,P|130:303|101:311,1,80.9999953823091,2|0,0:0|0:0,0:0:0:0:
13,364,86278,5,2,0:0:0:0:
13,364,86499,1,6,0:0:0:0:
126,216,86609,1,2,0:0:0:0:
109,227,86719,2,0,P|103:177|117:139,1,89.9999976158143,2|0,0:0|0:0,0:0:0:0:
66,37,86940,5,10,0:0:0:0:
166,28,87050,2,0,P|121:34|77:45,1,89.9999976158143,2|0,0:0|0:0,0:0:0:0:
233,132,87271,2,0,P|278:126|321:114,1,89.9999976158143,2|0,0:0|0:0,0:0:0:0:
509,124,87491,5,2,0:0:0:0:
482,136,87602,1,2,0:0:0:0:
481,161,87712,1,2,0:0:0:0:
498,177,87822,2,0,P|472:213|429:219,1,89.9999976158143,8|0,0:0|0:0,0:0:0:0:
336,120,88043,2,0,P|361:84|404:78,1,89.9999976158143,2|0,0:0|0:0,0:0:0:0:
256,246,88263,2,0,P|231:172|160:85,1,179.999995231629,2|0,1:2|0:0,0:0:0:0:
140,72,88594,1,0,0:0:0:0:
27,212,88705,6,0,P|52:286|123:373,1,179.999995231629,10|2,0:0|0:0,0:0:0:0:
256,246,89035,2,0,P|214:262|195:302,1,89.9999976158143,2|0,1:2|0:0,0:0:0:0:
373,360,89256,5,8,0:0:0:0:
386,350,89366,2,0,P|370:307|361:257,1,89.9999976158143,2|0,0:0|0:0,0:0:0:0:
503,156,89587,2,0,P|494:200|478:242,1,89.9999976158143,10|0,0:0|0:0,0:0:0:0:
284,50,89807,5,0,0:0:0:0:
284,50,89918,1,8,0:0:0:0:
366,78,90028,2,0,P|410:76|452:61,1,89.9999976158143,2|2,1:2|0:0,0:0:0:0:
297,144,90249,2,0,P|254:128|210:127,1,89.9999976158143,2|0,0:0|0:0,0:0:0:0:
13,203,90469,6,0,B|67:126|67:126|32:44,1,179.999995231629,10|0,0:0|0:0,0:0:0:0:
118,3,90800,2,0,P|133:45|151:86,1,89.9999976158143,2|0,1:2|0:0,0:0:0:0:
263,227,91021,2,0,P|278:184|296:143,1,89.9999976158143,10|0,0:0|0:0,0:0:0:0:
82,274,91241,6,0,P|169:295|240:350,1,179.999995231629,2|0,0:0|0:0,0:0:0:0:
390,317,91572,2,0,P|408:286|381:312,1,89.9999976158143,2|0,0:0|0:0,0:0:0:0:
322,355,91793,1,2,1:2:0:0:
495,174,92013,5,2,0:0:0:0:
499,200,92124,1,2,0:0:0:0:
476,215,92234,2,0,P|446:183|403:171,1,89.9999976158143,10|0,0:0|0:0,0:0:0:0:
283,228,92455,2,0,P|313:260|356:272,1,89.9999976158143,2|8,0:0|0:3,0:0:0:0:
402,170,92675,5,0,1:0:0:0:
402,170,92785,1,2,0:0:0:0:
354,266,92896,2,0,P|329:303|322:347,1,89.9999976158143,2|0,1:2|0:0,0:0:0:0:
188,265,93116,2,0,P|180:221|155:183,1,89.9999976158143,10|0,0:0|0:0,0:0:0:0:
322,347,93337,2,0,P|365:343|422:338,1,89.9999976158143,2|8,1:2|0:0,0:0:0:0:
488,170,93557,5,4,0:0:0:0:
480,152,93668,1,0,0:0:0:0:
392,202,93778,2,0,P|355:169|306:166,1,89.9999976158143,2|0,0:0|1:0,1:0:0:0:
155,183,93999,5,10,0:0:0:0:
135,192,94109,2,0,P|89:180|52:142,1,89.9999976158143,2|0,0:0|0:0,0:0:0:0:
262,34,94330,6,0,P|225:144|220:216,1,179.999995231629,2|2,1:2|0:0,0:0:0:0:
311,322,94660,1,0,1:0:0:0:
336,303,94771,2,0,P|351:268|315:234,1,89.9999976158143,2|8,0:0|0:0,0:0:0:0:
148,162,94991,5,0,0:0:0:0:
125,177,95102,2,0,P|110:212|146:246,1,89.9999976158143,2|0,1:2|0:0,0:0:0:0:
381,114,95322,6,0,P|330:47|252:78,1,179.999995231629,2|0,1:2|0:0,0:0:0:0:
232,105,95653,1,0,1:0:0:0:
446,198,95763,6,0,P|429:238|393:265,1,89.9999976158143,10|0,0:0|0:0,0:0:0:0:
204,330,95984,1,2,0:0:0:0:
204,330,96094,2,0,B|167:359|167:359|208:373,1,89.9999976158143,2|0,1:2|0:0,0:0:0:0:
386,376,96315,5,8,0:0:0:0:
409,355,96425,2,0,P|408:318|388:268,1,89.9999976158143,2|0,1:2|0:0,0:0:0:0:
232,105,96646,2,0,P|214:146|211:190,1,89.9999976158143,10|0,0:0|0:0,0:0:0:0:
264,281,96866,1,0,0:0:0:0:
409,76,97087,5,0,1:0:0:0:
345,25,97197,1,2,0:0:0:0:
264,37,97307,2,0,P|225:60|179:58,1,89.9999976158143,2|0,0:0|1:0,0:0:0:0:
23,21,97528,1,10,0:0:0:0:
23,21,97638,6,0,B|0:60|0:60|28:93,1,89.9999976158143,2|0,0:0|0:0,0:0:0:0:
144,272,97859,2,0,P|175:240|154:205,1,89.9999976158143,2|0,1:2|0:0,0:0:0:0:
16,322,98095,5,10,0:0:0:0:
152,277,98245,1,10,0:0:0:0:
272,355,98410,1,10,0:0:0:0:
129,376,98548,1,10,1:2:0:0:
67,244,98686,1,10,1:2:0:0:
182,157,98852,5,14,0:0:0:0:
146,368,98962,1,10,0:0:0:0:
206,311,99072,2,0,L|198:236,1,71.9999980926514,8|8,0:0|0:0,0:0:0:0:
162,119,99293,5,0,1:0:0:0:
175,142,99403,1,8,0:3:0:0:
266,192,99513,5,8,0:3:0:0:
283,173,99624,2,0,P|318:171|348:189,1,71.9999980926514,8|8,0:3|0:0,0:0:0:0:
463,198,99844,5,0,0:0:0:0:
479,190,99955,2,0,B|499:144|499:144|482:109,1,89.9999976158143,14|0,0:0|0:0,0:0:0:0:
422,59,100175,1,10,0:0:0:0:
158,132,100285,1,10,0:0:0:0:
158,132,100616,6,0,P|123:109|83:117,2,83.9999952112835,6|2|2,0:0|0:0|0:0,0:0:0:0:
220,209,101057,2,0,P|254:231|295:223,2,83.9999952112835,2|2|2,0:0|0:0|0:0,0:0:0:0:
113,207,101499,5,2,0:0:0:0:
113,207,101646,2,0,P|121:249|135:292,1,83.9999952112835,2|2,0:0|0:0,0:0:0:0:
226,384,101940,5,2,0:0:0:0:
226,384,102087,2,0,P|238:343|246:302,1,83.9999952112835,2|2,0:0|0:0,0:0:0:0:
294,223,102381,5,2,0:0:0:0:
364,177,102528,1,2,0:0:0:0:
445,196,102675,1,2,0:0:0:0:
389,259,102822,5,2,0:0:0:0:
364,177,102969,1,2,0:0:0:0:
415,110,103116,1,2,0:0:0:0:
366,41,103263,5,2,1:2:0:0:
388,33,103410,1,2,0:0:0:0:
385,56,103557,1,2,0:0:0:0:
273,79,103705,5,2,0:0:0:0:
278,56,103852,1,2,0:0:0:0:
296,71,103999,1,2,0:0:0:0:
235,159,104146,6,0,P|245:199|272:230,2,83.9999952112835,2|2|2,1:2|0:0|0:0,0:0:0:0:
148,95,104587,2,0,P|157:54|184:23,2,83.9999952112835,2|2|2,0:0|0:0|0:0,0:0:0:0:
95,176,105028,5,2,0:0:0:0:
95,176,105175,2,0,P|58:171|4:158,1,83.9999952112835,2|2,0:0|0:0,0:0:0:0:
156,262,105469,5,2,0:0:0:0:
156,262,105616,2,0,P|193:257|247:244,1,83.9999952112835,2|2,0:0|0:0,0:0:0:0:
382,193,105910,5,2,0:0:0:0:
426,264,106057,1,2,0:0:0:0:
363,320,106205,1,2,0:0:0:0:
314,251,106352,5,2,0:0:0:0:
372,191,106499,1,2,0:0:0:0:
330,117,106646,1,2,0:0:0:0:
391,59,106793,5,2,1:2:0:0:
397,34,106940,1,2,0:0:0:0:
372,40,107087,1,2,0:0:0:0:
259,58,107234,5,2,0:0:0:0:
272,36,107381,1,2,0:0:0:0:
285,58,107528,1,2,0:0:0:0:
179,107,107675,6,0,P|206:204|271:280,1,202.500002360344,0|0,1:0|0:0,0:0:0:0:
348,298,108116,1,2,1:2:0:0:
197,360,108337,5,2,0:0:0:0:
186,353,108447,1,0,0:0:0:0:
176,345,108557,1,10,0:0:0:0:
237,252,108778,1,2,0:0:0:0:
141,156,108999,1,2,0:0:0:0:
250,255,109219,1,2,1:2:0:0:
345,202,109440,6,0,P|395:201|432:234,2,90.0000010490418,2|2|0,0:0|0:0|0:0,0:0:0:0:
267,150,109881,1,2,0:0:0:0:
267,150,110102,2,0,P|278:119|293:80,1,67.5000007867814,10|0,1:2|0:0,0:0:0:0:
359,34,110322,6,0,P|405:55|446:69,2,90.0000010490418,10|2|2,0:0|0:0|0:0,0:0:0:0:
270,12,110763,1,2,0:0:0:0:
270,12,110910,2,0,L|222:21,2,45.0000005245209,0|2|0,0:0|1:2|1:0,0:0:0:0:
358,34,111205,6,0,P|329:130|321:231,1,202.500002360344,0|0,1:0|0:0,0:0:0:0:
355,297,111646,1,2,1:2:0:0:
201,348,111866,1,0,0:0:0:0:
213,337,111977,1,0,0:0:0:0:
222,329,112087,2,0,P|202:258|198:187,1,135.000001573563,10|0,0:0|0:0,0:0:0:0:
230,134,112418,1,2,0:0:0:0:
241,119,112528,1,0,0:0:0:0:
105,16,112749,5,8,0:0:0:0:
33,43,112859,1,8,0:0:0:0:
17,115,112969,2,0,L|26:146,1,22.5000002622605,2|2,0:0|0:0,0:0:0:0:
431,358,114734,6,0,P|456:278|404:222,1,161.999990764618,4|0,0:0|0:0,0:0:0:0:
320,175,115065,1,0,1:0:0:0:
193,252,115175,2,0,B|280:258|280:258|320:195,1,161.999990764618,10|0,0:0|0:0,0:0:0:0:
224,59,115506,5,0,1:0:0:0:
207,77,115616,2,0,P|167:67|117:55,1,80.9999953823091,2|8,0:0|0:0,0:0:0:0:
320,175,115837,2,0,P|360:165|410:153,1,80.9999953823091,2|0,1:2|0:0,0:0:0:0:
489,46,116057,2,0,P|457:20|411:25,1,80.9999953823091,10|0,0:0|0:0,0:0:0:0:
497,157,116278,6,0,P|488:238|467:317,1,161.999990764618,2|0,1:2|1:0,0:0:0:0:
337,359,116609,1,0,0:0:0:0:
320,351,116719,2,0,P|314:319|336:277,1,80.9999953823091,2|0,0:0|1:0,0:0:0:0:
409,235,116940,1,10,0:0:0:0:
228,149,117160,2,0,P|164:196|87:223,1,161.999990764618,2|0,0:0|0:0,0:0:0:0:
20,91,117491,5,8,0:0:0:0:
34,98,117602,2,0,P|24:147|16:184,1,80.9999953823091,2|0,1:2|0:0,0:0:0:0:
166,318,117822,2,0,P|156:269|148:232,1,80.9999953823091,10|0,0:0|0:0,0:0:0:0:
239,138,118043,5,0,1:0:0:0:
305,107,118153,1,8,1:2:0:0:
371,135,118263,2,0,B|454:122|454:122|506:56,1,161.999990764618,0|2,1:0|0:0,0:0:0:0:
492,204,118594,5,0,1:0:0:0:
502,220,118705,2,0,P|475:248|435:256,1,80.9999953823091,8|0,0:0|0:0,0:0:0:0:
291,305,118925,2,0,P|330:312|358:341,1,80.9999953823091,2|0,0:0|1:0,0:0:0:0:
435,256,119146,2,0,P|406:181|358:106,1,161.999990764618,2|2,0:0|1:2,0:0:0:0:
206,73,119477,5,0,0:0:0:0:
186,94,119587,2,0,P|211:136|248:152,1,80.9999953823091,10|0,0:0|0:0,0:0:0:0:
313,173,119807,1,2,1:2:0:0:
133,328,120028,2,0,P|134:230|98:174,1,161.999990764618,2|0,1:2|0:0,0:0:0:0:
0,8,120359,5,0,1:0:0:0:
19,25,120469,2,0,P|25:65|38:104,1,80.9999953823091,10|0,0:0|0:0,0:0:0:0:
218,240,120690,2,0,P|230:201|238:161,1,80.9999953823091,2|0,0:0|1:0,0:0:0:0:
184,26,120910,2,0,P|147:43|115:67,1,80.9999953823091,10|0,0:0|0:0,0:0:0:0:
284,82,121131,1,2,1:2:0:0:
497,24,121352,6,0,P|474:66|468:103,1,80.9999953823091,10|0,0:0|0:0,0:0:0:0:
487,260,121572,1,0,1:0:0:0:
512,229,121682,1,8,1:2:0:0:
488,187,121793,2,0,B|410:222|410:222|251:196,1,242.999986146927,6|0,0:0|0:0,0:0:0:0:
179,145,122234,1,10,0:0:0:0:
267,344,122455,5,0,0:0:0:0:
260,335,122565,1,0,1:0:0:0:
252,324,122675,2,0,P|261:285|282:251,1,80.9999953823091,2|0,0:0|0:0,0:0:0:0:
104,94,122896,2,0,P|124:128|134:167,1,80.9999953823091,2|0,1:2|0:0,0:0:0:0:
347,122,123116,2,0,P|356:82|377:48,1,80.9999953823091,10|0,0:0|0:0,0:0:0:0:
466,229,123337,6,0,P|381:204|295:198,1,161.999990764618,2|0,0:0|1:0,0:0:0:0:
179,249,123668,1,0,0:0:0:0:
158,270,123778,2,0,P|159:309|186:338,1,80.9999953823091,2|0,0:0|1:0,0:0:0:0:
308,197,123999,2,0,P|307:157|280:128,1,80.9999953823091,10|0,0:0|0:0,0:0:0:0:
149,72,124219,5,2,0:0:0:0:
117,64,124330,1,0,1:0:0:0:
89,81,124440,2,0,P|133:142|206:119,1,161.999990764618,0|2,0:0|1:2,0:0:0:0:
321,41,124771,5,0,0:0:0:0:
340,56,124881,2,0,P|348:95|332:131,1,80.9999953823091,10|0,0:0|0:0,0:0:0:0:
411,173,125102,2,0,P|389:206|351:220,1,80.9999953823091,2|8,0:0|0:0,0:0:0:0:
130,312,125322,6,0,B|203:263|203:263|277:286,1,161.999990764618,12|0,1:2|0:0,0:0:0:0:
386,322,125653,1,0,0:0:0:0:
507,227,125763,6,0,P|472:298|400:332,1,161.999990764618,10|0,1:2|0:0,0:0:0:0:
290,294,126094,1,0,0:0:0:0:
343,144,126205,2,0,P|321:222|302:300,1,161.999990764618,10|0,1:2|0:0,0:0:0:0:
140,370,126535,6,0,P|120:291|114:273,1,80.9999953823091,10|0,1:2|0:0,0:0:0:0:
20,111,126756,1,8,0:0:0:0:
20,111,126866,2,0,P|36:146|71:187,1,80.9999953823091,8|8,0:3|0:3,0:0:0:0:
266,53,127087,5,12,0:0:0:0:
215,132,127197,1,8,0:0:0:0:
78,19,127307,1,8,0:0:0:0:
129,98,127417,1,8,0:0:0:0:
61,8,127528,1,10,0:0:0:0:
340,117,128043,5,0,1:0:0:0:
356,131,128080,2,0,L|436:111,2,76.4999994325638,0|0|8,1:0|1:0|0:3,0:0:0:0:
299,204,128410,5,8,0:3:0:0:
299,204,128520,1,0,1:0:0:0:
184,150,128631,2,0,P|146:154|116:181,1,76.4999994325638,8|8,0:3|0:3,0:0:0:0:
226,257,128852,5,0,0:0:0:0:
226,256,129072,2,0,P|268:195|263:120,1,152.999998865128,12|0,0:0|1:0,0:0:0:0:
49,78,129403,2,0,P|50:116|63:151,1,76.4999994325638,8|2,0:0|0:0,0:0:0:0:
256,95,129624,2,0,P|269:59|270:21,1,76.4999994325638,8|0,0:0|0:0,0:0:0:0:
142,65,129844,5,0,0:0:0:0:
134,84,129955,2,0,P|151:125|167:167,1,76.4999994325638,2|0,0:0|0:0,0:0:0:0:
274,266,130175,2,0,P|287:230|302:195,1,76.4999994325638,8|0,0:0|1:0,0:0:0:0:
363,155,130396,1,8,0:3:0:0:
177,325,130616,5,12,0:0:0:0:
106,166,130727,1,8,0:0:0:0:
173,204,130837,1,10,0:0:0:0:
105,370,130947,1,8,0:0:0:0:
190,332,131057,1,8,0:0:0:0:
26,90,131499,6,0,P|49:72|77:69,1,57.3749995744229,0|8,0:0|0:3,0:0:0:0:
96,76,131609,2,0,P|133:69|159:42,2,76.4999994325638,8|8|8,0:3|0:3|0:3,0:0:0:0:
35,201,131940,5,0,1:0:0:0:
35,201,132050,1,8,0:3:0:0:
106,166,132160,5,8,0:3:0:0:
106,166,132270,1,8,0:3:0:0:
173,204,132381,1,0,1:0:0:0:
381,165,132602,6,0,P|337:102|313:13,1,161.999990764618,12|0,0:0|0:0,0:0:0:0:
473,34,132932,2,0,P|493:68|502:107,1,80.9999953823091,8|2,0:0|0:0,0:0:0:0:
482,254,133153,1,8,0:0:0:0:
494,224,133263,1,0,0:0:0:0:
296,174,133484,1,0,0:0:0:0:
271,199,133594,1,0,0:0:0:0:
293,231,133705,2,0,B|359:133|359:133|292:27,1,242.999986146927,8|0,0:3|0:0,0:0:0:0:
101,34,134146,6,0,P|142:109|201:109,1,152.999998865128,6|0,0:0|0:0,0:0:0:0:
369,31,134477,1,0,0:0:0:0:
351,16,134587,2,0,P|357:56|379:99,1,76.4999994325638,10|0,0:0|0:0,0:0:0:0:
499,206,134807,6,0,P|432:174|362:198,1,152.999998865128,2|0,1:2|0:0,0:0:0:0:
206,266,135138,1,0,0:0:0:0:
175,244,135249,2,0,P|183:208|209:180,1,76.4999994325638,2|0,1:2|0:0,0:0:0:0:
340,293,135469,2,0,P|332:329|306:357,1,76.4999994325638,10|0,0:0|0:0,0:0:0:0:
234,375,135690,1,2,1:2:0:0:
52,283,135910,6,0,B|98:219|98:219|51:160,1,152.999998865128,2|0,1:2|0:0,0:0:0:0:
18,63,136241,1,0,1:0:0:0:
48,69,136352,2,0,P|75:88|121:108,1,76.4999994325638,8|0,0:0|0:0,0:0:0:0:
340,49,136572,2,0,P|251:29|195:58,1,152.999998865128,2|0,1:2|0:0,0:0:0:0:
244,173,136903,5,0,0:0:0:0:
266,187,137013,2,0,P|281:147|272:110,1,76.4999994325638
133,216,137234,2,0,P|126:253|141:288,1,76.4999994325638,8|0,0:0|0:0,0:0:0:0:
202,330,137455,1,0,1:0:0:0:
481,245,137675,6,0,P|448:229|404:216,1,76.4999994325638,14|0,0:0|0:0,0:0:0:0:
228,75,138116,6,0,P|222:103|242:83,1,76.4999994325638
302,34,138337,2,0,P|338:45|372:61,1,76.4999994325638,14|0,0:0|0:0,0:0:0:0:
177,314,138999,6,0,P|182:285|162:305,1,76.4999994325638
92,366,139220,2,0,P|55:354|21:338,1,76.4999994325638,14|0,0:0|0:0,0:0:0:0:
316,177,139660,5,2,0:0:0:0:
257,236,139880,1,2,0:0:0:0:
292,311,140101,1,2,0:0:0:0:
375,303,140321,1,2,0:0:0:0:
445,355,140543,5,2,0:0:0:0:
445,355,140653,2,0,P|471:349|492:332,1,53.9999969215394
490,252,140874,1,2,0:0:0:0:
490,252,140984,2,0,P|504:229|506:202,1,53.9999969215394,2|2,0:0|0:0,0:0:0:0:
468,134,141205,6,0,P|436:141|414:166,1,67.5000007867814,2|0,0:0|0:0,0:0:0:0:
318,20,141425,2,0,P|351:26|373:51,1,67.5000007867814,2|0,1:2|0:0,0:0:0:0:
238,180,141646,2,0,P|234:149|218:112,1,67.5000007867814,2|0,1:2|0:0,0:0:0:0:
163,16,141866,6,0,P|93:38|17:54,1,135.000001573563,14|0,0:0|0:0,0:0:0:0:
5,182,142197,1,8,0:3:0:0:
27,171,142307,2,0,P|37:204|44:237,1,67.5000007867814,8|0,0:3|0:0,0:0:0:0:
152,99,142528,2,0,P|140:129|117:157,1,67.5000007867814,8|0,0:3|0:0,0:0:0:0:
312,16,142749,2,0,P|286:37|253:37,1,67.5000007867814,10|8,1:2|0:0,0:0:0:0:
334,148,142969,6,0,P|424:130|466:212,1,198.000000797272,4|0,0:1|0:0,0:0:0:0:
415,309,143300,1,0,0:0:0:0:
261,271,143410,2,0,B|225:264|210:234|210:234|247:199|304:203|335:242,1,198.000000797272,10|0,0:0|0:0,0:0:0:0:
509,110,143741,6,0,P|429:165|334:148,1,198.000000797272,2|0,1:2|0:0,0:0:0:0:
239,27,144072,1,2,1:2:0:0:
248,44,144182,1,0,0:0:0:0:
136,11,144293,5,8,0:0:0:0:
136,11,144513,2,0,B|92:26|68:79|68:79|101:128|157:114,1,198.000000797272,2|0,0:0|1:0,0:0:0:0:
232,87,144844,1,0,0:0:0:0:
376,191,144955,2,0,P|295:147|249:225,1,198.000000797272,2|8,0:0|0:0,0:0:0:0:
167,322,145285,5,0,0:0:0:0:
53,175,145396,2,0,P|124:243|155:336,1,198.000000797272,2|2,0:0|0:0,0:0:0:0:
307,364,145727,1,0,0:0:0:0:
295,348,145837,2,0,P|307:309|343:253,1,99.0000003986359,2|0,1:2|0:0,0:0:0:0:
442,171,146057,5,8,0:0:0:0:
357,119,146167,2,0,P|307:36|212:19,1,198.000000797272,0|0,0:0|1:0,0:0:0:0:
24,15,146499,6,0,P|36:64|60:123,1,99.0000003986359,2|0,1:2|0:0,0:0:0:0:
226,212,146719,2,0,P|243:165|255:117,1,99.0000003986359,2|0,0:0|1:0,0:0:0:0:
18,219,146940,2,0,P|30:268|54:327,1,99.0000003986359,10|0,0:0|0:0,0:0:0:0:
225,357,147160,5,0,0:0:0:0:
286,300,147271,1,0,1:0:0:0:
226,212,147381,2,0,P|268:187|316:191,1,99.0000003986359,2|0,0:0|0:0,0:0:0:0:
512,319,147602,2,0,P|463:322|421:298,1,99.0000003986359,2|0,1:2|0:0,0:0:0:0:
388,89,147822,6,0,P|406:137|422:184,1,99.0000003986359,10|0,0:0|0:0,0:0:0:0:
448,192,148043,2,0,P|431:145|414:98,1,99.0000003986359,2|0,0:0|0:0,0:0:0:0:
318,44,148263,6,0,B|223:18|223:18|137:70,1,198.000000797272,6|2,0:0|0:0,0:0:0:0:
33,242,148594,2,0,B|127:267|127:267|213:215,1,198.000000797272,8|0,0:0|0:0,0:0:0:0:
48,65,148925,6,0,P|61:118|93:147,1,99.0000003986359,6|0,0:0|0:0,0:0:0:0:
298,234,149146,2,0,P|288:186|253:152,1,99.0000003986359,2|0,0:0|1:0,0:0:0:0:
155,338,149366,2,0,P|203:357|249:362,1,99.0000003986359,2|0,0:0|0:0,0:0:0:0:
377,310,149587,5,10,0:0:0:0:
401,224,149697,1,8,0:0:0:0:
422,137,149807,1,10,0:0:0:0:
447,50,149918,1,8,0:0:0:0:
502,119,150028,6,0,B|467:152|423:137|423:137|364:117|313:146,1,198.000000797272,6|0,0:0|0:0,0:0:0:0:
136,232,150359,1,0,1:0:0:0:
156,220,150469,2,0,P|162:171|137:130,1,99.0000003986359,8|0,0:0|0:0,0:0:0:0:
27,8,150690,2,0,P|21:56|46:97,1,99.0000003986359,2|0,0:0|1:0,0:0:0:0:
291,19,150910,6,0,B|249:105|249:105|287:209,1,198.000000797272,2|0,0:0|1:0,0:0:0:0:
39,364,151352,2,0,B|74:267|74:267|32:182,1,198.000000797272,10|0,0:0|0:0,0:0:0:0:
89,108,151682,5,0,0:0:0:0:
101,124,151793,2,0,P|140:139|189:105,1,99.0000003986359,0|0,1:0|0:0,0:0:0:0:
347,32,152013,2,0,P|301:17|261:44,1,99.0000003986359,0|0,0:0|1:0,0:0:0:0:
401,132,152234,2,0,P|379:176|365:223,1,99.0000003986359,8|0,0:0|0:0,0:0:0:0:
256,337,152455,2,0,P|241:289|220:245,1,99.0000003986359,2|0,1:2|1:0,0:0:0:0:
32,182,152675,6,0,B|74:267|74:267|39:364,1,198.000000797272,2|0,0:0|1:0,0:0:0:0:
284,201,153116,2,0,B|249:105|249:105|291:19,1,198.000000797272,10|2,0:0|0:0,0:0:0:0:
386,63,153447,5,0,0:0:0:0:
374,77,153557,2,0,P|383:126|414:163,1,99.0000003986359,6|0,0:0|0:0,0:0:0:0:
486,345,153778,2,0,P|476:297|445:260,1,99.0000003986359,8|0,0:3|0:0,0:0:0:0:
219,297,153999,2,0,P|255:328|303:326,1,99.0000003986359,2|0,1:2|0:0,0:0:0:0:
369,231,154219,2,0,P|332:199|284:201,1,99.0000003986359,6|0,0:0|0:0,0:0:0:0:
107,308,154440,6,0,B|80:268|80:268|99:214,1,99.0000003986359,2|0,0:0|0:0,0:0:0:0:
210,63,154660,2,0,B|237:103|237:103|218:157,1,99.0000003986359,8|0,0:3|0:0,0:0:0:0:
46,48,154881,2,0,P|29:83|66:71,1,99.0000003986359,2|0,1:2|0:0,0:0:0:0:
295,19,155102,6,0,P|342:108|309:205,1,198.000000797272,6|0,0:0|0:0,0:0:0:0:
206,301,155432,1,0,0:0:0:0:
148,204,155543,2,0,P|161:251|184:295,1,99.0000003986359,10|0,0:0|0:0,0:0:0:0:
351,358,155763,5,8,1:2:0:0:
282,303,155874,2,0,P|319:272|367:262,1,99.0000003986359,8|10,1:2|0:0,0:0:0:0:
512,175,156094,5,8,0:0:0:0:
506,148,156205,2,0,P|459:131|411:122,1,99.0000003986359,10|8,0:0|0:0,0:0:0:0:
246,46,156425,2,0,P|292:29|341:19,1,99.0000003986359,8|0,0:3|0:0,0:0:0:0:
199,179,156646,5,8,0:3:0:0:
108,156,156756,1,8,0:3:0:0:
97,63,156866,1,8,0:3:0:0:
179,19,156976,1,8,0:3:0:0:
252,86,157087,2,0,P|279:180|339:258,1,198.000000797272,4|0,0:1|0:0,0:0:0:0:
452,300,157418,1,0,1:0:0:0:
501,188,157528,2,0,B|442:176|411:224|411:224|420:271|482:282,1,198.000000797272,8|0,0:0|0:0,0:0:0:0:
297,370,157859,6,0,P|241:288|145:308,1,198.000000797272,2|0,1:2|0:0,0:0:0:0:
20,362,158190,1,2,1:2:0:0:
38,344,158300,1,0,0:0:0:0:
12,257,158410,5,8,0:0:0:0:
12,257,158631,2,0,P|60:247|88:208,1,99.0000003986359,2|0,0:0|0:0,0:0:0:0:
24,58,158852,2,0,P|106:116|205:154,1,198.000000797272,2|2,1:2|1:2,0:0:0:0:
334,97,159182,5,8,0:3:0:0:
320,74,159293,2,0,P|298:119|305:167,1,99.0000003986359,8|0,0:0|0:0,0:0:0:0:
458,266,159513,2,0,P|464:217|443:173,1,99.0000003986359,2|8,0:0|0:3,0:0:0:0:
276,294,159734,5,2,0:0:0:0:
348,361,159844,1,2,0:0:0:0:
458,266,159955,2,0,P|362:249|275:293,1,198.000000797272,2|8,1:2|0:0,0:0:0:0:
131,354,160285,1,0,0:0:0:0:
140,334,160396,2,0,P|194:354|250:376,1,99.0000003986359,2|8,1:2|0:0,0:0:0:0:
125,185,160616,6,0,P|71:205|15:227,1,99.0000003986359,2|0,1:2|0:0,0:0:0:0:
23,246,160837,2,0,P|69:228|115:210,1,99.0000003986359,2|0,0:0|0:0,0:0:0:0:
293,71,161057,2,0,P|319:113|312:161,1,99.0000003986359,10|0,0:0|0:0,0:0:0:0:
229,280,161278,2,0,P|203:238|210:190,1,99.0000003986359,2|0,0:0|1:0,0:0:0:0:
425,116,161499,5,0,0:0:0:0:
384,189,161609,1,0,0:0:0:0:
453,287,161719,2,0,P|434:237|398:199,1,99.0000003986359,2|0,1:2|0:0,0:0:0:0:
298,345,161940,2,0,P|353:363|400:341,1,99.0000003986359,10|0,0:0|0:0,0:0:0:0:
224,172,162160,6,0,P|128:196|115:293,1,198.000000797272,2|0,0:0|1:0,0:0:0:0:
183,315,162491,1,0,0:0:0:0:
370,190,162602,2,0,P|349:151|334:93,1,99.0000003986359,2|0,0:0|1:0,0:0:0:0:
233,0,162822,2,0,P|220:47|197:91,1,99.0000003986359,8|0,0:0|0:0,0:0:0:0:
12,175,163043,2,0,P|58:189|114:216,1,99.0000003986359,6|0,0:0|0:0,0:0:0:0:
161,261,163263,5,2,0:0:0:0:
451,115,163484,1,2,1:2:0:0:
451,115,163594,1,2,0:0:0:0:
451,115,163705,2,0,P|417:82|368:78,1,99.0000003986359,10|0,0:0|0:0,0:0:0:0:
242,146,163925,2,0,P|276:179|325:183,1,99.0000003986359,2|0,0:0|0:0,0:0:0:0:
475,192,164146,6,0,P|416:273|388:375,1,198.000000797272,6|0,0:0|0:0,0:0:0:0:
317,309,164477,1,0,1:0:0:0:
298,320,164587,2,0,P|252:338|208:318,1,99.0000003986359,8|0,0:0|0:0,0:0:0:0:
66,183,164807,2,0,P|111:165|155:185,1,99.0000003986359,2|8,1:2|0:3,0:0:0:0:
388,80,165028,6,0,P|332:140|309:61,1,198.000000797272,2|0,0:0|1:0,0:0:0:0:
116,277,165469,2,0,P|171:337|194:258,1,198.000000797272,10|0,0:0|0:0,0:0:0:0:
155,185,165800,5,0,0:0:0:0:
138,168,165910,2,0,P|150:136|189:85,1,99.0000003986359,2|0,1:2|0:0,0:0:0:0:
309,61,166131,5,0,0:0:0:0:
370,123,166241,1,0,1:2:0:0:
284,194,166352,2,0,P|322:221|375:232,1,99.0000003986359,8|0,0:0|0:0,0:0:0:0:
458,296,166572,2,0,P|420:323|367:334,1,99.0000003986359,2|0,0:0|1:0,0:0:0:0:
194,258,166793,6,0,P|171:337|116:277,1,198.000000797272,2|0,0:0|1:0,0:0:0:0:
309,61,167234,2,0,P|332:140|388:80,1,198.000000797272,10|0,0:0|0:0,0:0:0:0:
496,22,167565,5,8,0:0:0:0:
496,22,167675,1,10,0:0:0:0:
247,111,167896,1,2,1:2:0:0:
247,111,168006,1,8,0:3:0:0:
309,61,168117,1,2,0:0:0:0:
486,173,168337,2,0,P|486:221|513:263,1,99.0000003986359,2|0,1:2|1:0,0:0:0:0:
312,366,168558,6,0,P|338:324|339:275,1,99.0000003986359,2|0,0:0|0:0,0:0:0:0:
220,113,168778,2,0,P|176:136|137:167,1,99.0000003986359,2|0,1:2|0:0,0:0:0:0:
140,194,168999,2,0,P|178:163|221:140,1,99.0000003986359,10|0,0:0|0:3,0:0:0:0:
485,61,169219,5,2,0:0:0:0:
485,61,169330,1,0,0:0:0:0:
485,61,169440,2,0,P|393:42|341:120,1,198.000000797272,0|0,1:2|0:0,0:0:0:0:
458,208,169771,5,0,0:0:0:0:
479,220,169881,2,0,B|454:177|454:177|471:131,1,99.0000003986359,8|0,0:0|0:0,0:0:0:0:
328,260,170102,2,0,B|353:303|353:303|335:348,1,99.0000003986359,2|0,0:0|0:0,0:0:0:0:
227,147,170322,5,2,0:0:0:0:
457,359,170543,1,2,1:2:0:0:
189,318,170763,2,0,P|173:274|203:229,1,99.0000003986359,10|0,0:0|0:0,0:0:0:0:
329,146,170984,1,2,1:2:0:0:
329,146,171094,1,0,0:0:0:0:
329,146,171205,2,0,P|345:102|340:69,1,71.9999980926514,4|0,1:2|0:0,0:0:0:0:
409,315,172749,6,0,P|375:334|413:342,1,99.0000003986359
486,298,172969,2,0,P|455:243|450:176,1,125.999992816925,4|0,0:0|0:0,0:0:0:0:
505,33,173410,5,0,1:0:0:0:
491,43,173521,2,0,P|430:25|368:15,1,125.999992816925,8|8,0:0|0:0,0:0:0:0:
303,52,173852,1,0,1:0:0:0:
58,23,174072,5,8,0:0:0:0:
34,39,174182,1,8,0:0:0:0:
106,104,174293,2,0,P|107:62|87:32,1,62.9999964084627,0|8,1:0|0:3,0:0:0:0:
16,176,174513,2,0,P|77:194|138:206,1,125.999992816925,2|0,0:0|1:0,0:0:0:0:
274,158,174844,5,8,0:3:0:0:
283,176,174955,2,0,P|248:247|202:249,1,125.999992816925,8|0,0:0|1:0,0:0:0:0:
116,321,175285,1,8,0:0:0:0:
133,304,175396,2,0,P|152:311|169:323,2,41.9999976056418,8|8|8,0:0|0:0|0:0,0:0:0:0:
141,225,175616,6,0,P|78:244|13:257,1,125.999992816925,0|0,1:0|0:0,0:0:0:0:
194,169,175947,1,8,0:0:0:0:
194,169,176057,1,0,1:0:0:0:
333,321,176251,6,0,P|354:299|392:284,1,62.9999964084627,10|8,0:0|0:0,0:0:0:0:
372,201,176499,2,0,P|403:200|432:211,1,62.9999964084627,2|0,1:2|0:0,0:0:0:0:
502,278,176719,1,10,0:0:0:0:
488,273,176829,1,10,0:0:0:0:
493,96,177050,6,0,P|430:104|368:116,1,125.999992816925,10|8,1:2|0:0,0:0:0:0:
293,152,177381,1,2,1:2:0:0:
280,136,177491,1,2,0:0:0:0:
297,125,177601,1,10,0:0:0:0:
310,145,177712,1,2,0:0:0:0:
232,84,177822,5,2,1:2:0:0:
191,113,177932,1,8,0:3:0:0:
140,109,178043,1,8,0:3:0:0:
109,69,178153,1,2,0:0:0:0:
109,69,178374,5,10,0:0:0:0:
140,196,178484,1,10,0:0:0:0:
262,146,178594,1,10,0:0:0:0:
231,277,178704,1,10,0:0:0:0:
231,277,178815,2,0,P|272:261|313:276,1,89.9999976158143,10|0,0:0|0:0,0:0:0:0:
416,347,179035,5,10,0:0:0:0:
416,347,179256,1,10,0:0:0:0:
482,223,179366,1,10,0:0:0:0:
361,158,179476,1,10,0:0:0:0:
425,267,179586,1,10,0:0:0:0:
425,267,179697,1,10,0:0:0:0:
334,235,179807,5,8,0:3:0:0:
334,235,179918,1,8,0:3:0:0:
258,245,180028,1,0,1:0:0:0:
31,123,180241,6,0,B|44:129|44:129|148:89,1,125.999992816925,2|2,0:0|1:2,0:0:0:0:
209,37,180584,1,10,0:0:0:0:
395,174,180792,5,10,0:0:0:0:
327,208,180902,1,2,1:2:0:0:
406,160,181012,2,0,P|405:128|415:98,1,62.9999964084627,2|8,0:0|0:0,0:0:0:0:
466,45,181233,1,2,0:0:0:0:
209,37,181453,5,8,0:3:0:0:
277,3,181563,1,2,0:0:0:0:
198,58,181673,2,0,P|207:88|207:119,1,62.9999964084627,8|0,0:3|1:0,0:0:0:0:
90,212,181894,5,8,0:3:0:0:
157,248,182004,2,0,P|147:279|145:310,1,62.9999964084627,10|0,0:0|0:0,0:0:0:0:
212,364,182225,1,2,1:2:0:0:
371,251,182445,6,0,L|349:206,2,41.9999976056418,8|8|8,0:0|0:0|0:0,0:0:0:0:
396,268,182666,1,0,1:2:0:0:
486,127,182902,5,2,0:0:0:0:
466,107,183009,2,0,B|455:118|455:118|441:100|441:100|405:126|354:116,1,125.999992816925,10|0,0:0|0:0,0:0:0:0:
297,67,183330,2,0,P|292:36|276:7,2,62.9999964084627,8|8|0,0:0|0:0|1:0,0:0:0:0:
197,152,183677,5,2,0:0:0:0:
153,120,183787,1,10,0:0:0:0:
99,119,183897,1,2,0:0:0:0:
59,155,184007,1,2,1:2:0:0:
52,208,184118,1,10,0:0:0:0:
141,280,184228,5,2,0:0:0:0:
157,248,184338,1,10,0:0:0:0:
125,232,184430,1,2,1:2:0:0:
109,264,184540,1,2,0:0:0:0:
207,320,184661,5,10,0:0:0:0:
231,316,184771,1,10,0:0:0:0:
255,312,184881,2,0,L|301:326,3,41.9999976056418,2|2|2|8,1:2|0:0|0:0|0:3,0:0:0:0:
379,284,185212,6,0,P|385:264|387:243,1,41.9999976056418,2|2,0:0|0:0,0:0:0:0:
366,218,185317,1,2,1:2:0:0:
425,144,185427,1,10,0:0:0:0:
377,62,185537,1,8,0:3:0:0:
284,79,185647,1,2,0:0:0:0:
261,101,185745,6,0,B|200:86|96:63|96:63|92:66|92:66|73:62,1,188.999989225388,2|10,1:2|0:0,0:0:0:0:
23,133,186193,1,2,1:2:0:0:
23,133,186386,2,0,L|33:157,1,15.7499991021157,2|8,0:0|0:0,0:0:0:0:
95,216,186523,5,2,0:0:0:0:
95,216,186634,2,0,L|135:205,2,41.9999976056418,2|2|2,0:0|0:0|0:0,0:0:0:0:
44,270,186854,2,0,L|3:259,2,41.9999976056418,2|2|2,0:0|0:0|0:0,0:0:0:0:
117,313,187068,6,0,B|154:298|184:314|184:314|215:330|242:321,1,125.999992816925,2|0,1:2|0:0,0:0:0:0:
318,161,187398,2,0,B|302:197|269:207|269:207|236:218|223:243,1,125.999992816925,10|8,1:2|0:0,0:0:0:0:
382,372,187702,2,0,B|345:356|335:323|335:323|324:290|299:277,1,125.999992816925,2|2,0:0|0:0,0:0:0:0:
291,280,187962,1,2,1:2:0:0:
495,345,188182,2,0,P|444:303|461:244,1,125.999992816925,10|0,0:0|1:0,0:0:0:0:
510,197,188513,5,2,1:2:0:0:
505,159,188623,1,0,0:0:0:0:
469,144,188734,1,8,0:3:0:0:
387,151,188844,5,2,1:2:0:0:
351,136,188955,1,8,0:3:0:0:
345,98,189064,2,0,P|359:70|386:53,2,62.9999964084627,8|0|0,0:0|0:0|1:0,0:0:0:0:
279,152,189359,5,2,0:0:0:0:
263,145,189411,1,2,0:0:0:0:
178,175,189521,1,2,0:0:0:0:
103,124,189631,1,2,0:0:0:0:
121,102,189714,5,2,1:2:0:0:
49,63,189824,1,2,0:0:0:0:
14,137,189934,1,2,0:0:0:0:
62,195,190044,5,10,0:0:0:0:
55,226,190155,1,2,1:2:0:0:
47,256,190265,1,2,0:0:0:0:
9,322,190403,5,2,0:0:0:0:
16,338,190513,1,10,0:0:0:0:
23,353,190613,1,2,1:2:0:0:
96,324,190723,5,2,0:0:0:0:
120,335,190833,2,0,P|150:328|181:322,1,62.9999964084627,8|0,0:0|0:0,0:0:0:0:
330,266,191054,6,0,P|299:259|268:253,1,62.9999964084627,2|8,1:2|0:0,0:0:0:0:
186,189,191274,1,2,0:0:0:0:
208,176,191385,1,8,0:0:0:0:
230,165,191495,1,0,1:0:0:0:
350,103,191660,5,2,0:0:0:0:
366,112,191715,2,0,B|359:130|359:130|368:181,1,62.9999964084627,10|8,0:0|0:0,0:0:0:0:
438,276,191936,5,0,1:0:0:0:
438,276,192046,1,8,0:3:0:0:
502,203,192157,1,8,0:3:0:0:
470,120,192267,1,0,0:0:0:0:
386,121,192381,6,0,P|395:92|409:66,1,59.9999984105428,6|0,0:0|0:0,0:0:0:0:
330,64,192528,2,0,P|315:37|307:8,1,59.9999984105428,10|0,0:0|0:0,0:0:0:0:
256,76,192675,2,0,P|226:67|200:52,1,59.9999984105428,10|0,0:0|0:0,0:0:0:0:
115,22,192822,6,0,P|125:49|120:79,1,59.9999984105428,10|0,0:0|0:0,0:0:0:0:
145,172,192969,2,0,P|132:198|108:216,1,59.9999984105428,8|0,0:3|0:0,0:0:0:0:
53,332,193116,2,0,P|23:329|-2:312,1,59.9999984105428,8|0,0:3|0:0,0:0:0:0:
26,190,193263,5,8,0:3:0:0:
157,294,193410,1,8,0:0:0:0:
308,221,193557,1,8,0:0:0:0:
192,83,193704,5,8,0:3:0:0:
149,257,193851,1,8,0:3:0:0:
293,364,193998,1,8,0:3:0:0:
327,187,194145,1,6,0:0:0:0:
149,257,194476,5,2,0:0:0:0:
149,257,194587,2,0,L|79:244,1,71.9999980926514,10|8,0:0|0:0,0:0:0:0:
26,183,194807,2,0,P|17:161|15:137,2,47.9999987284343,0|0|8,1:0|1:0|0:3,0:0:0:0:
104,134,195028,5,8,0:0:0:0:
117,139,195101,5,8,0:0:0:0:
130,143,195175,5,8,0:0:0:0:
143,148,195248,6,0,L|185:138,3,35.9999990463257,0|0|8|8,1:0|1:0|0:3|0:3,0:0:0:0:
244,176,195469,5,8,0:3:0:0:
256,170,195542,5,0,1:0:0:0:
269,164,195616,5,8,0:3:0:0:
280,157,195689,6,0,P|323:166|358:169,1,71.9999980926514,8|8,0:0|0:0,0:0:0:0:
486,132,195910,1,8,0:0:0:0:
425,268,196020,1,8,0:0:0:0:
492,114,196130,1,0,1:0:0:0:
376,162,196240,1,8,0:3:0:0:
391,145,196351,1,8,0:3:0:0:
489,334,196571,5,8,0:0:0:0:
475,352,196682,2,0,P|436:347|382:332,1,89.9999976158143,4|0,0:0|0:0,0:0:0:0:
228,236,196902,5,0,1:0:0:0:
286,319,197012,2,0,P|254:348|210:350,1,89.9999976158143,8|8,0:0|0:3,0:0:0:0:
192,339,197233,1,0,0:0:0:0:
32,360,197343,5,8,0:0:0:0:
129,281,197454,1,8,0:3:0:0:
129,281,197674,5,8,0:0:0:0:
5,210,197785,1,8,0:3:0:0:
129,117,197895,2,0,B|192:178|192:178|284:168,1,179.999995231629,4|0,0:0|0:0,0:0:0:0:
492,20,198349,6,0,P|470:58|429:74,1,89.9999976158143,8|0,0:3|0:0,0:0:0:0:
366,26,198572,2,0,P|325:42|302:80,1,89.9999976158143,8|0,0:3|0:0,0:0:0:0:
354,177,198768,5,8,0:0:0:0:
210,114,198928,1,8,0:0:0:0:
226,129,199002,2,0,P|241:198|210:249,2,119.999996821086,8|8|8,1:2|0:3|0:3,0:0:0:0:
94,54,199440,5,12,0:0:0:0:
41,161,199616,1,12,0:0:0:0:
133,255,199793,1,12,0:0:0:0:
26,158,199970,5,12,0:0:0:0:
178,126,200147,1,12,0:0:0:0:
318,218,200324,1,12,0:0:0:0:
420,175,200461,6,0,P|449:185|475:199,2,59.9999984105428,0|0|8,1:0|1:0|0:3,0:0:0:0:
357,116,200681,2,0,P|330:130|302:139,2,59.9999984105428,0|8|8,1:0|1:2|0:0,0:0:0:0:
429,56,200902,5,8,0:0:0:0:
443,60,200975,5,8,0:0:0:0:
457,65,201049,5,8,0:0:0:0:
470,71,201122,5,8,0:3:0:0:
483,78,201196,6,0,P|481:179|336:205,1,269.999992847443,6|0,0:0|0:0,0:0:0:0:
262,202,201637,1,2,0:0:0:0:
266,229,201747,1,0,0:0:0:0:
204,294,201857,2,0,P|174:282|152:260,1,62.9999964084627,2|2,0:0|0:0,0:0:0:0:
148,240,202078,1,2,0:0:0:0:
63,187,202188,6,0,P|58:156|66:125,1,62.9999964084627,2|2,0:0|0:0,0:0:0:0:
81,111,202409,1,2,0:0:0:0:
159,53,202519,2,0,P|221:80|288:95,1,125.999992816925,2|2,0:0|0:0,0:0:0:0:
496,24,202960,5,0,0:0:0:0:
481,36,203071,1,2,0:0:0:0:
469,47,203181,2,0,P|489:78|497:107,1,62.9999964084627,2|2,0:0|0:0,0:0:0:0:
455,183,203401,6,0,P|384:151|332:141,1,125.999992816925,2|2,0:0|0:0,0:0:0:0:
302,161,203732,1,2,0:0:0:0:
395,344,203953,5,2,0:0:0:0:
377,360,204063,2,0,P|353:362|350:330,2,62.9999964084627,2|2|2,0:0|0:0|0:0,0:0:0:0:
466,318,204394,5,2,0:0:0:0:
487,328,204504,1,2,0:0:0:0:
407,205,204725,6,0,P|384:216|370:218,1,35.999997947693,2|2,0:0|0:0,0:0:0:0:
339,203,204835,2,0,P|304:208|278:237,1,62.9999964084627,2|0,0:0|0:0,0:0:0:0:
221,264,205056,1,2,0:0:0:0:
221,264,205166,2,0,P|187:258|159:247,1,62.9999964084627,2|0,0:0|0:0,0:0:0:0:
58,200,205387,6,0,P|63:177|80:158,1,41.9999976056418,2|2,0:0|0:0,0:0:0:0:
95,148,205497,2,0,P|88:119|82:84,1,62.9999964084627,2|0,0:0|0:0,0:0:0:0:
154,32,205718,5,2,0:0:0:0:
154,32,205828,2,0,P|161:61|167:96,1,62.9999964084627,2|0,0:0|0:0,0:0:0:0:
244,155,206048,6,0,P|267:126|337:126,1,104.999994014104,2|2,0:0|0:0,0:0:0:0:
353,139,206269,2,0,L|343:77,1,62.9999964084627,2|0,0:0|0:0,0:0:0:0:
495,24,206490,5,0,0:0:0:0:
479,42,206600,2,0,L|497:136,1,83.9999952112835,2|2,0:0|0:0,0:0:0:0:
477,163,206821,2,0,P|456:187|426:196,1,62.9999964084627,2|2,0:0|0:0,0:0:0:0:
347,157,207041,5,2,0:0:0:0:
347,157,207151,1,2,0:0:0:0:
292,212,207262,2,0,P|305:246|310:280,1,62.9999964084627,2|0,0:0|0:0,0:0:0:0:
168,372,207482,5,8,0:0:0:0:
168,372,207703,1,2,1:2:0:0:
224,232,207813,1,8,0:0:0:0:
99,147,207923,1,8,0:0:0:0:
158,277,208033,1,8,0:3:0:0:
151,288,208144,1,8,0:3:0:0:
86,135,208236,6,0,B|133:100|188:119|188:119|238:137|275:114,1,198.000000797272,6|0,0:0|0:0,0:0:0:0:
383,47,208566,1,0,1:0:0:0:
348,124,208713,2,0,P|346:153|366:182,1,66.0000002657573,8|0,0:0|0:0,0:0:0:0:
480,254,208860,5,2,0:0:0:0:
467,260,208933,5,2,0:0:0:0:
456,265,209007,5,2,1:2:0:0:
445,270,209080,5,2,0:0:0:0:
433,274,209154,6,0,P|344:286|355:374,1,198.000000797272,0|2,1:2|1:2,0:0:0:0:
222,331,209486,2,0,B|249:343|249:343|242:274,1,99.0000003986359,2|0,0:0|0:0,0:0:0:0:
263,183,209706,1,2,0:0:0:0:
52,104,209927,5,2,0:0:0:0:
120,147,210037,2,0,P|211:151|237:63,1,198.000000797272,2|2,1:2|0:0,0:0:0:0:
370,18,210367,5,0,1:0:0:0:
359,31,210478,2,0,B|333:79|333:79|346:222,1,198.000000797272,10|2,0:0|0:0,0:0:0:0:
390,330,210809,2,0,P|343:344|296:330,2,99.0000003986359,2|0|8,1:2|0:0|0:0,0:0:0:0:
460,291,211103,5,2,1:2:0:0:
491,229,211213,1,2,0:0:0:0:
435,186,211323,1,10,1:2:0:0:
451,165,211433,5,2,0:0:0:0:
397,106,211544,1,2,1:2:0:0:
321,129,211654,1,10,0:0:0:0:
264,197,211764,1,2,0:0:0:0:
177,215,211874,1,2,0:0:0:0:
123,143,211985,1,2,0:0:0:0:
178,74,212094,1,2,1:2:0:0:
199,86,212205,2,0,P|228:197|288:259,1,198.000000797272,8|0,0:0|0:0,0:0:0:0:
342,362,212536,5,0,1:0:0:0:
359,340,212646,2,0,P|355:291|379:248,1,99.0000003986359
501,126,212866,2,0,P|504:174|480:217,1,99.0000003986359,2|2,1:2|0:0,0:0:0:0:
368,98,213087,5,10,0:0:0:0:
355,102,213161,5,2,0:0:0:0:
342,106,213234,5,2,0:0:0:0:
329,110,213308,6,0,P|289:93|230:104,1,99.0000003986359,2|2,1:2|0:0,0:0:0:0:
124,160,213528,5,2,0:0:0:0:
56,143,213638,1,2,0:0:0:0:
27,80,213748,1,2,0:0:0:0:
70,26,213858,1,2,1:2:0:0:
138,39,213969,1,10,0:0:0:0:
193,80,214079,1,2,0:0:0:0:
261,91,214189,1,6,0:0:0:0:
308,40,214300,2,0,B|357:69|322:151|322:151|293:216|313:287|380:295,1,297.000001195908,2|0,0:0|1:0,0:0:0:0:
491,206,214741,5,0,0:0:0:0:
476,196,214852,2,0,P|467:158|496:183,1,99.0000003986359,8|0,0:0|0:0,0:0:0:0:
370,293,215072,2,0,P|399:317|390:280,1,99.0000003986359,0|0,1:0|0:0,0:0:0:0:
286,277,215293,6,0,P|195:266|171:354,1,198.000000797272,4|2,0:0|0:0,0:0:0:0:
71,312,215624,1,2,1:2:0:0:
92,320,215734,1,10,0:0:0:0:
145,261,215844,1,2,0:0:0:0:
108,190,215955,1,2,0:0:0:0:
31,209,216065,1,2,1:2:0:0:
98,168,216175,2,0,B|193:138|193:138|170:240,1,198.000000797272,2|0,0:0|1:0,0:0:0:0:
334,285,216543,5,2,0:0:0:0:
344,277,216616,2,0,P|328:244|270:228,1,99.0000003986359,10|0,0:0|0:0,0:0:0:0:
183,314,216837,6,0,P|39:249|147:171,1,346.500001395226,2|2,0:0|0:0,0:0:0:0:
212,188,217320,2,0,P|262:172|308:134,1,99.0000003986359,2|0,0:0|0:0,0:0:0:0:
444,33,217518,6,0,P|433:63|429:96,1,66.0000002657573,10|2,0:0|0:0,0:0:0:0:
472,259,217747,1,2,0:0:0:0:
472,259,217865,1,0,1:2:0:0:
401,199,217974,2,0,P|334:217|276:247,1,132.000000531515,2|2,0:0|0:0,0:0:0:0:
132,312,218193,5,2,1:2:0:0:
120,293,218272,1,2,0:0:0:0:
148,223,218397,1,10,0:0:0:0:
249,325,218562,5,2,0:0:0:0:
255,312,218654,2,0,P|303:324|342:312,1,66.0000002657573,2|10,0:0|0:0,0:0:0:0:
483,159,218823,6,0,P|410:151|351:193,1,148.500000597954,2|2,1:2|0:0,0:0:0:0:
331,224,219043,2,0,P|297:235|230:239,1,99.0000003986359,2|2,0:0|1:2,0:0:0:0:
127,148,219264,1,8,0:0:0:0:
144,159,219319,1,2,0:0:0:0:
259,27,219484,5,2,0:0:0:0:
246,32,219558,5,2,0:0:0:0:
234,37,219631,5,2,1:2:0:0:
222,43,219705,6,0,P|149:24|91:51,1,132.000000531515,2|0,0:0|0:0,0:0:0:0:
94,56,219925,2,0,P|115:100|127:148,1,99.0000003986359,2|2,0:0|0:0,0:0:0:0:
86,332,220174,6,0,P|65:288|66:245,1,89.9999976158143,8|0,0:0|0:0,0:0:0:0:
231,144,220394,2,0,P|252:188|251:231,1,89.9999976158143,2|2,0:0|0:0,0:0:0:0:
212,287,220596,1,2,1:2:0:0:
262,220,220706,1,2,0:0:0:0:
344,205,220816,1,2,0:0:0:0:
418,242,220926,1,2,1:2:0:0:
456,317,221037,5,10,0:0:0:0:
475,312,221147,1,2,0:0:0:0:
469,293,221257,1,2,0:0:0:0:
448,296,221368,2,0,P|339:309|317:238,1,198.000000797272,2|8,1:2|0:0,0:0:0:0:
447,112,221698,6,0,P|428:158|417:206,1,99.0000003986359,2|0,1:2|0:0,0:0:0:0:
275,54,221919,1,10,0:0:0:0:
290,56,221993,2,0,P|335:102|352:165,1,132.000000531515,2|8,0:0|0:3,0:0:0:0:
290,255,222250,1,8,0:3:0:0:
140,205,222360,6,0,P|171:167|217:151,1,99.0000003986359,6|0,0:0|0:0,0:0:0:0:
378,298,222581,1,2,0:0:0:0:
393,334,222691,1,2,0:0:0:0:
370,367,222801,2,0,P|322:368|280:342,1,99.0000003986359,10|0,0:0|0:0,0:0:0:0:
413,137,223022,2,0,P|457:156|484:197,1,99.0000003986359,2|0,0:0|1:0,0:0:0:0:
221,266,223243,2,0,P|262:165|280:67,1,198.000000797272,2|0,0:0|1:0,0:0:0:0:
244,12,223573,1,2,0:0:0:0:
244,12,223684,1,8,0:0:0:0:
64,134,223904,5,2,0:0:0:0:
138,182,224015,1,2,0:0:0:0:
29,246,224125,2,0,P|26:198|44:152,1,99.0000003986359,2|0,1:2|0:0,0:0:0:0:
244,12,224346,2,0,P|247:60|229:106,1,99.0000003986359,2|0,0:0|1:0,0:0:0:0:
176,275,224566,5,10,0:0:0:0:
192,261,224621,2,0,P|273:276|349:309,1,148.500000597954,2|0,0:0|1:0,0:0:0:0:
458,354,224897,2,0,P|483:315|464:261,1,99.0000003986359,2|0,1:2|0:0,0:0:0:0:
352,124,225118,5,0,0:0:0:0:
352,124,225228,2,0,P|327:163|321:224,1,99.0000003986359,2|0,1:2|0:0,0:0:0:0:
358,32,225448,2,0,P|312:41|273:85,1,99.0000003986359,10|0,0:0|0:0,0:0:0:0:
508,55,225669,2,0,P|479:18|424:14,1,99.0000003986359,2|8,1:2|0:0,0:0:0:0:
215,124,225890,6,0,P|234:183|249:269,2,148.500000597954,2|2|2,1:2|0:0|1:2,0:0:0:0:
114,55,226331,1,10,0:0:0:0:
11,154,226515,1,2,0:0:0:0:
64,236,226662,5,2,0:0:0:0:
84,253,226772,2,0,P|143:245|202:307,1,148.500000597954,2|2,0:0|0:0,0:0:0:0:
209,332,226993,2,0,P|262:322|315:310,1,99.0000003986359,2|2,1:2|0:0,0:0:0:0:
421,261,227213,5,10,0:0:0:0:
417,238,227287,5,2,0:0:0:0:
417,220,227360,5,2,0:0:0:0:
412,199,227434,6,0,P|362:232|319:189,1,132.000000531515,2|2,0:0|0:0,0:0:0:0:
349,108,227654,5,2,1:2:0:0:
349,108,227765,2,0,P|362:63|408:26,2,99.0000003986359,2|2|2,0:0|1:2|1:2,0:0:0:0:
274,58,228096,6,0,P|225:68|177:81,1,99.0000003986359,10|0,0:0|0:0,0:0:0:0:
117,196,228316,2,0,P|165:206|213:219,1,99.0000003986359,6|0,0:0|0:0,0:0:0:0:
296,293,228537,5,0,0:0:0:0:
310,279,228647,1,2,0:0:0:0:
372,248,228757,1,2,1:2:0:0:
438,270,228868,1,2,0:0:0:0:
471,330,228978,5,10,0:0:0:0:
506,227,229125,1,8,0:3:0:0:
426,138,229272,1,8,0:3:0:0:
498,33,229431,5,6,0:0:0:0:
473,12,229541,1,2,0:0:0:0:
444,15,229651,1,2,0:0:0:0:
427,37,229761,1,2,0:0:0:0:
435,65,229872,2,0,P|435:97|405:146,1,80.9999953823091,2|0,0:0|0:0,0:0:0:0:
199,175,230092,5,6,0:0:0:0:
179,149,230203,1,2,0:0:0:0:
181,117,230313,1,2,0:0:0:0:
208,101,230423,1,2,0:0:0:0:
234,115,230533,2,0,P|274:114|311:129,1,80.9999953823091,8|0,0:3|0:0,0:0:0:0:
481,256,230754,5,6,0:0:0:0:
496,223,230864,1,2,0:0:0:0:
497,186,230974,1,2,0:0:0:0:
475,158,231084,1,2,0:0:0:0:
442,164,231195,2,0,P|401:163|364:178,1,80.9999953823091,2|0,0:0|0:0,0:0:0:0:
203,318,231416,5,6,0:0:0:0:
239,348,231526,1,2,0:0:0:0:
283,337,231636,1,2,0:0:0:0:
298,293,231746,1,2,0:0:0:0:
268,257,231857,2,0,P|268:218|249:180,1,80.9999953823091,8|0,0:3|0:0,0:0:0:0:
81,71,232078,5,6,0:0:0:0:
117,37,232188,1,2,0:0:0:0:
163,55,232298,1,2,0:0:0:0:
168,104,232408,1,2,0:0:0:0:
121,120,232519,2,0,P|120:158|141:201,1,80.9999953823091,2|0,0:0|0:0,0:0:0:0:
289,368,232739,5,6,0:0:0:0:
324,325,232849,1,2,0:0:0:0:
298,277,232959,1,2,0:0:0:0:
246,294,233069,1,2,0:0:0:0:
246,348,233180,2,0,P|208:349|165:324,1,80.9999953823091,2|0,0:0|0:0,0:0:0:0:
16,161,233401,5,6,0:0:0:0:
61,199,233511,1,2,0:0:0:0:
109,163,233621,1,2,0:0:0:0:
89,106,233731,1,2,0:0:0:0:
28,106,233842,2,0,P|27:67|44:27,1,80.9999953823091,2|0,0:0|0:0,0:0:0:0:
311,30,234063,5,6,0:0:0:0:
345,84,234173,1,2,0:0:0:0:
298,128,234283,1,2,0:0:0:0:
240,99,234393,1,2,0:0:0:0:
248,34,234504,2,0,P|208:33|171:48,1,80.9999953823091,2|0,0:0|0:0,0:0:0:0:
163,196,234725,5,4,0:0:0:0:
300,267,234901,5,2,0:0:0:0:
137,350,235078,5,2,0:0:0:0:
166,330,235166,2,0,P|160:300|114:267,1,80.9999953823091,2|0,1:2|0:0,0:0:0:0:
20,236,235342,5,2,0:0:0:0:
27,223,235386,2,0,P|21:189|14:137,1,80.9999953823091,4|2,0:0|0:0,0:0:0:0:
78,55,235607,5,0,1:0:0:0:
101,80,235695,1,2,0:0:0:0:
221,38,235803,5,2,0:0:0:0:
167,175,235950,1,2,0:0:0:0:
190,195,236048,2,0,P|221:182|272:192,1,71.9999958953859,6|2,0:0|0:0,0:0:0:0:
419,242,236332,5,2,0:0:0:0:
372,342,236442,1,2,0:0:0:0:
364,352,236505,2,0,P|326:336|274:308,1,89.9999976158143,2|0,1:2|0:0,0:0:0:0:
189,266,236725,1,4,0:0:0:0:
96,306,236835,1,2,0:0:0:0:
204,249,236982,6,0,P|210:205|232:166,1,89.9999976158143,2|8,0:0|0:0,0:0:0:0:
293,128,237158,1,2,1:2:0:0:
468,159,237312,5,2,0:0:0:0:
490,149,237387,2,0,P|489:114|469:84,1,71.9999980926514,6|2,0:0|0:0,0:0:0:0:
262,24,237681,5,2,0:0:0:0:
388,173,237828,1,0,1:0:0:0:
377,199,237883,2,0,P|333:237|261:195,1,134.999996423721,2|4,0:0|0:0,0:0:0:0:
65,263,238235,5,2,0:0:0:0:
205,173,238390,1,0,1:0:0:0:
191,185,238500,1,2,0:0:0:0:
97,88,238610,5,8,0:3:0:0:
85,84,238684,5,0,1:0:0:0:
73,81,238757,5,0,1:0:0:0:
61,78,238831,6,0,L|79:146,3,59.9999984105428,8|8|8|0,0:3|0:3|0:3|1:0,0:0:0:0:
97,161,239125,2,0,L|91:197,2,29.9999992052714,8|10|8,0:0|0:0|0:0,0:0:0:0:
162,117,239272,5,14,0:0:0:0:
296,174,239437,1,8,0:3:0:0:
311,163,239492,1,8,0:3:0:0:
117,218,239660,2,0,L|140:273,2,59.9999984105428,8|8|8,0:0|0:0|0:0,0:0:0:0:
56,179,239880,5,8,0:0:0:0:
64,170,239954,5,8,0:0:0:0:
71,160,240027,5,8,0:0:0:0:
77,151,240054,6,0,B|159:151|201:90|201:90|296:79|294:208|153:188|205:85|205:85|260:22|313:54|325:90|325:90|356:62|405:45|482:84|468:204|380:229|360:177|298:200|269:268,1,892.799976348877,4|0,0:0|0:0,0:0:0:0:
387,364,243555,6,0,P|388:320|366:281,1,89.9999976158143,2|2,0:0|0:0,0:0:0:0:
443,239,243996,2,0,P|412:206|369:194,1,89.9999976158143,2|2,0:0|0:0,0:0:0:0:
367,106,244437,2,0,P|323:116|291:147,1,89.9999976158143,2|2,0:0|0:0,0:0:0:0:
206,166,244878,2,0,P|206:121|230:83,1,89.9999976158143,2|2,0:0|0:0,0:0:0:0:
113,26,245319,5,2,0:0:0:0:
113,26,245540,2,0,B|107:43|113:55|113:55|108:57|108:57|132:104|102:153,1,134.999996423721,2|0,0:0|0:0,0:0:0:0:
75,178,245981,1,2,0:0:0:0:
275,366,246422,6,0,P|250:327|309:272,1,134.999996423721,2|0,0:0|0:0,0:0:0:0:
373,247,246863,1,2,0:0:0:0:
387,249,246974,1,0,0:0:0:0:
403,253,247084,2,0,P|446:248|468:210,2,89.9999976158143,2|2|2,0:0|0:0|0:0,0:0:0:0:
339,145,247746,6,0,P|295:140|254:156,1,89.9999976158143,2|0,0:0|0:0,0:0:0:0:
219,73,248187,2,0,P|183:100|166:141,1,89.9999976158143,2|0,0:0|0:0,0:0:0:0:
94,226,248628,1,2,0:0:0:0:
94,226,248849,2,0,P|128:272|156:300,3,89.9999976158143,2|2|2|2,0:0|0:0|0:0|0:0,0:0:0:0:
289,295,249731,5,2,0:0:0:0:
289,295,249952,2,0,P|304:307|283:307,1,44.9999988079071,2|0,0:0|0:0,0:0:0:0:
229,248,250172,2,0,P|251:199|256:155,1,89.9999976158143,0|8,0:0|0:0,0:0:0:0:
220,84,250503,1,8,0:0:0:0:
293,28,250613,6,0,P|354:45|411:72,1,125.999992816925,4|0,0:0|0:0,0:0:0:0:
512,181,251055,2,0,P|451:197|394:224,1,125.999992816925,2|10,1:2|0:0,0:0:0:0:
345,317,251385,1,8,0:0:0:0:
349,338,251496,2,0,P|292:310|231:294,1,125.999992816925,8|0,1:2|0:0,0:0:0:0:
89,322,251827,5,8,0:0:0:0:
107,332,251937,2,0,P|144:274|113:218,1,125.999992816925,10|0,1:2|0:0,0:0:0:0:
81,99,252268,1,8,0:0:0:0:
63,89,252378,2,0,P|26:147|57:203,1,125.999992816925,10|0,1:2|0:0,0:0:0:0:
181,143,252709,5,8,0:0:0:0:
203,131,252819,2,0,P|274:152|327:181,1,125.999992816925,8|10,1:2|0:0,0:0:0:0:
347,78,253150,5,0,0:0:0:0:
371,85,253260,2,0,P|406:150|423:208,1,125.999992816925,0|8,1:0|0:0,0:0:0:0:
240,345,253702,5,8,0:0:0:0:
197,343,253812,1,8,0:0:0:0:
176,307,253922,1,0,1:0:0:0:
195,269,254032,1,0,0:0:0:0:
237,265,254143,2,0,P|264:253|235:245,1,76.4999994325638,14|0,0:0|0:0,0:0:0:0:
20,128,254584,6,0,B|33:88|33:88|64:101,1,76.4999994325638
92,173,254805,2,0,P|119:183|105:157,1,76.4999994325638,14|0,0:0|0:0,0:0:0:0:
359,93,255466,6,0,B|346:133|346:133|314:119,1,76.4999994325638
292,29,255687,2,0,P|264:18|278:44,1,76.4999994325638,14|0,0:0|0:0,0:0:0:0:
484,245,256128,5,2,0:0:0:0:
468,264,256349,1,2,0:0:0:0:
421,284,256569,1,2,0:0:0:0:
351,253,256790,1,2,0:0:0:0:
303,178,257010,1,2,0:0:0:0:
359,93,257231,1,2,0:0:0:0:
190,22,257452,6,0,B|205:45|205:45|182:173,1,152.999998865128,8|0,0:0|0:0,0:0:0:0:
55,355,257893,1,2,0:0:0:0:
351,253,258113,2,0,P|321:229|284:225,1,76.4999994325638,12|0,0:0|0:0,0:0:0:0:
108,101,258334,2,0,P|137:124|174:128,1,76.4999994325638,2|0,1:2|0:0,0:0:0:0:
309,52,258555,5,8,0:3:0:0:
367,34,258665,1,0,1:0:0:0:
426,47,258775,1,8,0:0:0:0:
460,97,258885,1,8,0:0:0:0:
449,157,258996,6,0,L|461:220,8,60.0000006993612,10|2|2|2|2|2|8|2|2,0:0|0:0|0:0|0:0|0:0|0:0|0:3|0:0|0:0,0:0:0:0:
477,228,259437,6,0,P|378:213|332:303,1,215.999987686158,4|0,0:1|0:0,0:0:0:0:
188,356,259768,1,0,0:0:0:0:
124,236,259878,2,0,B|151:203|196:199|196:199|237:267|194:341,1,215.999987686158,10|0,0:0|0:0,0:0:0:0:
150,92,260209,6,0,P|253:110|317:194,1,215.999987686158,2|0,1:2|0:0,0:0:0:0:
384,316,260540,1,2,1:2:0:0:
396,240,260650,1,0,0:0:0:0:
387,229,260760,1,8,0:0:0:0:
501,17,260981,6,0,B|501:57|467:95|467:95|393:112|349:45,1,215.999987686158,2|2,0:0|1:2,0:0:0:0:
239,19,261312,1,0,0:0:0:0:
135,129,261422,2,0,P|234:130|257:32,1,215.999987686158,2|8,0:0|0:0,0:0:0:0:
27,73,261753,5,0,0:0:0:0:
110,132,261863,2,0,P|124:79|130:26,2,107.999993843079,2|0|2,1:2|1:0|0:0,0:0:0:0:
59,348,262195,5,0,0:0:0:0:
41,341,262305,2,0,B|12:299|12:299|26:244,1,107.999993843079,0|0,1:0|0:0,0:0:0:0:
110,132,262524,1,8,0:0:0:0:
266,251,262635,2,0,P|231:154|130:144,1,215.999987686158,0|8,0:0|0:0,0:0:0:0:
283,353,262966,6,0,P|330:329|355:283,1,107.999993843079,2|0,1:2|0:0,0:0:0:0:
168,213,263187,2,0,P|151:263|166:314,1,107.999993843079,2|0,0:0|0:0,0:0:0:0:
402,180,263407,2,0,P|392:127|369:78,1,107.999993843079,10|0,0:0|0:0,0:0:0:0:
222,25,263628,5,2,0:0:0:0:
144,85,263738,1,0,1:0:0:0:
283,171,263849,2,0,P|231:160|190:193,1,107.999993843079,2|0,0:0|0:0,0:0:0:0:
88,313,264069,6,0,P|35:315|-1:277,1,107.999993843079,2|0,1:2|0:0,0:0:0:0:
207,214,264290,1,8,0:0:0:0:
172,280,264400,1,0,1:0:0:0:
195,328,264510,1,2,1:2:0:0:
235,342,264621,1,0,1:0:0:0:
264,329,264731,2,0,B|285:351|325:358|325:358|381:295|337:222,1,215.999987686158,6|0,1:2|0:0,0:0:0:0:
512,41,265062,6,0,B|491:19|451:12|451:12|395:75|438:147,1,215.999987686158,0|0,1:2|0:0,0:0:0:0:
300,51,265393,2,0,P|247:56|216:99,1,107.999993843079,4|0,0:0|0:0,0:0:0:0:
354,195,265613,2,0,P|406:189|437:146,1,107.999993843079
124,60,265834,2,0,P|146:109|133:171,1,107.999993843079,2|0,1:2|0:0,0:0:0:0:
37,330,266055,5,10,0:0:0:0:
126,309,266165,1,8,0:0:0:0:
215,289,266275,1,10,0:0:0:0:
303,265,266385,1,8,0:0:0:0:
242,196,266496,6,0,P|213:280|298:359,1,215.999987686158,6|0,0:0|0:0,0:0:0:0:
507,256,266827,1,0,1:0:0:0:
449,203,266937,2,0,P|454:149|476:100,1,107.999993843079,8|0,0:0|0:0,0:0:0:0:
291,15,267157,2,0,P|313:64|318:117,1,107.999993843079,2|0,0:0|1:0,0:0:0:0:
133,164,267378,6,0,P|53:105|104:20,1,215.999987686158,2|0,0:0|1:0,0:0:0:0:
322,196,267709,1,0,0:0:0:0:
322,196,267819,2,0,P|401:254|350:339,1,215.999987686158,10|0,0:0|0:0,0:0:0:0:
179,311,268150,5,0,1:0:0:0:
161,294,268260,2,0,P|167:251|206:193,1,107.999993843079,2|0,1:2|0:0,0:0:0:0:
442,39,268481,2,0,P|436:82|397:140,1,107.999993843079,0|0,0:0|1:0,0:0:0:0:
322,196,268702,1,8,0:0:0:0:
198,26,268922,6,0,P|191:71|237:127,1,107.999993843079,2|0,0:0|1:0,0:0:0:0:
350,339,269143,2,0,P|401:254|322:196,1,215.999987686158,2|0,0:0|1:0,0:0:0:0:
104,20,269474,1,0,0:0:0:0:
104,20,269584,2,0,P|53:105|133:164,1,215.999987686158,8|0,0:0|0:0,0:0:0:0:
283,37,269915,5,8,0:0:0:0:
283,37,270025,1,4,0:0:0:0:
350,205,270246,1,8,0:3:0:0:
130,162,270466,6,0,P|78:178|29:200,1,107.999993843079,2|0,0:0|0:0,0:0:0:0:
232,300,270687,2,0,P|282:321|334:337,1,107.999993843079,14|0,1:2|1:0,0:0:0:0:
137,252,270907,6,0,P|103:293|99:347,1,107.999993843079,2|0,0:0|0:0,0:0:0:0:
339,212,271128,2,0,P|384:184|407:136,1,107.999993843079,8|0,0:3|0:0,0:0:0:0:
506,189,271349,2,0,P|484:237|440:267,1,107.999993843079,8|0,0:3|0:0,0:0:0:0:
214,108,271569,6,0,B|265:73|265:73|260:242,1,215.999987686158,6|0,0:0|1:0,0:0:0:0:
94,310,271900,1,0,0:0:0:0:
32,268,272010,2,0,P|32:225|71:174,1,107.999993843079,10|0,0:0|0:0,0:0:0:0:
214,108,272231,5,8,0:0:0:0:
295,105,272341,1,8,0:0:0:0:
339,176,272451,1,2,1:2:0:0:
303,250,272561,1,8,0:0:0:0:
221,256,272672,2,0,P|194:209|164:164,1,107.999993843079,10|0,0:0|0:0,0:0:0:0:
446,274,272893,6,0,P|419:320|389:365,1,107.999993843079,2|0,1:2|0:0,0:0:0:0:
245,328,273113,2,0,P|212:353|253:351,1,107.999993843079,8|0,0:3|0:0,0:0:0:0:
303,250,273334,5,2,1:2:0:0:
347,151,273444,1,8,0:3:0:0:
283,56,273555,5,2,0:0:0:0:
250,99,273665,1,8,0:0:0:0:
173,106,273775,1,8,0:3:0:0:
180,159,273885,1,0,1:0:0:0:
102,239,273996,6,0,B|160:292|238:264|224:250|269:225|305:240,1,215.999987686158,4|0,0:1|1:0,0:0:0:0:
445,311,274327,2,0,B|488:299|510:259|510:259|464:194|385:214,1,215.999987686158,2|0,0:0|0:0,0:0:0:0:
311,265,274657,5,2,1:2:0:0:
329,282,274768,1,0,0:0:0:0:
301,374,274878,1,8,0:0:0:0:
452,103,275099,6,0,B|407:76|407:76|353:84,1,107.999993843079,2|0,0:0|0:0,0:0:0:0:
259,137,275319,1,0,1:0:0:0:
38,26,275540,6,0,P|19:125|109:172,1,215.999987686158,2|8,0:0|0:0,0:0:0:0:
259,137,275871,1,0,0:0:0:0:
325,177,275981,2,0,P|331:231|352:281,1,107.999993843079,2|0,0:0|1:0,0:0:0:0:
500,344,276202,5,0,0:0:0:0:
383,366,276312,1,8,0:0:0:0:
493,325,276422,2,0,B|437:317|437:317|391:348,1,107.999993843079,0|0,1:0|0:0,0:0:0:0:
221,367,276643,5,8,0:0:0:0:
93,246,276753,2,0,B|205:227|205:227|306:294,1,215.999987686158,0|8,0:0|0:0,0:0:0:0:
462,200,277084,6,0,P|506:110|435:39,1,215.999987686158,2|0,1:2|0:0,0:0:0:0:
261,19,277415,1,0,1:0:0:0:
196,55,277525,2,0,P|198:108|236:144,1,107.999993843079,10|0,0:0|0:0,0:0:0:0:
446,231,277746,6,0,P|399:203|347:188,1,107.999993843079,2|0,0:0|0:0,0:0:0:0:
135,348,277966,2,0,P|181:320|233:305,1,107.999993843079,2|0,0:0|0:0,0:0:0:0:
343,335,278187,1,2,1:2:0:0:
58,269,278407,6,0,P|84:222|76:170,1,107.999993843079,10|0,0:0|0:0,0:0:0:0:
17,30,278628,2,0,P|58:122|159:111,1,215.999987686158,2|0,0:0|1:0,0:0:0:0:
241,43,278959,1,0,0:0:0:0:
355,121,279069,2,0,P|324:166|315:218,1,107.999993843079,2|0,1:2|1:0,0:0:0:0:
178,357,279290,6,0,P|169:304|138:260,1,107.999993843079,8|0,0:0|0:0,0:0:0:0:
401,377,279510,2,0,B|489:321|489:321|385:280,1,215.999987686158,6|2,0:0|0:0,0:0:0:0:
249,192,279841,1,0,0:0:0:0:
231,201,279952,2,0,P|240:254|272:303,1,107.999993843079,2|0,1:2|0:0,0:0:0:0:
418,169,280172,5,8,0:0:0:0:
327,133,280282,1,8,0:0:0:0:
233,104,280393,1,8,0:0:0:0:
143,66,280503,1,8,0:0:0:0:
227,19,280613,6,0,B|255:61|233:104|233:104|191:166|221:223,1,215.999987686158,6|0,1:2|0:0,0:0:0:0:
342,311,280944,1,0,1:0:0:0:
405,257,281055,2,0,P|359:230|306:234,1,107.999993843079,8|0,1:2|0:0,0:0:0:0:
131,365,281275,2,0,P|184:369|229:342,1,107.999993843079,2|0,1:2|1:0,0:0:0:0:
78,110,281496,6,0,P|41:211|20:317,1,215.999987686158,2|0,0:0|1:0,0:0:0:0:
306,233,281827,1,0,0:0:0:0:
306,233,281937,2,0,P|285:127|248:26,1,215.999987686158,10|0,0:0|0:0,0:0:0:0:
151,148,282268,5,0,0:0:0:0:
145,155,282378,2,0,P|174:199|225:212,1,107.999993843079,0|0,1:0|0:0,0:0:0:0:
470,39,282599,2,0,P|417:38|377:73,1,107.999993843079,0|0,0:0|1:0,0:0:0:0:
306,233,282819,1,8,0:0:0:0:
488,294,283040,6,0,P|506:245|482:198,1,107.999993843079,2|0,0:0|1:0,0:0:0:0:
247,25,283260,2,0,P|285:127|306:233,1,215.999987686158,2|0,0:0|1:0,0:0:0:0:
19,317,283591,1,0,0:0:0:0:
19,317,283701,2,0,P|40:211|78:110,1,215.999987686158,10|2,0:0|0:0,0:0:0:0:
151,45,284032,5,8,0:0:0:0:
151,45,284143,1,2,1:2:0:0:
276,184,284364,1,2,0:0:0:0:
475,80,284584,2,0,P|447:126|431:177,1,107.999993843079,10|0,0:0|1:0,0:0:0:0:
407,149,284805,2,0,P|423:97|451:51,1,107.999993843079,2|0,0:0|1:0,0:0:0:0:
216,281,285025,6,0,P|164:279|124:245,1,107.999993843079,2|0,0:0|0:0,0:0:0:0:
237,92,285246,2,0,P|272:132|276:185,1,107.999993843079,2|0,1:2|0:0,0:0:0:0:
506,286,285466,2,0,P|493:221|474:166,1,107.999993843079,10|0,0:0|0:0,0:0:0:0:
391,18,285687,6,0,P|352:110|253:96,1,215.999987686158,2|0,0:0|1:0,0:0:0:0:
112,14,286018,1,0,0:0:0:0:
46,55,286128,2,0,B|16:160|16:160|106:226,1,215.999987686158,2|8,0:0|0:0,0:0:0:0:
308,265,286459,5,0,1:0:0:0:
267,198,286569,2,0,P|230:236|224:288,1,107.999993843079,2|0,0:0|1:0,0:0:0:0:
444,162,286790,2,0,P|438:109|401:71,1,107.999993843079,2|0,0:0|0:0,0:0:0:0:
229,7,287010,2,0,P|260:52|285:100,1,107.999993843079,2|0,1:2|0:0,0:0:0:0:
175,328,287231,5,8,0:0:0:0:
113,248,287341,1,8,0:0:0:0:
172,166,287451,1,8,0:0:0:0:
267,198,287561,1,8,0:0:0:0:
264,298,287672,6,0,P|387:305|438:209,1,233.999983089448,14|0,0:0|0:0,0:0:0:0:
317,18,288003,5,0,0:0:0:0:
235,47,288113,2,0,P|250:160|335:236,1,233.999983089448,12|0,0:0|0:0,0:0:0:0:
505,181,288444,1,0,0:0:0:0:
401,134,288555,1,12,0:0:0:0:
230,284,288775,5,0,0:0:0:0:
401,134,288996,1,12,0:0:0:0:
141,43,289216,1,0,0:0:0:0:
224,136,289327,1,0,0:0:0:0:
65,103,289437,2,0,P|104:211|203:268,1,233.999983089448,12|0,0:0|0:0,0:0:0:0:
399,346,289768,5,0,0:0:0:0:
459,285,289878,2,0,B|351:235|351:235|259:320,1,233.999983089448,12|0,0:0|0:0,0:0:0:0:
115,353,290209,1,0,0:0:0:0:
203,268,290319,1,12,0:0:0:0:
343,124,290540,5,0,0:0:0:0:
18,45,290760,1,12,0:0:0:0:
224,290,290981,1,0,0:0:0:0:
97,215,291091,1,0,0:0:0:0:
241,122,291202,2,0,P|371:161|375:263,1,233.999983089448,12|0,0:0|0:0,0:0:0:0:
473,357,291532,5,0,0:0:0:0:
500,287,291643,2,0,P|488:155|511:40,1,233.999983089448,12|0,0:0|0:0,0:0:0:0:
322,30,291974,5,0,0:0:0:0:
373,88,292085,2,0,P|385:220|362:335,1,233.999983089448,12|0,0:0|0:0,0:0:0:0:
228,296,292415,1,0,0:0:0:0:
310,238,292525,1,12,0:0:0:0:
100,102,292746,1,0,0:0:0:0:
224,165,292856,1,0,0:0:0:0:
61,254,292966,2,0,B|50:150|50:150|59:123|59:123|51:8,1,233.999983089448,8|0,0:0|0:0,0:0:0:0:
280,81,293297,6,0,P|238:181|131:163,1,233.999983089448,8|0,0:0|0:0,0:0:0:0:
460,301,293628,6,0,P|419:200|312:218,1,233.999983089448,12|0,0:0|0:0,0:0:0:0:
188,359,293959,5,8,0:0:0:0:
195,259,294069,1,8,0:3:0:0:
209,364,294180,1,8,0:3:0:0:
166,239,294290,1,8,0:3:0:0:
363,117,294510,5,8,0:0:0:0:
331,244,294621,1,8,0:0:0:0:
385,101,294731,2,0,P|271:137|230:52,1,233.999983089448,12|0,0:0|0:0,0:0:0:0:
93,23,295062,5,0,0:0:0:0:
35,76,295172,2,0,B|4:126|4:126|42:302,1,233.999983089448,8|2,1:2|0:0,0:0:0:0:
351,345,295613,6,0,B|353:303|314:272|314:272|232:267|176:333,1,233.999983089448,10|0,0:0|1:0,0:0:0:0:
444,127,295944,1,0,0:0:0:0:
444,127,296055,2,0,B|446:169|407:199|407:199|325:205|269:139,1,233.999983089448,10|8,0:0|0:3,0:0:0:0:
127,55,296385,5,0,0:0:0:0:
155,40,296496,2,0,P|158:108|130:156,1,116.999991544724,8|0,0:0|0:0,0:0:0:0:
25,305,296716,1,0,1:0:0:0:
229,212,296937,1,8,0:0:0:0:
47,71,297157,1,0,1:0:0:0:
274,144,297378,6,0,B|325:205|407:199|407:199|446:169|444:127,1,233.999983089448,10|0,0:0|1:0,0:0:0:0:
181,327,297709,1,0,0:0:0:0:
181,327,297820,2,0,B|232:267|314:272|314:272|353:303|351:345,1,233.999983089448,10|8,0:0|0:3,0:0:0:0:
438,363,298150,1,8,0:3:0:0:
495,289,298260,2,0,P|468:238|478:181,1,116.999991544724,2|0,1:2|0:0,0:0:0:0:
325,28,298481,6,0,P|351:78|341:135,1,116.999991544724,2|8,0:0|0:0,0:0:0:0:
176,265,298702,2,0,P|227:237|283:220,1,116.999991544724,2|0,0:0|0:0,0:0:0:0:
44,91,298922,2,0,P|95:118|151:135,1,116.999991544724,2|0,0:0|0:0,0:0:0:0:
433,80,299143,5,10,0:0:0:0:
291,309,299363,1,2,0:0:0:0:
493,246,299584,1,2,0:0:0:0:
493,246,299804,2,0,P|466:195|499:149,1,116.999991544724,2|0,0:0|0:0,0:0:0:0:
366,38,300025,6,0,B|269:26|269:26|235:37|235:37|113:21,1,233.999983089448,4|2,0:0|0:0,0:0:0:0:
154,115,300356,1,0,0:0:0:0:
154,115,300466,2,0,B|251:127|251:127|285:116|285:116|384:129,1,233.999983089448,0|2,0:0|0:0,0:0:0:0:
464,209,300797,1,0,0:0:0:0:
464,209,300907,2,0,P|427:188|469:191,1,116.999991544724,2|0,1:2|0:0,0:0:0:0:
364,299,301128,6,0,P|363:241|333:191,1,116.999991544724,2|0,0:0|0:0,0:0:0:0:
154,115,301349,2,0,P|154:172|184:222,1,116.999991544724,8|0,0:3|0:0,0:0:0:0:
441,77,301569,1,6,0:0:0:0:
