osu file format v14

[General]
AudioFilename: audio.mp3
AudioLeadIn: 0
PreviewTime: 202841
Countdown: 0
SampleSet: Soft
StackLeniency: 0.4
Mode: 0
LetterboxInBreaks: 0
WidescreenStoryboard: 1

[Editor]
Bookmarks: 8255,17565,23151,36392,49634,52944,56255,62875,76117,82737,91013,104255,110875,117496,134048,147289,147910,160530,173772,188668,200255,202841,216806,230048,236668
DistanceSpacing: 2.7
BeatDivisor: 8
GridSize: 16
TimelineZoom: 2

[Metadata]
Title:Ego mo Id mo Tanjun ni
TitleUnicode:EgoもIdも単純に
Artist:THE BINARY mido
ArtistUnicode:THE BINARY mido
Creator:kuyusu
Version:Neon's Extra
Source:
Tags:NeonLights Dashyy- moph Wanpachi Cycopton DjulusMyMommy posydomojka Simple Ego and Id rock Japanese YURRY CANON yurrycanon ユリイ・カノン mido Jiu melon BNRY-01 BNRY-02 BNRY-05
BeatmapID:2711069
BeatmapSetID:1268824

[Difficulty]
HPDrainRate:5.7
CircleSize:4
OverallDifficulty:8.7
ApproachRate:9.5
SliderMultiplier:2.8
SliderTickRate:1

[Events]
//Background and Video events
0,0,"a.jpg",0,0
//Break Periods
2,188868,199109
//Storyboard Layer 0 (Background)
//Storyboard Layer 1 (Fail)
//Storyboard Layer 2 (Pass)
//Storyboard Layer 3 (Foreground)
//Storyboard Layer 4 (Overlay)
//Storyboard Sound Samples

[TimingPoints]
2052,564.705882352941,4,2,1,30,1,0
8255,413.793103448276,4,2,1,50,1,0
8263,-100,4,2,1,50,0,0
9910,-100,4,2,1,65,0,0
10530,-83.3333333333333,4,2,1,65,0,0
10944,-100,4,2,1,65,0,0
14255,-100,4,2,1,65,0,0
17565,-100,4,2,1,65,0,0
18806,-83.3333333333333,4,2,1,65,0,0
19220,-71.4285714285714,4,2,1,65,0,0
19427,-133.333333333333,4,2,1,65,0,0
19841,-83.3333333333333,4,2,1,65,0,0
20875,-100,4,2,1,65,0,0
23151,-250,4,2,1,40,0,0
24703,-100,4,2,1,40,0,0
25220,-250,4,2,1,40,0,0
32772,-100,4,2,1,40,0,0
36392,-100,4,2,1,50,0,0
48806,-500,4,2,1,50,0,0
49634,-500,4,2,1,55,0,0
52530,-166.666666666667,4,2,1,55,0,0
52944,-100,4,2,1,45,0,0
56255,-100,4,2,1,55,0,0
58737,-500,4,2,1,55,0,0
59151,-500,4,2,1,45,0,0
59565,-166.666666666667,4,2,1,50,0,0
62048,-100,4,2,1,50,0,0
62875,-71.4285714285714,4,2,1,75,0,1
63289,-55.5555555555556,4,2,1,75,0,1
63703,-71.4285714285714,4,2,1,75,0,1
64944,-62.5,4,2,1,75,0,1
65358,-71.4285714285714,4,2,1,75,0,1
66599,-100,4,2,1,75,0,1
69496,-100,4,2,1,75,0,0
71565,-83.3333333333333,4,2,1,75,0,0
71875,-100,4,2,1,75,0,0
72186,-250,4,2,1,75,0,0
72599,-133.333333333333,4,2,1,75,0,0
72806,-100,4,2,1,75,0,0
74461,-71.4285714285714,4,2,1,75,0,0
74772,-55.5555555555556,4,2,1,75,0,0
75082,-50,4,2,1,75,0,0
76117,-66.6666666666667,4,2,1,75,0,1
82737,-66.6666666666667,4,2,1,70,0,0
83151,-83.3333333333333,4,2,1,70,0,0
83358,-66.6666666666667,4,2,1,70,0,0
83668,-76.9230769230769,4,2,1,70,0,0
85427,-250,4,2,1,70,0,0
86048,-66.6666666666667,4,2,1,70,0,0
86461,-83.3333333333333,4,2,1,70,0,0
89151,-66.6666666666667,4,2,1,70,0,0
90392,-80,4,2,1,70,0,0
90599,-200,4,2,1,70,0,0
91013,-66.6666666666667,4,2,1,65,0,0
91634,-83.3333333333333,4,2,1,65,0,0
97634,-66.6666666666667,4,2,1,65,0,0
97944,-83.3333333333333,4,2,1,65,0,0
99289,-71.4285714285714,4,2,1,65,0,0
99496,-83.3333333333333,4,2,1,65,0,0
102599,-83.3333333333333,4,2,1,65,0,0
104255,-83.3333333333333,4,2,1,45,0,0
105082,-200,4,2,1,45,0,0
105910,-50,4,2,1,45,0,0
106737,-200,4,2,1,45,0,0
110875,-200,4,2,1,50,0,0
111082,-100,4,2,1,50,0,0
117496,-100,4,2,1,55,0,0
120186,-250,4,2,1,55,0,0
120599,-100,4,2,1,55,0,0
123496,-250,4,2,1,55,0,0
123910,-100,4,2,1,55,0,0
126806,-250,4,2,1,55,0,0
127220,-100,4,2,1,55,0,0
127427,-133.333333333333,4,2,1,55,0,0
129082,-100,4,2,1,55,0,0
130737,-133.333333333333,4,2,1,45,0,0
132392,-83.3333333333333,4,2,1,50,0,0
133220,-100,4,2,1,50,0,0
134048,-71.4285714285714,4,2,1,75,0,1
134461,-55.5555555555556,4,2,1,75,0,1
135186,-71.4285714285714,4,2,1,75,0,1
136117,-62.5,4,2,1,75,0,1
136530,-71.4285714285714,4,2,1,75,0,1
136944,-250,4,2,1,75,0,1
137358,-76.9230769230769,4,2,1,75,0,1
139013,-100,4,2,1,75,0,1
140668,-100,4,2,1,75,0,0
143358,-250,4,2,1,75,0,0
143772,-100,4,2,1,75,0,0
145634,-55.5555555555556,4,2,1,75,0,0
145944,-47.6190476190476,4,2,1,75,0,0
146255,-43.4782608695652,4,2,1,75,0,0
147289,-66.6666666666667,4,2,1,75,0,1
151013,-55.5555555555556,4,2,1,75,0,1
151427,-66.6666666666667,4,2,1,75,0,1
152255,-83.3333333333333,4,2,1,75,0,1
153910,-83.3333333333333,4,2,1,70,0,0
154737,-66.6666666666667,4,2,1,70,0,0
155151,-76.9230769230769,4,2,1,70,0,0
156392,-250,4,2,1,70,0,0
157220,-66.6666666666667,4,2,1,70,0,0
158461,-83.3333333333333,4,2,1,70,0,0
160530,-50,4,2,1,80,0,1
160944,-66.6666666666667,4,2,1,80,0,1
161358,-55.5555555555556,4,2,1,80,0,1
161668,-66.6666666666667,4,2,1,80,0,1
165806,-100,4,2,1,80,0,1
167151,-66.6666666666667,4,2,1,80,0,1
167565,-83.3333333333333,4,2,1,80,0,1
167979,-66.6666666666667,4,2,1,80,0,1
168289,-133.333333333333,4,2,1,80,0,1
168806,-66.6666666666667,4,2,1,80,0,1
169944,-76.9230769230769,4,2,1,80,0,1
170255,-90.9090909090909,4,2,1,80,0,1
170461,-66.6666666666667,4,2,1,80,0,1
172117,-100,4,2,1,80,0,1
172530,-83.3333333333333,4,2,1,80,0,1
172944,-66.6666666666667,4,2,1,80,0,1
173772,-100,4,2,1,65,0,0
174082,-66.6666666666667,4,2,1,65,0,0
174910,-76.9230769230769,4,2,1,65,0,0
176048,-100,4,2,1,65,0,0
176461,-250,4,2,1,65,0,0
177082,-90.9090909090909,4,2,1,65,0,0
178737,-100,4,2,1,65,0,0
180392,-66.6666666666667,4,2,1,65,0,0
181013,-71.4285714285714,4,2,1,65,0,0
181427,-76.9230769230769,4,2,1,65,0,0
181841,-83.3333333333333,4,2,1,65,0,0
182255,-90.9090909090909,4,2,1,65,0,0
182668,-100,4,2,1,65,0,0
183082,-250,4,2,1,65,0,0
183496,-100,4,2,1,65,0,0
183703,-76.9230769230769,4,2,1,65,0,0
187013,-140.845070422535,4,2,1,65,0,0
199634,-76.9230769230769,4,2,1,45,0,0
199841,-200,4,2,1,45,0,0
200255,-57.1428571428571,4,2,1,50,0,0
200875,-111.111111111111,4,2,1,50,0,0
203979,-66.6666666666667,4,2,1,75,0,1
208530,-100,4,2,1,75,0,1
210186,-83.3333333333333,4,2,1,70,0,1
210496,-90.9090909090909,4,2,1,70,0,1
212875,-250,4,2,1,70,0,1
213496,-90.9090909090909,4,2,1,70,0,1
214117,-71.4285714285714,4,2,1,70,0,1
214530,-55.5555555555556,4,2,1,70,0,1
216806,-66.6666666666667,4,2,1,75,0,0
218461,-100,4,2,1,75,0,0
220117,-83.3333333333333,4,2,1,75,0,0
221255,-111.111111111111,4,2,1,75,0,0
223427,-71.4285714285714,4,2,1,75,0,0
223841,-111.111111111111,4,2,1,75,0,0
224255,-71.4285714285714,4,2,1,75,0,0
227565,-90.9090909090909,4,2,1,75,0,0
231703,-111.111111111111,4,2,1,75,0,0
233358,-83.3333333333333,4,2,1,75,0,0
233979,-58.8235294117647,4,2,1,75,0,0
234599,-71.4285714285714,4,2,1,75,0,0
235013,-100,4,2,1,75,0,0
236668,-100,4,2,1,40,0,0
237289,-333.333333333333,4,2,1,40,0,0
243703,-333.333333333333,4,2,1,5,0,0

[Colours]
Combo1 : 88,207,192
Combo2 : 68,162,119
Combo3 : 108,198,74
Combo4 : 68,164,87

[HitObjects]
256,192,5440,12,0,7981,0:0:0:0:
94,220,8255,5,8,0:0:0:0:
94,220,8565,1,8,0:0:0:0:
94,220,8875,1,8,0:0:0:0:
26,275,9082,1,8,0:0:0:0:
225,238,9289,2,0,L|166:228,3,35
247,257,9496,6,0,P|253:167|336:203,1,210
417,317,9910,2,0,L|425:220,1,70,6|0,3:2|0:0,0:0:0:0:
428,154,10117,1,2,0:0:0:0:
495,185,10220,2,0,P|459:148|411:150,1,70,10|0,0:0|3:0,0:0:0:0:
235,165,10427,1,2,0:0:0:0:
247,176,10530,6,0,P|269:108|329:205,1,251.999992309571,10|0,0:0|0:0,0:0:0:0:
244,344,10944,6,0,P|210:337|183:314,1,70,2|8,0:0|0:0,0:0:0:0:
100,350,11151,2,0,P|94:298|119:255,1,70,2|0,3:2|0:0,0:0:0:0:
31,234,11358,2,0,P|72:203|122:202,1,70,10|0,0:0|0:0,0:0:0:0:
197,101,11565,5,2,3:2:0:0:
205,181,11668,2,0,L|212:91,1,70,2|0,0:0|0:0,0:0:0:0:
281,233,11875,2,0,P|254:246|229:280,2,70,10|0|2,0:0|3:0|0:0,0:0:0:0:
436,265,12186,5,10,0:0:0:0:
356,273,12289,2,0,L|445:280,1,70,2|0,0:0|3:0,0:0:0:0:
281,233,12496,2,0,P|254:246|229:280,1,70,2|0,0:0|0:0,0:0:0:0:
235,355,12703,1,10,0:0:0:0:
379,351,12806,2,0,B|332:346|332:346|283:368|283:368|225:363,1,140,2|10,3:2|0:0,0:0:0:0:
370,121,13220,6,0,P|365:167|337:209,1,70,2|0,3:2|0:0,0:0:0:0:
288,131,13427,1,2,0:0:0:0:
260,10,13530,6,0,P|297:36|319:82,1,70,10|0,0:0|3:0,0:0:0:0:
288,131,13737,1,2,0:0:0:0:
156,152,13841,2,0,B|200:155|200:155|258:139|258:139|316:142,1,140,10|0,0:0|3:0,0:0:0:0:
100,68,14255,6,0,P|74:91|62:124,1,70,2|8,0:0|0:0,0:0:0:0:
9,181,14462,2,0,P|21:231|59:263,1,70,2|0,3:2|0:0,0:0:0:0:
38,322,14669,2,0,P|87:337|134:320,1,70,10|0,0:0|0:0,0:0:0:0:
246,244,14875,5,2,3:2:0:0:
258,250,14979,2,0,L|250:337,1,70,2|0,0:0|0:0,0:0:0:0:
322,174,15186,5,10,0:0:0:0:
330,162,15289,1,0,3:0:0:0:
305,30,15392,2,0,P|282:68|276:100,2,70,2|10|2,0:0|0:0|0:0,0:0:0:0:
187,92,15703,2,0,P|193:126|211:156,1,70,2|0,3:2|0:0,0:0:0:0:
430,81,15910,2,0,P|393:80|360:99,1,70,10|8,0:0|0:0,0:0:0:0:
277,253,16117,5,10,0:0:0:0:
322,174,16220,1,8,0:0:0:0:
277,93,16323,1,8,0:0:0:0:
187,92,16427,1,8,0:0:0:0:
180,107,16530,6,0,P|145:103|111:93,1,70,6|0,3:2|0:0,0:0:0:0:
30,204,16737,1,2,0:0:0:0:
37,178,16841,2,0,P|22:145|3:117,1,70,10|0,0:0|3:0,0:0:0:0:
214,223,17048,1,2,0:0:0:0:
210,381,17151,2,0,B|215:317|215:317|179:232|179:232|185:176,1,210,10|0,0:0|0:0,0:0:0:0:
493,99,17565,6,0,P|459:106|432:129,1,70,2|8,0:0|0:0,0:0:0:0:
349,93,17772,2,0,P|343:145|368:188,1,70,2|0,3:2|0:0,0:0:0:0:
280,209,17979,2,0,P|321:240|371:241,1,70,10|0,0:0|0:0,0:0:0:0:
146,306,18186,6,0,P|178:285|229:284,1,70,2|0,3:2|0:0,0:0:0:0:
204,363,18392,1,2,0:0:0:0:
63,328,18496,2,0,P|61:288|85:245,1,70,10|0,0:0|3:0,0:0:0:0:
175,98,18703,1,2,0:0:0:0:
192,97,18806,6,0,P|217:134|97:139,1,251.999992309571,10|0,0:0|0:0,0:0:0:0:
366,50,19220,6,0,L|242:36,1,97.9999970092774,2|8,0:0|0:0,0:0:0:0:
401,154,19427,6,0,B|403:129|430:110|430:110|465:113|495:140,1,105.000004005432,2|8,3:2|0:0,0:0:0:0:
477,126,19737,1,0,0:0:0:0:
342,279,19841,6,0,P|324:203|307:172,1,83.9999974365235,6|0,3:2|0:0,0:0:0:0:
192,97,20048,1,2,0:0:0:0:
203,111,20151,2,0,P|186:187|189:221,1,83.9999974365235,10|0,0:0|3:0,0:0:0:0:
249,306,20358,1,2,0:0:0:0:
174,347,20461,2,0,P|175:297|258:373,1,251.999992309571,10|0,0:0|0:0,0:0:0:0:
316,124,20875,6,0,P|342:147|354:180,1,70,2|8,0:0|0:0,0:0:0:0:
438,179,21082,2,0,P|426:229|388:261,1,70,2|0,3:2|0:0,0:0:0:0:
461,309,21289,2,0,P|412:324|365:307,1,70,10|0,0:0|0:0,0:0:0:0:
232,285,21496,6,0,P|294:270|303:273,1,70,6|0,3:2|0:0,0:0:0:0:
101,322,21703,1,2,0:0:0:0:
108,333,21806,2,0,P|170:348|179:345,1,70,10|0,0:0|3:0,0:0:0:0:
19,343,22013,1,2,0:0:0:0:
11,331,22117,2,0,P|15:299|39:256,1,70,10|0,0:0|0:0,0:0:0:0:
232,285,22323,1,6,3:2:0:0:
240,273,22426,2,0,P|235:241|211:198,1,70,2|8,0:0|0:0,0:0:0:0:
43,112,22634,5,10,0:0:0:0:
73,157,22737,1,10,0:0:0:0:
127,165,22840,1,8,0:0:0:0:
169,131,22944,1,10,0:0:0:0:
173,77,23047,1,8,0:0:0:0:
136,37,23151,5,6,3:2:0:0:
136,37,23565,1,0,3:0:0:0:
136,37,23979,1,2,3:2:0:0:
136,37,24392,1,0,3:0:0:0:
248,86,24703,6,0,L|303:74,2,35,2|2|2,0:0|0:0|3:2,0:0:0:0:
248,86,25220,1,0,3:0:0:0:
248,86,25634,5,2,3:2:0:0:
164,77,25841,1,2,0:0:0:0:
82,69,26048,1,2,3:2:0:0:
0,58,26255,1,2,0:0:0:0:
248,86,26461,5,2,3:2:0:0:
248,86,26875,1,0,3:0:0:0:
248,86,27289,1,0,3:0:0:0:
252,91,27496,5,2,0:0:0:0:
318,182,27703,1,2,3:2:0:0:
430,171,27910,1,2,0:0:0:0:
273,285,28117,5,2,3:2:0:0:
273,285,28530,2,0,L|211:291,1,56,0|2,3:0|0:0,0:0:0:0:
114,276,28944,1,0,3:0:0:0:
132,268,29048,1,0,0:0:0:0:
140,251,29151,2,0,L|136:214,1,28
208,164,29358,1,2,3:2:0:0:
190,156,29462,1,0,0:0:0:0:
182,139,29565,2,0,L|186:102,1,28
136,37,29772,5,2,3:2:0:0:
136,37,30186,1,0,3:0:0:0:
136,37,30600,1,0,3:0:0:0:
248,48,30806,5,2,0:0:0:0:
136,37,31013,1,2,3:2:0:0:
70,128,31220,1,2,0:0:0:0:
138,224,31427,5,2,3:2:0:0:
138,224,31841,1,0,3:0:0:0:
143,227,32048,1,2,0:0:0:0:
313,285,32255,1,2,3:2:0:0:
301,266,32358,1,2,0:0:0:0:
283,253,32461,1,2,0:0:0:0:
261,248,32565,1,2,0:0:0:0:
239,252,32668,1,2,3:2:0:0:
221,264,32772,2,0,B|231:243|231:243|222:186,1,70,2|2,0:0|0:0,0:0:0:0:
248,86,33082,5,2,3:2:0:0:
248,86,33496,1,0,3:0:0:0:
248,86,33910,1,0,3:0:0:0:
248,86,34323,1,2,3:2:0:0:
273,285,34737,5,2,3:2:0:0:
273,285,35151,1,0,3:0:0:0:
273,285,35565,1,2,3:2:0:0:
282,292,35668,1,2,0:0:0:0:
282,292,35772,2,0,L|363:283,1,70,2|2,0:0|0:0,0:0:0:0:
512,319,35979,1,2,3:2:0:0:
466,321,36082,1,2,0:0:0:0:
431,292,36185,1,2,0:0:0:0:
425,246,36289,1,2,0:0:0:0:
458,216,36392,5,12,0:0:0:0:
458,216,36599,5,2,0:0:0:0:
458,216,36703,1,2,0:0:0:0:
458,216,36806,2,0,B|406:219|406:219|362:191|362:191|299:194,1,140,10|2,0:0|0:0,0:0:0:0:
258,124,37117,1,0,0:0:0:0:
233,133,37220,2,0,P|217:164|216:198,1,70,10|2,0:0|0:0,0:0:0:0:
233,133,37530,6,0,P|217:164|216:198,1,70,10|0,0:0|3:0,0:0:0:0:
268,261,37737,1,2,0:0:0:0:
135,228,37841,2,0,P|154:256|183:275,1,70,10|0,0:0|0:0,0:0:0:0:
268,261,38048,1,8,0:0:0:0:
436,280,38255,5,2,0:0:0:0:
436,280,38359,1,2,0:0:0:0:
436,280,38462,2,0,P|369:281|350:353,1,140,10|2,0:0|0:0,0:0:0:0:
135,228,38772,1,0,0:0:0:0:
216,198,38875,2,0,P|247:212|271:237,1,70,10|2,0:0|0:0,0:0:0:0:
216,198,39186,6,0,P|247:212|271:237,1,70,10|0,0:0|3:0,0:0:0:0:
135,228,39392,1,2,0:0:0:0:
153,144,39496,2,0,P|181:123|215:115,1,70,10|0,0:0|0:0,0:0:0:0:
135,228,39703,5,8,0:0:0:0:
72,342,39910,5,2,0:0:0:0:
72,342,40014,1,2,0:0:0:0:
72,342,40117,2,0,B|65:272|65:272|59:264|59:264|53:202,1,140,10|2,0:0|0:0,0:0:0:0:
159,123,40427,1,0,0:0:0:0:
109,62,40530,2,0,P|140:76|164:101,1,70,10|2,0:0|0:0,0:0:0:0:
109,62,40841,6,0,P|140:76|164:101,1,70,10|0,0:0|3:0,0:0:0:0:
167,266,41048,2,0,P|163:231|173:198,1,70,2|10,0:0|0:0,0:0:0:0:
295,109,41255,1,0,0:0:0:0:
307,115,41358,6,0,P|278:135|244:143,1,70,8|0,0:0|0:0,0:0:0:0:
355,190,41565,1,2,0:0:0:0:
366,185,41668,1,2,0:0:0:0:
376,182,41772,2,0,P|409:190|438:209,1,70,10|0,0:0|0:0,0:0:0:0:
366,333,41979,2,0,P|376:299|373:264,1,70,2|0,0:0|0:0,0:0:0:0:
232,321,42186,2,0,P|265:313|294:293,1,70,10|2,0:0|0:0,0:0:0:0:
232,321,42496,6,0,P|265:313|294:293,1,70,10|0,0:0|3:0,0:0:0:0:
303,215,42703,1,2,0:0:0:0:
172,198,42806,2,0,P|195:223|227:238,1,70,10|0,0:0|0:0,0:0:0:0:
303,215,43013,5,12,0:0:0:0:
82,259,43220,5,2,0:0:0:0:
82,259,43324,1,2,0:0:0:0:
82,259,43427,2,0,P|149:258|168:186,1,140,10|2,0:0|0:0,0:0:0:0:
111,140,43737,1,0,0:0:0:0:
192,110,43840,2,0,P|223:124|247:149,1,70,10|2,0:0|0:0,0:0:0:0:
192,110,44151,6,0,P|223:124|247:149,1,70,10|0,0:0|0:0,0:0:0:0:
111,140,44357,1,0,0:0:0:0:
129,56,44461,2,0,P|157:35|191:27,1,70,10|0,0:0|0:0,0:0:0:0:
111,140,44668,5,8,0:0:0:0:
7,274,44875,1,2,0:0:0:0:
7,274,44979,1,2,0:0:0:0:
7,274,45082,2,0,B|-16:231|2:178|2:178|43:184,1,140,10|2,0:0|0:0,0:0:0:0:
251,240,45392,1,0,0:0:0:0:
170,270,45495,2,0,P|139:256|115:231,1,70,10|2,0:0|0:0,0:0:0:0:
170,270,45806,6,0,P|139:256|115:231,1,70,10|0,0:0|3:0,0:0:0:0:
251,240,46012,1,2,0:0:0:0:
233,324,46116,2,0,P|205:345|171:353,1,70,10|0,0:0|0:0,0:0:0:0:
251,240,46323,5,8,0:0:0:0:
270,0,46530,5,2,0:0:0:0:
270,0,46634,1,2,0:0:0:0:
270,0,46737,2,0,B|273:52|273:52|245:96|245:96|248:159,1,140,10|2,0:0|0:0,0:0:0:0:
177,198,47048,1,0,0:0:0:0:
185,223,47151,2,0,P|216:239|250:240,1,70,10|2,0:0|0:0,0:0:0:0:
185,223,47461,6,0,P|216:239|250:240,1,70,10|0,0:0|0:0,0:0:0:0:
314,188,47668,1,0,0:0:0:0:
281,321,47772,2,0,P|309:302|328:273,1,70,10|0,0:0|0:0,0:0:0:0:
314,188,47979,5,8,0:0:0:0:
314,188,48806,6,0,L|412:178,1,98
139,239,49634,5,10,0:0:0:0:
197,147,49771,1,8,0:0:0:0:
153,64,49909,1,8,0:0:0:0:
314,188,50048,5,10,0:0:0:0:
205,159,50186,1,8,0:0:0:0:
150,252,50323,1,8,0:0:0:0:
150,252,50461,5,10,0:0:0:0:
44,199,50668,5,0,0:0:0:0:
44,199,50772,1,0,0:0:0:0:
44,199,50875,2,0,L|75:203,1,28,2|2,0:0|0:0,0:0:0:0:
278,199,51289,5,10,0:0:0:0:
150,252,51427,1,8,0:0:0:0:
262,338,51565,1,8,0:0:0:0:
292,212,51702,5,10,0:0:0:0:
241,344,51840,1,8,0:0:0:0:
155,231,51978,1,8,0:0:0:0:
155,231,52117,1,10,0:0:0:0:
155,231,52530,6,0,P|173:227|199:231,1,41.9999987182618,2|0,0:0|0:0,0:0:0:0:
255,166,52737,2,0,P|267:179|277:204,1,41.9999987182618,2|0,0:0|0:0,0:0:0:0:
283,312,52944,6,0,P|294:254|357:187,1,140,6|0,3:2|0:0,0:0:0:0:
470,269,53255,2,0,P|424:269|400:254,1,70,0|2,0:0|0:0,0:0:0:0:
360,120,53461,1,0,0:0:0:0:
345,193,53565,2,0,P|335:147|344:123,1,70,2|0,3:2|0:0,0:0:0:0:
198,201,53772,2,0,P|231:173|257:165,1,70,10|0,0:0|0:0,0:0:0:0:
118,239,53979,2,0,P|111:192|117:169,1,70,2|0,0:0|0:0,0:0:0:0:
103,327,54186,2,0,P|58:309|42:292,1,70,2|0,0:0|0:0,0:0:0:0:
184,292,54392,2,0,L|261:298,1,70,2|0,0:0|0:0,0:0:0:0:
356,312,54599,6,0,B|288:319|288:319|283:326|283:326|209:333,1,140,2|0,3:2|0:0,0:0:0:0:
459,300,54910,2,0,P|417:309|432:197,1,210,2|2,3:2|3:2,0:0:0:0:
220,331,55427,5,10,0:0:0:0:
220,331,55530,1,0,0:0:0:0:
220,331,55634,2,0,L|223:280,2,35,2|0|0,0:0|0:0|0:0,0:0:0:0:
172,151,55841,2,0,L|180:222,1,70,8|0,0:0|0:0,0:0:0:0:
343,100,56048,2,0,L|272:92,1,70,2|0,0:0|0:0,0:0:0:0:
0,56,56255,5,10,0:0:0:0:
88,31,56392,1,8,0:0:0:0:
152,91,56530,1,8,0:0:0:0:
240,22,56668,5,10,0:0:0:0:
157,116,56806,1,8,0:0:0:0:
198,229,56944,1,8,0:0:0:0:
198,229,57082,1,10,0:0:0:0:
263,181,57910,5,10,0:0:0:0:
125,188,58048,1,8,0:0:0:0:
201,307,58186,1,8,0:0:0:0:
272,199,58323,5,10,0:0:0:0:
179,305,58461,1,8,0:0:0:0:
137,170,58599,1,8,0:0:0:0:
287,226,58737,6,0,L|285:239,3,14,10|0|0|0,0:0|0:0|0:0|0:0,0:0:0:0:
160,145,59151,2,0,L|153:117,1,28,10|2,0:0|0:0,0:0:0:0:
285,239,59565,6,0,L|289:183,1,41.9999987182618,6|0,3:2|0:0,0:0:0:0:
302,36,59772,1,2,0:0:0:0:
292,63,59875,1,0,0:0:0:0:
260,71,59979,2,0,L|210:62,1,41.9999987182618,10|0,0:0|0:0,0:0:0:0:
458,151,60186,5,2,0:0:0:0:
448,124,60289,1,2,0:0:0:0:
416,116,60392,2,0,L|352:129,2,62.9999980773926,2|0|0,3:2|0:0|0:0,0:0:0:0:
260,71,60806,2,0,L|173:55,1,83.9999974365235,10|2,0:0|0:0,0:0:0:0:
165,62,61117,1,10,0:0:0:0:
0,169,61220,6,0,B|53:156|53:156|61:160|61:160|122:145,1,125.999996154785,10|8,0:0|0:0,0:0:0:0:
123,129,62048,6,0,P|133:147|136:180,1,35,2|0,0:0|0:0,0:0:0:0:
160,167,62151,6,0,P|159:187|145:218,1,35
185,226,62255,6,0,P|174:243|145:261,1,35,2|0,0:0|0:0,0:0:0:0:
185,294,62358,6,0,P|166:304|126:306,1,35
72,366,62461,2,0,P|74:319|160:316,1,140,2|2,0:0|0:0,0:0:0:0:
457,215,62875,6,0,P|436:134|368:183,1,195.999994018555,6|0,3:2|0:0,0:0:0:0:
384,298,63186,1,8,0:0:0:0:
291,368,63289,2,0,B|297:288|297:288|274:195|274:195|283:95,1,251.999992309571,2|8,3:2|0:0,0:0:0:0:
280,119,63599,1,0,0:0:0:0:
100,280,63703,5,2,3:2:0:0:
107,289,63806,2,0,L|229:299,1,97.9999970092774,2|0,0:0|0:0,0:0:0:0:
26,331,64013,2,0,P|15:276|34:233,1,97.9999970092774,10|0,0:0|3:0,0:0:0:0:
183,120,64220,1,2,0:0:0:0:
194,129,64323,2,0,P|151:165|105:170,1,97.9999970092774,10|0,0:0|0:0,0:0:0:0:
28,151,64530,6,0,P|65:133|223:176,1,195.999994018555,2|0,3:2|0:0,0:0:0:0:
304,337,64841,1,8,0:0:0:0:
326,352,64944,6,0,P|361:264|252:279,1,224,2|8,3:2|0:0,0:0:0:0:
438,48,65358,2,0,B|405:13|405:13|419:172,1,195.999994018555,2|0,3:2|0:0,0:0:0:0:
418,161,65668,1,8,0:0:0:0:
255,253,65772,2,0,P|280:191|320:172,1,97.9999970092774,2|0,3:2|0:0,0:0:0:0:
429,339,65979,2,0,P|378:295|372:252,1,97.9999970092774,10|0,0:0|0:0,0:0:0:0:
505,129,66186,6,0,P|448:163|404:156,1,97.9999970092774,2|0,3:2|0:0,0:0:0:0:
262,1,66392,5,0,0:0:0:0:
301,6,66496,1,8,0:0:0:0:
321,37,66599,2,0,B|315:102|315:102|310:113|310:113|304:176,1,140,2|8,3:2|0:0,0:0:0:0:
429,339,66910,1,0,0:0:0:0:
371,267,67013,6,0,P|412:293|435:323,1,70,2|2,3:2|0:0,0:0:0:0:
215,222,67220,1,0,0:0:0:0:
175,316,67323,2,0,B|207:326|207:326|249:293|218:209,1,140,10|0,0:0|0:0,0:0:0:0:
183,51,67634,6,0,P|142:77|119:107,1,70,10|0,0:0|0:0,0:0:0:0:
13,207,67841,6,0,L|97:195,1,70,2|0,3:2|0:0,0:0:0:0:
37,74,68048,5,8,0:0:0:0:
101,206,68151,1,8,0:0:0:0:
270,135,68255,2,0,L|187:127,1,70,2|0,3:2|0:0,0:0:0:0:
396,226,68461,1,8,0:0:0:0:
396,226,68668,6,0,L|403:143,1,70,2|0,3:2|0:0,0:0:0:0:
301,254,68875,1,8,0:0:0:0:
194,163,68979,1,8,0:0:0:0:
88,272,69082,101,10,0:0:0:0:
181,255,69186,1,8,0:0:0:0:
194,163,69289,1,8,0:0:0:0:
109,121,69392,1,8,0:0:0:0:
41,175,69496,6,0,B|65:145|65:145|51:33,1,140,6|0,3:2|0:0,0:0:0:0:
274,110,69806,1,8,0:0:0:0:
290,92,69910,2,0,P|246:57|226:54,1,70,0|0,3:0|0:0,0:0:0:0:
163,154,70117,1,10,0:0:0:0:
487,186,70323,6,0,P|432:200|413:215,1,70,2|0,3:2|0:0,0:0:0:0:
249,259,70530,2,0,P|288:299|311:308,1,70,2|8,0:0|0:0,0:0:0:0:
346,153,70737,2,0,P|330:207|334:231,1,70,2|0,3:2|0:0,0:0:0:0:
471,343,70944,2,0,P|486:288|482:264,1,70,10|0,0:0|0:0,0:0:0:0:
354,70,71151,6,0,P|294:87|282:97,1,70,2|0,3:2|0:0,0:0:0:0:
240,176,71358,1,2,0:0:0:0:
152,159,71461,1,8,0:0:0:0:
149,78,71565,2,0,P|207:203|199:259,1,167.999994873047,2|10,3:2|0:0,0:0:0:0:
174,323,71875,1,0,0:0:0:0:
85,334,71979,2,0,L|161:340,1,70,2|0,3:2|0:0,0:0:0:0:
319,346,72186,6,0,L|287:348,1,28,10|8,3:0|0:0,0:0:0:0:
430,336,72392,2,0,L|398:338,1,28,10|0,3:0|0:0,0:0:0:0:
355,194,72599,2,0,P|345:229|351:265,1,52.5000020027161,10|0,0:0|0:0,0:0:0:0:
480,122,72806,2,0,P|456:142|410:69,1,140,6|0,3:2|0:0,0:0:0:0:
456,13,73117,1,8,0:0:0:0:
403,77,73220,2,0,P|348:88|327:76,1,70,0|0,3:0|0:0,0:0:0:0:
207,35,73427,5,10,0:0:0:0:
234,41,73530,1,0,0:0:0:0:
249,69,73634,2,0,L|241:151,1,70,2|0,3:2|0:0,0:0:0:0:
144,291,73841,2,0,L|136:208,1,70,2|8,0:0|0:0,0:0:0:0:
207,35,74048,2,0,P|219:53|224:114,1,70,2|0,3:2|0:0,0:0:0:0:
56,193,74255,2,0,P|65:173|115:138,1,70,10|0,0:0|0:0,0:0:0:0:
408,193,74461,6,0,B|355:169|314:191|309:194|305:198|258:237|185:197,1,195.999994018555,6|0,3:2|0:0,0:0:0:0:
385,373,74772,2,0,P|419:301|303:318,1,251.999992309571,10|0,0:0|0:0,0:0:0:0:
284,384,75082,2,0,B|333:349|333:349|312:131,1,280,10|0,0:0|3:0,0:0:0:0:
144,266,75496,5,10,0:0:0:0:
160,270,75599,1,8,0:0:0:0:
180,275,75703,1,10,0:0:0:0:
245,238,75806,1,8,0:0:0:0:
304,303,75910,1,10,0:0:0:0:
388,227,76013,1,8,0:0:0:0:
486,289,76117,6,0,P|454:262|467:90,1,210.000008010865,6|8,3:2|0:0,0:0:0:0:
505,34,76427,1,0,0:0:0:0:
354,124,76530,2,0,P|405:131|459:95,1,105.000004005432,2|0,3:2|0:0,0:0:0:0:
189,107,76737,2,0,B|206:74|206:74|238:55|302:68,1,105.000004005432,8|2,0:0|0:0,0:0:0:0:
99,53,76944,1,2,3:2:0:0:
82,70,77048,2,0,L|95:175,1,105.000004005432,2|8,0:0|0:0,0:0:0:0:
109,310,77255,1,10,0:0:0:0:
152,237,77358,2,0,B|198:239|198:239|204:244|204:244|265:246,1,105.000004005432,0|2,3:0|0:0,0:0:0:0:
401,360,77565,2,0,P|363:310|367:241,1,105.000004005432,10|0,0:0|0:0,0:0:0:0:
394,91,77772,6,0,P|369:147|307:178,1,105.000004005432,2|0,3:2|0:0,0:0:0:0:
82,70,77979,1,8,0:0:0:0:
94,43,78082,1,0,0:0:0:0:
123,35,78186,2,0,B|170:38|170:38|179:43|179:43|234:47,1,105.000004005432,2|0,3:2|0:0,0:0:0:0:
187,278,78392,1,8,0:0:0:0:
160,266,78495,1,0,0:0:0:0:
152,237,78599,2,0,B|157:185|157:185|154:178|154:178|162:124,1,105.000004005432,2|0,3:2|0:0,0:0:0:0:
60,174,78806,5,8,0:0:0:0:
172,127,78910,1,8,0:0:0:0:
251,208,79013,2,0,L|377:196,1,105.000004005432,2|0,3:2|0:0,0:0:0:0:
512,157,79220,5,10,0:0:0:0:
444,223,79323,1,8,0:0:0:0:
456,309,79427,2,0,P|479:253|365:248,1,210.000008010865,2|8,3:2|0:0,0:0:0:0:
96,235,79841,6,0,B|56:164|76:97|76:97|110:102|146:119,1,210.000008010865,2|8,3:2|0:0,0:0:0:0:
139,116,80151,1,2,0:0:0:0:
46,186,80255,1,2,3:2:0:0:
157,132,80358,1,2,0:0:0:0:
227,220,80461,2,0,L|346:209,1,105.000004005432,8|2,0:0|0:0,0:0:0:0:
457,132,80668,2,0,P|411:192|357:98,1,210.000008010865,0|10,3:0|0:0,0:0:0:0:
200,349,81082,6,0,B|242:253|242:253|356:320,1,210.000008010865,2|8,3:2|0:0,0:0:0:0:
96,313,81392,1,8,0:0:0:0:
81,298,81496,2,0,B|68:192|68:192|73:183|73:183|62:90,1,210.000008010865,2|8,3:2|0:0,0:0:0:0:
43,120,81806,1,8,0:0:0:0:
56,160,81910,1,10,0:0:0:0:
95,179,82013,1,8,0:0:0:0:
141,171,82117,1,8,0:0:0:0:
178,139,82220,1,8,0:0:0:0:
247,77,82323,1,10,0:0:0:0:
340,96,82427,1,8,0:0:0:0:
368,186,82530,1,8,0:0:0:0:
308,259,82634,1,8,0:0:0:0:
223,243,82737,6,0,B|305:237|305:237|352:262|352:262|428:255,1,210.000008010865,6|0,3:2|0:0,0:0:0:0:
426,255,83048,5,0,0:0:0:0:
402,86,83151,2,0,P|372:131|388:192,1,83.9999974365235,8|0,0:0|0:0,0:0:0:0:
169,115,83358,2,0,P|236:146|240:37,1,209.999993591309,2|2,0:0|3:2,0:0:0:0:
272,217,83772,2,0,P|242:133|252:43,2,181.999991668702,2|10|2,0:0|0:0|0:0,0:0:0:0:
106,60,84392,5,2,3:2:0:0:
336,133,84599,1,2,0:0:0:0:
108,277,84806,2,0,P|201:311|139:354,1,181.999991668702,10|2,0:0|0:0,0:0:0:0:
179,347,85117,1,0,0:0:0:0:
233,195,85220,1,2,3:2:0:0:
464,219,85427,6,0,L|496:221,1,28,10|0,3:0|0:0,0:0:0:0:
349,208,85633,2,0,L|381:210,1,28,10|0,3:0|0:0,0:0:0:0:
233,195,85841,2,0,L|265:197,1,28,2|0,0:0|0:0,0:0:0:0:
392,201,86048,6,0,L|169:220,1,210.000008010865,6|0,3:2|0:0,0:0:0:0:
86,230,86358,5,0,0:0:0:0:
73,86,86461,2,0,P|108:106|121:160,1,83.9999974365235,8|0,0:0|0:0,0:0:0:0:
51,324,86668,2,0,B|113:329|113:329|152:309|152:309|222:317,2,167.999994873047,2|2|2,0:0|3:2|0:0,0:0:0:0:
318,328,87289,1,10,0:0:0:0:
384,59,87496,5,10,0:0:0:0:
383,100,87599,1,0,0:0:0:0:
355,116,87703,2,0,L|256:107,1,83.9999974365235,2|0,3:2|0:0,0:0:0:0:
72,146,87910,2,0,P|100:92|127:77,1,83.9999974365235,2|0,0:0|0:0,0:0:0:0:
326,134,88117,2,0,B|243:145|243:145|237:150|237:150|160:161,1,167.999994873047,10|2,0:0|0:0,0:0:0:0:
96,231,88427,1,8,0:0:0:0:
234,194,88530,2,0,P|182:161|151:161,1,83.9999974365235,2|0,3:2|0:0,0:0:0:0:
227,322,88737,5,10,0:0:0:0:
241,331,88841,1,8,0:0:0:0:
254,340,88944,1,10,0:0:0:0:
347,323,89048,1,8,0:0:0:0:
360,231,89151,1,10,0:0:0:0:
275,189,89254,1,8,0:0:0:0:
207,243,89358,1,10,0:0:0:0:
207,243,89668,5,8,0:0:0:0:
215,251,89979,5,8,0:0:0:0:
215,251,90186,5,8,0:0:0:0:
187,26,90392,6,0,L|180:132,1,87.5
148,188,90599,6,0,B|141:137|141:137|147:131|147:131|140:82,1,105
0,3,91013,6,0,P|7:42|40:99,1,105.000004005432,6|0,3:2|0:0,0:0:0:0:
223,156,91220,1,2,0:0:0:0:
125,186,91323,2,0,P|109:210|114:303,1,105.000004005432,10|0,0:0|3:0,0:0:0:0:
230,367,91530,1,2,0:0:0:0:
70,370,91634,2,0,B|133:374|133:374|171:348|171:348|233:352,1,167.999994873047,10|0,0:0|3:0,0:0:0:0:
391,313,91944,1,0,0:0:0:0:
343,381,92048,2,0,P|311:335|310:295,1,83.9999974365235,2|8,0:0|0:0,0:0:0:0:
468,289,92255,2,0,P|445:252|410:231,1,83.9999974365235,2|0,3:2|0:0,0:0:0:0:
213,291,92461,2,0,P|236:241|271:220,1,83.9999974365235,10|0,0:0|0:0,0:0:0:0:
475,85,92668,5,2,3:2:0:0:
386,109,92771,2,0,L|476:100,1,83.9999974365235,2|0,0:0|0:0,0:0:0:0:
338,185,92979,2,0,P|321:160|271:133,2,83.9999974365235,10|0|2,0:0|3:0|0:0,0:0:0:0:
187,178,93289,5,10,0:0:0:0:
245,304,93392,2,0,P|258:276|256:219,1,83.9999974365235,2|0,0:0|3:0,0:0:0:0:
338,185,93599,2,0,P|321:160|271:133,1,83.9999974365235,2|8,0:0|3:0,0:0:0:0:
187,178,93806,1,10,0:0:0:0:
210,10,93910,2,0,B|215:66|215:66|189:106|189:106|193:172,1,167.999994873047,10|10,3:0|0:0,0:0:0:0:
2,115,94323,6,0,P|31:152|90:157,1,83.9999974365235,2|2,3:2|0:0,0:0:0:0:
145,122,94530,1,2,0:0:0:0:
162,326,94634,2,0,B|180:306|180:306|162:217,1,83.9999974365235,8|2,0:0|3:0,0:0:0:0:
91,276,94841,1,2,0:0:0:0:
322,344,94944,2,0,B|361:253|303:174|303:174|272:163|213:218,1,251.999992309571,10|0,0:0|0:0,0:0:0:0:
459,90,95358,6,0,L|467:0,1,83.9999974365235,2|8,0:0|0:0,0:0:0:0:
343,199,95565,2,0,L|334:108,1,83.9999974365235,2|0,3:2|0:0,0:0:0:0:
504,301,95772,2,0,L|512:210,1,83.9999974365235,10|0,0:0|0:0,0:0:0:0:
333,310,95979,5,2,3:2:0:0:
346,313,96082,2,0,P|376:284|417:282,1,83.9999974365235,2|0,0:0|0:0,0:0:0:0:
228,302,96289,1,10,0:0:0:0:
234,314,96392,1,0,3:0:0:0:
163,171,96496,2,0,L|154:271,2,83.9999974365235,2|10|2,0:0|0:0|0:0,0:0:0:0:
46,41,96806,5,2,3:2:0:0:
59,70,96910,1,2,0:0:0:0:
90,80,97013,2,0,L|182:71,1,83.9999974365235,8|8,3:0|0:0,0:0:0:0:
373,47,97220,1,10,3:0:0:0:
282,39,97323,1,8,0:0:0:0:
248,122,97427,1,8,0:0:0:0:
315,181,97530,1,8,0:0:0:0:
394,136,97634,6,0,B|354:146|354:146|367:226,1,105.000004005432,6|2,3:2|0:0,0:0:0:0:
382,321,97841,1,2,0:0:0:0:
478,317,97944,2,0,P|405:339|388:336,1,83.9999974365235,10|0,0:0|3:0,0:0:0:0:
184,317,98151,1,2,0:0:0:0:
175,299,98255,2,0,P|218:255|220:370,1,251.999992309571,10|0,0:0|0:0,0:0:0:0:
192,161,98668,2,0,B|209:142|209:142|202:66,1,83.9999974365235,2|8,0:0|0:0,0:0:0:0:
38,174,98875,2,0,P|63:141|106:127,1,83.9999974365235,2|0,3:2|0:0,0:0:0:0:
192,161,99082,2,0,P|231:174|256:207,1,83.9999974365235,10|0,0:0|0:0,0:0:0:0:
289,286,99289,6,0,P|305:179|322:157,1,97.9999970092774,2|2,3:2|0:0,0:0:0:0:
438,84,99495,1,2,0:0:0:0:
444,97,99599,2,0,B|427:115|427:115|350:106,1,83.9999974365235,10|0,0:0|3:0,0:0:0:0:
172,136,99806,1,2,0:0:0:0:
186,132,99910,2,0,P|155:88|278:83,1,251.999992309571,10|0,0:0|0:0,0:0:0:0:
264,259,100323,1,10,3:0:0:0:
285,167,100427,1,8,0:0:0:0:
160,236,100530,2,0,L|168:319,1,83.9999974365235,10|0,3:0|0:0,0:0:0:0:
77,90,100737,5,8,0:0:0:0:
86,110,100841,1,0,0:0:0:0:
104,118,100944,2,0,B|144:121|144:121|152:128|152:128|201:132,1,83.9999974365235,6|2,3:2|0:0,0:0:0:0:
306,142,101152,1,2,0:0:0:0:
323,61,101255,2,0,P|291:101|302:158,1,83.9999974365235,10|0,0:0|3:0,0:0:0:0:
423,354,101461,1,2,0:0:0:0:
438,342,101565,2,0,B|486:287|451:223|451:223|385:198|323:265,1,251.999992309571,10|0,0:0|0:0,0:0:0:0:
247,336,101979,6,0,P|278:339|331:363,1,83.9999974365235,2|8,0:0|0:0,0:0:0:0:
103,272,102186,2,0,P|127:252|177:240,1,83.9999974365235,2|0,3:2|0:0,0:0:0:0:
5,144,102392,2,0,P|34:154|92:155,1,83.9999974365235,10|0,0:0|0:0,0:0:0:0:
149,17,102599,6,0,B|167:36|167:36|161:106,1,83.9999974365235,6|0,3:2|0:0,0:0:0:0:
340,107,102806,1,2,0:0:0:0:
211,169,102910,2,0,B|252:148|256:104|256:104|290:133|342:118,1,167.999994873047,10|2,0:0|0:0,0:0:0:0:
429,45,103220,2,0,P|458:95|451:133,1,83.9999974365235,10|0,0:0|0:0,0:0:0:0:
372,223,103427,1,6,3:2:0:0:
392,342,103530,2,0,B|421:312|421:312|397:178,1,167.999994873047,2|10,0:0|0:0,0:0:0:0:
413,196,103841,5,10,0:0:0:0:
354,188,103944,1,10,0:0:0:0:
310,224,104048,1,10,0:0:0:0:
260,241,104151,1,10,0:0:0:0:
212,221,104255,1,14,0:0:0:0:
212,221,105082,6,0,L|140:208,1,70,8|0,0:0|0:0,0:0:0:0:
359,251,105392,2,0,L|287:238,1,70,8|0,0:0|0:0,0:0:0:0:
470,272,105703,2,0,L|431:265,1,35,8|0,0:0|0:0,0:0:0:0:
140,211,105910,5,14,0:0:0:0:
135,189,106737,6,0,L|62:201,1,70,8|0,0:0|0:0,0:0:0:0:
283,166,107048,2,0,L|210:178,1,70,8|0,0:0|0:0,0:0:0:0:
394,148,107358,2,0,L|354:154,1,35,10|0,0:0|0:0,0:0:0:0:
63,204,107565,5,14,0:0:0:0:
292,302,108392,6,0,L|304:374,1,70,8|0,0:0|0:0,0:0:0:0:
269,154,108703,2,0,L|281:226,1,70,8|0,0:0|0:0,0:0:0:0:
251,43,109013,2,0,L|257:82,1,35,10|0,0:0|0:0,0:0:0:0:
307,374,109220,5,14,0:0:0:0:
71,292,110048,6,0,L|58:364,1,70,8|0,0:0|0:0,0:0:0:0:
94,144,110358,2,0,L|81:216,1,70,8|0,0:0|0:0,0:0:0:0:
112,33,110669,2,0,L|105:72,1,35,8|0,0:0|0:0,0:0:0:0:
56,364,110876,5,12,0:0:0:0:
214,303,111082,2,0,P|182:300|142:313,1,70,2|2,0:0|0:0,0:0:0:0:
228,142,111289,1,10,0:0:0:0:
228,142,111496,6,0,P|215:171|215:213,1,70,2|0,0:0|0:0,0:0:0:0:
295,251,111703,2,0,P|341:263|355:177,1,140,10|0,0:0|0:0,0:0:0:0:
378,99,112013,2,0,P|346:102|309:123,1,70,10|0,0:0|3:0,0:0:0:0:
491,188,112220,1,2,0:0:0:0:
499,192,112323,2,0,P|479:166|443:145,1,70,10|0,0:0|0:0,0:0:0:0:
378,99,112530,5,8,0:0:0:0:
246,75,112737,5,2,0:0:0:0:
246,75,112841,1,2,0:0:0:0:
246,75,112944,2,0,B|298:72|298:72|342:100|342:100|405:97,1,140,10|2,0:0|0:0,0:0:0:0:
159,68,113254,1,0,0:0:0:0:
178,146,113357,2,0,P|158:118|149:84,1,70,10|2,0:0|0:0,0:0:0:0:
178,146,113668,6,0,P|158:118|149:84,1,70,10|0,0:0|3:0,0:0:0:0:
192,0,113875,1,2,0:0:0:0:
62,65,113979,2,0,P|76:33|101:9,1,70,10|0,0:0|0:0,0:0:0:0:
192,0,114186,5,8,0:0:0:0:
23,269,114392,5,2,0:0:0:0:
23,269,114496,1,2,0:0:0:0:
23,269,114599,2,0,B|16:199|16:199|10:191|10:191|4:129,1,140,10|2,0:0|0:0,0:0:0:0:
178,262,115013,6,0,P|150:242|116:233,1,70,10|2,0:0|0:0,0:0:0:0:
178,262,115323,6,0,P|150:242|116:233,1,70,10|0,0:0|3:0,0:0:0:0:
317,299,115530,1,2,0:0:0:0:
311,312,115634,2,0,P|278:321|243:317,1,70,10|0,0:0|0:0,0:0:0:0:
178,262,115841,5,8,0:0:0:0:
333,176,116048,5,2,0:0:0:0:
333,176,116152,1,2,0:0:0:0:
333,176,116255,2,0,B|403:169|403:169|411:163|411:163|473:157,1,140,10|2,0:0|0:0,0:0:0:0:
212,88,116668,6,0,P|242:121|256:165,1,70,10|2,0:0|0:0,0:0:0:0:
197,216,116875,1,10,0:0:0:0:
57,140,116979,1,10,0:0:0:0:
61,131,117082,2,0,P|104:121|149:131,1,70,0|8,0:0|0:0,0:0:0:0:
0,284,117289,2,0,P|13:241|44:207,1,70,8|8,0:0|0:0,0:0:0:0:
56,364,117496,5,6,3:2:0:0:
226,293,117599,2,0,B|193:296|193:296|130:281|130:281|89:285,1,140,2|10,0:0|0:0,0:0:0:0:
394,240,117909,1,2,3:2:0:0:
362,330,118013,2,0,P|333:310|308:210,1,140,2|2,0:0|0:0,0:0:0:0:
335,117,118323,1,2,3:2:0:0:
201,103,118427,2,0,B|235:112|250:147|250:147|285:122|318:130,1,140,2|10,0:0|0:0,0:0:0:0:
82,187,118737,2,0,P|117:193|158:180,1,70,2|0,3:2|0:0,0:0:0:0:
80,47,118944,2,0,P|92:81|124:110,1,70,10|0,0:0|0:0,0:0:0:0:
394,154,119151,6,0,B|343:168|300:127|300:127|261:87|193:104,1,210,2|8,3:2|0:0,0:0:0:0:
213,249,119565,2,0,P|233:204|231:158,1,70,0|0,3:0|0:0,0:0:0:0:
145,323,119772,2,0,P|108:290|64:277,1,70,10|0,0:0|0:0,0:0:0:0:
242,340,119979,2,0,L|311:333,1,70,2|0,3:2|0:0,0:0:0:0:
401,262,120186,6,0,L|368:260,1,28,8|8,3:0|0:0,0:0:0:0:
512,272,120392,2,0,L|480:270,1,28,8|0,3:0|0:0,0:0:0:0:
249,48,120599,2,0,P|265:84|270:127,1,70,10|0,0:0|0:0,0:0:0:0:
246,203,120806,5,2,3:2:0:0:
116,199,120910,2,0,B|181:204|181:204|187:212|187:212|271:219,1,140,0|10,0:0|0:0,0:0:0:0:
50,117,121220,1,2,3:2:0:0:
45,256,121323,2,0,P|26:200|82:113,1,140,2|2,0:0|0:0,0:0:0:0:
231,107,121634,1,2,3:2:0:0:
122,50,121737,2,0,B|152:70|156:106|156:106|185:82|225:91,1,140,2|10,0:0|0:0,0:0:0:0:
391,95,122048,2,0,P|363:122|307:137,1,70,2|0,3:2|0:0,0:0:0:0:
250,271,122255,2,0,P|240:233|255:177,1,70,10|0,0:0|0:0,0:0:0:0:
391,95,122461,6,0,P|363:122|307:137,1,70,2|0,3:2|0:0,0:0:0:0:
120,143,122668,2,0,B|102:76|145:37|145:37|192:50|224:91,1,210,10|0,0:0|0:0,0:0:0:0:
72,234,123082,2,0,P|45:212|27:183,1,70,10|0,0:0|0:0,0:0:0:0:
142,301,123289,2,0,L|211:294,1,70,2|0,3:2|0:0,0:0:0:0:
401,262,123496,6,0,L|368:260,1,28,8|8,3:0|0:0,0:0:0:0:
512,272,123702,2,0,L|480:270,1,28,8|8,3:0|0:0,0:0:0:0:
320,173,123910,5,10,0:0:0:0:
189,194,124013,1,8,0:0:0:0:
207,210,124117,1,6,3:2:0:0:
246,76,124220,2,0,B|240:141|240:141|232:147|232:147|225:231,1,140,2|10,0:0|0:0,0:0:0:0:
146,96,124530,1,2,3:2:0:0:
48,133,124634,2,0,P|101:156|159:88,1,140,0|2,0:0|0:0,0:0:0:0:
229,284,124944,1,2,3:2:0:0:
109,311,125048,2,0,B|145:299|158:263|158:263|181:293|217:295,1,140,2|10,0:0|0:0,0:0:0:0:
317,203,125358,2,0,P|343:250|374:272,1,70,2|0,3:2|0:0,0:0:0:0:
447,112,125565,2,0,P|418:158|414:196,1,70,10|0,0:0|0:0,0:0:0:0:
311,16,125772,6,0,P|339:62|343:100,1,70,2|0,3:2|0:0,0:0:0:0:
254,79,125979,2,0,B|183:85|183:85|116:53|116:53|52:59,1,210,2|0,0:0|0:0,0:0:0:0:
127,205,126392,2,0,P|98:158|94:120,1,70,10|0,0:0|0:0,0:0:0:0:
380,21,126599,2,0,L|310:15,1,70,2|0,3:2|0:0,0:0:0:0:
135,50,126806,6,0,L|167:48,1,28,10|8,3:0|0:0,0:0:0:0:
24,60,127013,2,0,L|56:58,1,28,8|0,3:0|0:0,0:0:0:0:
197,273,127220,2,0,P|218:245|228:212,1,70,10|0,0:0|0:0,0:0:0:0:
236,104,127427,6,0,P|200:136|296:151,1,210.000008010865,6|0,3:2|3:0,0:0:0:0:
183,108,128048,6,0,L|239:103,1,52.5000020027161,10|0,0:0|0:0,0:0:0:0:
360,47,128255,2,0,L|307:42,1,52.5000020027161,2|0,3:2|0:0,0:0:0:0:
165,88,128461,2,0,L|217:83,1,52.5000020027161,2|8,0:0|0:0,0:0:0:0:
384,30,128668,2,0,L|332:26,1,52.5000020027161,2|0,3:2|0:0,0:0:0:0:
497,108,128875,2,0,L|445:104,1,52.5000020027161,10|0,0:0|0:0,0:0:0:0:
278,230,129082,6,0,P|283:186|296:159,1,70,6|0,3:2|0:0,0:0:0:0:
417,335,129289,1,0,0:0:0:0:
481,270,129392,2,0,B|466:231|466:231|353:221,1,140,8|0,0:0|0:0,0:0:0:0:
201,266,129703,2,0,P|222:293|251:312,1,70,8|0,0:0|0:0,0:0:0:0:
133,196,129910,6,0,P|100:181|75:182,2,46.6666666666667,2|0|0,3:2|0:0|0:0,0:0:0:0:
30,230,130117,2,0,L|123:221,1,70,8|8,0:0|0:0,0:0:0:0:
284,168,130323,101,10,0:0:0:0:
197,128,130427,1,8,0:0:0:0:
133,196,130530,1,8,0:0:0:0:
179,279,130633,1,8,0:0:0:0:
266,274,130737,6,0,B|191:280|191:280|138:315|138:315|43:324,1,210,6|0,3:2|0:0,0:0:0:0:
369,304,131358,5,0,3:0:0:0:
344,207,131565,2,0,P|372:258|359:322,1,105.000004005432,8|0,0:0|3:0,0:0:0:0:
297,121,131875,2,0,P|354:110|411:142,1,105.000004005432
134,65,132186,5,0,3:0:0:0:
191,153,132289,1,0,3:0:0:0:
244,61,132392,2,0,B|212:93|212:93|231:233,1,167.999994873047,8|0,0:0|0:0,0:0:0:0:
251,384,132703,1,8,0:0:0:0:
123,129,133220,6,0,P|133:147|136:180,1,35,10|0,0:0|0:0,0:0:0:0:
160,167,133324,6,0,P|159:187|145:218,1,35
185,226,133428,6,0,P|174:243|145:261,1,35,10|0,0:0|0:0,0:0:0:0:
185,294,133531,6,0,P|166:304|126:306,1,35,8|0,0:0|0:0,0:0:0:0:
64,324,133634,6,0,P|70:290|87:260,2,70,10|8|10,0:0|0:0|0:0,0:0:0:0:
232,366,133944,1,8,0:0:0:0:
383,278,134048,6,0,B|339:315|339:315|329:169,1,195.999994018555,6|0,3:2|0:0,0:0:0:0:
319,17,134358,1,8,0:0:0:0:
411,88,134461,2,0,B|291:98|291:98|281:86|281:86|144:98,1,251.999992309571,2|8,3:2|0:0,0:0:0:0:
165,96,134772,1,0,0:0:0:0:
32,248,134875,5,2,3:2:0:0:
21,238,134979,2,0,P|46:178|124:222,1,125.999996154785,2|0,0:0|0:0,0:0:0:0:
242,270,135186,6,0,L|142:261,1,97.9999970092774,10|0,0:0|3:0,0:0:0:0:
314,229,135392,1,2,0:0:0:0:
301,343,135496,2,0,P|329:293|318:220,1,97.9999970092774,10|0,0:0|0:0,0:0:0:0:
188,89,135703,6,0,P|170:141|277:133,1,195.999994018555,2|0,3:2|0:0,0:0:0:0:
343,5,136013,1,8,0:0:0:0:
270,36,136117,2,0,B|296:78|296:78|427:93|427:93|466:45,1,224,2|8,3:2|0:0,0:0:0:0:
13,221,136530,6,0,P|63:182|64:289,1,195.999994018555,2|0,3:2|0:0,0:0:0:0:
25,356,136841,1,8,0:0:0:0:
255,300,136944,6,0,L|223:298,1,28,2|0,3:2|0:0,0:0:0:0:
366,310,137151,2,0,L|334:308,1,28,10|0,0:0|0:0,0:0:0:0:
454,120,137358,6,0,B|405:118|405:118|428:259,1,181.999991668702,2|0,3:2|0:0,0:0:0:0:
426,249,137668,1,8,0:0:0:0:
143,249,137772,2,0,B|162:199|235:178|265:207|265:207|231:203|210:219,1,181.999991668702,2|8,3:2|0:0,0:0:0:0:
20,191,138082,1,0,0:0:0:0:
142,50,138186,2,0,B|122:73|122:73|132:154,1,90.9999958343508,2|2,3:2|0:0,0:0:0:0:
143,249,138392,1,0,0:0:0:0:
319,263,138496,2,0,B|294:280|294:280|175:247|175:247|123:273,1,181.999991668702,10|0,0:0|0:0,0:0:0:0:
102,349,138806,2,0,P|69:324|54:266,1,90.9999958343508,10|0,0:0|0:0,0:0:0:0:
129,132,139013,6,0,L|213:144,1,70,2|0,3:2|0:0,0:0:0:0:
150,260,139220,5,8,0:0:0:0:
214,128,139323,1,8,0:0:0:0:
383,199,139427,2,0,L|300:207,1,70,2|0,3:2|0:0,0:0:0:0:
397,26,139634,1,8,0:0:0:0:
397,26,139841,6,0,L|390:109,1,70,2|0,3:2|0:0,0:0:0:0:
313,205,140048,1,8,0:0:0:0:
198,123,140152,1,8,0:0:0:0:
102,241,140255,101,10,0:0:0:0:
193,216,140359,1,8,0:0:0:0:
198,123,140462,1,8,0:0:0:0:
110,89,140565,1,8,0:0:0:0:
47,148,140669,6,0,B|70:118|70:118|56:6,1,140,6|0,3:2|0:0,0:0:0:0:
251,78,140979,1,8,0:0:0:0:
255,87,141082,2,0,P|210:120|190:123,1,70,0|0,3:0|0:0,0:0:0:0:
275,264,141289,2,0,P|243:218|241:198,1,70,10|0,0:0|0:0,0:0:0:0:
504,274,141496,2,0,P|480:324|464:336,1,70,2|0,3:2|0:0,0:0:0:0:
336,198,141703,2,0,P|331:142|339:124,1,70,2|8,0:0|0:0,0:0:0:0:
413,255,141910,2,0,P|367:286|347:288,1,70,2|0,3:2|0:0,0:0:0:0:
424,167,142117,2,0,P|474:190|486:206,1,70,10|0,0:0|0:0,0:0:0:0:
259,90,142323,6,0,P|303:56|323:53,1,70,2|0,3:2|0:0,0:0:0:0:
216,175,142530,1,2,0:0:0:0:
144,132,142634,1,8,0:0:0:0:
144,58,142737,2,0,P|169:92|174:198,1,140,2|10,3:2|0:0,0:0:0:0:
120,276,143048,1,0,0:0:0:0:
31,287,143152,2,0,L|107:293,1,70,2|0,3:2|0:0,0:0:0:0:
254,355,143358,6,0,L|222:357,1,28,10|8,3:0|0:0,0:0:0:0:
365,345,143565,2,0,L|333:347,1,28,10|0,3:0|0:0,0:0:0:0:
278,195,143772,2,0,P|262:224|255:276,1,70,10|0,0:0|0:0,0:0:0:0:
401,174,143979,2,0,B|471:134|459:62|418:57|367:55|341:99|400:213,1,280,6|0,3:2|3:0,0:0:0:0:
389,191,144599,6,0,L|474:183,1,70,10|0,0:0|0:0,0:0:0:0:
291,93,144806,6,0,B|277:111|277:111|204:106,1,70,2|0,3:2|0:0,0:0:0:0:
79,19,145013,1,2,0:0:0:0:
111,33,145117,1,8,0:0:0:0:
122,63,145220,2,0,L|114:151,1,70,2|0,3:2|0:0,0:0:0:0:
50,292,145427,2,0,P|42:250|59:199,1,70,10|0,0:0|0:0,0:0:0:0:
337,183,145634,22,0,B|370:129|316:44|246:53|246:53|285:64|296:108,1,251.999992309571,2|0,3:2|0:0,0:0:0:0:
181,191,145944,6,0,B|109:234|121:306|162:311|213:313|239:269|180:155,1,293.999991027832,10|0,0:0|0:0,0:0:0:0:
95,142,146255,6,0,B|247:155|247:155|255:163|255:163|417:177,1,322.000006141663,10|0,0:0|3:0,0:0:0:0:
412,176,146668,5,10,0:0:0:0:
396,197,146772,1,8,0:0:0:0:
339,149,146875,1,10,0:0:0:0:
271,206,146979,1,8,0:0:0:0:
198,115,147082,1,10,0:0:0:0:
105,231,147186,1,8,0:0:0:0:
65,58,147289,6,0,P|113:110|94:271,1,210.000008010865,6|8,3:2|0:0,0:0:0:0:
36,319,147599,1,0,0:0:0:0:
246,336,147702,2,0,L|140:345,1,105.000004005432,2|0,3:2|0:0,0:0:0:0:
303,232,147910,5,8,0:0:0:0:
303,267,148013,1,2,0:0:0:0:
335,285,148117,2,0,L|441:295,1,105.000004005432,2|2,3:2|0:0,0:0:0:0:
248,347,148323,1,8,0:0:0:0:
199,145,148427,1,10,0:0:0:0:
205,261,148530,2,0,L|215:138,1,105.000004005432,0|2,3:0|0:0,0:0:0:0:
71,37,148737,5,10,0:0:0:0:
82,47,148841,1,0,0:0:0:0:
91,55,148944,2,0,B|71:73|71:73|179:65,1,105.000004005432,2|0,3:2|0:0,0:0:0:0:
365,84,149151,2,0,P|328:43|278:30,1,105.000004005432,8|0,0:0|0:0,0:0:0:0:
124,201,149358,2,0,P|178:189|214:152,1,105.000004005432,2|0,3:2|0:0,0:0:0:0:
365,84,149565,2,0,P|328:43|278:30,1,105.000004005432,8|0,0:0|0:0,0:0:0:0:
282,212,149772,2,0,P|298:159|284:109,1,105.000004005432,2|0,3:2|0:0,0:0:0:0:
148,67,149979,5,8,0:0:0:0:
46,151,150082,1,8,0:0:0:0:
15,37,150186,2,0,L|26:168,1,105.000004005432,2|0,3:2|0:0,0:0:0:0:
39,280,150392,5,10,0:0:0:0:
124,176,150496,1,8,0:0:0:0:
169,314,150599,2,0,B|173:255|173:255|-3:239,1,210.000008010865,2|8,3:2|0:0,0:0:0:0:
383,253,151013,22,0,B|409:248|420:209|420:209|429:279|344:333|290:300,1,251.999992309571,2|8,3:2|0:0,0:0:0:0:
291,300,151323,1,2,0:0:0:0:
231,209,151427,1,2,3:2:0:0:
333,169,151530,1,2,0:0:0:0:
344,181,151633,2,0,L|239:190,1,105.000004005432,8|10,0:0|0:0,0:0:0:0:
139,133,151841,1,0,3:0:0:0:
150,121,151944,2,0,L|45:111,1,105.000004005432,2|10,0:0|0:0,0:0:0:0:
228,178,152151,1,0,0:0:0:0:
239,190,152255,6,0,L|326:183,1,83.9999974365235,2|0,3:2|0:0,0:0:0:0:
270,59,152462,5,8,0:0:0:0:
333,169,152565,1,8,0:0:0:0:
499,131,152669,2,0,L|409:119,1,83.9999974365235,2|0,3:2|0:0,0:0:0:0:
348,288,152875,5,8,0:0:0:0:
358,294,152979,1,8,0:0:0:0:
369,303,153082,1,10,0:0:0:0:
368,257,153186,1,8,0:0:0:0:
342,223,153290,1,8,0:0:0:0:
298,219,153393,1,8,0:0:0:0:
258,242,153497,1,10,0:0:0:0:
234,285,153600,1,8,0:0:0:0:
191,367,153703,1,8,0:0:0:0:
97,381,153807,1,8,0:0:0:0:
39,306,153910,6,0,B|6:253|61:168|131:177|131:177|92:188|87:214,1,251.999992309571,6|0,3:2|0:0,0:0:0:0:
87,213,154323,1,8,0:0:0:0:
87,213,154530,6,0,L|79:130,1,83.9999974365235,2|0,0:0|0:0,0:0:0:0:
278,102,154737,2,0,P|211:133|207:24,1,209.999993591309,2|2,3:2|0:0,0:0:0:0:
293,7,155047,1,0,0:0:0:0:
373,202,155151,2,0,B|360:65|360:65|403:19,2,181.999991668702,10|2|2,0:0|0:0|3:2,0:0:0:0:
110,313,155772,5,2,0:0:0:0:
407,374,155979,1,10,0:0:0:0:
278,102,156186,1,2,0:0:0:0:
110,313,156393,1,2,3:2:0:0:
110,313,156599,6,0,L|108:345,1,28,10|0,3:0|0:0,0:0:0:0:
121,198,156806,2,0,L|119:230,1,28,10|0,3:0|0:0,0:0:0:0:
134,82,157013,2,0,L|132:114,1,28,2|0,0:0|0:0,0:0:0:0:
128,241,157220,6,0,L|109:18,1,210.000008010865,6|0,3:2|0:0,0:0:0:0:
34,125,157530,1,0,0:0:0:0:
295,137,157634,2,0,B|272:163|272:163|181:151,1,105.000004005432,8|0,0:0|0:0,0:0:0:0:
374,40,157841,2,0,P|329:131|348:244,2,210.000008010865,2|2|2,0:0|3:2|0:0,0:0:0:0:
231,69,158358,1,0,0:0:0:0:
238,80,158461,2,0,P|284:113|297:149,1,83.9999974365235,10|0,0:0|0:0,0:0:0:0:
97,63,158668,2,0,P|142:29|180:28,1,83.9999974365235,10|0,0:0|0:0,0:0:0:0:
146,260,158875,6,0,B|180:238|180:238|161:98,1,167.999994873047,2|0,3:2|0:0,0:0:0:0:
228,311,159186,1,0,0:0:0:0:
342,357,159289,6,0,P|324:289|237:307,1,167.999994873047,10|0,0:0|0:0,0:0:0:0:
510,235,159599,1,8,0:0:0:0:
418,151,159703,2,0,L|429:324,1,167.999994873047,2|8,3:2|0:0,0:0:0:0:
428,318,160013,1,8,0:0:0:0:
452,237,160116,1,8,0:0:0:0:
404,169,160219,1,8,0:0:0:0:
320,163,160323,1,10,0:0:0:0:
263,225,160426,1,8,0:0:0:0:
280,310,160530,6,0,B|317:270|317:270|135:238|135:238|151:288,1,280,14|0,0:0|0:0,0:0:0:0:
236,151,160841,1,2,0:0:0:0:
228,141,160944,2,0,B|223:86|223:86|230:79|230:79|224:24,1,105.000004005432,8|0,0:0|0:0,0:0:0:0:
307,116,161151,5,2,0:0:0:0:
307,116,161358,2,0,P|259:209|306:348,1,251.999992309571,10|0,0:0|0:0,0:0:0:0:
127,230,161668,2,0,B|184:224|184:224|260:253|260:253|335:246,1,210.000008010865,10|0,0:0|0:0,0:0:0:0:
472,191,161979,2,0,P|468:225|463:298,1,105.000004005432,10|0,0:0|0:0,0:0:0:0:
307,116,162186,6,0,B|359:132|359:132|404:70,1,105.000004005432,10|0,0:0|0:0,0:0:0:0:
314,14,162392,1,2,0:0:0:0:
199,44,162496,1,0,0:0:0:0:
205,25,162599,2,0,B|233:79|233:79|196:293|196:293|222:367,1,315.000012016297,10|0,0:0|0:0,0:0:0:0:
231,324,163013,1,10,0:0:0:0:
169,233,163117,2,0,L|65:246,1,105.000004005432
396,230,163323,2,0,P|316:264|328:179,1,210.000008010865,8|0,0:0|0:0,0:0:0:0:
485,59,163634,2,0,B|443:93|443:93|386:70,1,105.000004005432,10|0,0:0|0:0,0:0:0:0:
218,151,163841,6,0,B|175:86|212:-1|212:-1|286:26,1,210.000008010865,10|0,0:0|0:0,0:0:0:0:
259,16,164151,1,2,0:0:0:0:
117,114,164255,2,0,B|140:87|140:87|286:104|286:104|321:79,1,210.000008010865,8|2,0:0|0:0,0:0:0:0:
105,10,164565,1,0,0:0:0:0:
54,180,164668,6,0,P|24:139|25:88,1,105.000004005432,10|0,0:0|0:0,0:0:0:0:
77,337,164875,1,2,0:0:0:0:
98,338,164979,2,0,P|125:294|120:243,1,105.000004005432,10|0,0:0|3:0,0:0:0:0:
105,243,165186,1,0,0:0:0:0:
217,277,165289,1,10,0:0:0:0:
296,201,165392,1,0,0:0:0:0:
308,316,165496,6,0,B|263:286|263:286|269:112,1,210.000008010865,10|10,0:0|0:0,0:0:0:0:
104,74,165806,6,0,P|146:138|175:44,1,210,10|10,0:0|0:0,0:0:0:0:
91,308,166323,6,0,L|180:300,1,70,2|0,3:2|0:0,0:0:0:0:
204,222,166530,5,8,0:0:0:0:
217,227,166634,1,8,0:0:0:0:
288,271,166737,1,10,0:0:0:0:
309,257,166841,1,8,0:0:0:0:
385,199,166944,5,8,0:0:0:0:
465,269,167048,1,8,0:0:0:0:
449,379,167151,2,0,P|424:321|458:172,1,210.000008010865,10|0,0:0|0:0,0:0:0:0:
309,257,167461,1,2,0:0:0:0:
326,270,167565,2,0,P|386:265|414:240,1,83.9999974365235,8|0,0:0|0:0,0:0:0:0:
191,217,167772,2,0,P|214:272|244:289,1,83.9999974365235,2|0,0:0|0:0,0:0:0:0:
250,127,167979,6,0,B|149:135|149:135|144:144|144:144|39:153,1,210.000008010865,10|0,0:0|0:0,0:0:0:0:
153,97,168289,1,10,0:0:0:0:
278,211,168392,6,0,L|346:217,1,52.5000020027161,0|0,3:0|0:0,0:0:0:0:
59,188,168599,2,0,L|127:194,1,52.5000020027161,10|0,0:0|0:0,0:0:0:0:
226,28,168806,6,0,P|252:102|249:130,1,105.000004005432,10|0,0:0|0:0,0:0:0:0:
203,299,169013,1,2,0:0:0:0:
43,223,169117,2,0,B|195:210|195:210|203:214|203:214|373:198,1,315.000012016297,2|2,0:0|0:0,0:0:0:0:
83,44,169634,6,0,P|71:129|153:83,1,210.000008010865,10|0,0:0|0:0,0:0:0:0:
330,47,169944,2,0,B|286:39|242:82|242:82|224:19|169:11,1,181.999991668702,10|0,0:0|0:0,0:0:0:0:
355,199,170255,2,0,B|314:171|315:117,1,77.0000023498536,10|0,0:0|0:0,0:0:0:0:
458,306,170461,6,0,P|396:240|256:275,1,210.000008010865,10|0,0:0|0:0,0:0:0:0:
164,341,170772,1,0,0:0:0:0:
151,246,170875,2,0,P|183:285|166:363,1,105.000004005432,8|0,0:0|0:0,0:0:0:0:
4,157,171082,1,0,0:0:0:0:
19,178,171186,1,0,0:0:0:0:
48,181,171289,2,0,B|86:177|86:177|115:161|115:161|165:156,2,105.000004005432,8|0|0,0:0|0:0|0:0,0:0:0:0:
201,87,171599,1,8,0:0:0:0:
231,195,171703,2,0,L|241:71,1,105.000004005432,2|0,3:2|0:0,0:0:0:0:
247,212,171910,2,0,L|257:88,1,105.000004005432,10|0,0:0|0:0,0:0:0:0:
464,40,172117,6,0,B|393:49|393:49|385:43|385:43|317:51,1,140,10|10,0:0|0:0,0:0:0:0:
497,116,172427,1,8,0:0:0:0:
417,257,172530,2,0,L|427:157,1,83.9999974365235,2|0,3:2|0:0,0:0:0:0:
247,25,172737,2,0,B|241:49|241:49|260:125,1,83.9999974365235,10|0,0:0|0:0,0:0:0:0:
240,238,172944,6,0,B|312:231|312:231|358:178|358:178|434:171,1,210.000008010865,2|10,3:2|0:0,0:0:0:0:
255,106,173255,1,8,0:0:0:0:
262,117,173358,5,10,0:0:0:0:
344,136,173461,1,8,0:0:0:0:
379,212,173564,1,10,0:0:0:0:
342,288,173668,1,8,0:0:0:0:
260,306,173772,6,0,B|323:311|323:311|332:318|332:318|398:323,1,140,6|0,3:2|0:0,0:0:0:0:
191,246,174082,5,8,0:0:0:0:
182,232,174186,2,0,P|161:279|170:330,1,105.000004005432,0|0,3:0|0:0,0:0:0:0:
436,247,174392,2,0,B|224:264|224:264|212:258|212:258|7:276,1,420.000016021729,10|2,0:0|0:0,0:0:0:0:
260,306,174910,1,8,0:0:0:0:
253,178,175013,2,0,P|212:147|167:144,1,90.9999958343508,2|0,3:2|0:0,0:0:0:0:
85,187,175220,6,0,P|96:184|10:137,1,272.999987503052,10|0,0:0|0:0,0:0:0:0:
124,347,175634,1,2,0:0:0:0:
114,319,175737,1,8,0:0:0:0:
90,309,175841,2,0,L|-18:318,1,90.9999958343508,2|0,3:2|0:0,0:0:0:0:
254,177,176048,6,0,L|462:197,1,210,10|0,0:0|0:0,0:0:0:0:
174,236,176461,6,0,L|146:237,1,28,10|8,3:0|0:0,0:0:0:0:
292,225,176669,2,0,L|264:226,1,28,10|0,3:0|0:0,0:0:0:0:
407,214,176875,2,0,L|379:215,1,28,10|0,0:0|0:0,0:0:0:0:
204,43,177082,6,0,P|180:63|155:114,1,77.0000023498536,2|0,3:2|0:0,0:0:0:0:
0,171,177289,1,2,0:0:0:0:
15,156,177392,2,0,P|44:161|92:193,1,77.0000023498536,10|0,0:0|3:0,0:0:0:0:
178,335,177598,1,2,0:0:0:0:
170,350,177703,2,0,P|156:262|230:344,1,231.000007049561,10|0,0:0|0:0,0:0:0:0:
250,297,178117,2,0,B|234:281|234:281|242:207,1,77.0000023498536,2|8,0:0|0:0,0:0:0:0:
312,72,178323,2,0,P|321:109|311:146,1,77.0000023498536,2|0,3:2|0:0,0:0:0:0:
134,117,178530,2,0,P|165:102|207:101,1,77.0000023498536,10|0,0:0|0:0,0:0:0:0:
387,227,178737,6,0,P|400:259|399:293,1,70,2|0,3:2|0:0,0:0:0:0:
208,292,178944,5,10,0:0:0:0:
283,285,179048,2,0,P|226:271|207:276,2,70,10|0|2,0:0|3:0|0:0,0:0:0:0:
77,378,179358,2,0,P|78:341|90:306,1,70,10|0,0:0|0:0,0:0:0:0:
181,56,179565,1,2,3:2:0:0:
210,155,179668,2,0,P|205:88|200:78,1,70,2|8,0:0|0:0,0:0:0:0:
54,225,179875,1,10,0:0:0:0:
67,229,179979,2,0,P|47:158|54:131,1,70,10|10,0:0|0:0,0:0:0:0:
224,320,180186,2,0,P|190:335|162:358,1,70,10|10,0:0|0:0,0:0:0:0:
310,170,180392,6,0,P|313:236|439:226,1,210.000008010865,6|8,3:2|0:0,0:0:0:0:
486,112,180703,1,8,0:0:0:0:
427,59,180806,2,0,B|399:88|399:88|417:167,1,105.000004005432,0|0,3:0|0:0,0:0:0:0:
504,297,181013,2,0,P|464:250|422:239,1,97.9999970092774,10|0,0:0|0:0,0:0:0:0:
294,350,181220,6,0,B|327:318|327:318|309:168,1,195.999994018555,0|2,3:0|0:0,0:0:0:0:
149,65,181530,1,8,0:0:0:0:
346,55,181634,2,0,B|270:61|270:61|246:80|246:80|168:87,1,181.999991668702,2|10,3:2|0:0,0:0:0:0:
430,345,182048,6,0,B|449:306|449:306|307:318,1,167.999994873047,2|2,3:2|0:0,0:0:0:0:
115,334,182358,1,8,0:0:0:0:
204,371,182461,2,0,P|196:288|123:238,1,154.000004699707,2|10,3:2|0:0,0:0:0:0:
429,83,182875,1,2,3:2:0:0:
429,83,183082,6,0,L|457:84,1,28,10|8,3:0|0:0,0:0:0:0:
311,72,183290,2,0,L|339:73,1,28,10|0,3:0|0:0,0:0:0:0:
111,40,183496,2,0,L|197:32,1,70,10|0,0:0|0:0,0:0:0:0:
48,105,183703,6,0,P|19:51|22:24,1,90.9999958343508,6|0,3:2|0:0,0:0:0:0:
111,193,183910,1,2,0:0:0:0:
117,205,184013,2,0,P|139:166|135:121,1,90.9999958343508,10|0,0:0|3:0,0:0:0:0:
48,105,184220,1,2,0:0:0:0:
224,181,184323,2,0,B|308:189|308:189|398:151|398:151|510:161,1,272.999987503052,10|0,0:0|0:0,0:0:0:0:
463,68,184737,2,0,P|410:104|397:138,1,90.9999958343508,2|8,0:0|0:0,0:0:0:0:
324,98,184944,2,0,P|328:161|351:190,1,90.9999958343508,2|0,3:2|0:0,0:0:0:0:
283,235,185151,2,0,P|340:262|376:257,1,90.9999958343508,10|0,0:0|0:0,0:0:0:0:
210,289,185358,6,0,L|107:297,1,90.9999958343508,6|0,3:2|0:0,0:0:0:0:
271,238,185565,1,2,0:0:0:0:
283,235,185668,6,0,P|304:274|303:319,1,90.9999958343508,8|2,0:0|3:2,0:0:0:0:
190,192,185875,1,0,0:0:0:0:
203,201,185979,6,0,P|201:156|223:116,1,90.9999958343508,10|0,0:0|0:0,0:0:0:0:
111,145,186186,1,4,3:2:0:0:
105,156,186290,6,0,P|60:154|21:131,1,90.9999958343508,0|10,0:0|0:0,0:0:0:0:
8,113,186496,5,8,0:0:0:0:
88,77,186599,1,10,0:0:0:0:
175,129,186703,1,8,0:0:0:0:
256,38,186806,1,10,0:0:0:0:
344,192,186910,1,8,0:0:0:0:
502,83,187013,6,0,B|511:170|452:262|452:262|396:364|474:406|528:385|564:296|504:246|408:238|353:106|402:19|402:19|380:64|332:85,1,795.199959958498,2|6,0:0|3:2,0:0:0:0:
451,168,199634,6,0,L|444:274,1,90.9999958343508,2|0,0:0|0:0,0:0:0:0:
412,330,199841,6,0,B|405:279|405:279|411:273|411:273|404:224,1,105
404,228,200255,5,10,0:0:0:0:
211,121,200358,2,0,B|232:154|232:154|342:167,1,122.500001168251,0|2,0:0|3:2,0:0:0:0:
315,165,200565,5,10,0:0:0:0:
99,248,200668,2,0,B|159:242|159:242|165:237|165:237|230:231,1,122.500001168251,0|2,0:0|3:2,0:0:0:0:
12,259,200875,6,0,B|161:272|161:272|169:268|169:268|336:284,1,314.999990386963,10|0,0:0|0:0,0:0:0:0:
224,304,201496,5,8,0:0:0:0:
205,318,201599,1,8,0:0:0:0:
79,232,201703,1,8,0:0:0:0:
99,248,201806,1,8,0:0:0:0:
99,287,203979,6,0,B|41:188|91:68|91:68|180:90,1,315.000012016297,6|2,3:2|0:0,0:0:0:0:
356,182,204392,2,0,L|366:78,1,105.000004005432,2|2,3:2|0:0,0:0:0:0:
443,138,204599,1,8,0:0:0:0:
280,181,204703,1,2,0:0:0:0:
186,80,204806,2,0,B|259:72|259:72|282:103,1,105.000004005432,0|2,3:0|0:0,0:0:0:0:
243,262,205013,5,10,0:0:0:0:
286,346,205117,1,0,0:0:0:0:
379,369,205220,2,0,P|330:317|182:309,1,210.000008010865,2|8,3:2|0:0,0:0:0:0:
59,258,205530,1,0,0:0:0:0:
96,137,205634,2,0,B|102:211|102:211|84:283|84:283|91:359,1,210.000008010865,2|8,3:2|0:0,0:0:0:0:
483,95,206048,6,0,P|395:138|397:55,1,210.000008010865,2|8,3:2|0:0,0:0:0:0:
390,60,206358,1,8,0:0:0:0:
213,62,206461,2,0,P|257:28|310:27,1,105.000004005432,2|0,3:2|0:0,0:0:0:0:
141,196,206668,2,0,P|122:143|138:92,1,105.000004005432,10|8,0:0|0:0,0:0:0:0:
225,349,206875,6,0,L|235:234,1,105.000004005432,2|0,3:2|0:0,0:0:0:0:
70,338,207082,2,0,B|66:301|66:301|148:292,1,105.000004005432,8|0,0:0|0:0,0:0:0:0:
333,231,207289,2,0,B|329:268|329:268|411:277,1,105.000004005432,2|0,3:2|0:0,0:0:0:0:
390,60,207496,2,0,P|416:96|404:168,1,105.000004005432,8|0,0:0|0:0,0:0:0:0:
223,154,207703,5,2,3:2:0:0:
219,144,207806,2,0,P|255:118|327:130,1,105.000004005432,2|8,0:0|0:0,0:0:0:0:
50,163,208013,1,10,0:0:0:0:
46,173,208116,2,0,P|82:198|154:186,1,105.000004005432,0|0,3:0|0:0,0:0:0:0:
219,144,208323,1,10,0:0:0:0:
305,245,208427,1,0,0:0:0:0:
476,216,208530,6,0,L|392:204,1,70,2|0,3:2|0:0,0:0:0:0:
452,83,208737,5,8,0:0:0:0:
388,215,208840,1,8,0:0:0:0:
219,144,208944,2,0,L|302:136,1,70,2|0,3:2|0:0,0:0:0:0:
147,61,209150,1,8,0:0:0:0:
106,242,209255,1,8,0:0:0:0:
93,235,209357,6,0,L|87:152,1,70,10|8,0:0|0:0,0:0:0:0:
188,263,209564,1,8,0:0:0:0:
295,172,209668,1,8,0:0:0:0:
401,281,209771,101,10,0:0:0:0:
308,264,209875,1,8,0:0:0:0:
295,172,209978,1,8,0:0:0:0:
380,130,210081,1,8,0:0:0:0:
447,183,210186,6,0,B|416:155|416:155|440:17,1,167.999994873047,6|0,3:2|0:0,0:0:0:0:
437,30,210496,1,0,0:0:0:0:
220,72,210599,2,0,L|308:79,1,77.0000023498536,8|0,0:0|0:0,0:0:0:0:
141,43,210806,2,0,L|52:50,1,77.0000023498536,2|0,0:0|0:0,0:0:0:0:
360,37,211013,6,0,L|448:29,1,77.0000023498536,2|0,3:2|0:0,0:0:0:0:
378,51,211220,2,0,L|466:43,1,77.0000023498536,2|0,0:0|0:0,0:0:0:0:
296,78,211427,2,0,L|207:70,1,77.0000023498536,10|0,0:0|0:0,0:0:0:0:
149,204,211634,2,0,B|164:189|164:189|154:120,1,77.0000023498536,2|0,0:0|0:0,0:0:0:0:
0,108,211841,6,0,P|78:102|61:45,1,154.000004699707,2|2,3:2|0:0,0:0:0:0:
134,210,212151,1,0,0:0:0:0:
222,193,212255,6,0,P|222:124|155:134,1,154.000004699707,10|2,0:0|0:0,0:0:0:0:
54,306,212565,1,0,0:0:0:0:
65,324,212668,2,0,L|148:331,1,77.0000023498536,2|0,3:2|0:0,0:0:0:0:
238,258,212875,6,0,L|206:260,1,28,10|0,3:0|0:0,0:0:0:0:
349,248,213082,2,0,L|317:250,1,28,10|0,3:0|0:0,0:0:0:0:
463,241,213289,2,0,L|431:243,1,28,2|0,0:0|0:0,0:0:0:0:
129,220,213496,6,0,B|275:232|275:232|283:228|283:228|452:244,1,308.000009399414,6|8,3:2|0:0,0:0:0:0:
434,242,214013,1,0,0:0:0:0:
352,163,214117,6,0,P|374:145|359:184,1,97.9999970092774,2|0,0:0|0:0,0:0:0:0:
263,301,214323,2,0,P|285:318|270:279,1,97.9999970092774,2|0,3:2|0:0,0:0:0:0:
194,154,214530,2,0,B|158:193|158:193|170:269,1,125.999996154785,2|0,0:0|0:0,0:0:0:0:
70,65,214737,2,0,P|141:108|166:272,2,251.999992309571,10|10|2,0:0|0:0|3:2,0:0:0:0:
461,68,215358,5,2,0:0:0:0:
341,162,215461,1,0,0:0:0:0:
315,73,215565,2,0,L|441:84,1,125.999996154785,10|0,0:0|0:0,0:0:0:0:
129,128,215772,2,0,B|153:146|153:146|250:135,1,125.999996154785,10|8,0:0|0:0,0:0:0:0:
42,189,215979,2,0,P|21:110|40:69,1,125.999996154785,2|0,3:2|0:0,0:0:0:0:
172,52,216186,5,10,0:0:0:0:
181,62,216289,1,8,0:0:0:0:
252,117,216392,1,10,0:0:0:0:
252,213,216496,1,8,0:0:0:0:
171,268,216599,1,8,0:0:0:0:
195,362,216703,1,8,0:0:0:0:
283,374,216806,2,0,B|216:379|216:379|131:343|131:343|68:347,1,210.000008010865,6|0,3:2|0:0,0:0:0:0:
14,281,217117,1,8,0:0:0:0:
85,133,217220,2,0,P|98:197|91:240,1,105.000004005432,2|0,3:2|0:0,0:0:0:0:
31,19,217427,6,0,P|90:45|134:47,1,105.000004005432,8|0,0:0|0:0,0:0:0:0:
216,0,217634,5,2,3:2:0:0:
277,171,217737,2,0,L|286:47,1,105.000004005432,2|0,0:0|0:0,0:0:0:0:
377,131,217944,2,0,P|345:85|287:181,1,210.000008010865,10|2,0:0|0:0,0:0:0:0:
59,152,218255,2,0,L|166:161,1,105.000004005432,10|0,0:0|0:0,0:0:0:0:
397,344,218461,6,0,B|357:316|357:316|365:213,1,140,2|0,3:2|0:0,0:0:0:0:
461,83,218772,1,8,0:0:0:0:
469,95,218875,6,0,P|427:154|373:124,1,140,2|8,3:2|0:0,0:0:0:0:
21,103,219289,5,2,3:2:0:0:
34,117,219392,1,0,0:0:0:0:
43,128,219496,2,0,B|47:190|47:190|53:200|53:200|59:271,2,140,10|10|10,3:0|3:0|0:0,0:0:0:0:
320,44,220117,6,0,P|275:37|276:131,1,167.999994873047,2|0,3:2|0:0,0:0:0:0:
274,130,220427,1,8,0:0:0:0:
128,151,220530,2,0,B|143:117|143:117|284:130,1,167.999994873047,0|8,3:0|0:0,0:0:0:0:
445,328,220944,6,0,P|472:308|485:256,2,83.9999974365235,2|2|2,3:2|0:0|0:0,0:0:0:0:
263,335,221255,2,0,P|305:286|363:288,1,125.999996154785,10|0,0:0|0:0,0:0:0:0:
226,241,221565,2,0,P|256:264|296:269,1,62.9999980773926,10|0,0:0|0:0,0:0:0:0:
114,337,221772,2,0,P|144:314|184:309,1,62.9999980773926,2|0,3:2|0:0,0:0:0:0:
108,224,221979,5,2,0:0:0:0:
108,224,222048,5,2,0:0:0:0:
108,224,222117,5,2,0:0:0:0:
108,224,222186,6,0,L|117:139,1,62.9999980773926,2|2,3:2|0:0,0:0:0:0:
128,58,222392,5,10,0:0:0:0:
128,58,222496,1,2,0:0:0:0:
167,41,222600,1,2,3:2:0:0:
206,58,222703,1,2,0:0:0:0:
229,99,222807,1,10,0:0:0:0:
228,149,222910,1,10,0:0:0:0:
226,241,223013,1,10,0:0:0:0:
300,300,223117,1,10,0:0:0:0:
387,264,223220,1,10,0:0:0:0:
403,171,223324,1,10,0:0:0:0:
326,112,223427,6,0,B|225:120|225:120|132:172|132:172|18:182,1,293.999991027832,6|8,3:2|0:0,0:0:0:0:
252,196,223841,2,0,B|269:222|271:255,1,62.9999980773926,2|0,3:2|0:0,0:0:0:0:
100,86,224048,2,0,P|111:57|133:33,1,62.9999980773926,8|2,0:0|0:0,0:0:0:0:
58,277,224255,6,0,P|122:332|159:255,1,195.999994018555,2|0,3:2|0:0,0:0:0:0:
342,187,224565,1,10,0:0:0:0:
349,201,224668,2,0,L|250:194,1,97.9999970092774,0|2,3:0|0:0,0:0:0:0:
62,262,224875,2,0,L|161:255,1,97.9999970092774,10|0,0:0|0:0,0:0:0:0:
433,58,225082,6,0,B|340:97|340:97|321:-18,1,195.999994018555,2|0,3:2|0:0,0:0:0:0:
360,188,225392,1,8,0:0:0:0:
193,245,225496,2,0,L|292:252,1,97.9999970092774,2|0,3:2|0:0,0:0:0:0:
91,221,225703,2,0,P|115:182|159:149,1,97.9999970092774,8|0,0:0|0:0,0:0:0:0:
172,62,225910,2,0,P|216:73|261:105,1,97.9999970092774,2|0,3:2|0:0,0:0:0:0:
238,328,226117,2,0,P|209:292|191:240,1,97.9999970092774,8|8,3:0|0:0,0:0:0:0:
350,68,226323,2,0,P|352:113|336:166,1,97.9999970092774,10|0,3:0|0:0,0:0:0:0:
396,235,226530,2,0,P|353:251|298:252,1,97.9999970092774,8|0,0:0|0:0,0:0:0:0:
128,184,226737,6,0,P|176:150|182:246,1,195.999994018555,6|0,3:2|0:0,0:0:0:0:
101,271,227048,1,8,0:0:0:0:
49,101,227151,2,0,B|100:128|100:128|91:278,1,195.999994018555,0|8,3:0|0:0,0:0:0:0:
494,81,227565,6,0,B|385:71|385:71|376:65|376:65|248:54,1,231.000007049561,0|8,3:0|0:0,0:0:0:0:
170,29,227979,2,0,B|159:51|167:77|167:77|145:55|91:49,1,77.0000023498536,0|0,3:0|0:0,0:0:0:0:
101,174,228186,5,10,0:0:0:0:
119,185,228289,1,2,0:0:0:0:
134,195,228392,5,6,3:2:0:0:
55,289,228530,1,2,0:0:0:0:
13,174,228668,1,2,0:0:0:0:
140,212,228806,5,2,3:2:0:0:
39,282,228944,1,2,0:0:0:0:
28,160,229082,1,2,0:0:0:0:
153,234,229220,5,2,3:2:0:0:
153,234,229427,5,8,0:0:0:0:
144,248,229531,1,8,0:0:0:0:
135,261,229634,1,10,0:0:0:0:
152,354,229738,1,8,0:0:0:0:
244,367,229841,1,8,0:0:0:0:
311,303,229944,1,8,0:0:0:0:
281,212,230048,6,0,B|249:235|249:235|266:102,1,154.000004699707,6|8,3:2|0:0,0:0:0:0:
276,27,230358,1,0,0:0:0:0:
361,46,230461,2,0,L|284:39,1,77.0000023498536,0|0,3:0|0:0,0:0:0:0:
108,75,230668,2,0,L|184:68,1,77.0000023498536,10|0,0:0|0:0,0:0:0:0:
16,37,230875,2,0,P|5:70|19:112,1,77.0000023498536,2|0,3:2|0:0,0:0:0:0:
148,229,231082,1,10,0:0:0:0:
89,161,231185,1,8,0:0:0:0:
2,215,231289,2,0,B|-37:222|-37:261|-18:281|9:273|21:246|19:178,1,154.000004699707,2|10,3:2|0:0,0:0:0:0:
364,325,231703,6,0,P|304:331|296:329,1,62.9999980773926,2|0,3:2|0:0,0:0:0:0:
459,280,231910,2,0,P|471:338|476:345,1,62.9999980773926,10|0,0:0|0:0,0:0:0:0:
406,167,232117,2,0,P|393:225|388:232,1,62.9999980773926,2|0,3:2|0:0,0:0:0:0:
235,198,232323,2,0,P|243:229|260:255,1,62.9999980773926,10|0,0:0|0:0,0:0:0:0:
282,127,232530,2,0,P|304:148|319:176,1,62.9999980773926,2|0,3:2|0:0,0:0:0:0:
158,79,232737,6,0,P|185:64|216:59,1,62.9999980773926,10|8,3:0|0:0,0:0:0:0:
58,151,232944,2,0,P|52:120|57:89,1,62.9999980773926,10|0,3:0|0:0,0:0:0:0:
95,277,233151,2,0,P|63:272|35:258,1,62.9999980773926,10|8,0:0|0:0,0:0:0:0:
0,327,233358,6,0,B|167:317|167:317|173:310|173:310|338:299,1,335.999989746094,2|0,3:2|3:0,0:0:0:0:
332,299,233979,6,0,P|250:334|140:246,2,238.00000453949,10|2|10,0:0|3:2|0:0,0:0:0:0:
390,169,234496,1,8,0:0:0:0:
427,274,234599,2,0,B|402:248|402:248|419:155,1,97.9999970092774,2|0,3:2|0:0,0:0:0:0:
512,59,234806,2,0,P|482:88|420:79,1,97.9999970092774,10|0,0:0|0:0,0:0:0:0:
279,68,235013,6,0,P|309:39|367:40,1,70,2|0,3:2|0:0,0:0:0:0:
217,161,235220,1,10,0:0:0:0:
211,147,235323,1,8,0:0:0:0:
200,135,235427,6,0,P|170:106|112:107,1,70,2|0,3:2|0:0,0:0:0:0:
135,22,235634,2,0,P|94:33|66:84,1,70,10|8,0:0|0:0,0:0:0:0:
3,86,235841,2,0,P|-4:53|6:20,1,70,10|8,0:0|0:0,0:0:0:0:
73,222,236048,5,10,0:0:0:0:
85,233,236152,1,8,0:0:0:0:
96,244,236255,1,10,0:0:0:0:
191,243,236359,1,8,0:0:0:0:
219,155,236462,1,10,0:0:0:0:
143,99,236565,1,8,0:0:0:0:
67,140,236669,1,14,0:0:0:0:
67,140,237289,6,0,L|142:134,1,62.9999980773926,2|0,0:0|0:0,0:0:0:0:
188,87,237703,2,0,P|204:115|210:140,2,41.9999987182618,2|2|2,0:0|0:0|0:0,0:0:0:0:
279,160,238323,2,0,P|262:188|256:213,1,41.9999987182618,2|2,0:0|0:0,0:0:0:0:
189,224,238737,2,0,P|205:252|224:270,1,41.9999987182618,2|2,0:0|0:0,0:0:0:0:
199,333,239151,2,0,P|231:333|256:325,2,41.9999987182618,2|2|2,0:0|0:0|0:0,0:0:0:0:
256,192,239979,12,0,242979,0:0:0:0:
351,186,243082,6,0,L|367:171,1,20.9999993591309
341,167,243289,2,0,L|334:210,1,42
