osu file format v14

[General]
AudioFilename: audio.mp3
AudioLeadIn: 0
PreviewTime: 177528
Countdown: 0
SampleSet: Drum
StackLeniency: 0
Mode: 0
LetterboxInBreaks: 0
WidescreenStoryboard: 0

[Editor]
Bookmarks: 82647,84093,85538,88430,89876,92767,104876
DistanceSpacing: 1
BeatDivisor: 4
GridSize: 32
TimelineZoom: 2.3

[Metadata]
Title:Zurukute Sugoi
TitleUnicode:ズルくてすごい
Artist:THE BINARY
ArtistUnicode:THE BINARY
Creator:Yugu
Version:there is no salvation.
Source:
Tags:jrock rock j-rock japanese mido あかまる Akamaru melon 一二三 123 hifumi hihumi みつきさなぎ mitsuki sanagi つづつ tsuzutsu サイトウ リョースケ saito ryosuke Carlos K. Grindle kanor Kuse ThunderBird2678 KuBsNia_ZhoYL_
BeatmapID:3246915
BeatmapSetID:1589600

[Difficulty]
HPDrainRate:6
CircleSize:4.8
OverallDifficulty:8.5
ApproachRate:9.3
SliderMultiplier:1.8
SliderTickRate:1

[Events]
//Background and Video events
0,0,"34617730_p0.jpg",0,0
//Break Periods
2,94232,98370
//Storyboard Layer 0 (Background)
//Storyboard Layer 1 (Fail)
//Storyboard Layer 2 (Pass)
//Storyboard Layer 3 (Foreground)
//Storyboard Layer 4 (Overlay)
//Storyboard Sound Samples

[TimingPoints]
57,361.44578313253,4,3,10,70,1,0
960,-100,4,3,1,70,0,0
1322,-100,4,3,10,70,0,0
1502,-83.3333333333333,4,3,1,75,0,0
1773,-83.3333333333333,4,3,1,10,0,0
1864,-83.3333333333333,4,3,1,75,0,0
2135,-83.3333333333333,4,3,1,10,0,0
2226,-83.3333333333333,4,3,1,75,0,0
2496,-83.3333333333333,4,3,1,10,0,0
2587,-83.3333333333333,4,3,1,75,0,0
2858,-83.3333333333333,4,3,1,10,0,0
2949,-83.3333333333333,4,3,1,75,0,0
4665,-83.3333333333333,4,3,1,10,0,0
4756,-83.3333333333333,4,3,1,75,0,0
5026,-83.3333333333333,4,3,1,10,0,0
5117,-83.3333333333333,4,3,1,75,0,0
5388,-83.3333333333333,4,3,1,10,0,0
5479,-83.3333333333333,4,3,1,75,0,0
5749,-83.3333333333333,4,3,1,10,0,0
5840,-83.3333333333333,4,3,1,75,0,0
6111,-83.3333333333333,4,3,1,10,0,0
6202,-83.3333333333333,4,3,1,75,0,0
7556,-83.3333333333333,4,3,1,10,0,0
7647,-83.3333333333333,4,3,1,75,0,0
7918,-83.3333333333333,4,3,1,10,0,0
8009,-83.3333333333333,4,3,1,75,0,0
8279,-83.3333333333333,4,3,1,10,0,0
8370,-83.3333333333333,4,3,1,75,0,0
8641,-83.3333333333333,4,3,1,10,0,0
8732,-83.3333333333333,4,3,1,75,0,0
10448,-83.3333333333333,4,3,1,10,0,0
10539,-83.3333333333333,4,3,1,75,0,0
11171,-83.3333333333333,4,3,1,10,0,0
11262,-83.3333333333333,4,3,1,75,0,0
11623,-83.3333333333333,4,2,1,75,0,0
13069,-83.3333333333333,4,3,1,75,0,0
13340,-83.3333333333333,4,3,1,10,0,0
13431,-83.3333333333333,4,3,1,75,0,0
13701,-83.3333333333333,4,3,1,10,0,0
13792,-83.3333333333333,4,3,1,75,0,0
14063,-83.3333333333333,4,3,1,10,0,0
14154,-83.3333333333333,4,3,1,75,0,0
14424,-83.3333333333333,4,3,1,10,0,0
14515,-83.3333333333333,4,3,1,75,0,0
16231,-83.3333333333333,4,3,1,10,0,0
16322,-83.3333333333333,4,3,1,75,0,0
16593,-83.3333333333333,4,3,1,10,0,0
16684,-83.3333333333333,4,3,1,75,0,0
16954,-83.3333333333333,4,3,1,10,0,0
17045,-83.3333333333333,4,3,1,75,0,0
17316,-83.3333333333333,4,3,1,10,0,0
17407,-83.3333333333333,4,3,1,75,0,0
17677,-83.3333333333333,4,3,1,10,0,0
17768,-83.3333333333333,4,3,1,75,0,0
19123,-83.3333333333333,4,3,1,10,0,0
19214,-83.3333333333333,4,3,1,75,0,0
19484,-83.3333333333333,4,3,1,10,0,0
19575,-83.3333333333333,4,3,1,75,0,0
19846,-83.3333333333333,4,3,1,10,0,0
19937,-83.3333333333333,4,3,1,75,0,0
20207,-83.3333333333333,4,3,1,10,0,0
20298,-83.3333333333333,4,3,1,75,0,0
22014,-83.3333333333333,4,3,1,10,0,0
22105,-83.3333333333333,4,3,1,75,0,0
22195,-83.3333333333333,4,3,1,10,0,0
22286,-83.3333333333333,4,3,1,75,0,0
22376,-83.3333333333333,4,3,1,10,0,0
22467,-83.3333333333333,4,3,1,75,0,0
24454,-83.3333333333333,4,2,1,75,0,0
24635,-125,4,2,1,60,0,0
30418,-125,4,2,1,65,0,0
33129,-125,4,2,10,65,0,0
33310,-125,4,2,1,65,0,0
33581,-125,4,2,1,10,0,0
33671,-125,4,2,1,65,0,0
34303,-125,4,2,1,10,0,0
34393,-125,4,2,1,65,0,0
35840,-200,4,2,10,65,0,0
36111,-200,4,2,10,10,0,0
36201,-83.3333333333333,4,3,1,70,0,0
36472,-83.3333333333333,4,3,1,10,0,0
36563,-83.3333333333333,4,3,1,70,0,0
36834,-83.3333333333333,4,3,1,10,0,0
36925,-83.3333333333333,4,3,1,70,0,0
37195,-83.3333333333333,4,3,1,10,0,0
37286,-83.3333333333333,4,3,1,70,0,0
37556,-83.3333333333333,4,3,1,10,0,0
37647,-83.3333333333333,4,3,1,70,0,0
39364,-83.3333333333333,4,3,1,10,0,0
39455,-83.3333333333333,4,3,1,70,0,0
39725,-83.3333333333333,4,3,1,10,0,0
39816,-83.3333333333333,4,3,1,70,0,0
40087,-83.3333333333333,4,3,1,10,0,0
40178,-83.3333333333333,4,3,1,70,0,0
40448,-83.3333333333333,4,3,1,10,0,0
40539,-83.3333333333333,4,3,1,70,0,0
40810,-83.3333333333333,4,3,1,10,0,0
40901,-83.3333333333333,4,3,1,70,0,0
42255,-83.3333333333333,4,3,1,10,0,0
42346,-83.3333333333333,4,3,1,70,0,0
42617,-83.3333333333333,4,3,1,10,0,0
42708,-83.3333333333333,4,3,1,70,0,0
42978,-83.3333333333333,4,3,1,10,0,0
43069,-83.3333333333333,4,3,1,70,0,0
43340,-83.3333333333333,4,3,1,10,0,0
43431,-83.3333333333333,4,3,1,70,0,0
45147,-83.3333333333333,4,3,1,10,0,0
45238,-83.3333333333333,4,3,1,70,0,0
45328,-83.3333333333333,4,3,1,10,0,0
45419,-83.3333333333333,4,3,1,70,0,0
45508,-83.3333333333333,4,3,1,10,0,0
45599,-83.3333333333333,4,3,1,70,0,0
47587,-83.3333333333333,4,2,10,70,0,0
47767,-100,4,2,1,65,0,0
56442,-100,4,2,1,70,0,0
56532,-100,4,2,1,10,0,0
56623,-100,4,2,1,70,0,0
56713,-100,4,2,1,10,0,0
56804,-100,4,2,1,70,0,0
56894,-100,4,2,1,10,0,0
56985,-100,4,2,1,70,0,0
57075,-100,4,2,1,10,0,0
57166,-100,4,2,1,70,0,0
58972,-166.666666666667,4,2,1,70,0,0
59243,-166.666666666667,4,2,1,10,0,0
59334,-71.4285714285714,4,3,1,75,0,0
69454,-71.4285714285714,4,2,1,75,0,0
70900,-71.4285714285714,4,3,1,75,0,0
76683,-100,4,2,1,70,0,0
82466,-83.3333333333333,4,3,1,75,0,0
82556,-83.3333333333333,4,3,1,10,0,0
82647,-83.3333333333333,4,3,1,75,0,0
82737,-83.3333333333333,4,3,1,10,0,0
82828,-83.3333333333333,4,3,1,75,0,0
82918,-83.3333333333333,4,3,1,10,0,0
83009,-83.3333333333333,4,3,1,75,0,0
83279,-83.3333333333333,4,3,1,10,0,0
83370,-83.3333333333333,4,3,1,75,0,0
84002,-83.3333333333333,4,3,1,10,0,0
84093,-83.3333333333333,4,3,1,75,0,0
84183,-83.3333333333333,4,3,1,10,0,0
84274,-83.3333333333333,4,3,1,75,0,0
84364,-83.3333333333333,4,3,1,10,0,0
84455,-83.3333333333333,4,3,1,75,0,0
84725,-83.3333333333333,4,3,1,10,0,0
84816,-83.3333333333333,4,3,1,75,0,0
85448,-83.3333333333333,4,3,1,10,0,0
85539,-83.3333333333333,4,3,1,75,0,0
85629,-83.3333333333333,4,3,1,10,0,0
85720,-83.3333333333333,4,3,1,75,0,0
85810,-83.3333333333333,4,3,1,10,0,0
85901,-83.3333333333333,4,3,1,75,0,0
86171,-83.3333333333333,4,3,1,10,0,0
86262,-83.3333333333333,4,3,1,75,0,0
86894,-83.3333333333333,4,3,1,10,0,0
86985,-83.3333333333333,4,3,1,75,0,0
87075,-83.3333333333333,4,3,1,10,0,0
87166,-83.3333333333333,4,3,1,75,0,0
87255,-83.3333333333333,4,3,1,10,0,0
87346,-83.3333333333333,4,3,1,75,0,0
87617,-83.3333333333333,4,3,1,10,0,0
87708,-83.3333333333333,4,3,1,75,0,0
87797,-83.3333333333333,4,3,1,10,0,0
87888,-83.3333333333333,4,3,1,75,0,0
87978,-83.3333333333333,4,3,1,10,0,0
88069,-83.3333333333333,4,3,1,75,0,0
88340,-83.3333333333333,4,3,1,10,0,0
88431,-83.3333333333333,4,3,1,75,0,0
88520,-83.3333333333333,4,3,1,10,0,0
88611,-83.3333333333333,4,3,1,75,0,0
88701,-83.3333333333333,4,3,1,10,0,0
88792,-83.3333333333333,4,3,1,75,0,0
89063,-83.3333333333333,4,3,1,10,0,0
89154,-83.3333333333333,4,3,1,75,0,0
89785,-83.3333333333333,4,3,1,10,0,0
89876,-83.3333333333333,4,3,1,75,0,0
89966,-83.3333333333333,4,3,1,10,0,0
90057,-83.3333333333333,4,3,1,75,0,0
90147,-83.3333333333333,4,3,1,10,0,0
90238,-83.3333333333333,4,3,1,75,0,0
90508,-83.3333333333333,4,3,1,10,0,0
90599,-83.3333333333333,4,3,1,75,0,0
91954,-83.3333333333333,4,3,1,10,0,0
92045,-83.3333333333333,4,3,1,75,0,0
92767,-83.3333333333333,4,3,1,45,0,0
93310,-83.3333333333333,4,3,1,70,0,0
94032,-83.3333333333333,4,2,1,60,0,0
99816,-125,4,2,1,65,0,0
102526,-125,4,2,10,65,0,0
102707,-125,4,2,1,65,0,0
105237,-100,4,2,1,65,0,0
105599,-100,4,2,1,70,0,0
114364,-100,4,2,1,10,0,0
114454,-100,4,2,1,70,0,0
114544,-100,4,2,1,10,0,0
114634,-100,4,2,1,70,0,0
114725,-100,4,2,1,10,0,0
114815,-100,4,2,1,70,0,0
114906,-100,4,2,1,10,0,0
114996,-100,4,2,1,70,0,0
117165,-71.4285714285714,4,3,1,75,0,0
127285,-71.4285714285714,4,2,1,75,0,0
128731,-71.4285714285714,4,3,1,75,0,0
134514,-100,4,2,1,70,0,0
134785,-100,4,2,1,10,0,0
134876,-100,4,2,10,70,0,0
135147,-100,4,2,10,10,0,0
135237,-100,4,2,10,70,0,0
135689,-100,4,2,10,10,0,0
135779,-100,4,2,10,70,0,0
136050,-100,4,2,10,10,0,0
136140,-100,4,2,10,70,0,0
136231,-100,4,2,10,10,0,0
136321,-100,4,2,10,70,0,0
137135,-100,4,2,10,10,0,0
137225,-100,4,2,10,70,0,0
138942,-100,4,2,10,10,0,0
139032,-100,4,2,10,70,0,0
139123,-100,4,2,10,10,0,0
139213,-100,4,2,10,70,0,0
139575,-62.5,4,2,10,70,0,0
139665,-62.5,4,2,10,10,0,0
139846,-62.5,4,2,10,70,0,0
139936,-62.5,4,2,10,10,0,0
140117,-71.4285714285714,4,2,10,70,0,0
140297,-71.4285714285714,4,3,1,75,0,0
145900,-71.4285714285714,4,3,10,75,0,0
146081,-71.4285714285714,4,3,1,75,0,0
148972,-71.4285714285714,4,3,1,80,0,0
149153,-100,4,3,1,80,0,0
150418,-71.4285714285714,4,3,1,80,0,0
150599,-71.4285714285714,4,3,10,80,0,0
150779,-71.4285714285714,4,3,1,80,0,0
151141,-71.4285714285714,4,3,10,80,0,0
151321,-71.4285714285714,4,3,1,80,0,0
151864,-125,4,2,1,65,0,0
163249,-125,4,2,10,65,0,0
163430,-125,4,2,1,65,0,0
172105,-83.3333333333333,4,2,1,70,0,0
172466,-83.3333333333333,4,2,1,10,0,0
172647,-83.3333333333333,4,2,1,70,0,0
173008,-83.3333333333333,4,2,1,10,0,0
173189,-62.5,4,2,1,70,0,0
173641,-62.5,4,2,1,10,0,0
174996,-62.5,4,2,1,70,0,0
177888,-71.4285714285714,4,3,1,80,0,0
187647,-100,4,3,1,80,0,0
188008,-71.4285714285714,4,2,1,80,0,0
189454,-71.4285714285714,4,3,1,80,0,0
195237,-100,4,2,1,75,0,0
196773,-100,4,2,1,10,0,0
196864,-100,4,2,1,75,0,0
197316,-100,4,2,1,10,0,0
197407,-100,4,2,1,75,0,0
199665,-100,4,2,1,10,0,0
199755,-100,4,2,1,75,0,0
200207,-100,4,2,1,10,0,0
200297,-100,4,2,1,75,0,0
201834,-100,4,2,1,10,0,0
201924,-100,4,2,1,75,0,0
202285,-100,4,2,10,75,0,0
202466,-71.4285714285714,4,2,1,75,0,0
202556,-71.4285714285714,4,2,1,10,0,0
202647,-71.4285714285714,4,2,1,75,0,0
202737,-71.4285714285714,4,2,1,10,0,0
203008,-71.4285714285714,4,2,1,75,0,0
203099,-71.4285714285714,4,2,1,10,0,0
203190,-71.4285714285714,4,2,1,75,0,0
203280,-71.4285714285714,4,2,1,10,0,0
203550,-71.4285714285714,4,2,1,75,0,0
203641,-71.4285714285714,4,2,1,10,0,0
203732,-71.4285714285714,4,2,1,75,0,0
203822,-71.4285714285714,4,2,1,10,0,0
205358,-100,4,2,1,75,0,0
205448,-100,4,2,1,10,0,0
205538,-100,4,2,1,75,0,0
205810,-100,4,2,1,10,0,0
205900,-100,4,2,1,75,0,0
206622,-100,4,2,10,65,0,0
206803,-83.3333333333333,4,3,1,70,0,0
207075,-83.3333333333333,4,3,1,10,0,0
207165,-83.3333333333333,4,3,1,70,0,0
207436,-83.3333333333333,4,3,1,10,0,0
207526,-83.3333333333333,4,3,1,70,0,0
207797,-83.3333333333333,4,3,1,10,0,0
207887,-83.3333333333333,4,3,1,70,0,0
208159,-83.3333333333333,4,3,1,10,0,0
208249,-83.3333333333333,4,3,1,70,0,0
209966,-83.3333333333333,4,3,1,10,0,0
210056,-83.3333333333333,4,3,1,70,0,0
210328,-83.3333333333333,4,3,1,10,0,0
210418,-83.3333333333333,4,3,1,70,0,0
210689,-83.3333333333333,4,3,1,10,0,0
210779,-83.3333333333333,4,3,1,70,0,0
211050,-83.3333333333333,4,3,1,10,0,0
211140,-83.3333333333333,4,3,1,70,0,0
211412,-83.3333333333333,4,3,1,10,0,0
211502,-83.3333333333333,4,3,1,70,0,0
212858,-83.3333333333333,4,3,1,10,0,0
212948,-83.3333333333333,4,3,1,70,0,0
213219,-83.3333333333333,4,3,1,10,0,0
213309,-83.3333333333333,4,3,1,70,0,0
213581,-83.3333333333333,4,3,1,10,0,0
213671,-83.3333333333333,4,3,1,70,0,0
213942,-83.3333333333333,4,3,1,10,0,0
214032,-83.3333333333333,4,3,1,70,0,0
215749,-83.3333333333333,4,3,1,10,0,0
215839,-83.3333333333333,4,3,1,70,0,0
215930,-83.3333333333333,4,3,1,10,0,0
216020,-83.3333333333333,4,3,1,70,0,0
216472,-83.3333333333333,4,3,1,10,0,0
216562,-83.3333333333333,4,3,1,70,0,0
216653,-83.3333333333333,4,3,1,10,0,0
216743,-83.3333333333333,4,3,1,70,0,0
216924,-83.3333333333333,4,2,1,70,0,0
218370,-83.3333333333333,4,3,1,70,0,0
218641,-83.3333333333333,4,3,1,10,0,0
218731,-83.3333333333333,4,3,1,70,0,0
219002,-83.3333333333333,4,3,1,10,0,0
219092,-83.3333333333333,4,3,1,70,0,0
219364,-83.3333333333333,4,3,1,10,0,0
219454,-83.3333333333333,4,3,1,70,0,0
219725,-83.3333333333333,4,3,1,10,0,0
219815,-83.3333333333333,4,3,1,70,0,0
221532,-83.3333333333333,4,3,1,10,0,0
221622,-83.3333333333333,4,3,1,70,0,0
221894,-83.3333333333333,4,3,1,10,0,0
221984,-83.3333333333333,4,3,1,70,0,0
222255,-83.3333333333333,4,3,1,10,0,0
222345,-83.3333333333333,4,3,1,70,0,0
222617,-83.3333333333333,4,3,1,10,0,0
222707,-83.3333333333333,4,3,1,70,0,0
222978,-83.3333333333333,4,3,1,10,0,0
223068,-83.3333333333333,4,3,1,70,0,0
224424,-83.3333333333333,4,3,1,10,0,0
224514,-83.3333333333333,4,3,1,70,0,0
224785,-83.3333333333333,4,3,1,10,0,0
224875,-83.3333333333333,4,3,1,70,0,0
225147,-83.3333333333333,4,3,1,10,0,0
225237,-83.3333333333333,4,3,1,70,0,0
225508,-83.3333333333333,4,3,1,10,0,0
225598,-83.3333333333333,4,3,1,70,0,0
227316,-83.3333333333333,4,3,1,10,0,0
227406,-83.3333333333333,4,3,1,70,0,0
227496,-83.3333333333333,4,3,1,10,0,0
227586,-83.3333333333333,4,3,1,70,0,0
227677,-83.3333333333333,4,3,1,10,0,0
227767,-83.3333333333333,4,3,1,70,0,0

[Colours]
Combo1 : 217,217,217
Combo2 : 255,66,114
Combo3 : 240,138,83
Combo4 : 85,85,85

[HitObjects]
132,64,779,5,4,1:3:0:0:
135,68,869,1,0,0:0:0:0:
138,72,959,1,2,0:2:0:0:
141,76,1050,1,8,0:0:0:0:
144,80,1141,2,0,L|156:27,2,45,8|8|8,0:0|0:0|0:3,0:0:0:0:
53,133,1502,6,0,L|212:106,1,161.999995056153,6|0,1:0|0:0,0:0:0:0:
239,18,1864,2,0,L|342:142,1,161.999995056153,10|0,0:0|0:0,0:0:0:0:
223,196,2225,2,0,L|382:222,1,161.999995056153,2|0,1:0|0:0,0:0:0:0:
409,311,2587,2,0,L|512:186,1,161.999995056153,10|0,0:0|0:0,0:0:0:0:
454,12,2948,5,2,1:0:0:0:
441,140,3129,1,2,0:2:0:0:
384,70,3310,1,10,0:0:0:0:
512,83,3490,1,2,0:2:0:0:
384,70,3671,5,2,1:0:0:0:
512,83,3851,1,2,0:3:0:0:
454,12,4032,1,10,0:0:0:0:
441,140,4213,1,2,0:0:0:0:
296,17,4394,6,0,L|322:176,1,161.999995056153,2|0,1:0|0:0,0:0:0:0:
338,258,4755,2,0,L|186:201,1,161.999995056153,10|0,0:0|0:0,0:0:0:0:
109,243,5117,2,0,L|135:83,1,161.999995056153,2|0,1:0|0:0,0:0:0:0:
151,2,5478,2,0,L|0:58,1,161.999995056153,10|0,0:0|0:0,0:0:0:0:
60,112,5840,6,0,L|219:139,1,161.999995056153,2|0,1:0|0:0,0:0:0:0:
215,223,6201,2,0,L|109:242,1,107.999996704102,10|2,0:0|0:2,0:0:0:0:
260,302,6563,1,2,1:0:0:0:
44,331,6743,1,2,0:0:0:0:
86,338,6833,1,2,0:2:0:0:
129,345,6924,1,10,0:0:0:0:
207,125,7105,1,10,0:0:0:0:
190,176,7195,1,8,0:0:0:0:
215,223,7285,6,0,L|57:255,1,161.999995056153,6|0,1:0|0:0,0:0:0:0:
100,170,7647,2,0,L|151:17,1,161.999995056153,10|0,0:0|0:0,0:0:0:0:
203,96,8008,2,0,L|309:216,1,161.999995056153,2|0,1:0|0:0,0:0:0:0:
352,147,8370,2,0,L|510:115,1,161.999995056153,10|0,0:0|0:0,0:0:0:0:
483,358,8731,5,2,1:0:0:0:
459,238,8912,1,0,0:0:0:0:
408,347,9093,1,10,0:0:0:0:
384,227,9273,1,2,0:2:0:0:
334,336,9454,5,2,1:0:0:0:
310,217,9635,1,2,0:0:0:0:
259,326,9816,1,10,0:0:0:0:
236,206,9996,1,2,0:0:0:0:
144,286,10177,6,0,B|56:296|95:350|6:359,1,161.999995056153,2|0,1:0|0:0,0:0:0:0:
154,368,10538,2,0,P|180:371|207:376,1,53.9999983520508,14|0,0:0|0:0,0:0:0:0:
12,286,10719,1,2,0:2:0:0:
122,135,10900,6,0,B|210:145|171:199|259:208,1,161.999995056153,2|0,1:0|0:0,0:0:0:0:
112,217,11261,2,0,P|85:220|58:225,1,53.9999983520508,12|0,0:2|0:0,0:0:0:0:
254,135,11442,1,2,0:2:0:0:
347,300,11623,5,10,0:2:0:0:
377,55,11803,1,10,0:2:0:0:
408,349,12165,5,10,0:0:0:0:
362,177,12346,1,2,0:1:0:0:
316,5,12526,1,12,0:0:0:0:
335,44,12617,1,8,0:0:0:0:
377,55,12707,1,10,0:0:0:0:
419,66,12797,1,2,0:0:0:0:
461,77,12888,1,8,0:0:0:0:
480,116,12979,1,8,0:0:0:0:
446,179,13069,6,0,L|287:146,1,161.999995056153,6|0,1:0|0:0,0:0:0:0:
209,206,13430,2,0,L|242:365,1,161.999995056153,10|0,0:0|0:0,0:0:0:0:
314,322,13791,2,0,L|155:289,1,161.999995056153,2|0,1:0|0:0,0:0:0:0:
89,222,14153,2,0,L|56:62,1,161.999995056153,10|0,0:0|0:0,0:0:0:0:
202,57,14514,5,2,1:0:0:0:
275,106,14695,1,0,0:0:0:0:
163,272,14876,1,10,0:0:0:0:
89,222,15057,1,2,0:2:0:0:
290,183,15237,5,2,1:0:0:0:
241,257,15418,1,2,0:0:0:0:
73,145,15599,1,10,0:0:0:0:
124,71,15779,1,2,0:0:0:0:
181,164,15960,6,0,L|14:198,1,161.999995056153,2|0,1:0|0:0,0:0:0:0:
163,272,16322,2,0,L|321:304,1,161.999995056153,10|0,0:0|0:0,0:0:0:0:
378,384,16683,2,0,L|485:262,1,161.999995056153,2|0,1:0|0:0,0:0:0:0:
381,221,17044,2,0,L|273:99,1,161.999995056153,10|0,0:0|0:0,0:0:0:0:
344,32,17406,6,0,L|502:0,1,161.999995056153,2|0,1:0|0:0,0:0:0:0:
490,92,17767,2,0,L|455:194,1,107.999996704102,10|2,0:0|0:2,0:0:0:0:
273,99,18129,1,2,1:0:0:0:
381,221,18310,2,0,L|363:169,1,53.9999983520508,10|2,0:0|0:2,0:0:0:0:
407,95,18490,1,10,0:0:0:0:
335,320,18671,1,10,0:0:0:0:
317,268,18761,1,8,0:0:0:0:
299,217,18852,6,0,L|243:380,1,161.999995056153,6|0,1:0|0:0,0:0:0:0:
168,304,19213,2,0,L|14:356,1,161.999995056153,10|0,0:0|0:0,0:0:0:0:
59,187,19575,2,0,L|212:239,1,161.999995056153,2|0,1:0|0:0,0:0:0:0:
240,153,19936,2,0,L|187:0,1,161.999995056153,10|0,0:0|0:0,0:0:0:0:
336,67,20297,5,0,1:0:0:0:
457,44,20478,1,0,0:0:0:0:
348,140,20659,1,10,0:0:0:0:
469,117,20840,1,2,0:2:0:0:
360,213,21020,1,2,1:0:0:0:
481,190,21201,1,2,0:0:0:0:
372,286,21382,1,10,0:0:0:0:
493,263,21563,1,2,0:0:0:0:
449,376,21743,5,2,1:2:0:0:
452,379,21924,2,0,P|429:363|404:353,1,53.9999983520508,2|0,0:0|0:0,0:0:0:0:
140,302,22105,2,0,L|130:248,1,53.9999983520508,14|0,0:0|0:0,0:0:0:0:
209,237,22285,2,0,L|219:293,1,53.9999983520508,2|0,0:0|0:0,0:0:0:0:
0,357,22466,1,0,1:0:0:0:
3,360,22647,5,10,0:0:0:0:
56,366,22737,1,8,0:0:0:0:
110,372,22828,1,10,0:0:0:0:
163,378,22918,1,8,0:0:0:0:
217,384,23008,1,10,0:0:0:0:
217,384,23370,5,10,0:0:0:0:
483,308,23550,1,10,0:0:0:0:
105,233,23731,1,10,0:0:0:0:
483,308,24093,5,10,0:0:0:0:
0,358,24273,1,10,0:0:0:0:
0,358,24635,6,0,P|69:366|128:326,1,144,4|0,1:2|1:0,0:0:0:0:
134,254,25177,1,2,0:0:0:0:
200,332,25358,2,0,P|264:304|294:240,1,144,2|0,1:0|1:0,0:0:0:0:
264,174,25900,1,2,0:0:0:0:
134,254,26081,6,0,P|70:226|40:162,1,144,2|0,1:3|1:0,0:0:0:0:
70,96,26623,1,2,0:0:0:0:
149,172,26803,2,0,P|141:102|181:44,1,144,2|0,1:0|1:0,0:0:0:0:
253,38,27346,1,2,0:0:0:0:
403,101,27526,6,0,P|409:65|411:29,1,72,2|2,1:3|0:0,0:0:0:0:
474,110,27888,2,0,P|480:74|482:38,1,72,2|2,1:2|0:0,0:0:0:0:
438,185,28249,2,0,P|444:220|446:256,1,72,2|2,1:0|0:0,0:0:0:0:
367,194,28610,2,0,P|373:229|375:265,1,72,2|2,1:2|0:0,0:0:0:0:
285,164,28972,6,0,P|295:235|299:307,2,144,2|2|2,1:3|1:2|1:0,0:0:0:0:
213,230,29876,1,0,0:0:0:0:
127,219,30056,1,0,1:0:0:0:
5,27,30237,1,8,0:0:0:0:
41,207,30418,6,0,P|64:140|62:68,1,144,0|8,1:3|1:0,0:0:0:0:
5,27,30960,1,2,0:0:0:0:
139,121,31141,1,2,1:0:0:0:
142,124,31231,2,0,P|182:89|207:41,1,108,8|8,1:0|1:0,0:0:0:0:
146,0,31683,1,2,0:0:0:0:
264,103,31864,6,0,P|333:89|394:51,1,144,2|8,1:3|1:0,0:0:0:0:
447,0,32406,1,2,0:0:0:0:
398,138,32587,1,2,1:0:0:0:
401,141,32677,2,0,P|451:158|505:155,1,108,8|8,1:0|1:0,0:0:0:0:
473,280,33129,1,4,0:3:0:0:
438,288,33219,1,4,0:3:0:0:
415,317,33310,6,0,L|309:299,1,108,2|0,1:3|0:0,0:0:0:0:
237,287,33671,2,0,B|225:229|190:256|178:202,1,108,8|8,1:0|0:1,0:0:0:0:
107,191,34032,2,0,L|0:173,1,108,2|0,1:0|0:0,0:0:0:0:
3,176,34394,1,8,1:0:0:0:
291,110,34575,1,10,0:0:0:0:
35,111,34755,5,2,0:0:0:0:
93,69,34936,1,2,0:0:0:0:
163,54,35117,1,2,0:0:0:0:
230,65,35297,1,0,0:0:0:0:
233,68,35478,1,2,0:0:0:0:
291,110,35840,6,0,L|370:103,1,67.5,4|0,1:3|0:0,0:0:0:0:
444,71,36201,6,0,B|443:157|393:134|386:218,1,161.999995056153,6|0,1:0|0:0,0:0:0:0:
367,355,36563,2,0,B|366:268|316:291|309:207,1,161.999995056153,10|0,0:0|0:0,0:0:0:0:
440,294,36924,2,0,L|279:272,1,161.999995056153,2|0,0:1|0:0,0:0:0:0:
188,219,37285,2,0,L|27:240,1,161.999995056153,10|0,0:0|0:0,0:0:0:0:
55,310,37647,5,2,1:0:0:0:
182,329,37828,1,0,1:0:0:0:
61,236,38008,1,10,0:0:0:0:
188,219,38189,1,2,0:2:0:0:
46,162,38369,1,2,0:1:0:0:
163,111,38550,1,2,1:3:0:0:
10,95,38731,1,10,0:0:0:0:
109,14,38912,1,2,0:0:0:0:
229,58,39093,6,0,L|397:77,1,161.999995056153,2|0,1:1|0:0,0:0:0:0:
453,27,39454,2,0,P|379:27|379:100,1,161.999995056153,10|0,0:0|0:0,0:0:0:0:
446,186,39816,2,0,P|445:259|372:259,1,161.999995056153,2|0,0:1|0:0,0:0:0:0:
283,224,40177,2,0,L|122:205,1,161.999995056153,10|0,0:0|0:0,0:0:0:0:
57,265,40538,6,0,P|-6:228|29:164,1,161.999995056153,2|0,1:0|0:0,0:0:0:0:
99,99,40900,2,0,L|122:205,1,107.999996704102,10|2,0:0|0:2,0:0:0:0:
139,272,41171,1,0,0:0:0:0:
142,275,41261,2,0,L|195:281,1,53.9999983520508,2|0,0:1|0:0,0:0:0:0:
192,177,41442,2,0,L|180:124,1,53.9999983520508,2|2,1:3|0:2,0:0:0:0:
162,350,41623,1,10,0:0:0:0:
33,365,41803,1,2,0:0:0:0:
248,237,41984,6,0,B|351:259|285:295|383:315,1,161.999995056153,6|0,1:0|0:0,0:0:0:0:
468,367,42346,2,0,P|447:288|445:208,1,161.999995056153,10|0,0:0|0:0,0:0:0:0:
468,107,42707,2,0,B|364:129|430:165|332:185,1,161.999995056153,2|0,0:1|0:0,0:0:0:0:
248,237,43069,2,0,P|268:158|270:78,1,161.999995056153,10|0,0:0|0:0,0:0:0:0:
228,14,43430,5,2,1:0:0:0:
341,53,43611,1,0,1:0:0:0:
200,127,43791,1,10,0:0:0:0:
87,166,43972,1,2,0:2:0:0:
15,60,44153,1,2,0:1:0:0:
128,99,44334,1,2,1:3:0:0:
272,155,44514,1,10,0:0:0:0:
159,194,44695,1,2,0:0:0:0:
119,343,44876,5,2,1:2:0:0:
122,346,45056,2,0,P|111:320|99:296,1,53.9999983520508,2|0,0:0|0:0,0:0:0:0:
233,225,45237,2,0,P|220:248|210:274,1,53.9999983520508,14|0,0:0|0:0,0:0:0:0:
277,306,45418,2,0,P|287:280|299:256,1,53.9999983520508,2|0,0:0|0:0,0:0:0:0:
493,308,45599,1,0,1:0:0:0:
496,311,45779,5,10,0:0:0:0:
443,317,45870,1,8,0:0:0:0:
391,331,45960,1,10,0:0:0:0:
341,352,46050,1,8,0:0:0:0:
295,381,46140,1,10,0:0:0:0:
295,381,46502,5,10,0:0:0:0:
20,298,46683,1,10,0:0:0:0:
374,239,46864,1,10,0:0:0:0:
374,239,47225,5,10,0:0:0:0:
340,176,47316,1,8,0:0:0:0:
361,121,47406,1,14,0:2:0:0:
401,94,47496,1,8,0:0:0:0:
436,80,47587,1,8,0:3:0:0:
458,56,47677,1,8,0:3:0:0:
465,30,47767,6,0,L|275:16,1,180,4|8,1:0|0:0,0:0:0:0:
59,42,48310,1,2,0:0:0:0:
128,58,48490,2,0,B|230:84|166:127|275:150,1,180,2|8,0:1|0:0,0:0:0:0:
453,342,49032,5,0,0:0:0:0:
384,326,49213,2,0,B|282:300|346:257|237:234,1,180,2|8,1:3|0:0,0:0:0:0:
41,348,49755,1,2,3:2:0:0:
44,351,49846,1,8,0:1:0:0:
47,354,49936,2,0,L|226:367,1,180,10|8,0:1|0:0,0:0:0:0:
416,282,50478,1,0,0:0:0:0:
453,342,50659,5,2,1:3:0:0:
476,244,50840,1,2,0:0:0:0:
378,221,51020,1,10,0:0:0:0:
355,319,51201,1,2,0:0:0:0:
476,244,51382,5,2,0:1:0:0:
499,146,51563,1,2,1:2:0:0:
401,123,51743,1,10,0:0:0:0:
378,221,51924,1,2,0:0:0:0:
499,146,52105,6,0,P|492:101|483:57,1,90,2|0,1:3|1:0,0:0:0:0:
311,172,52466,2,0,P|304:127|295:83,1,90,10|0,0:0|0:0,0:0:0:0:
123,198,52828,1,10,0:1:0:0:
116,153,52918,1,8,0:1:0:0:
107,109,53008,1,0,1:0:0:0:
210,159,53189,1,8,0:0:0:0:
213,162,53370,1,2,0:0:0:0:
201,338,53550,6,0,B|182:261|119:300|52:225,1,180,2|8,1:3|0:0,0:0:0:0:
256,384,54093,1,2,0:0:0:0:
311,338,54273,2,0,B|330:261|393:300|460:225,1,180,2|8,0:1|0:0,0:0:0:0:
256,224,54816,5,2,0:0:0:0:
198,181,54996,2,0,B|126:140|79:185|11:128,1,180,2|8,1:3|0:0,0:0:0:0:
256,224,55538,1,2,1:2:0:0:
314,181,55719,2,0,B|386:140|433:185|501:128,1,180,10|12,0:1|0:0,0:0:0:0:
256,64,56261,5,2,0:0:0:0:
312,18,56442,6,0,P|323:37|328:58,1,45,6|0,1:3|0:0,0:0:0:0:
183,58,56623,2,0,P|188:37|200:17,1,45,2|0,0:0|0:0,0:0:0:0:
400,68,56803,6,0,P|394:89|382:108,1,45,14|0,0:0|0:0,0:0:0:0:
130,108,56984,2,0,P|118:89|112:68,1,45,2|0,0:0|0:0,0:0:0:0:
256,64,57165,5,6,1:0:0:0:
256,269,57346,1,10,0:0:0:0:
256,278,57437,1,8,0:0:0:0:
256,287,57527,1,14,0:0:0:0:
256,296,57617,1,8,0:0:0:0:
256,306,57708,1,2,0:0:0:0:
256,315,57798,1,8,0:0:0:0:
256,384,57888,5,10,0:3:0:0:
426,166,58069,1,10,0:3:0:0:
256,0,58430,5,10,0:3:0:0:
86,218,58611,1,10,0:3:0:0:
256,384,58972,6,0,P|259:343|256:303,1,80.9999975280763,8|0,0:0|0:0,0:0:0:0:
256,74,59334,5,6,1:0:0:0:
52,150,59514,1,2,0:2:0:0:
290,142,59695,1,10,0:0:0:0:
86,218,59875,1,2,0:2:0:0:
324,211,60056,1,2,1:0:0:0:
121,287,60236,1,2,0:2:0:0:
359,280,60419,1,10,0:0:0:0:
155,356,60599,1,2,0:2:0:0:
256,74,60779,5,2,1:0:0:0:
357,356,60960,2,0,P|415:334|436:277,1,125.999996154785,2|8,0:0|0:0,0:0:0:0:
155,356,61322,2,0,P|97:334|76:277,1,125.999996154785,2|0,0:0|0:0,0:0:0:0:
199,238,61593,1,8,0:1:0:0:
202,241,61683,2,0,P|176:258|145:262,1,62.9999980773926,2|0,0:2|0:0,0:0:0:0:
39,217,61864,2,0,P|21:191|17:160,1,62.9999980773926,8|0,0:0|0:0,0:0:0:0:
63,54,62044,2,0,P|88:36|119:32,1,62.9999980773926,2|8,0:0|0:1,0:0:0:0:
226,78,62225,5,2,1:0:0:0:
202,241,62406,1,2,0:2:0:0:
302,94,62587,1,10,0:0:0:0:
278,257,62768,1,2,0:2:0:0:
378,110,62948,1,2,1:0:0:0:
354,273,63129,1,0,0:0:0:0:
454,126,63309,1,10,0:0:0:0:
430,289,63490,1,2,0:2:0:0:
256,64,63671,5,2,1:0:0:0:
124,281,63852,2,0,P|91:228|101:168,1,125.999996154785,2|8,0:0|0:0,0:0:0:0:
404,162,64213,1,2,0:0:0:0:
407,165,64303,1,8,0:1:0:0:
410,168,64394,2,0,P|420:228|388:281,1,125.999996154785,0|2,1:0|0:2,0:0:0:0:
256,320,64755,5,8,0:0:0:0:
119,28,64936,1,10,0:0:0:0:
188,14,65027,1,8,0:0:0:0:
256,0,65117,5,6,1:0:0:0:
344,192,65297,1,2,0:2:0:0:
168,192,65478,1,10,0:0:0:0:
256,0,65659,1,2,0:2:0:0:
344,192,65840,1,2,1:0:0:0:
168,192,66020,1,2,0:2:0:0:
256,0,66201,1,10,0:0:0:0:
344,192,66382,1,2,0:2:0:0:
256,384,66563,5,2,1:0:0:0:
168,192,66743,2,0,B|133:157|101:182|25:146,1,125.999996154785,2|8,0:0|0:0,0:0:0:0:
338,186,67104,1,2,0:0:0:0:
341,189,67195,1,8,0:1:0:0:
344,192,67285,2,0,B|379:157|411:182|487:146,1,125.999996154785,0|2,1:0|0:2,0:0:0:0:
256,384,67647,2,0,L|256:180,1,188.999994232178,10|0,0:0|0:0,0:0:0:0:
256,0,68008,5,6,1:3:0:0:
160,33,68189,1,0,0:0:0:0:
300,112,68370,1,10,0:0:0:0:
252,129,68460,1,0,0:0:0:0:
204,145,68551,1,2,0:1:0:0:
344,224,68731,1,2,1:3:0:0:
248,257,68912,1,2,0:1:0:0:
388,336,69093,1,14,0:3:0:0:
340,353,69183,1,0,0:0:0:0:
292,369,69273,1,0,0:0:0:0:
484,303,69454,5,10,0:0:0:0:
292,369,69635,1,10,0:0:0:0:
292,369,69996,2,0,P|308:342|314:311,1,62.9999980773926,14|0,0:0|0:0,0:0:0:0:
284,0,70177,5,2,1:3:0:0:
287,3,70267,1,2,0:0:0:0:
290,6,70358,1,8,0:0:0:0:
275,68,70448,1,8,0:0:0:0:
271,131,70538,1,10,0:3:0:0:
256,193,70629,1,10,0:0:0:0:
252,256,70719,1,8,0:0:0:0:
237,318,70810,1,8,0:0:0:0:
233,381,70900,5,6,1:0:0:0:
77,291,71081,1,2,0:2:0:0:
279,321,71261,1,10,0:0:0:0:
435,232,71442,1,2,0:2:0:0:
233,262,71623,1,2,1:0:0:0:
77,173,71803,1,2,0:2:0:0:
279,203,71984,1,10,0:0:0:0:
435,114,72165,1,2,0:2:0:0:
233,144,72346,5,2,1:0:0:0:
370,6,72526,2,0,L|354:130,1,125.999996154785,2|8,0:0|0:0,0:0:0:0:
370,378,72888,2,0,L|354:253,1,125.999996154785,2|0,0:0|0:0,0:0:0:0:
333,134,73159,1,8,0:1:0:0:
336,137,73249,2,0,L|343:74,1,62.9999980773926,2|0,0:2|0:0,0:0:0:0:
176,137,73430,2,0,L|168:74,1,62.9999980773926,8|0,0:0|0:0,0:0:0:0:
408,152,73611,2,0,L|415:89,1,62.9999980773926,2|8,0:0|0:1,0:0:0:0:
104,152,73791,5,2,1:0:0:0:
181,0,73972,1,2,0:2:0:0:
184,211,74153,1,10,0:0:0:0:
261,59,74334,1,2,0:2:0:0:
264,270,74514,1,2,1:0:0:0:
341,118,74695,1,0,0:0:0:0:
344,329,74876,1,10,0:0:0:0:
421,177,75057,1,2,0:2:0:0:
512,380,75237,5,2,1:0:0:0:
264,270,75418,2,0,P|202:281|140:295,1,125.999996154785,2|8,0:0|0:0,0:0:0:0:
242,108,75780,1,2,0:0:0:0:
245,111,75870,1,8,0:1:0:0:
248,114,75960,2,0,P|309:102|371:88,1,125.999996154785,0|2,1:0|0:2,0:0:0:0:
512,192,76322,1,10,0:0:0:0:
327,192,76502,1,10,0:2:0:0:
256,192,76593,1,8,0:0:0:0:
185,192,76683,6,0,B|109:163|84:217|9:193,1,180,6|2,1:3|0:0,0:0:0:0:
12,195,77225,1,0,1:0:0:0:
327,192,77406,2,0,B|403:163|428:217|503:193,1,180,10|2,0:3|0:0,0:0:0:0:
505,195,77948,1,0,1:0:0:0:
392,298,78129,6,0,P|380:279|370:260,1,45,2|0,0:3|0:0,0:0:0:0:
360,111,78310,2,0,L|270:100,1,90,2|2,1:2|1:3,0:0:0:0:
243,0,78671,2,0,P|231:19|221:38,1,45,0|0,0:0|0:0,0:0:0:0:
186,184,78852,2,0,L|275:173,1,90,10|0,0:0|0:0,0:0:0:0:
256,352,79213,1,10,0:0:0:0:
118,263,79394,1,8,0:0:0:0:
74,268,79484,1,8,0:0:0:0:
55,309,79575,6,0,B|83:344|132:358|186:352|228:295|216:232|208:170|119:145|35:181|42:274|42:274|45:336|11:369|11:369|50:342|110:348,1,630,6|0,1:0|0:0,0:0:0:0:
256,352,81020,5,10,0:0:0:0:
256,32,81201,1,10,0:0:0:0:
96,192,81743,5,14,0:0:0:0:
416,192,81924,1,10,0:0:0:0:
468,107,82105,5,8,0:1:0:0:
423,100,82195,1,8,0:0:0:0:
378,93,82285,1,8,0:1:0:0:
333,86,82376,1,8,0:0:0:0:
287,78,82466,6,0,P|294:103|300:130,1,53.9999983520508,6|0,1:0|0:0,0:0:0:0:
283,203,82647,2,0,P|275:228|269:255,1,53.9999983520508,2|0,0:2|0:0,0:0:0:0:
287,328,82828,2,0,P|294:353|300:380,1,53.9999983520508,10|0,0:0|0:0,0:0:0:0:
393,360,83008,2,0,P|471:346|513:280,1,161.999995056153,2|0,0:2|0:0,0:0:0:0:
416,192,83370,1,2,0:2:0:0:
355,289,83550,1,10,0:0:0:0:
491,177,83731,1,2,0:2:0:0:
327,116,83912,6,0,P|300:115|274:123,1,53.9999983520508,2|0,1:0|0:0,0:0:0:0:
203,149,84093,2,0,P|176:149|150:141,1,53.9999983520508,2|0,0:2|0:0,0:0:0:0:
78,116,84273,2,0,P|51:115|25:123,1,53.9999983520508,10|0,0:0|0:0,0:0:0:0:
16,246,84454,2,0,P|95:229|175:222,1,161.999995056153,2|0,0:2|0:0,0:0:0:0:
250,259,84816,1,2,0:0:0:0:
253,262,84906,1,2,0:2:0:0:
256,265,84996,1,10,0:0:0:0:
174,377,85177,1,2,0:0:0:0:
338,377,85358,6,0,L|346:307,1,53.9999983520508,2|0,1:0|0:0,0:0:0:0:
330,251,85538,2,0,L|322:181,1,53.9999983520508,2|0,0:2|0:0,0:0:0:0:
338,125,85719,2,0,L|346:55,1,53.9999983520508,10|0,0:0|0:0,0:0:0:0:
431,41,85900,2,0,P|351:42|283:0,1,161.999995056153,2|0,0:2|0:0,0:0:0:0:
210,19,86261,1,2,0:2:0:0:
239,190,86442,1,10,0:0:0:0:
276,86,86623,1,0,0:0:0:0:
75,128,86803,6,0,P|102:132|128:139,1,53.9999983520508,2|0,1:0|0:0,0:0:0:0:
186,200,86984,2,0,P|212:196|239:190,1,53.9999983520508,2|0,0:2|0:0,0:0:0:0:
314,231,87165,2,0,P|340:234|366:241,1,53.9999983520508,10|0,0:0|0:0,0:0:0:0:
460,291,87346,2,0,P|382:311|328:370,1,161.999995056153,2|0,0:2|0:0,0:0:0:0:
256,288,87707,2,0,L|256:354,1,53.9999983520508,10|0,0:0|0:0,0:0:0:0:
150,327,87888,2,0,P|169:346|183:370,1,53.9999983520508,10|0,0:0|0:0,0:0:0:0:
44,251,88069,1,10,0:0:0:0:
22,201,88159,1,8,0:0:0:0:
57,160,88249,6,0,L|146:144,1,53.9999983520508,6|0,1:0|0:0,0:0:0:0:
188,89,88430,2,0,L|99:73,1,53.9999983520508,2|0,0:2|0:0,0:0:0:0:
67,17,88611,2,0,L|156:1,1,53.9999983520508,10|0,0:0|0:0,0:0:0:0:
255,18,88791,2,0,B|273:49|273:49|257:174,1,161.999995056153,2|0,0:2|0:0,0:0:0:0:
294,250,89153,1,2,0:2:0:0:
139,217,89334,1,10,0:0:0:0:
336,176,89514,1,2,0:2:0:0:
273,367,89695,6,0,P|262:342|255:316,1,53.9999983520508,2|0,1:0|0:0,0:0:0:0:
365,301,89876,2,0,P|367:275|374:249,1,53.9999983520508,2|0,0:2|0:0,0:0:0:0:
477,291,90056,2,0,P|493:269|512:250,1,53.9999983520508,10|0,0:0|0:0,0:0:0:0:
504,158,90237,2,0,P|426:141|377:79,1,161.999995056153,2|0,0:2|0:0,0:0:0:0:
414,0,90599,1,2,0:0:0:0:
417,3,90689,1,2,0:2:0:0:
420,6,90779,1,10,0:0:0:0:
256,52,90960,1,2,0:0:0:0:
92,6,91141,5,2,1:2:0:0:
174,29,91322,1,2,0:0:0:0:
94,328,91502,1,14,0:0:0:0:
17,203,91683,2,0,B|100:207|86:263|177:280,1,161.999995056153,2|0,0:0|0:0,0:0:0:0:
239,232,92044,1,10,0:0:0:0:
291,220,92135,1,8,0:0:0:0:
344,227,92225,1,10,0:0:0:0:
391,253,92315,1,2,0:0:0:0:
425,295,92405,1,10,0:0:0:0:
338,340,92767,5,2,0:2:0:0:
343,341,92858,1,2,0:2:0:0:
348,342,92948,1,2,0:2:0:0:
174,340,93129,5,2,0:2:0:0:
169,341,93220,1,2,0:2:0:0:
164,342,93310,5,2,1:2:0:0:
237,287,93430,5,8,1:0:0:0:
248,377,93550,5,8,1:0:0:0:
272,219,93671,5,10,1:2:0:0:
201,207,93791,5,8,1:0:0:0:
129,195,93912,5,8,1:0:0:0:
189,94,94032,5,6,0:1:0:0:
251,200,99635,5,10,0:0:0:0:
218,328,99816,6,0,P|208:293|196:259,1,72,2|0,3:0|0:0,0:0:0:0:
294,328,100177,2,0,P|303:293|315:259,1,72,0|2,3:0|0:0,0:0:0:0:
363,360,100538,1,2,3:1:0:0:
294,328,100719,1,0,0:0:0:0:
149,360,100900,1,0,3:0:0:0:
218,328,101081,1,2,1:2:0:0:
363,360,101261,6,0,P|381:329|401:299,1,72,2|0,3:0|0:0,0:0:0:0:
149,360,101623,2,0,P|130:329|110:299,1,72,0|2,3:0|1:2,0:0:0:0:
256,262,101984,1,2,3:1:0:0:
256,187,102165,1,0,0:0:0:0:
256,112,102346,1,2,3:2:0:0:
256,37,102526,1,4,0:3:0:0:
256,33,102617,1,4,0:3:0:0:
256,29,102707,1,2,3:0:0:0:
256,29,103069,5,2,3:2:0:0:
186,46,103249,1,2,0:0:0:0:
120,117,103430,1,2,3:1:0:0:
190,134,103610,1,2,1:2:0:0:
256,205,103792,1,2,3:2:0:0:
186,222,103972,2,0,L|196:302,1,72,2|0,1:2|0:0,0:0:0:0:
24,318,104334,5,10,0:0:0:0:
203,365,104514,1,10,0:0:0:0:
472,224,104876,5,10,0:0:0:0:
473,220,104966,1,0,3:0:0:0:
474,216,105056,1,2,3:1:0:0:
475,212,105147,1,0,3:0:0:0:
476,208,105237,1,12,0:0:0:0:
459,165,105328,1,8,0:0:0:0:
483,127,105418,2,0,L|430:119,1,45,10|0,0:0|0:0,0:0:0:0:
370,30,105599,6,0,L|190:48,1,180,4|8,1:0|0:0,0:0:0:0:
181,239,106141,1,2,0:0:0:0:
164,168,106322,2,0,B|149:79|97:116|77:14,1,180,2|8,0:1|0:0,0:0:0:0:
331,145,106864,5,0,0:0:0:0:
348,216,107045,2,0,B|363:305|415:268|434:369,1,180,2|8,1:3|0:0,0:0:0:0:
136,348,107587,1,2,3:2:0:0:
139,351,107677,1,8,0:1:0:0:
142,354,107767,2,0,L|321:335,1,180,10|8,0:1|0:0,0:0:0:0:
138,204,108310,1,0,0:0:0:0:
87,254,108490,5,2,1:3:0:0:
207,223,108671,1,2,0:0:0:0:
120,134,108852,1,10,0:0:0:0:
87,254,109032,1,2,0:0:0:0:
310,131,109213,5,2,0:1:0:0:
277,11,109394,1,2,1:2:0:0:
190,100,109575,1,10,0:0:0:0:
310,131,109755,1,2,0:0:0:0:
259,81,109936,6,0,P|269:124|278:168,1,90,2|2,1:3|1:2,0:0:0:0:
331,362,110297,2,0,P|341:318|350:274,1,90,10|0,0:0|0:0,0:0:0:0:
461,162,110659,1,10,0:1:0:0:
417,174,110749,1,8,0:1:0:0:
375,188,110839,1,0,1:0:0:0:
253,285,111020,1,8,0:0:0:0:
256,288,111201,1,2,0:0:0:0:
204,140,111382,6,0,B|161:121|178:87|84:112|44:90|87:29|125:60|112:97,1,180,2|8,1:3|0:0,0:0:0:0:
256,192,111924,1,2,0:0:0:0:
308,140,112105,2,0,B|351:121|334:87|428:112|468:90|425:29|387:60|400:97,1,180,2|8,0:1|0:0,0:0:0:0:
256,288,112648,5,0,0:0:0:0:
200,242,112828,2,0,B|75:179|32:226|53:270|108:236|85:207,1,180,2|8,1:3|0:0,0:0:0:0:
256,288,113370,1,2,1:2:0:0:
312,242,113550,2,0,B|437:179|480:226|459:270|404:236|427:207,1,180,10|12,0:1|0:0,0:0:0:0:
256,192,114093,5,0,0:0:0:0:
302,98,114273,6,0,P|309:119|311:141,1,45,6|0,1:3|0:0,0:0:0:0:
210,286,114454,2,0,P|202:264|200:242,1,45
383,142,114635,2,0,P|378:164|369:184,1,45,14|0,0:0|0:0,0:0:0:0:
129,242,114816,2,0,P|133:219|142:199,1,45,2|0,0:0|0:0,0:0:0:0:
432,221,114997,5,6,1:0:0:0:
80,163,115177,1,10,0:0:0:0:
70,161,115267,1,8,0:0:0:0:
60,159,115358,1,14,0:0:0:0:
50,157,115448,1,8,0:0:0:0:
40,155,115538,1,8,0:0:0:0:
30,153,115629,1,8,0:0:0:0:
0,91,115719,5,10,0:3:0:0:
60,338,115900,1,10,0:3:0:0:
512,293,116261,5,10,0:3:0:0:
452,46,116442,1,10,0:3:0:0:
256,267,116623,5,8,0:1:0:0:
247,222,116713,1,8,0:1:0:0:
256,178,116803,1,10,0:3:0:0:
265,133,116894,1,8,0:1:0:0:
256,89,116984,1,8,0:1:0:0:
247,44,117075,1,8,0:1:0:0:
256,0,117165,5,6,1:0:0:0:
394,181,117346,1,2,0:2:0:0:
168,151,117526,1,10,0:0:0:0:
348,12,117707,1,2,0:2:0:0:
321,241,117888,1,2,1:0:0:0:
181,56,118069,1,2,0:2:0:0:
407,87,118249,1,10,0:0:0:0:
225,225,118430,1,2,0:2:0:0:
256,0,118611,5,2,1:0:0:0:
394,181,118791,2,0,P|456:171|517:157,1,125.999996154785,2|8,0:0|0:0,0:0:0:0:
118,181,119153,2,0,P|55:171|-5:157,1,125.999996154785,2|0,0:0|0:0,0:0:0:0:
26,82,119424,1,8,0:1:0:0:
29,85,119514,2,0,P|60:80|90:73,1,62.9999980773926,2|0,0:2|0:0,0:0:0:0:
164,249,119695,2,0,P|132:253|102:260,1,62.9999980773926,8|0,0:0|0:0,0:0:0:0:
162,24,119876,2,0,P|166:55|173:85,1,62.9999980773926,2|8,0:0|0:1,0:0:0:0:
236,295,120056,5,2,1:0:0:0:
347,83,120237,1,2,0:2:0:0:
310,307,120418,1,10,0:0:0:0:
273,95,120599,1,2,0:2:0:0:
284,237,120779,1,2,1:0:0:0:
373,12,120960,1,2,0:2:0:0:
358,249,121141,1,10,0:0:0:0:
299,24,121322,1,2,0:2:0:0:
384,319,121502,5,2,1:0:0:0:
505,141,121683,2,0,P|443:142|394:180,1,125.999996154785,2|8,0:0|0:0,0:0:0:0:
230,289,122045,1,2,0:0:0:0:
233,292,122135,1,8,0:1:0:0:
236,295,122225,2,0,P|174:293|125:255,1,125.999996154785,0|2,1:0|0:2,0:0:0:0:
0,157,122587,5,8,0:0:0:0:
275,0,122767,1,10,0:0:0:0:
289,68,122858,1,8,0:0:0:0:
303,135,122948,5,6,1:0:0:0:
507,52,123129,1,2,0:2:0:0:
130,0,123310,1,10,0:0:0:0:
303,135,123490,1,2,0:2:0:0:
507,52,123671,1,2,1:0:0:0:
130,0,123852,1,2,0:2:0:0:
303,135,124032,1,10,0:0:0:0:
507,52,124213,1,2,0:2:0:0:
272,352,124394,5,2,1:0:0:0:
389,202,124575,2,0,B|411:130|434:174|487:147|456:92|423:115|435:148,1,125.999996154785,2|8,0:0|0:0,0:0:0:0:
117,196,124936,1,2,0:0:0:0:
120,199,125026,1,0,0:0:0:0:
123,202,125117,2,0,B|101:130|78:174|25:147|56:92|89:115|77:148,1,125.999996154785,0|2,0:0|0:2,0:0:0:0:
256,0,125478,2,0,B|271:46|256:93|256:93|240:139|256:186,1,188.999994232178,10|0,0:0|0:0,0:0:0:0:
256,384,125840,5,6,1:3:0:0:
278,286,126020,1,2,0:1:0:0:
129,333,126201,1,10,0:0:0:0:
140,284,126291,1,0,0:0:0:0:
151,235,126381,1,2,0:1:0:0:
300,188,126563,1,2,1:3:0:0:
322,90,126743,1,2,0:1:0:0:
173,137,126924,1,14,0:3:0:0:
184,88,127014,1,0,0:0:0:0:
195,39,127105,1,0,0:0:0:0:
397,67,127285,5,10,0:0:0:0:
98,160,127466,1,10,0:0:0:0:
98,160,127828,2,0,P|112:187|113:219,1,62.9999980773926,14|0,0:0|0:0,0:0:0:0:
0,378,128008,5,2,1:3:0:0:
3,381,128099,1,2,0:0:0:0:
6,384,128189,1,8,0:0:0:0:
28,324,128279,1,8,0:0:0:0:
84,295,128370,1,10,0:3:0:0:
144,281,128460,1,10,0:0:0:0:
206,268,128550,1,8,0:0:0:0:
262,239,128641,1,8,0:0:0:0:
284,180,128731,5,6,1:0:0:0:
68,93,128912,1,2,0:2:0:0:
348,35,129093,1,10,0:0:0:0:
138,122,129274,1,2,0:2:0:0:
348,209,129454,1,2,1:0:0:0:
138,122,129635,1,2,0:2:0:0:
418,64,129815,1,10,0:0:0:0:
208,151,129996,1,2,0:2:0:0:
388,378,130177,5,2,1:0:0:0:
275,180,130358,2,0,P|338:171|401:167,1,125.999996154785,2|8,0:0|0:0,0:0:0:0:
125,372,130719,2,0,P|62:364|0:360,1,125.999996154785,2|0,0:0|0:0,0:0:0:0:
187,328,130990,1,8,0:1:0:0:
190,331,131081,2,0,P|200:301|213:272,1,62.9999980773926,2|0,0:2|0:0,0:0:0:0:
117,159,131261,2,0,P|85:155|54:152,1,62.9999980773926,8|0,0:0|0:0,0:0:0:0:
40,287,131442,2,0,P|71:290|102:293,1,62.9999980773926,2|8,0:0|0:1,0:0:0:0:
377,262,131623,5,2,1:0:0:0:
424,40,131803,1,2,0:2:0:0:
298,247,131984,1,10,0:0:0:0:
345,25,132164,1,2,0:2:0:0:
235,293,132346,1,2,1:0:0:0:
188,71,132526,1,2,0:2:0:0:
156,308,132707,1,10,0:0:0:0:
109,86,132887,1,2,0:2:0:0:
93,354,133069,5,2,1:0:0:0:
333,270,133249,2,0,B|344:323|401:299|419:353,1,125.999996154785,2|8,0:0|0:0,0:0:0:0:
173,264,133610,1,2,0:0:0:0:
176,267,133701,1,0,0:0:0:0:
179,270,133791,2,0,B|167:323|110:299|92:353,1,125.999996154785,0|2,0:0|0:2,0:0:0:0:
256,384,134153,1,10,0:0:0:0:
256,140,134334,1,10,0:2:0:0:
256,70,134424,1,8,0:0:0:0:
256,0,134514,6,0,P|190:16|123:23,1,135,6|0,1:3|0:0,0:0:0:0:
36,43,134876,2,0,P|83:91|122:145,1,135,10|0,0:3|0:0,0:0:0:0:
192,284,135237,1,10,0:2:0:0:
183,212,135418,2,0,P|201:147|228:85,1,135,8|0,0:3|0:0,0:0:0:0:
280,35,135779,1,8,0:3:0:0:
405,157,135960,6,0,P|426:152|446:141,1,45,2|0,1:3|0:0,0:0:0:0:
394,0,136141,2,0,P|372:4|352:15,1,45,8|0,0:3|0:0,0:0:0:0:
325,105,136322,1,2,1:3:0:0:
473,50,136502,1,8,0:3:0:0:
421,307,136683,1,14,0:0:0:0:
489,280,136864,2,0,B|474:243|439:236|439:236|345:220,1,135,0|0,1:0|0:0,0:0:0:0:
306,248,137225,1,0,1:0:0:0:
296,283,137316,1,0,1:0:0:0:
306,317,137406,5,6,1:2:0:0:
361,363,137587,2,0,B|411:358|420:314|420:314|437:219,1,180,8|8,0:3|0:3,0:0:0:0:
463,75,138129,1,8,0:0:0:0:
408,29,138310,2,0,B|358:34|349:78|349:78|332:173,1,180,0|0,1:0|1:0,0:0:0:0:
256,303,138852,6,0,B|248:258,1,45,4|0,3:2|0:0,0:0:0:0:
181,173,139032,2,0,B|173:217,1,45,8|0,0:3|0:0,0:0:0:0:
95,283,139213,1,0,1:0:0:0:
57,218,139394,1,2,0:0:0:0:
89,371,139575,6,0,P|124:371|156:356,1,72,10|0,0:0|0:0,0:0:0:0:
423,371,139846,2,0,P|388:371|356:356,1,72,10|0,0:0|0:0,0:0:0:0:
136,52,140117,5,10,0:0:0:0:
193,93,140207,1,8,0:0:0:0:
256,64,140297,5,6,1:3:0:0:
319,93,140478,5,2,0:0:0:0:
376,52,140659,5,10,0:0:0:0:
477,163,140840,2,0,P|443:214|383:220,1,125.999996154785,2|0,0:0|0:0,0:0:0:0:
198,192,141201,2,0,P|256:170|313:192,1,125.999996154785,2|8,1:3|0:0,0:0:0:0:
129,220,141563,2,0,P|68:214|34:163,1,125.999996154785,2|2,0:0|1:0,0:0:0:0:
256,96,141924,5,0,1:3:0:0:
256,244,142105,1,10,0:0:0:0:
183,107,142285,2,0,P|255:22|328:106,1,251.999992309571,2|0,1:3|1:0,0:0:0:0:
256,244,142828,2,0,P|251:274|257:305,1,62.9999980773926,8|0,0:0|0:0,0:0:0:0:
396,357,143008,5,8,0:0:0:0:
465,347,143099,1,8,0:0:0:0:
476,278,143189,5,2,1:3:0:0:
413,246,143370,5,2,0:0:0:0:
363,296,143550,5,10,0:0:0:0:
493,163,143731,2,0,P|444:125|382:125,1,125.999996154785,2|0,0:0|0:0,0:0:0:0:
195,161,144093,2,0,P|256:176|316:161,1,125.999996154785,2|8,1:3|0:0,0:0:0:0:
129,125,144454,2,0,P|67:125|19:163,1,125.999996154785,2|2,0:3|1:0,0:0:0:0:
284,283,144816,5,2,1:3:0:0:
272,43,144996,2,0,L|256:104,1,62.9999980773926,10|0,0:0|0:0,0:0:0:0:
284,283,145177,2,0,L|316:161,1,125.999996154785,2|0,1:3|0:0,0:0:0:0:
374,384,145538,2,0,L|357:323,1,62.9999980773926,2|0,1:3|0:0,0:0:0:0:
221,185,145719,1,10,0:0:0:0:
152,199,145810,1,0,0:0:0:0:
102,247,145900,1,10,0:0:0:0:
82,313,145990,1,8,0:0:0:0:
34,364,146081,6,0,B|0:340|8:293|47:254|100:278|150:298|165:397,1,251.999992309571,6|8,1:0|0:0,0:0:0:0:
162,373,146623,1,0,0:0:0:0:
65,154,146803,5,2,0:0:0:0:
16,104,146894,1,2,0:0:0:0:
33,36,146984,1,2,1:3:0:0:
125,106,147165,5,10,0:0:0:0:
109,44,147256,1,2,0:3:0:0:
153,0,147346,1,2,0:0:0:0:
201,95,147526,5,2,1:3:0:0:
215,41,147617,1,2,0:0:0:0:
270,26,147707,1,2,1:3:0:0:
272,123,147888,5,10,0:0:0:0:
306,88,147979,1,2,0:0:0:0:
354,101,148069,1,2,1:3:0:0:
318,182,148249,5,2,0:0:0:0:
360,170,148340,1,2,0:0:0:0:
390,201,148430,1,2,1:3:0:0:
329,256,148611,5,10,0:0:0:0:
362,264,148702,1,2,0:0:0:0:
371,298,148792,1,2,0:0:0:0:
301,324,148972,5,14,0:0:0:0:
320,342,149063,1,2,0:2:0:0:
312,369,149153,2,0,P|290:364|268:361,1,45,2|2,1:2|0:2,0:0:0:0:
201,270,149334,2,0,P|223:265|245:262,1,45,10|2,0:0|0:2,0:0:0:0:
112,378,149514,1,2,1:2:0:0:
84,361,149605,1,2,0:2:0:0:
68,328,149695,1,10,0:0:0:0:
69,287,149785,1,2,0:2:0:0:
91,247,149876,1,2,1:2:0:0:
129,216,149966,1,2,0:2:0:0:
177,192,150056,1,10,0:0:0:0:
229,165,150147,1,2,0:2:0:0:
264,113,150237,1,2,1:2:0:0:
252,45,150328,1,2,0:2:0:0:
192,5,150418,6,0,L|117:-8,1,62.9999980773926,14|0,0:0|0:0,0:0:0:0:
20,139,150599,5,10,0:0:0:0:
62,149,150689,1,10,0:0:0:0:
106,144,150779,1,2,1:0:0:0:
145,125,150870,1,2,1:0:0:0:
176,94,150960,2,0,L|238:104,1,62.9999980773926,14|10,0:2|0:2,0:0:0:0:
362,167,151141,5,10,0:0:0:0:
404,160,151231,1,10,0:0:0:0:
448,169,151321,1,2,1:0:0:0:
485,191,151412,1,2,1:0:0:0:
506,263,151502,5,14,0:2:0:0:
430,257,151593,1,10,0:2:0:0:
361,287,151683,1,10,0:0:0:0:
285,281,151774,1,10,0:0:0:0:
215,310,151864,6,0,P|144:312|80:343,1,144,4|2,1:0|0:1,0:0:0:0:
28,126,152587,2,0,P|99:124|163:93,1,144,10|2,0:3|1:0,0:0:0:0:
213,39,153129,1,2,0:0:0:0:
328,127,153310,6,0,P|399:129|463:160,1,144,2|2,1:3|1:0,0:0:0:0:
462,160,154032,6,0,P|464:195|471:231,1,72,10|0,0:3|0:0,0:0:0:0:
387,241,154394,2,0,P|385:205|378:169,1,72,2|8,0:1|0:0,0:0:0:0:
406,315,154755,6,0,P|337:303|306:241,1,144,2|2,1:3|0:1,0:0:0:0:
406,69,155478,2,0,P|337:80|306:142,1,144,2|2,0:3|1:0,0:0:0:0:
256,192,156020,1,2,0:0:0:0:
165,154,156201,6,0,B|17:172|166:157|16:175,2,144,2|2|10,1:3|1:0|0:3,0:0:0:0:
165,154,157105,2,0,P|187:106|173:55,1,108,0|0,0:0|0:0,0:0:0:0:
121,3,157466,2,0,L|85:0,1,36,8|8,0:0|0:0,0:0:0:0:
25,42,157647,6,0,P|1:107|36:167,1,144,6|2,1:3|0:1,0:0:0:0:
257,241,158370,2,0,P|281:306|246:366,1,144,10|2,0:3|1:0,0:0:0:0:
182,335,158912,1,0,0:0:0:0:
58,380,159093,6,0,P|54:308|47:236,1,144,2|2,1:3|1:0,0:0:0:0:
47,235,159816,2,0,P|81:225|117:221,1,72,10|0,0:3|0:0,0:0:0:0:
104,140,160177,2,0,P|69:150|33:154,1,72,2|8,0:1|0:0,0:0:0:0:
166,56,160538,6,0,B|251:63|217:108|312:116,1,144,2|2,1:3|0:1,0:0:0:0:
358,332,161261,2,0,B|443:325|409:280|504:272,1,144,10|2,0:3|1:0,0:0:0:0:
512,206,161803,1,0,0:0:0:0:
410,146,161984,6,0,L|427:-8,2,144,2|2|14,1:3|1:0|0:2,0:0:0:0:
410,146,162888,2,0,P|374:147|342:164,1,72,0|10,1:0|0:0,0:0:0:0:
301,193,163159,1,8,0:0:0:0:
256,215,163249,1,4,0:3:0:0:
211,193,163340,1,4,0:3:0:0:
168,163,163430,6,0,P|97:155|25:151,1,144,6|2,1:3|0:1,0:0:0:0:
342,163,164153,2,0,P|413:171|485:175,1,144,10|0,0:3|1:0,0:0:0:0:
508,243,164695,1,2,0:0:0:0:
423,346,164876,6,0,P|354:334|324:272,1,144,2|2,1:3|1:0,0:0:0:0:
268,226,165418,1,2,0:0:0:0:
197,209,165599,2,0,P|205:175|216:140,1,72,10|8,0:3|0:1,0:0:0:0:
219,280,165960,2,0,P|210:314|199:349,1,72,2|8,0:1|0:0,0:0:0:0:
91,384,166322,6,0,P|23:366|0:302,1,144,2|2,1:3|0:1,0:0:0:0:
47,248,166864,1,2,0:0:0:0:
3,112,167044,2,0,P|70:129|94:193,1,144,10|2,0:3|1:0,0:0:0:0:
47,248,167587,1,2,0:0:0:0:
164,144,167767,6,0,P|235:141|302:115,1,144,2|2,1:3|1:0,0:0:0:0:
302,115,168490,2,0,L|292:35,1,72,10|0,0:3|0:0,0:0:0:0:
372,37,168852,2,0,L|380:108,1,72,2|8,0:1|0:0,0:0:0:0:
412,126,169123,1,8,0:0:0:0:
443,143,169213,6,0,L|461:293,1,144,6|2,1:3|0:1,0:0:0:0:
274,193,169936,2,0,L|292:343,1,144,10|2,0:3|1:0,0:0:0:0:
15,163,170659,6,0,L|32:20,1,144,2|2,1:3|1:0,0:0:0:0:
184,213,171382,2,0,L|195:112,1,72,14|8,0:0|0:1,0:0:0:0:
126,71,171743,2,0,L|137:-29,1,72,2|8,0:1|0:1,0:0:0:0:
256,192,172105,6,0,B|306:184|318:141|318:141|362:136|375:105|375:105|410:81|452:98|501:79,1,269.999991760254,10|0,0:3|0:0,0:0:0:0:
256,192,172647,6,0,B|206:184|194:141|194:141|150:136|137:105|137:105|102:81|60:98|11:79,1,269.999991760254,10|0,0:3|0:0,0:0:0:0:
256,60,173189,6,0,B|296:60|305:39|305:39|296:18|256:29|214:18|205:39|205:39|214:60|256:60,1,216,10|2,0:3|0:0,0:0:0:0:
256,60,173550,5,6,1:3:0:0:
256,192,173641,12,0,174906,0:0:0:0:
256,32,174996,5,10,0:0:0:0:
256,352,175177,1,10,0:0:0:0:
128,142,176442,5,10,0:0:0:0:
384,142,176623,1,10,0:0:0:0:
253,29,177707,5,2,0:0:0:0:
256,32,177888,5,6,1:0:0:0:
328,339,178069,1,2,0:2:0:0:
333,45,178249,1,10,0:0:0:0:
405,352,178430,1,2,0:2:0:0:
168,119,178611,1,2,1:0:0:0:
475,191,178791,1,2,0:2:0:0:
181,196,178972,1,10,0:0:0:0:
488,268,179153,1,2,0:2:0:0:
108,355,179334,5,2,1:0:0:0:
377,279,179514,2,0,P|385:216|370:156,1,125.999996154785,2|8,0:0|0:0,0:0:0:0:
36,189,179876,2,0,P|28:251|43:311,1,125.999996154785,2|0,0:0|0:0,0:0:0:0:
181,333,180147,1,8,0:1:0:0:
184,336,180237,2,0,P|189:305|196:275,1,62.9999980773926,2|0,0:2|0:0,0:0:0:0:
136,59,180418,2,0,P|105:54|75:47,1,62.9999980773926,8|0,0:0|0:0,0:0:0:0:
253,233,180599,2,0,P|284:238|314:245,1,62.9999980773926,2|8,0:0|0:1,0:0:0:0:
309,41,180779,5,2,1:0:0:0:
3,121,180960,1,2,0:2:0:0:
342,109,181141,1,10,0:0:0:0:
36,189,181322,1,2,0:2:0:0:
409,207,181502,1,2,1:0:0:0:
103,127,181683,1,0,0:0:0:0:
442,139,181864,1,10,0:0:0:0:
136,59,182044,1,2,0:2:0:0:
497,0,182225,5,2,1:0:0:0:
230,145,182406,2,0,P|218:84|203:23,1,125.999996154785,2|8,0:0|0:0,0:0:0:0:
375,323,182767,1,2,0:0:0:0:
378,326,182858,1,8,0:1:0:0:
381,329,182948,2,0,P|393:268|409:207,1,125.999996154785,0|2,1:0|0:2,0:0:0:0:
512,91,183310,5,8,0:0:0:0:
450,351,183490,1,10,0:0:0:0:
381,329,183581,1,8,0:0:0:0:
328,377,183671,5,6,1:0:0:0:
512,91,183852,1,2,0:2:0:0:
322,379,184032,1,10,0:0:0:0:
511,84,184213,1,2,0:2:0:0:
316,381,184394,1,2,1:0:0:0:
510,77,184575,1,2,0:2:0:0:
310,383,184755,1,10,0:0:0:0:
509,70,184936,1,2,0:2:0:0:
165,23,185117,5,2,1:0:0:0:
368,147,185297,2,0,B|396:120|384:88|384:88|360:32,1,125.999996154785,2|8,0:0|0:0,0:0:0:0:
138,231,185659,1,2,0:0:0:0:
141,234,185749,1,8,0:1:0:0:
144,237,185840,2,0,B|116:264|128:296|128:296|151:351,1,125.999996154785,0|2,1:0|0:2,0:0:0:0:
348,216,186201,2,0,P|256:192|163:167,1,188.999994232178,10|0,0:0|0:0,0:0:0:0:
0,0,186563,5,6,1:3:0:0:
96,184,186743,1,0,0:0:0:0:
206,62,186924,1,10,0:0:0:0:
22,158,187105,1,2,0:1:0:0:
74,26,187285,1,2,1:3:0:0:
170,210,187466,1,2,0:1:0:0:
411,13,187647,6,0,P|397:80|383:146,1,135,14|0,0:3|0:0,0:0:0:0:
391,270,188008,5,10,0:0:0:0:
275,1,188189,1,10,0:0:0:0:
275,1,188550,2,0,P|263:31|267:62,1,62.9999980773926,14|0,0:0|0:0,0:0:0:0:
470,262,188731,5,2,1:3:0:0:
473,265,188822,1,2,0:0:0:0:
476,268,188912,1,8,0:0:0:0:
405,240,189002,1,8,0:0:0:0:
331,223,189093,1,10,0:3:0:0:
256,218,189183,1,10,0:0:0:0:
181,223,189273,1,8,0:0:0:0:
107,240,189364,1,8,0:0:0:0:
36,268,189454,5,6,1:0:0:0:
348,311,189635,1,2,0:2:0:0:
139,4,189816,1,10,0:0:0:0:
96,316,189997,1,2,0:2:0:0:
403,107,190177,1,2,1:0:0:0:
91,64,190357,1,2,0:2:0:0:
300,371,190539,1,10,0:0:0:0:
343,59,190719,1,2,0:2:0:0:
36,268,190900,5,2,1:0:0:0:
347,310,191081,2,0,P|407:294|442:243,1,125.999996154785,2|8,0:0|0:0,0:0:0:0:
164,73,191442,2,0,P|104:89|69:140,1,125.999996154785,2|0,0:0|0:0,0:0:0:0:
93,313,191713,1,8,0:1:0:0:
96,316,191803,2,0,P|126:309|157:304,1,62.9999980773926,2|0,0:2|0:0,0:0:0:0:
256,192,191984,2,0,L|256:122,1,62.9999980773926,8|0,0:0|0:0,0:0:0:0:
354,303,192165,2,0,P|385:308|416:316,1,62.9999980773926,2|8,0:0|0:1,0:0:0:0:
148,231,192346,5,2,1:0:0:0:
458,189,192526,1,2,0:2:0:0:
96,316,192707,1,10,0:0:0:0:
138,6,192887,1,2,0:2:0:0:
381,203,193069,1,2,1:0:0:0:
71,161,193249,1,2,0:2:0:0:
215,20,193430,1,10,0:0:0:0:
257,330,193610,1,2,0:2:0:0:
0,148,193791,5,2,1:0:0:0:
380,203,193972,2,0,P|391:263|363:318,1,125.999996154785,2|8,0:0|0:0,0:0:0:0:
66,269,194333,1,2,0:0:0:0:
69,272,194424,1,8,0:1:0:0:
72,275,194514,2,0,P|61:214|89:159,1,125.999996154785,0|2,1:0|0:2,0:0:0:0:
138,6,194876,5,10,0:0:0:0:
457,171,195056,1,10,0:2:0:0:
449,101,195147,1,8,0:0:0:0:
442,32,195237,6,0,B|346:22|382:105|268:115,1,180,6|2,1:3|0:0,0:0:0:0:
200,95,195779,1,0,1:0:0:0:
338,328,195960,2,0,P|358:240|379:152,1,180,10|2,0:3|0:0,0:0:0:0:
449,101,196502,1,0,1:0:0:0:
477,245,196683,6,0,P|454:246|432:251,1,45,2|0,0:3|0:0,0:0:0:0:
271,363,196864,2,0,P|247:325|247:280,1,90,2|2,1:2|1:3,0:0:0:0:
326,204,197225,2,0,P|303:202|281:197,1,45,2|0,0:3|0:0,0:0:0:0:
120,86,197406,2,0,P|96:123|96:168,1,90,14|2,0:0|1:3,0:0:0:0:
247,280,197767,1,2,0:3:0:0:
151,360,197948,1,8,0:0:0:0:
110,341,198038,1,8,0:0:0:0:
114,295,198129,6,0,B|117:219|187:190|187:190|256:160|260:87,1,270,2|0,1:3|1:0,0:0:0:0:
175,64,198852,2,0,B|141:129|186:190|186:190|232:250|197:317,1,270,10|0,0:3|1:0,0:0:0:0:
51,174,199575,6,0,P|73:170|95:167,1,45,2|0,0:3|0:0,0:0:0:0:
196,317,199755,2,0,P|239:310|271:279,1,90,2|2,1:2|1:0,0:0:0:0:
348,233,200117,2,0,P|370:236|392:239,1,45,2|0,0:0|0:0,0:0:0:0:
427,84,200297,2,0,P|470:90|502:121,1,90,10|2,0:3|1:0,0:0:0:0:
459,288,200659,1,2,0:1:0:0:
297,170,200840,1,8,0:0:0:0:
292,125,200930,1,8,0:0:0:0:
329,100,201020,6,0,L|338:4,1,90,6|0,1:3|0:0,0:0:0:0:
219,57,201382,1,2,0:1:0:0:
104,4,201563,1,2,1:2:0:0:
161,157,201743,2,0,L|165:112,1,45,10|0,0:3|0:0,0:0:0:0:
30,15,201924,5,10,0:0:0:0:
34,68,202014,1,8,0:0:0:0:
37,120,202105,1,2,1:1:0:0:
83,250,202285,1,4,0:3:0:0:
44,247,202376,1,4,0:3:0:0:
5,245,202466,6,0,L|-1:177,1,62.9999980773926,10|0,0:0|0:0,0:0:0:0:
166,219,202647,2,0,L|161:157,1,62.9999980773926,10|0,0:0|0:0,0:0:0:0:
83,250,203008,6,0,L|77:317,1,62.9999980773926,10|0,0:0|0:0,0:0:0:0:
293,284,203189,2,0,L|287:351,1,62.9999980773926,10|0,0:0|0:0,0:0:0:0:
166,219,203550,6,0,L|160:151,1,62.9999980773926,10|0,0:0|0:0,0:0:0:0:
424,178,203731,2,0,L|418:110,1,62.9999980773926,10|0,0:0|0:0,0:0:0:0:
491,216,205358,6,0,L|487:260,1,45,8|0,3:1|0:0,0:0:0:0:
348,193,205538,1,0,1:0:0:0:
413,287,205719,2,0,L|409:242,1,45,8|0,3:1|0:0,0:0:0:0:
270,310,205899,1,0,1:0:0:0:
407,108,206081,6,0,L|441:114,5,30,14|8|8|8|8|8,0:0|0:1|0:1|0:1|0:1|0:1,0:0:0:0:
350,156,206442,1,8,0:0:0:0:
334,113,206532,1,8,0:0:0:0:
344,68,206623,1,8,0:3:0:0:
379,40,206713,1,8,0:3:0:0:
423,36,206803,6,0,L|472:209,1,161.999995056153,6|0,1:0|0:0,0:0:0:0:
413,287,207165,2,0,L|240:238,1,161.999995056153,10|0,0:0|0:0,0:0:0:0:
165,264,207526,2,0,L|214:91,1,161.999995056153,2|0,1:0|0:0,0:0:0:0:
155,13,207888,2,0,L|-18:62,1,161.999995056153,10|0,0:0|0:0,0:0:0:0:
18,155,208249,5,2,1:0:0:0:
37,283,208430,1,0,0:0:0:0:
165,264,208610,1,10,0:0:0:0:
146,136,208791,1,2,0:2:0:0:
18,155,208972,1,2,1:0:0:0:
37,283,209153,1,2,0:3:0:0:
165,264,209333,1,10,0:0:0:0:
146,136,209514,1,2,0:0:0:0:
96,327,209695,6,0,L|256:351,1,161.999995056153,2|0,1:0|0:0,0:0:0:0:
344,384,210056,2,0,L|319:223,1,161.999995056153,10|0,0:0|0:0,0:0:0:0:
250,160,210418,2,0,L|274:0,1,161.999995056153,2|0,1:0|0:0,0:0:0:0:
352,50,210779,2,0,L|512:25,1,161.999995056153,10|0,0:0|0:0,0:0:0:0:
410,184,211141,6,0,L|250:160,1,161.999995056153,2|0,1:0|0:0,0:0:0:0:
186,223,211502,2,0,L|208:328,1,107.999996704102,10|2,0:0|0:2,0:0:0:0:
379,303,211864,1,2,1:0:0:0:
166,339,212044,1,2,0:0:0:0:
208,328,212134,1,2,0:2:0:0:
244,354,212225,1,10,0:0:0:0:
147,167,212406,1,10,0:0:0:0:
102,200,212496,1,8,0:0:0:0:
49,186,212587,6,0,L|21:3,1,161.999995056153,6|0,1:0|0:0,0:0:0:0:
116,65,212948,2,0,L|299:93,1,161.999995056153,10|0,0:0|0:0,0:0:0:0:
354,136,213310,2,0,L|326:319,1,161.999995056153,2|0,1:0|0:0,0:0:0:0:
294,380,213671,2,0,L|477:352,1,161.999995056153,10|0,0:0|0:0,0:0:0:0:
499,286,214032,5,2,1:0:0:0:
371,264,214213,1,0,0:0:0:0:
482,211,214394,1,10,0:0:0:0:
354,189,214575,1,2,0:2:0:0:
465,136,214755,1,2,1:0:0:0:
337,114,214936,1,2,0:0:0:0:
448,61,215117,1,10,0:0:0:0:
320,39,215298,1,2,0:0:0:0:
237,138,215478,6,0,B|157:124|183:69|76:48,1,161.999995056153,2|0,1:0|0:0,0:0:0:0:
15,24,215840,2,0,P|25:48|32:74,1,53.9999983520508,14|0,0:0|0:0,0:0:0:0:
21,273,216020,1,2,0:2:0:0:
317,189,216201,6,0,B|237:203|263:258|156:279,1,161.999995056153,2|0,1:0|0:0,0:0:0:0:
95,303,216563,2,0,P|105:278|112:252,1,53.9999983520508,12|0,0:2|0:0,0:0:0:0:
101,54,216743,1,2,0:2:0:0:
296,121,216924,5,10,0:2:0:0:
51,151,217105,1,10,0:2:0:0:
345,182,217466,5,10,0:0:0:0:
173,136,217647,1,2,0:1:0:0:
1,90,217827,1,12,0:0:0:0:
39,110,217918,1,8,0:0:0:0:
51,151,218008,1,10,0:0:0:0:
47,194,218099,1,2,0:0:0:0:
59,235,218189,1,8,0:0:0:0:
97,255,218280,1,8,0:0:0:0:
163,224,218370,6,0,L|184:384,1,161.999995056153,6|0,1:0|0:0,0:0:0:0:
328,384,218731,2,0,L|349:224,1,161.999995056153,10|0,0:0|0:0,0:0:0:0:
141,63,219093,2,0,L|162:223,1,161.999995056153,2|0,1:0|0:0,0:0:0:0:
350,223,219454,2,0,L|371:63,1,161.999995056153,10|0,0:0|0:0,0:0:0:0:
215,0,219816,5,2,1:0:0:0:
297,111,219996,1,0,0:0:0:0:
296,26,220177,1,10,0:0:0:0:
215,222,220357,1,2,0:2:0:0:
216,137,220538,1,2,1:0:0:0:
297,333,220719,1,2,0:0:0:0:
296,248,220900,1,10,0:0:0:0:
216,359,221081,1,2,0:0:0:0:
135,218,221261,6,0,L|109:382,1,161.999995056153,2|0,1:0|0:0,0:0:0:0:
55,214,221623,2,0,L|80:53,1,161.999995056153,10|0,0:0|0:0,0:0:0:0:
215,222,221984,2,0,L|189:386,1,161.999995056153,2|0,1:0|0:0,0:0:0:0:
135,218,222346,2,0,L|160:57,1,161.999995056153,10|0,0:0|0:0,0:0:0:0:
243,25,222707,6,0,L|403:0,1,161.999995056153,2|0,1:0|0:0,0:0:0:0:
461,68,223069,2,0,L|422:168,1,107.999996704102,10|2,0:0|0:2,0:0:0:0:
403,319,223430,1,2,1:0:0:0:
333,183,223611,2,0,L|299:141,1,53.9999983520508,10|2,0:0|0:2,0:0:0:0:
511,153,223791,1,10,0:0:0:0:
340,276,223972,1,10,0:0:0:0:
287,262,224063,1,8,0:0:0:0:
234,249,224153,6,0,L|56:279,1,161.999995056153,6|0,1:0|0:0,0:0:0:0:
192,127,224514,2,0,L|351:100,1,161.999995056153,10|0,0:0|0:0,0:0:0:0:
159,192,224876,2,0,L|-19:222,1,161.999995056153,2|0,1:0|0:0,0:0:0:0:
247,49,225237,2,0,L|406:22,1,161.999995056153,10|0,0:0|0:0,0:0:0:0:
502,65,225599,5,2,1:0:0:0:
379,171,225779,1,0,0:0:0:0:
406,21,225960,1,10,0:0:0:0:
475,215,226141,1,2,0:2:0:0:
283,127,226322,1,2,1:0:0:0:
489,140,226502,1,2,0:0:0:0:
461,290,226683,1,10,0:0:0:0:
393,96,226864,1,2,0:0:0:0:
461,290,227044,5,2,1:2:0:0:
465,294,227225,2,0,P|439:285|412:280,1,53.9999983520508,2|0,0:0|0:0,0:0:0:0:
182,235,227406,2,0,P|156:243|129:248,1,53.9999983520508,14|0,0:0|0:0,0:0:0:0:
149,328,227587,2,0,P|174:319|201:314,1,53.9999983520508,2|0,0:0|0:0,0:0:0:0:
36,186,227767,1,0,1:0:0:0:
40,189,227948,5,10,0:0:0:0:
65,141,228038,1,8,0:0:0:0:
109,111,228129,1,10,0:0:0:0:
161,103,228219,1,8,0:0:0:0:
212,119,228309,1,10,0:0:0:0:
212,119,228671,5,10,0:0:0:0:
37,281,228852,1,10,0:0:0:0:
360,331,229032,1,10,0:0:0:0:
37,281,229394,5,10,0:0:0:0:
475,222,229575,1,10,0:0:0:0:
