osu file format v14

[General]
AudioFilename: audio.mp3
AudioLeadIn: 0
PreviewTime: 59612
Countdown: 0
SampleSet: Soft
StackLeniency: 0.7
Mode: 0
LetterboxInBreaks: 0
WidescreenStoryboard: 1

[Editor]
DistanceSpacing: 1.5
BeatDivisor: 4
GridSize: 16
TimelineZoom: 1.6

[Metadata]
Title:Hana ni Ame o, Kimi ni Uta o
TitleUnicode:花に雨を、君に歌を
Artist:THE BINARY
ArtistUnicode:THE BINARY
Creator:ponbot
Version:Extra
Source:
Tags:mirash delis shirohamymommy smm niva kshr satellite kogumax ユリイカノン yurry canon mido あかまる akamaru japanese pop rock
BeatmapID:2535520
BeatmapSetID:1179276

[Difficulty]
HPDrainRate:5
CircleSize:4
OverallDifficulty:7.5
ApproachRate:9.5
SliderMultiplier:1.6
SliderTickRate:1

[Events]
//Background and Video events
0,0,"81754094_p0.jpg"
Video,-1889,"binary-hana.mp4"
//Break Periods
2,92375,107650
//Storyboard Layer 0 (Background)
//Storyboard Layer 1 (Fail)
//Storyboard Layer 2 (Pass)
//Storyboard Layer 3 (Foreground)
//Storyboard Layer 4 (Overlay)
//Storyboard Sound Samples

[TimingPoints]
175,250,4,2,2,40,1,0
4175,-100,4,2,1,50,0,0
5175,-100,4,2,1,60,0,0
7675,-100,4,2,2,60,0,0
8175,-76.9230769230769,4,2,2,60,0,0
24175,-76.9230769230769,4,2,2,50,0,0
25675,-76.9230769230769,4,2,2,40,0,0
26175,-76.9230769230769,4,2,2,50,0,0
27175,-76.9230769230769,4,2,2,40,0,0
28175,-100,4,2,1,50,0,0
31675,-100,4,2,1,40,0,0
31800,-100,4,2,1,50,0,0
44175,-83.3333333333333,4,2,1,50,0,0
51675,-83.3333333333333,4,2,2,50,0,0
52175,-83.3333333333333,4,2,1,50,0,0
56175,-100,4,2,1,50,0,0
60175,-66.6666666666667,4,2,1,70,0,0
62550,-100,4,2,1,70,0,0
62800,-66.6666666666667,4,2,1,70,0,0
64550,-83.3333333333333,4,2,1,70,0,0
64925,-66.6666666666667,4,2,1,70,0,0
72175,-55.5555555555556,4,2,1,70,0,0
73675,-66.6666666666667,4,2,1,70,0,0
90550,-100,4,2,1,70,0,0
90737,-100,4,2,1,70,0,0
90800,-66.6666666666667,4,2,1,70,0,0
91175,-66.6666666666667,4,2,1,60,0,0
92175,-66.6666666666667,4,2,2,60,0,0
108175,-100,4,2,1,60,0,0
121925,-76.9230769230769,4,2,1,60,0,0
122175,-100,4,2,1,60,0,0
123550,-133.333333333333,4,2,1,60,0,0
124175,-90.9090909090909,4,2,1,50,0,0
131675,-90.9090909090909,4,2,2,50,0,0
132175,-66.6666666666667,4,2,1,50,0,0
132425,-90.9090909090909,4,2,1,50,0,0
136175,-100,4,2,1,50,0,0
139675,-100,4,2,1,50,0,0
140175,-66.6666666666667,4,2,1,70,0,0
156175,-76.9230769230769,4,2,2,60,0,0
172175,-100,4,2,1,50,0,0
180175,-100,4,2,1,50,0,0
186175,-76.9230769230769,4,2,1,50,0,0
188175,-66.6666666666667,4,2,1,60,0,0
203550,-66.6666666666667,4,2,1,60,0,1
204175,-52.6315789473684,4,2,3,70,0,1
204237,-52.6315789473684,4,2,1,70,0,1
220175,-58.8235294117647,4,2,1,70,0,1
236175,-66.6666666666667,4,2,2,70,0,1
239675,-66.6666666666667,4,2,1,70,0,1
244175,-66.6666666666667,4,2,2,70,0,1
247675,-66.6666666666667,4,2,1,70,0,1
252175,-66.6666666666667,4,2,1,70,0,0

[Colours]
Combo1 : 255,200,200
Combo2 : 128,128,255
Combo3 : 180,180,218
Combo4 : 66,253,155
Combo5 : 244,74,130

[HitObjects]
34,86,8175,6,0,P|132:47|211:118,1,207.999990478516,6|10,3:2|0:0,0:0:0:0:
288,33,8550,2,0,L|311:142,1,103.999995239258,2|0,3:2|0:0,0:0:0:0:
391,62,8800,1,2,3:2:0:0:
385,199,8925,2,0,P|327:232|246:204,1,155.999992858887,10|0,0:0|0:0,0:0:0:0:
246,204,9175,6,0,P|268:290|204:385,1,207.999990478516,2|10,3:2|0:0,0:0:0:0:
130,307,9550,2,0,P|78:301|26:296,1,103.999995239258,2|0,3:2|0:0,0:0:0:0:
103,219,9800,1,2,3:2:0:0:
141,320,9925,2,0,P|192:314|244:309,1,103.999995239258,10|2,0:0|0:0,0:0:0:0:
426,237,10175,54,0,B|387:239|352:219|352:219|376:297|339:372,1,207.999990478516,2|10,3:2|0:0,0:0:0:0:
494,286,10550,2,0,B|515:250|515:250|497:188,1,103.999995239258,2|0,3:2|0:0,0:0:0:0:
302,154,10800,1,2,3:2:0:0:
260,287,10925,2,0,P|208:292|156:297,1,103.999995239258,10|2,0:0|0:0,0:0:0:0:
36,161,11175,5,2,3:2:0:0:
109,211,11300,1,2,0:0:0:0:
149,132,11425,1,10,0:0:0:0:
31,247,11550,53,2,3:2:0:0:
196,207,11675,1,2,0:0:0:0:
196,207,11925,5,10,0:0:0:0:
79,85,12050,1,0,0:0:0:0:
260,154,12175,54,0,B|280:95|264:25|264:25|284:62|316:81,1,207.999990478516,2|10,3:2|0:0,0:0:0:0:
385,235,12550,2,0,B|315:221|315:221|299:232|279:236,1,103.999995239258,2|0,3:2|0:0,0:0:0:0:
225,291,12800,1,2,3:2:0:0:
294,355,12925,2,0,B|313:378|313:378|316:338|335:293,1,103.999995239258,10|2,0:0|0:0,0:0:0:0:
427,363,13175,6,0,B|441:352|460:348|460:348|362:313|275:364,1,207.999990478516,2|10,3:2|0:0,0:0:0:0:
150,341,13550,2,0,P|112:344|147:357,1,103.999995239258,2|0,3:2|0:0,0:0:0:0:
225,291,13800,1,2,3:2:0:0:
213,190,13925,2,0,L|200:78,1,103.999995239258,10|2,0:0|0:0,0:0:0:0:
36,201,14175,54,0,B|-6:216|-6:216|26:271|112:260|146:216,1,207.999990478516,2|10,3:2|0:0,0:0:0:0:
96,44,14550,2,0,P|107:96|125:146,1,103.999995239258,2|0,3:2|0:0,0:0:0:0:
213,190,14800,1,2,3:2:0:0:
201,86,14925,1,10,0:0:0:0:
124,143,15050,1,2,0:0:0:0:
290,133,15175,5,10,0:0:0:0:
217,225,15300,1,2,3:2:0:0:
128,178,15425,53,10,0:0:0:0:
221,260,15550,1,2,3:2:0:0:
294,168,15675,6,0,P|336:129|385:83,1,103.999995239258,10|0,0:0|3:0,0:0:0:0:
225,295,15925,1,10,0:0:0:0:
132,213,16050,1,10,0:0:0:0:
298,203,16175,54,0,B|403:222|403:222|446:313,1,207.999990478516,6|10,3:2|0:0,0:0:0:0:
345,300,16550,2,0,P|282:308|232:313,1,103.999995239258,2|0,3:2|0:0,0:0:0:0:
132,213,16800,1,2,3:2:0:0:
77,276,16925,2,0,P|80:328|85:384,1,103.999995239258,10|2,0:0|0:0,0:0:0:0:
164,339,17175,6,0,P|153:237|145:128,1,207.999990478516,2|10,3:2|0:0,0:0:0:0:
7,208,17550,2,0,P|84:186|145:166,1,103.999995239258,2|0,0:0|3:0,0:0:0:0:
189,143,17800,1,2,3:2:0:0:
283,229,17925,2,0,B|329:228|329:228|370:187|353:122,1,155.999992858887,10|0,0:0|0:0,0:0:0:0:
368,204,18175,54,0,B|353:330|353:330|387:357|414:385,1,207.999990478516,2|10,3:2|0:0,0:0:0:0:
479,298,18550,2,0,B|504:274|504:274|453:265|434:308,1,103.999995239258,2|0,3:2|0:0,0:0:0:0:
343,384,18800,1,2,3:2:0:0:
239,300,18925,2,0,B|222:289|209:274|209:274|140:284,1,103.999995239258,10|2,0:0|0:0,0:0:0:0:
64,301,19175,5,2,3:2:0:0:
155,323,19300,1,2,0:0:0:0:
193,237,19425,1,10,0:0:0:0:
267,204,19550,1,2,0:0:0:0:
342,260,19675,1,2,3:2:0:0:
449,230,19925,53,10,0:0:0:0:
459,147,20050,1,0,0:0:0:0:
470,65,20175,2,0,P|410:46|291:124,1,207.999990478516,2|10,3:2|0:0,0:0:0:0:
267,204,20550,2,0,P|198:186|155:177,1,103.999995239258,2|0,3:2|0:0,0:0:0:0:
213,105,20800,1,2,3:2:0:0:
360,327,20925,2,0,B|331:291|331:291|355:237|346:166,1,155.999992858887,10|0,0:0|0:0,0:0:0:0:
367,167,21175,6,0,B|426:144|426:144|454:222|424:299,1,207.999990478516,2|10,3:2|0:0,0:0:0:0:
285,361,21550,2,0,P|218:350|142:337,1,103.999995239258,2|0,0:0|0:0,0:0:0:0:
123,263,21800,1,2,3:2:0:0:
12,349,21925,2,0,P|63:369|111:326,1,103.999995239258,10|2,0:0|0:0,0:0:0:0:
204,266,22175,54,0,P|139:192|169:97,1,207.999990478516,2|10,3:2|0:0,0:0:0:0:
298,182,22550,2,0,B|320:200|320:200|243:173,1,103.999995239258,2|0,3:2|0:0,0:0:0:0:
109,130,22800,1,2,3:2:0:0:
259,88,22925,2,0,B|299:73|299:73|363:95,1,103.999995239258,10|2,0:0|0:0,0:0:0:0:
512,240,23175,5,10,0:0:0:0:
401,252,23300,1,2,3:2:0:0:
449,170,23425,1,10,0:0:0:0:
464,322,23550,1,2,3:2:0:0:
346,312,23675,53,10,0:0:0:0:
300,300,23800,1,8,0:0:0:0:
229,370,23925,5,10,0:0:0:0:
206,375,24050,1,10,0:0:0:0:
123,321,24175,53,2,0:0:0:0:
256,192,24237,12,2,26175,0:0:0:0:
128,160,26550,5,2,0:0:0:0:
256,272,26925,1,2,0:0:0:0:
384,160,27175,1,6,0:0:0:0:
421,42,28175,54,0,P|413:115|406:206,1,160,2|2,3:2|0:0,0:0:0:0:
436,239,28550,1,2,0:0:0:0:
463,279,28675,2,0,P|436:339|347:346,1,160,0|2,3:0|0:0,0:0:0:0:
151,193,29175,6,0,B|189:232|189:232|170:291|163:348,1,160,2|2,3:2|0:0,0:0:0:0:
210,351,29550,1,2,0:0:0:0:
257,361,29675,2,0,P|264:320|273:281,1,80,0|2,3:0|0:0,0:0:0:0:
288,237,29925,1,2,0:0:0:0:
324,78,30175,54,0,P|284:120|175:109,1,160,2|2,3:2|0:0,0:0:0:0:
159,79,30550,2,0,B|98:84|42:94|42:94|4:76,2,160,2|2|2,0:0|0:0|0:0,0:0:0:0:
123,168,31175,6,0,P|111:253|95:334,1,160,2|0,3:2|0:0,0:0:0:0:
75,283,31550,1,0,0:0:0:0:
121,269,31675,2,0,P|193:278|280:292,1,160,4|2,3:2|0:0,0:0:0:0:
308,331,32050,1,2,0:0:0:0:
343,364,32175,54,0,P|419:349|458:282,1,160,2|2,3:2|0:0,0:0:0:0:
452,234,32550,1,2,0:0:0:0:
416,202,32675,2,0,P|408:131|397:37,1,160,0|2,3:0|0:0,0:0:0:0:
349,41,33050,1,2,0:0:0:0:
302,33,33175,6,0,P|257:106|171:122,1,160,2|2,3:2|0:0,0:0:0:0:
212,167,33550,2,0,B|202:259,1,80,2|0,0:0|3:0,0:0:0:0:
159,264,33800,1,2,0:0:0:0:
114,281,33925,2,0,B|104:189,1,80,2|0,0:0|0:0,0:0:0:0:
61,184,34175,1,2,3:2:0:0:
256,352,34675,1,0,3:0:0:0:
451,184,34925,53,2,0:0:0:0:
480,320,35175,2,0,P|426:269|341:266,1,160,2|2,3:2|0:0,0:0:0:0:
303,290,35550,1,8,0:3:0:0:
463,138,35800,1,4,0:3:0:0:
451,184,35925,1,8,0:3:0:0:
255,28,36175,6,0,B|286:43|316:55|316:55|309:110|312:164,1,160,2|2,3:2|0:0,0:0:0:0:
262,175,36550,1,2,0:0:0:0:
211,198,36675,2,0,P|136:173|58:197,1,160,0|2,3:0|0:0,0:0:0:0:
114,212,37050,1,2,0:0:0:0:
117,156,37175,54,0,P|112:113|107:63,1,80,2|0,3:2|0:0,0:0:0:0:
57,298,37425,1,2,0:0:0:0:
109,278,37550,2,0,P|148:273|188:269,1,80,2|0,0:0|3:0,0:0:0:0:
228,309,37800,1,2,0:0:0:0:
281,291,37925,1,2,0:0:0:0:
393,298,38175,6,0,P|401:242|416:135,1,160,2|2,3:2|0:0,0:0:0:0:
444,188,38550,2,0,P|387:189|279:193,2,160,2|2|2,0:0|0:0|0:0,0:0:0:0:
318,228,39175,54,0,P|329:148|340:69,1,160,2|0,3:2|0:0,0:0:0:0:
290,45,39550,1,0,0:0:0:0:
237,28,39675,2,0,L|148:33,1,80,0|0,3:0|0:0,0:0:0:0:
58,113,39925,5,2,0:0:0:0:
70,168,40050,1,2,0:0:0:0:
84,222,40175,2,0,P|150:244|210:324,1,160,2|2,3:2|0:0,0:0:0:0:
180,331,40550,1,2,0:0:0:0:
155,351,40675,1,0,3:0:0:0:
285,209,40925,54,0,L|288:300,1,80,2|0,0:0|0:0,0:0:0:0:
355,350,41175,2,0,P|398:353|487:258,1,160,2|2,3:2|0:0,0:0:0:0:
467,195,41550,2,0,P|424:198|335:103,1,160,2|2,0:0|0:0,0:0:0:0:
466,68,41925,2,0,B|487:72|487:72|471:107|425:97,1,80,2|0,0:0|0:0,0:0:0:0:
367,36,42175,2,0,B|264:-1|264:-1|195:105|87:105,1,320,2|0,3:2|3:0,0:0:0:0:
92,104,42925,5,2,0:0:0:0:
253,140,43175,1,2,3:2:0:0:
219,230,43425,53,2,0:0:0:0:
126,242,43550,1,2,0:0:0:0:
156,344,43800,5,2,0:0:0:0:
185,349,43925,1,0,0:0:0:0:
256,304,44050,53,2,0:0:0:0:
285,299,44175,1,4,3:2:0:0:
400,368,44425,6,0,L|415:273,2,95.9999970703126,2|2|8,0:0|0:0|0:0,0:0:0:0:
445,306,44800,1,2,0:0:0:0:
398,245,44925,1,2,0:0:0:0:
480,208,45175,54,0,P|439:155|473:30,1,191.999994140625,2|2,3:2|0:0,0:0:0:0:
476,116,45550,1,2,0:0:0:0:
406,147,45675,1,8,0:0:0:0:
272,70,45925,5,2,0:0:0:0:
304,140,46050,1,2,0:0:0:0:
243,65,46175,2,0,P|154:42|42:25,1,191.999994140625,2|2,3:2|0:0,0:0:0:0:
11,153,46550,2,0,B|-2:180|-2:180|36:157|85:142,1,95.9999970703126,2|8,0:0|0:0,0:0:0:0:
132,130,46800,1,0,0:0:0:0:
96,245,46925,54,0,P|97:297|118:249,1,143.999995605469,2|0,0:0|0:0,0:0:0:0:
116,211,47175,1,2,3:2:0:0:
256,352,47425,1,0,0:0:0:0:
396,210,47675,2,0,P|443:206|488:221,1,95.9999970703126,10|0,0:0|0:0,0:0:0:0:
475,323,47925,2,0,P|427:327|382:312,1,95.9999970703126,2|0,0:0|0:0,0:0:0:0:
321,254,48175,5,2,3:2:0:0:
494,131,48425,1,2,0:0:0:0:
435,194,48550,1,2,0:0:0:0:
409,111,48675,1,8,0:0:0:0:
468,48,48800,1,2,0:0:0:0:
389,115,48925,2,0,L|328:131,2,47.9999985351563,2|2|2,0:0|0:0|0:0,0:0:0:0:
409,111,49175,54,0,P|345:44|249:55,1,191.999994140625,2|2,3:2|0:0,0:0:0:0:
225,135,49550,1,2,0:0:0:0:
157,189,49675,2,0,P|64:197|0:130,1,191.999994140625,8|2,0:0|0:0,0:0:0:0:
0,130,50175,6,0,P|53:205|27:294,1,191.999994140625,2|2,3:2|0:0,0:0:0:0:
61,330,50550,1,2,0:0:0:0:
95,364,50675,2,0,P|185:357|303:349,2,191.999994140625,8|2|2,0:0|0:0|3:2,0:0:0:0:
336,272,51425,1,0,0:0:0:0:
140,184,51675,53,10,0:0:0:0:
154,273,51800,1,2,0:0:0:0:
244,257,51925,1,2,0:0:0:0:
228,168,52050,1,2,0:0:0:0:
213,335,52175,5,6,3:2:0:0:
402,97,52425,54,0,P|321:89|278:85,1,95.9999970703126,2|2,0:0|0:0,0:0:0:0:
228,168,52675,2,0,P|276:173|324:178,1,95.9999970703126,10|2,0:0|0:0,0:0:0:0:
400,259,52925,1,2,0:0:0:0:
336,336,53175,6,0,P|264:298|164:333,1,191.999994140625,2|2,3:2|0:0,0:0:0:0:
76,312,53550,1,2,0:0:0:0:
52,224,53675,1,8,0:0:0:0:
52,224,53925,54,0,L|44:120,1,95.9999970703126,2|2,0:0|0:0,0:0:0:0:
156,197,54175,2,0,B|176:132|176:132|141:82|146:12,1,191.999994140625,0|2,3:2|0:0,0:0:0:0:
146,15,54550,5,2,0:0:0:0:
146,15,54675,1,8,0:0:0:0:
349,52,54925,1,2,0:0:0:0:
483,74,55175,1,6,3:2:0:0:
483,74,55675,54,0,L|500:175,1,95.9999970703126,4|4,0:3|0:3,0:0:0:0:
421,213,55925,1,8,0:3:0:0:
412,300,56050,1,8,0:3:0:0:
472,352,56175,6,0,P|375:336|305:354,1,160,2|0,3:2|0:0,0:0:0:0:
240,356,56550,2,0,P|280:324|268:220,1,160,0|0,3:0|3:0,0:0:0:0:
271,224,56925,2,0,L|192:200,1,80,10|0,0:0|0:0,0:0:0:0:
70,211,57175,54,0,P|51:256|135:321,1,160,2|2,3:2|0:0,0:0:0:0:
122,322,57550,2,0,B|178:297|178:297|196:185,1,160,2|0,3:2|3:0,0:0:0:0:
160,128,57925,2,0,L|80:92,1,80,10|0,0:0|0:0,0:0:0:0:
48,76,58175,5,14,3:2:0:0:
194,200,58550,1,8,0:0:0:0:
344,144,58925,1,8,0:0:0:0:
440,208,59175,1,8,0:0:0:0:
228,183,59675,53,2,0:0:0:0:
228,183,59925,1,2,0:0:0:0:
32,147,60175,6,0,P|142:110|229:184,1,240.000009155274,6|10,3:2|0:0,0:0:0:0:
343,119,60550,2,0,P|337:59|333:-1,1,120.000004577637,2|0,3:2|0:0,0:0:0:0:
253,62,60800,1,2,3:2:0:0:
488,142,60925,2,0,B|425:156|425:156|402:197|402:197|319:215,1,180.000006866455,10|0,0:0|0:0,0:0:0:0:
264,268,61175,54,0,P|243:328|193:358,1,120.000004577637,2|0,3:2|0:0,0:0:0:0:
32,147,61425,2,0,P|53:87|103:57,1,120.000004577637,8|0,0:0|0:0,0:0:0:0:
113,264,61675,1,2,3:2:0:0:
35,233,61800,1,2,3:2:0:0:
104,185,61925,2,0,P|198:187|242:195,1,120.000004577637,10|0,0:0|0:0,0:0:0:0:
232,308,62175,6,0,B|296:315|336:249|336:249|388:209|464:225,1,240.000009155274,2|10,3:2|0:0,0:0:0:0:
462,357,62550,2,0,P|422:348|402:317,1,80,2|0,3:2|0:0,0:0:0:0:
503,286,62800,1,2,3:2:0:0:
331,365,62925,2,0,L|304:183,1,180.000006866455,10|0,0:0|0:0,0:0:0:0:
407,136,63175,54,0,P|291:148|207:66,2,240.000009155274,2|8|2,3:2|0:0|3:2,0:0:0:0:
338,50,63800,1,2,3:2:0:0:
338,50,63862,1,2,0:0:0:0:
338,50,63925,1,10,0:0:0:0:
456,28,64050,1,0,0:0:0:0:
391,186,64175,6,0,B|482:240|482:240|438:378,1,240.000009155274,2|10,3:2|0:0,0:0:0:0:
225,243,64550,2,0,L|205:32,1,191.999994140625,2|0,3:2|3:2,0:0:0:0:
303,313,64925,2,0,P|252:343|193:340,1,120.000004577637,10|0,0:0|0:0,0:0:0:0:
118,209,65175,53,2,3:2:0:0:
225,243,65300,1,0,0:0:0:0:
89,316,65425,1,10,0:0:0:0:
111,196,65550,1,0,0:0:0:0:
238,236,65675,6,0,P|272:210|295:126,1,120.000004577637,2|0,3:2|3:0,0:0:0:0:
124,4,65925,2,0,B|47:75|47:75|118:210,1,240.000009155274,10|2,0:0|3:2,0:0:0:0:
169,99,66300,1,0,0:0:0:0:
351,67,66425,1,10,0:0:0:0:
238,236,66550,2,0,B|215:183|240:98|272:154|292:91|252:9,1,240.000009155274,2|0,3:2|3:0,0:0:0:0:
327,199,66925,2,0,P|385:187|457:205,1,120.000004577637,10|0,0:0|0:0,0:0:0:0:
155,282,67175,1,10,0:0:0:0:
155,282,67425,53,8,0:0:0:0:
373,301,67550,1,0,3:0:0:0:
327,199,67675,1,10,0:0:0:0:
201,384,67800,1,0,3:0:0:0:
306,384,67925,1,10,0:0:0:0:
223,201,68050,1,8,0:0:0:0:
265,294,68175,5,6,3:2:0:0:
265,294,68425,1,10,0:0:0:0:
265,294,68550,2,0,B|201:268|130:306|170:321|100:361|29:325,1,240.000009155274,2|2,3:2|3:2,0:0:0:0:
83,230,68925,2,0,P|84:160|77:86,1,120.000004577637,10|0,0:0|0:0,0:0:0:0:
246,23,69175,54,0,P|168:103|223:201,1,240.000009155274,2|8,3:2|0:0,0:0:0:0:
290,147,69550,1,0,0:0:0:0:
460,228,69675,1,2,3:2:0:0:
396,300,69800,1,2,3:2:0:0:
364,207,69925,2,0,P|372:147|382:88,1,120.000004577637,10|0,0:0|0:0,0:0:0:0:
295,288,70175,6,0,B|259:371|259:371|82:350,1,240.000009155274,2|10,3:2|0:0,0:0:0:0:
206,276,70550,2,0,L|193:140,1,120.000004577637,2|0,3:2|0:0,0:0:0:0:
194,156,70800,1,2,3:2:0:0:
89,222,70925,2,0,P|87:262|96:223,1,120.000004577637,10|0,0:0|0:0,0:0:0:0:
92,243,71175,54,0,B|50:188|79:116|108:144|134:82|100:17,1,240.000009155274,2|8,3:2|0:0,0:0:0:0:
23,71,71550,1,0,0:0:0:0:
225,51,71675,1,2,3:2:0:0:
225,51,71737,1,2,0:0:0:0:
225,51,71800,1,2,3:2:0:0:
427,31,71925,2,0,L|414:168,1,120.000004577637,10|0,0:0|0:0,0:0:0:0:
348,332,72175,6,0,B|392:212|255:138|177:234|236:327|312:270,1,287.999991210938,2|10,3:2|0:0,0:0:0:0:
443,247,72550,2,0,B|475:219|508:176|508:176|474:264|465:383,1,287.999991210938,2|0,3:2|3:0,0:0:0:0:
274,285,72925,2,0,B|207:291|207:291|212:295|212:295|199:292|199:292|122:298,1,143.999995605469,10|0,0:0|0:0,0:0:0:0:
31,353,73175,54,0,B|-24:319|13:434|168:394|138:258,1,215.999993408203,2|0,3:2|0:0,0:0:0:0:
199,211,73425,2,0,B|153:140|153:140|18:170,1,215.999993408203,10|0,0:0|0:0,0:0:0:0:
24,168,73675,5,2,3:2:0:0:
141,296,73800,1,0,0:0:0:0:
284,239,73925,2,0,L|407:226,1,120.000004577637,10|0,0:0|0:0,0:0:0:0:
401,266,74175,54,0,L|283:239,1,120.000004577637,2|0,3:2|0:0,0:0:0:0:
227,306,74425,1,10,0:0:0:0:
354,80,74550,2,0,P|229:115|205:237,1,240.000009155274,2|0,3:2|3:0,0:0:0:0:
198,210,74925,2,0,P|144:184|84:180,1,120.000004577637,10|0,0:0|0:0,0:0:0:0:
293,166,75175,1,10,0:0:0:0:
293,166,75425,5,8,0:0:0:0:
198,210,75550,1,0,3:0:0:0:
286,267,75675,1,10,0:0:0:0:
81,384,75800,53,0,3:0:0:0:
67,290,75925,1,10,0:0:0:0:
54,196,76050,1,10,0:0:0:0:
188,228,76175,6,0,P|190:138|190:98,1,120.000004577637,6|0,3:2|0:0,0:0:0:0:
392,236,76425,2,0,P|394:146|394:106,1,120.000004577637,8|2,0:0|0:0,0:0:0:0:
293,166,76675,1,0,3:0:0:0:
288,244,76800,1,2,0:0:0:0:
284,320,76925,2,0,B|332:348|376:316|376:316|336:308,1,120.000004577637,10|2,0:0|0:0,0:0:0:0:
188,332,77175,54,0,B|116:348|48:324|48:324|32:296|8:272,1,180.000006866455,2|0,3:2|0:0,0:0:0:0:
100,200,77425,2,0,B|132:204|132:204|140:244,1,60.0000022888184,10|0,0:0|0:0,0:0:0:0:
100,236,77550,2,0,P|156:200|324:164,1,240.000009155274,2|0,0:0|0:0,0:0:0:0:
312,184,77925,2,0,P|292:120|272:48,1,120.000004577637,10|0,0:0|0:0,0:0:0:0:
296,304,78175,6,0,B|356:336|420:288|388:264|428:224|512:252,1,240.000009155274,2|10,3:2|0:0,0:0:0:0:
504,296,78550,2,0,B|439:317|384:258|420:240|387:194|300:207,1,240.000009155274,2|2,0:0|0:0,0:0:0:0:
440,68,78925,2,0,P|492:104|472:168,1,120.000004577637,10|0,0:0|0:0,0:0:0:0:
364,120,79175,54,0,P|280:108|120:88,2,240.000009155274,2|8|2,3:2|0:0|3:2,0:0:0:0:
240,144,79800,1,0,0:0:0:0:
252,60,79925,1,10,0:0:0:0:
204,216,80050,2,0,B|232:232|232:232|264:220,1,60.0000022888184
276,216,80175,6,0,B|188:216|128:292|128:292|132:336|100:364,1,240.000009155274,6|8,3:2|0:0,0:0:0:0:
52,304,80550,1,2,0:0:0:0:
200,372,80675,2,0,B|260:360|260:360|284:292,1,120.000004577637,0|2,3:0|0:0,0:0:0:0:
279,304,80925,1,10,0:0:0:0:
76,208,81050,2,0,L|184:224,1,60.0000022888184,2|0,0:0|0:0,0:0:0:0:
208,256,81175,54,0,B|228:196|188:128|188:128|212:80,1,180.000006866455,2|0,3:2|0:0,0:0:0:0:
288,72,81425,2,0,B|294:91|292:107|292:107|281:117|275:133,1,60.0000022888184,10|0,0:0|0:0,0:0:0:0:
132,64,81550,2,0,B|134:43|143:29|143:29|176:-4|228:8,1,120.000004577637,2|0,0:0|3:0,0:0:0:0:
284,60,81800,1,2,0:0:0:0:
368,76,81925,1,10,0:0:0:0:
444,40,82050,1,2,0:0:0:0:
388,104,82175,6,0,B|356:176|400:248|448:264|448:264|460:232|488:224,1,240.000009155274,2|10,3:2|0:0,0:0:0:0:
276,208,82550,2,0,B|260:204|244:188|244:188|248:248|304:304|352:316|352:316|340:304|336:280,1,240.000009155274,2|2,0:0|0:0,0:0:0:0:
192,324,82925,2,0,B|176:323|176:323|196:365|196:365|242:363|242:363|235:349,1,120.000004577637,10|2,0:0|0:0,0:0:0:0:
168,240,83175,54,0,B|88:252|61:336|61:336|38:378|-8:384,2,240.000009155274,2|8|10,3:2|0:0|0:0,0:0:0:0:
32,204,83800,1,8,0:0:0:0:
184,140,83925,1,10,0:0:0:0:
32,100,84050,1,8,0:0:0:0:
205,137,84175,6,0,B|275:110|283:20|283:20|294:82|340:105,1,240.000009155274,6|8,3:2|0:0,0:0:0:0:
326,97,84550,2,0,P|393:91|456:81,1,120.000004577637,2|0,0:0|3:0,0:0:0:0:
398,180,84800,1,2,0:0:0:0:
470,263,84925,2,0,P|403:269|340:279,1,120.000004577637,10|2,0:0|0:0,0:0:0:0:
184,337,85175,54,0,P|293:306|306:194,1,240.000009155274,2|10,3:2|0:0,0:0:0:0:
132,265,85550,2,0,B|98:268|98:268|82:263|82:263|-2:270,1,120.000004577637,2|0,0:0|3:0,0:0:0:0:
206,214,85800,1,0,0:0:0:0:
206,214,85925,2,0,P|203:131|198:69,1,120.000004577637,10|0,0:0|0:0,0:0:0:0:
92,112,86175,6,0,B|181:103|190:7|190:7|225:38|271:34,1,240.000009155274,2|10,3:2|0:0,0:0:0:0:
206,214,86550,2,0,P|257:244|315:281,1,120.000004577637,2|0,0:0|3:0,0:0:0:0:
233,133,86800,1,2,0:0:0:0:
366,117,86925,2,0,P|393:59|398:-1,1,120.000004577637,10|2,0:0|0:0,0:0:0:0:
462,185,87175,54,0,P|358:240|352:355,2,240.000009155274,2|8|2,3:2|0:0|3:2,0:0:0:0:
512,260,87800,1,0,0:0:0:0:
443,317,87925,1,10,0:0:0:0:
308,276,88050,1,0,0:0:0:0:
239,333,88175,6,0,B|169:359|105:319|138:298|66:260|12:286,1,240.000009155274,6|8,3:2|0:0,0:0:0:0:
197,234,88550,2,0,P|255:212|321:191,1,120.000004577637,2|0,0:0|3:0,0:0:0:0:
109,196,88800,2,0,P|87:138|66:72,2,120.000004577637,2|10|2,0:0|0:0|0:0,0:0:0:0:
185,150,89175,54,0,B|236:84|252:0|252:0|249:46|260:88,1,240.000009155274,2|10,3:2|0:0,0:0:0:0:
310,194,89550,2,0,B|317:221|314:267|314:267|330:183|381:117,1,240.000009155274,2|0,0:0|0:0,0:0:0:0:
471,82,89925,2,0,P|510:78|471:87,1,120.000004577637,10|0,0:0|0:0,0:0:0:0:
491,81,90175,6,0,P|388:32|270:68,1,240.000009155274,2|10,3:2|0:0,0:0:0:0:
150,175,90550,2,0,P|142:116|164:61,1,120,2|0,0:0|0:0,0:0:0:0:
184,42,90800,1,2,0:0:0:0:
232,204,90925,1,10,0:0:0:0:
70,252,91050,1,2,0:0:0:0:
22,90,91175,53,6,3:2:0:0:
176,288,91675,1,6,0:0:0:0:
368,128,92175,1,4,3:2:0:0:
76,48,108175,6,0,P|152:52|208:120,1,160,6|10,3:2|0:0,0:0:0:0:
80,264,108550,54,0,L|-20:252,1,80,2|0,3:2|0:0,0:0:0:0:
160,340,108800,1,0,3:0:0:0:
160,340,108925,2,0,P|177:304|186:265,1,80,10|2,0:0|0:0,0:0:0:0:
312,192,109175,6,0,P|292:264|340:348,1,160,2|10,3:2|0:0,0:0:0:0:
327,337,109550,2,0,P|368:332|432:328,1,80,2|0,3:2|0:0,0:0:0:0:
488,336,109800,1,2,3:2:0:0:
364,248,109925,2,0,P|304:240|244:232,1,120,10|0,0:0|0:0,0:0:0:0:
212,228,110175,54,0,P|164:244|132:256,1,80,2|0,3:2|0:0,0:0:0:0:
296,348,110425,1,10,0:0:0:0:
392,240,110550,2,0,P|388:200|380:108,1,120,2|0,3:2|0:0,0:0:0:0:
380,120,110800,2,0,P|433:101|483:85,2,80,2|8|2,3:2|0:0|0:0,0:0:0:0:
296,152,111175,6,0,P|249:93|167:63,1,160,2|8,3:2|0:0,0:0:0:0:
80,216,111550,2,0,B|124:224|124:224|156:196,1,80,0|0,3:0|0:0,0:0:0:0:
96,136,111800,1,0,3:0:0:0:
64,240,111925,2,0,P|76:288|96:348,1,80,10|2,0:0|0:0,0:0:0:0:
208,376,112175,54,0,B|232:356|252:340|252:340|248:300|244:228,1,160,2|10,3:2|0:0,0:0:0:0:
384,204,112550,2,0,B|360:224|340:240|340:240|344:280|348:352,1,160,2|0,3:2|3:0,0:0:0:0:
347,342,112925,2,0,P|411:346|443:350,1,80,10|2,0:0|0:0,0:0:0:0:
496,304,113175,6,0,P|508:264|496:224,1,80,2|0,3:2|0:0,0:0:0:0:
412,188,113425,1,10,0:0:0:0:
512,124,113550,2,0,P|468:80|360:76,1,160,2|2,3:2|3:2,0:0:0:0:
288,168,113925,2,0,P|290:195|292:167,1,80,10|0,0:0|0:0,0:0:0:0:
292,180,114175,54,0,L|104:152,1,160,2|8,3:2|0:0,0:0:0:0:
212,68,114550,2,0,L|296:52,1,80,0|0,3:0|0:0,0:0:0:0:
224,252,114800,1,0,3:0:0:0:
145,266,114924,1,10,0:0:0:0:
24,136,115175,5,2,3:2:0:0:
256,356,115425,1,8,0:3:0:0:
360,312,115550,2,0,P|368:272|368:220,1,80,4|2,0:3|3:2,0:0:0:0:
168,140,115800,53,2,0:0:0:0:
208,256,115925,1,10,0:0:0:0:
288,164,116050,1,8,0:0:0:0:
179,174,116175,6,0,P|119:198|85:213,1,80,6|0,3:2|0:0,0:0:0:0:
104,204,116425,1,10,0:0:0:0:
288,164,116550,2,0,B|297:108|268:54|268:54|294:81|331:94,1,160,2|0,3:2|3:0,0:0:0:0:
374,134,116925,1,10,0:0:0:0:
279,265,117050,1,2,0:0:0:0:
360,312,117175,54,0,P|399:308|455:305,1,80,2|0,3:2|0:0,0:0:0:0:
369,288,117425,1,10,0:0:0:0:
269,384,117550,2,0,P|229:381|189:377,1,80,2|0,0:0|3:0,0:0:0:0:
101,234,117800,1,2,3:2:0:0:
110,328,117925,2,0,P|99:265|95:221,1,80,10|0,0:0|0:0,0:0:0:0:
220,158,118175,6,0,B|233:167|245:186|245:186|189:155|120:149,1,160,2|10,3:2|0:0,0:0:0:0:
39,166,118550,2,0,P|13:172|38:161,1,80,2|0,3:2|0:0,0:0:0:0:
88,78,118800,2,0,L|74:-6,1,80,2|8,3:2|0:0,0:0:0:0:
77,96,119050,1,2,0:0:0:0:
220,158,119175,54,0,P|304:130|330:59,1,160,2|8,3:2|0:0,0:0:0:0:
294,175,119550,2,0,L|303:258,1,80,0|0,0:0|3:0,0:0:0:0:
253,328,119800,1,0,3:0:0:0:
330,370,119925,2,0,P|369:362|407:339,1,80,10|2,0:0|0:0,0:0:0:0:
500,361,120175,6,0,B|505:284|505:284|509:275|509:275|513:202,1,160,2|10,3:2|0:0,0:0:0:0:
400,128,120550,2,0,P|406:181|402:222,1,80,2|0,3:2|0:0,0:0:0:0:
316,267,120800,1,0,3:0:0:0:
241,118,120925,2,0,P|232:157|231:196,1,80,10|2,0:0|0:0,0:0:0:0:
315,289,121175,54,0,P|268:318|159:289,1,160,2|10,3:2|0:0,0:0:0:0:
71,341,121550,2,0,P|47:297|46:248,1,80,2|0,0:0|3:0,0:0:0:0:
46,243,121800,1,2,3:2:0:0:
236,184,121925,2,0,B|212:184|186:167|186:167|214:175|244:174,1,103.999995239258,10|0,0:0|0:0,0:0:0:0:
371,132,122175,6,0,B|320:113|272:141|272:141|260:174|223:192,1,160,2|8,3:2|0:0,0:0:0:0:
198,98,122550,1,0,3:0:0:0:
328,205,122675,1,0,0:0:0:0:
349,46,122800,1,0,3:0:0:0:
288,108,122925,53,10,0:0:0:0:
512,208,123175,1,10,0:0:0:0:
364,330,123425,1,10,0:0:0:0:
395,256,123550,1,2,3:2:0:0:
443,319,123675,5,8,0:3:0:0:
348,308,123800,1,8,0:3:0:0:
253,297,123925,1,4,0:3:0:0:
158,286,124050,1,4,0:3:0:0:
84,352,124175,53,4,3:2:0:0:
84,352,124425,6,0,P|60:316|64:256,1,88.000002685547,2|2,0:0|0:0,0:0:0:0:
227,217,124675,2,0,P|251:253|247:313,1,88.000002685547,10|2,0:0|0:0,0:0:0:0:
158,286,124925,2,0,L|124:188,1,88.000002685547,2|2,0:0|0:0,0:0:0:0:
172,136,125175,54,0,P|104:168|8:116,1,176.000005371094,2|2,3:2|0:0,0:0:0:0:
96,64,125550,1,2,0:0:0:0:
196,48,125675,1,8,0:0:0:0:
196,48,125925,5,2,0:0:0:0:
296,32,126050,1,2,0:0:0:0:
396,16,126175,2,0,P|464:56|472:160,1,176.000005371094,2|2,3:2|0:0,0:0:0:0:
512,216,126550,2,0,P|494:293|398:332,1,176.000005371094,2|2,0:0|0:0,0:0:0:0:
348,376,126925,2,0,P|288:364|260:324,1,88.000002685547,2|0,0:0|0:0,0:0:0:0:
340,292,127175,53,2,3:2:0:0:
160,348,127425,1,0,0:0:0:0:
352,272,127675,2,0,L|252:248,1,88.000002685547,10|0,0:0|0:0,0:0:0:0:
144,220,127925,2,0,L|44:196,1,88.000002685547,2|0,0:0|0:0,0:0:0:0:
220,184,128175,6,0,P|240:108|180:32,1,176.000005371094,2|2,3:2|0:0,0:0:0:0:
185,34,128550,2,0,P|203:79|328:104,1,176.000005371094,2|0,0:0|0:0,0:0:0:0:
392,152,128925,2,0,L|468:100,1,88.000002685547,2|0,0:0|0:0,0:0:0:0:
388,180,129175,2,0,P|392:264|472:308,1,176.000005371094,2|2,3:2|0:0,0:0:0:0:
464,307,129550,1,2,0:0:0:0:
364,372,129675,1,8,0:0:0:0:
364,372,129925,53,2,0:0:0:0:
252,364,130050,1,2,0:0:0:0:
140,356,130175,2,0,P|72:328|52:216,1,176.000005371094,2|2,3:2|0:0,0:0:0:0:
144,212,130550,1,2,0:0:0:0:
144,212,130675,2,0,L|168:20,2,176.000005371094,8|2|2,0:0|0:0|3:2,0:0:0:0:
56,128,131425,5,0,0:0:0:0:
260,32,131675,53,10,0:0:0:0:
236,116,131799,1,2,0:0:0:0:
324,104,131924,1,2,0:0:0:0:
348,20,132049,1,2,0:0:0:0:
432,8,132174,1,4,3:2:0:0:
412,96,132425,5,2,0:0:0:0:
480,140,132550,1,2,0:0:0:0:
496,216,132675,1,10,0:0:0:0:
472,292,132800,1,2,0:0:0:0:
404,328,132925,1,2,0:0:0:0:
404,328,133175,54,0,P|300:312|192:308,1,176.000005371094,2|2,3:2|0:0,0:0:0:0:
140,376,133550,1,2,0:0:0:0:
60,296,133675,1,8,0:0:0:0:
60,296,133925,6,0,P|48:240|32:196,1,88.000002685547,2|2,0:0|0:0,0:0:0:0:
152,256,134175,2,0,P|188:192|272:120,1,176.000005371094,2|2,3:2|0:0,0:0:0:0:
96,60,134550,2,0,P|108:136|116:176,1,88.000002685547,2|8,0:0|0:0,0:0:0:0:
200,232,134800,1,2,0:0:0:0:
284,240,134925,2,0,P|376:228|496:204,1,176.000005371094,2|6,0:0|3:2,0:0:0:0:
457,212,135675,53,8,0:3:0:0:
368,184,135800,1,8,0:3:0:0:
416,32,135925,1,4,0:3:0:0:
505,60,136050,1,4,0:3:0:0:
436,124,136175,1,2,3:2:0:0:
129,112,136550,6,0,P|137:212|149:304,1,160,0|0,3:0|3:0,0:0:0:0:
193,336,136925,1,10,0:0:0:0:
457,212,137175,54,0,P|393:176|317:208,1,160,2|2,3:2|0:0,0:0:0:0:
283,276,137550,2,0,P|212:307|143:270,1,160,2|0,3:2|3:0,0:0:0:0:
129,196,137925,1,10,0:0:0:0:
400,308,138175,6,0,P|416:192|440:44,2,240,14|8|8,0:0|0:0|0:0,0:0:0:0:
120,372,139175,1,8,0:0:0:0:
296,256,139675,53,10,0:0:0:0:
208,216,139800,1,8,0:0:0:0:
304,172,139925,1,10,0:0:0:0:
216,132,140050,1,8,0:0:0:0:
268,332,140175,6,0,P|351:317|372:235,1,180.000006866455,6|0,3:2|0:0,0:0:0:0:
356,204,140425,1,10,0:0:0:0:
200,376,140550,2,0,P|144:372|48:368,1,120.000004577637,2|0,3:2|0:0,0:0:0:0:
24,220,140800,1,2,3:2:0:0:
116,264,140925,2,0,P|184:244|200:156,1,120.000004577637,10|0,0:0|0:0,0:0:0:0:
184,0,141175,54,0,B|136:24|92:48|92:48|108:112|128:196,1,240.000009155274,2|8,3:2|0:0,0:0:0:0:
216,76,141550,1,0,0:0:0:0:
416,128,141675,1,2,3:2:0:0:
264,136,141800,1,2,3:2:0:0:
372,64,141925,1,10,0:0:0:0:
336,128,142050,1,0,0:0:0:0:
476,220,142175,6,0,P|488:284|464:340,1,120.000004577637,2|0,3:2|0:0,0:0:0:0:
392,356,142425,1,10,0:0:0:0:
312,204,142550,2,0,P|224:212|144:224,1,120.000004577637,2|0,3:2|0:0,0:0:0:0:
112,232,142800,1,2,3:2:0:0:
264,312,142925,54,0,P|260:352|259:312,1,120.000004577637,10|0,0:0|0:0,0:0:0:0:
263,332,143175,2,0,B|292:256|252:198|230:225|187:162|223:93,1,240.000009155274,2|8,3:2|0:0,0:0:0:0:
184,284,143550,1,0,0:0:0:0:
44,336,143675,1,2,3:2:0:0:
96,236,143800,1,2,3:2:0:0:
4,164,143925,2,0,P|0:96|0:36,1,120.000004577637,10|0,0:0|0:0,0:0:0:0:
152,92,144175,6,0,B|224:88|252:136|252:136|292:160|352:136,1,180.000006866455,2|0,3:2|0:0,0:0:0:0:
356,132,144425,1,8,0:0:0:0:
500,80,144550,2,0,P|498:150|436:244,1,180.000006866455,2|0,3:2|0:0,0:0:0:0:
408,256,144800,1,0,3:0:0:0:
287,251,144925,2,0,P|284:316|248:360,1,120.000004577637,10|0,0:0|0:0,0:0:0:0:
92,196,145175,54,0,P|160:196|232:200,1,120.000004577637,2|0,3:2|0:0,0:0:0:0:
352,376,145425,2,0,P|420:376|492:372,1,120.000004577637,10|0,0:0|0:0,0:0:0:0:
260,280,145675,2,0,B|200:272|156:304|156:304|148:328|148:328|108:364|48:352,1,240.000009155274,2|10,3:2|0:0,0:0:0:0:
0,232,146050,1,0,0:0:0:0:
128,104,146175,6,0,P|120:172|108:248,1,120.000004577637,2|0,3:2|0:0,0:0:0:0:
211,198,146425,2,0,P|219:138|226:79,1,120.000004577637,10|2,0:0|3:2,0:0:0:0:
248,40,146612,1,2,0:0:0:0:
216,8,146675,2,0,P|156:4|96:1,1,120.000004577637,0|0,0:0|3:0,0:0:0:0:
300,156,146925,2,0,P|359:152|419:149,1,120.000004577637,10|0,0:0|0:0,0:0:0:0:
476,68,147175,53,10,0:0:0:0:
476,68,147425,5,8,0:0:0:0:
448,252,147550,1,0,3:0:0:0:
248,220,147675,1,10,0:0:0:0:
348,240,147800,1,0,3:0:0:0:
332,348,147925,1,10,0:0:0:0:
224,328,148050,1,8,0:0:0:0:
356,236,148175,54,0,P|428:228|512:220,1,120.000004577637,6|0,3:2|0:0,0:0:0:0:
332,348,148425,1,10,0:0:0:0:
224,328,148550,2,0,P|164:322|104:315,1,120.000004577637,2|0,3:2|0:0,0:0:0:0:
168,133,148800,1,2,3:2:0:0:
208,233,148925,1,10,0:0:0:0:
280,152,149050,1,0,0:0:0:0:
64,309,149175,6,0,P|40:233|44:73,2,240.000009155274,2|8|2,3:2|0:0|3:2,0:0:0:0:
208,256,149800,1,2,3:2:0:0:
280,300,149925,2,0,P|388:300|452:300,1,120.000004577637,10|0,0:0|0:0,0:0:0:0:
260,188,150175,54,0,P|364:180|472:172,1,180.000006866455,2|0,3:2|0:0,0:0:0:0:
476,172,150425,1,10,0:0:0:0:
332,28,150550,2,0,P|328:84|324:172,1,120.000004577637,2|0,3:2|0:0,0:0:0:0:
208,256,150800,1,2,3:2:0:0:
152,68,150925,2,0,P|148:124|144:212,1,120.000004577637,10|0,0:0|0:0,0:0:0:0:
80,340,151175,6,0,P|116:372|272:300,2,240.000009155274,2|8|2,3:2|0:0|3:2,0:0:0:0:
120,268,151800,1,2,3:2:0:0:
8,208,151925,2,0,P|4:148|0:80,1,120.000004577637,10|0,0:0|0:0,0:0:0:0:
0,224,152175,54,0,B|144:224|64:144|216:144,1,240.000009155274,2|10,3:2|0:0,0:0:0:0:
344,268,152550,2,0,P|408:272|484:268,1,120.000004577637,2|0,3:2|0:0,0:0:0:0:
280,320,152800,1,0,3:0:0:0:
416,228,152925,2,0,P|424:176|428:104,1,120.000004577637,10|0,0:0|0:0,0:0:0:0:
216,32,153175,6,0,B|192:80|192:80|224:160|220:272,2,240.000009155274,2|10|2,3:2|0:0|3:2,0:0:0:0:
284,88,153800,1,0,0:0:0:0:
136,224,153925,2,0,P|140:288|136:360,1,120.000004577637,10|0,0:0|0:0,0:0:0:0:
304,268,154175,54,0,P|376:264|464:264,1,120.000004577637,2|0,3:2|0:0,0:0:0:0:
260,344,154425,1,10,0:0:0:0:
420,284,154550,2,0,P|363:264|305:247,1,120.000004577637,2|0,3:2|0:0,0:0:0:0:
236,184,154800,1,0,3:0:0:0:
324,152,154925,1,10,0:0:0:0:
176,240,155175,6,0,P|147:164|121:97,1,120.000004577637,10|0,0:0|3:0,0:0:0:0:
336,240,155425,2,0,P|364:164|390:97,1,120.000004577637,10|0,0:0|3:0,0:0:0:0:
116,332,155675,2,0,P|45:292|-17:257,1,120.000004577637,10|0,0:0|3:0,0:0:0:0:
396,332,155925,2,0,P|466:292|529:257,1,120.000004577637,10|8,0:0|0:0,0:0:0:0:
256,384,156175,53,6,3:2:0:0:
48,200,156425,1,10,0:0:0:0:
48,200,156550,2,0,P|48:124|52:68,1,103.999995239258,2|0,0:0|3:0,0:0:0:0:
232,56,156800,1,2,0:0:0:0:
232,56,156925,2,0,P|232:132|228:188,1,103.999995239258,10|2,0:0|0:0,0:0:0:0:
136,208,157175,5,2,3:2:0:0:
320,212,157300,1,2,0:0:0:0:
140,112,157425,1,10,0:0:0:0:
320,112,157550,1,2,0:0:0:0:
320,112,157800,53,2,0:0:0:0:
228,200,157925,1,10,0:0:0:0:
408,200,158050,1,2,0:0:0:0:
320,296,158175,6,0,P|244:312|188:316,1,103.999995239258,2|0,3:2|0:0,0:0:0:0:
112,252,158425,1,10,0:0:0:0:
112,252,158550,2,0,P|96:176|92:120,1,103.999995239258,2|0,0:0|3:0,0:0:0:0:
156,44,158800,1,0,0:0:0:0:
156,44,158925,2,0,P|232:28|288:24,1,103.999995239258,10|0,0:0|0:0,0:0:0:0:
364,88,159175,53,2,3:2:0:0:
382,190,159300,1,2,0:0:0:0:
300,152,159425,1,10,0:0:0:0:
448,124,159550,1,2,0:0:0:0:
340,288,159675,5,2,3:2:0:0:
256,272,159800,1,2,0:0:0:0:
172,256,159925,1,10,0:0:0:0:
396,368,160175,54,0,P|428:328|428:260,1,103.999995239258,6|0,3:2|0:0,0:0:0:0:
300,152,160425,1,10,0:0:0:0:
300,152,160550,2,0,L|164:168,1,103.999995239258,2|0,0:0|0:0,0:0:0:0:
148,344,160800,1,2,0:0:0:0:
148,344,160925,2,0,L|12:328,1,103.999995239258,10|2,0:0|0:0,0:0:0:0:
36,136,161175,5,2,3:2:0:0:
80,244,161300,1,2,0:0:0:0:
4,212,161425,1,10,0:0:0:0:
112,168,161550,1,2,0:0:0:0:
248,336,161800,53,2,0:0:0:0:
260,240,161925,1,10,0:0:0:0:
272,144,162050,1,2,0:0:0:0:
352,292,162175,6,0,P|412:300|460:216,1,155.999992858887,2|0,3:2|0:0,0:0:0:0:
440,204,162425,1,10,0:0:0:0:
260,240,162550,2,0,L|133:227,1,103.999995239258,2|0,0:0|3:0,0:0:0:0:
52,68,162800,1,2,0:0:0:0:
148,140,162925,1,10,0:0:0:0:
212,40,163050,1,2,0:0:0:0:
64,152,163175,53,2,3:2:0:0:
332,72,163425,2,0,L|316:184,1,103.999995239258,8|0,0:0|0:0,0:0:0:0:
200,352,163675,5,2,3:2:0:0:
276,316,163800,1,10,0:0:0:0:
356,364,163925,1,10,0:0:0:0:
432,328,164050,1,10,0:0:0:0:
232,132,164175,54,0,P|223:182|239:232,1,103.999995239258,6|2,3:2|0:0,0:0:0:0:
425,86,164425,5,8,0:0:0:0:
376,91,164550,2,0,P|334:121|310:166,1,103.999995239258,2|0,0:0|3:0,0:0:0:0:
498,253,164800,53,2,0:0:0:0:
505,168,164925,2,0,P|454:159|404:175,1,103.999995239258,8|2,0:0|0:0,0:0:0:0:
276,316,165175,6,0,P|359:301|418:290,1,103.999995239258,2|0,3:2|0:0,0:0:0:0:
404,292,165425,1,8,0:0:0:0:
216,160,165550,53,0,0:0:0:0:
184,288,165675,1,0,3:2:0:0:
244,236,165800,1,0,0:0:0:0:
156,212,165925,1,8,0:0:0:0:
180,304,166050,1,0,0:0:0:0:
220,144,166175,6,0,P|200:88|176:32,1,103.999995239258,2|2,3:2|0:0,0:0:0:0:
244,236,166425,53,8,0:0:0:0:
292,220,166550,2,0,P|317:166|340:109,1,103.999995239258,2|0,0:0|3:0,0:0:0:0:
180,304,166800,5,2,0:0:0:0:
289,324,166925,2,0,P|345:304|401:280,1,103.999995239258,8|2,0:0|0:0,0:0:0:0:
56,208,167175,54,0,P|44:272|120:384,2,207.999990478516,2|8|0,3:2|0:0|3:2,0:0:0:0:
132,280,167800,1,0,0:0:0:0:
112,80,167925,1,8,0:0:0:0:
12,128,168050,1,0,0:0:0:0:
204,240,168175,6,0,P|268:232|340:220,1,103.999995239258,4|2,3:2|0:0,0:0:0:0:
372,168,168425,53,8,0:0:0:0:
376,272,168550,1,2,0:0:0:0:
288,260,168675,5,0,3:2:0:0:
284,156,168800,1,2,0:0:0:0:
200,136,168925,53,10,0:0:0:0:
204,240,169050,1,2,0:0:0:0:
284,156,169175,6,0,P|216:84|108:72,2,207.999990478516,2|10|2,3:2|0:0|3:2,0:0:0:0:
204,240,169800,53,0,0:0:0:0:
240,336,169925,1,10,0:0:0:0:
332,292,170050,1,0,0:0:0:0:
384,376,170175,5,2,3:2:0:0:
428,304,170300,1,2,0:0:0:0:
484,364,170425,1,10,0:0:0:0:
412,356,170550,1,2,0:0:0:0:
500,168,170675,53,2,3:2:0:0:
490,251,170800,1,2,0:0:0:0:
414,221,170925,1,10,0:0:0:0:
483,197,171050,1,2,0:0:0:0:
344,144,171175,5,8,0:3:0:0:
344,144,171425,53,4,0:3:0:0:
260,112,171550,1,4,0:3:0:0:
160,296,171675,1,10,0:0:0:0:
244,264,171800,1,8,0:0:0:0:
136,104,171925,1,10,0:0:0:0:
92,187,172050,1,8,0:0:0:0:
184,181,172175,6,0,P|266:163|349:142,2,160,2|2|8,3:2|0:0|0:0,0:0:0:0:
368,296,172925,1,2,0:0:0:0:
484,216,173175,2,0,P|492:128|404:84,1,160,2|0,3:2|0:0,0:0:0:0:
244,136,173675,1,10,0:0:0:0:
412,172,173925,1,2,0:0:0:0:
176,92,174175,54,0,P|112:96|-12:112,1,160,2|0,3:2|0:0,0:0:0:0:
164,216,174550,2,0,P|160:152|144:28,1,160,2|2,0:0|0:0,0:0:0:0:
40,204,174925,2,0,P|93:200|197:187,1,80,2|0,0:0|0:0,0:0:0:0:
244,180,175175,5,2,3:2:0:0:
84,308,175425,1,0,0:0:0:0:
292,284,175675,1,8,0:0:0:0:
264,380,175925,1,2,0:0:0:0:
384,316,176175,54,0,P|412:252|380:164,1,160,2|0,3:2|0:0,0:0:0:0:
385,169,176550,2,0,P|426:225|518:241,1,160,2|0,0:0|0:0,0:0:0:0:
511,243,176925,2,0,P|445:250|388:318,1,80,2|0,0:0|0:0,0:0:0:0:
376,328,177175,5,2,3:2:0:0:
296,208,177425,1,0,0:0:0:0:
160,312,177675,1,10,0:0:0:0:
192,136,177925,1,2,0:0:0:0:
36,216,178175,54,0,P|-8:156|28:68,1,160,2|0,3:2|0:0,0:0:0:0:
88,120,178550,2,0,L|252:92,1,160,2|0,0:0|0:0,0:0:0:0:
276,60,178925,2,0,P|311:71|332:112,1,80,2|0,0:0|0:0,0:0:0:0:
436,176,179175,2,0,P|364:248|240:200,1,240,2|0,3:2|3:0,0:0:0:0:
245,207,179800,5,8,0:3:0:0:
188,336,179925,1,4,0:3:0:0:
440,352,180175,54,0,B|416:320|364:308|364:308|276:348|196:308,2,240,2|2|2,3:2|0:0|0:0,0:0:0:0:
352,208,181175,2,0,B|352:144|416:112|416:112|480:152|468:228,1,240,2|0,3:2|0:0,0:0:0:0:
412,272,181675,1,10,0:0:0:0:
304,88,181925,1,2,0:0:0:0:
148,312,182175,6,0,B|196:300|196:300|220:244|220:244|304:224,1,160,2|0,3:2|0:0,0:0:0:0:
128,188,182550,2,0,P|72:196|128:204,1,160,2|0,0:0|0:0,0:0:0:0:
208,148,182925,2,0,P|184:108|128:76,1,80,2|0,0:0|0:0,0:0:0:0:
68,84,183175,53,2,3:2:0:0:
268,232,183425,1,0,0:0:0:0:
440,48,183675,2,0,P|404:44|340:40,1,80,10|0,0:0|0:0,0:0:0:0:
376,120,183925,2,0,P|416:123|456:128,1,80,2|0,0:0|0:0,0:0:0:0:
496,204,184175,6,0,P|416:228|372:300,1,160,2|2,3:2|0:0,0:0:0:0:
404,384,184550,2,0,P|356:315|274:295,1,160,2|0,0:0|0:0,0:0:0:0:
204,312,184925,1,2,0:0:0:0:
24,300,185175,54,0,P|104:276|148:204,1,160,10|2,0:0|0:0,0:0:0:0:
116,120,185550,2,0,P|163:188|245:208,1,160,2|0,0:0|0:0,0:0:0:0:
316,192,185925,1,2,0:0:0:0:
232,48,186175,6,0,P|216:232|204:360,2,311.999985717774,14|8|8,3:2|0:0|0:0,0:0:0:0:
384,336,187175,1,8,0:0:0:0:
124,128,187675,53,2,0:0:0:0:
208,104,187925,1,2,0:0:0:0:
416,248,188175,6,0,P|452:180|316:104,1,240.000009155274,14|2,0:0|0:0,0:0:0:0:
236,332,188550,2,0,B|156:320|156:320|112:248|112:248|12:236,1,240.000009155274,14|2,0:0|0:0,0:0:0:0:
248,44,188925,2,0,L|236:164,1,120.000004577637,14|0,0:0|0:0,0:0:0:0:
368,364,189175,54,0,B|460:344|460:344|480:168,1,240.000009155274,6|8,3:2|0:3,0:0:0:0:
352,68,189550,1,0,0:0:0:0:
328,208,189675,1,4,0:3:0:0:
412,152,189800,1,4,0:3:0:0:
272,128,189925,1,0,3:0:0:0:
324,228,190050,1,0,0:0:0:0:
356,52,190175,6,0,B|276:-8|200:40|200:40|192:84|152:100,1,240.000009155274,14|2,0:0|0:0,0:0:0:0:
60,224,190550,2,0,B|-35:236|-75:139|30:158|91:225|42:315,1,240.000009155274,14|2,0:0|0:0,0:0:0:0:
24,372,190925,2,0,B|64:368|64:368|104:344|104:344|160:340,1,120.000004577637,14|0,0:0|0:0,0:0:0:0:
284,272,191175,54,0,P|278:169|185:211,1,240.000009155274,6|8,3:2|0:3,0:0:0:0:
236,368,191550,1,4,0:3:0:0:
380,276,191675,5,10,0:0:0:0:
185,211,191800,1,10,0:0:0:0:
280,168,191925,53,10,0:0:0:0:
152,328,192050,1,8,0:0:0:0:
376,176,192175,6,0,P|352:124|296:60,1,120.000004577637,6|0,3:2|0:0,0:0:0:0:
380,276,192425,53,10,0:0:0:0:
456,224,192550,2,0,P|475:170|481:85,1,120.000004577637,2|0,3:2|0:0,0:0:0:0:
292,312,192800,5,0,3:0:0:0:
408,372,192925,2,0,P|460:348|524:292,1,120.000004577637,10|0,0:0|0:0,0:0:0:0:
280,168,193175,54,0,P|188:160|124:156,1,120.000004577637,2|0,3:2|0:0,0:0:0:0:
80,256,193425,2,0,P|139:260|199:265,1,120.000004577637,10|0,0:0|0:0,0:0:0:0:
377,248,193675,6,0,P|385:156|389:92,1,120.000004577637,2|0,3:2|3:0,0:0:0:0:
289,48,193925,2,0,P|284:107|279:167,1,120.000004577637,10|0,0:0|0:0,0:0:0:0:
116,352,194175,54,0,P|28:324|8:180,1,240.000009155274,2|10,3:2|0:0,0:0:0:0:
176,280,194550,2,0,B|252:260|252:260|284:188|284:188|424:156,1,240.000009155274,2|0,3:2|3:0,0:0:0:0:
108,40,194925,2,0,L|92:176,1,120.000004577637,10|0,0:0|0:0,0:0:0:0:
80,256,195175,5,14,0:0:0:0:
80,256,195425,53,10,0:0:0:0:
252,270,195550,1,0,3:0:0:0:
160,285,195675,1,10,0:0:0:0:
328,232,195800,1,2,3:2:0:0:
252,270,195925,1,8,0:0:0:0:
343,149,196050,1,8,0:0:0:0:
328,324,196175,6,0,P|376:352|444:344,1,120.000004577637,6|0,3:2|0:0,0:0:0:0:
343,149,196425,1,10,0:0:0:0:
248,212,196550,2,0,P|236:272|256:364,1,120.000004577637,2|0,3:2|0:0,0:0:0:0:
376,252,196800,1,2,3:2:0:0:
444,196,196925,2,0,P|444:144|436:60,1,120.000004577637,10|0,0:0|0:0,0:0:0:0:
152,56,197175,54,0,P|216:120|360:92,2,240.000009155274,2|8|2,3:2|0:0|3:2,0:0:0:0:
216,0,197800,1,2,3:2:0:0:
260,152,197925,1,10,0:0:0:0:
100,144,198050,1,0,0:0:0:0:
340,76,198175,6,0,P|344:160|340:224,1,120.000004577637,2|0,3:2|0:0,0:0:0:0:
232,328,198425,1,10,0:0:0:0:
144,340,198550,2,0,P|80:328|-4:308,1,120.000004577637,2|0,3:2|0:0,0:0:0:0:
132,180,198800,1,2,3:2:0:0:
200,244,198925,2,0,P|260:240|336:228,1,120.000004577637,10|0,0:0|0:0,0:0:0:0:
452,60,199175,54,0,B|352:28|340:80|328:132|220:92,2,240.000009155274,2|8|2,3:2|0:0|3:2,0:0:0:0:
492,144,199800,1,2,3:2:0:0:
356,212,199925,1,10,0:0:0:0:
308,68,200050,1,0,0:0:0:0:
456,208,200175,6,0,P|464:288|336:348,1,240.000009155274,2|10,3:2|0:0,0:0:0:0:
120,228,200550,2,0,B|200:220|200:220|260:272|260:272|368:260,1,240.000009155274,2|0,3:2|3:0,0:0:0:0:
156,372,200925,2,0,L|20:352,1,120.000004577637,10|0,0:0|0:0,0:0:0:0:
284,152,201175,54,0,P|316:272|241:363,2,240.000009155274,2|10|2,3:2|0:0|3:2,0:0:0:0:
200,284,201800,1,0,0:0:0:0:
100,168,201925,1,10,0:0:0:0:
224,200,202050,1,0,0:0:0:0:
56,348,202175,6,0,P|48:272|44:200,1,120.000004577637,2|0,3:2|0:0,0:0:0:0:
100,168,202425,1,10,0:0:0:0:
216,300,202550,2,0,P|208:224|204:152,1,120.000004577637,2|0,3:2|0:0,0:0:0:0:
260,120,202800,1,0,3:0:0:0:
452,192,202925,54,0,P|400:208|320:188,1,120.000004577637,10|0,0:0|0:0,0:0:0:0:
192,72,203175,1,6,3:2:0:0:
332,16,203675,37,10,0:0:0:0:
368,152,203800,1,8,0:0:0:0:
252,172,203925,53,10,0:0:0:0:
192,284,204050,1,8,0:0:0:0:
384,384,204175,6,0,P|464:348|452:156,1,303.999991882324,6|10,3:2|0:0,0:0:0:0:
192,284,204550,2,0,P|244:308|340:308,1,151.999995941162,2|0,3:2|0:0,0:0:0:0:
392,224,204800,1,2,3:2:0:0:
256,36,204925,2,0,L|240:204,1,151.999995941162,10|0,0:0|0:0,0:0:0:0:
208,384,205175,54,0,B|108:352|108:352|88:256|88:256|-16:220,2,303.999991882324,2|8|2,3:2|0:0|3:2,0:0:0:0:
8,328,205800,1,2,3:2:0:0:
192,276,205925,2,0,P|196:212|192:116,1,151.999995941162,10|0,0:0|0:0,0:0:0:0:
32,76,206175,6,0,P|170:113|259:0,1,303.999991882324,2|10,3:2|0:0,0:0:0:0:
384,228,206550,2,0,P|328:232|236:176,1,151.999995941162,2|0,3:2|0:0,0:0:0:0:
184,64,206800,1,2,3:2:0:0:
344,0,206925,2,0,B|368:52|368:52|328:156,1,151.999995941162,10|0,0:0|0:0,0:0:0:0:
208,312,207175,54,0,B|268:272|372:332|304:356|400:408|488:360,2,303.999991882324,2|8|2,3:2|0:0|3:2,0:0:0:0:
396,244,207800,1,2,3:2:0:0:
304,368,207925,1,10,0:0:0:0:
244,212,208050,1,0,0:0:0:0:
480,180,208175,6,0,P|484:252|484:352,1,151.999995941162,2|0,3:2|0:0,0:0:0:0:
208,312,208425,1,10,0:0:0:0:
152,228,208550,2,0,P|184:144|376:148,1,303.999991882324,2|0,3:2|3:0,0:0:0:0:
196,324,208925,54,0,P|128:320|20:296,1,151.999995941162,10|0,0:0|0:0,0:0:0:0:
304,208,209175,2,0,P|308:296|308:388,1,151.999995941162,2|0,3:2|0:0,0:0:0:0:
64,216,209425,2,0,P|60:128|60:36,1,151.999995941162,10|0,0:0|0:0,0:0:0:0:
322,120,209675,2,0,P|247:104|172:100,1,151.999995941162,2|0,3:2|3:0,0:0:0:0:
32,312,209925,2,0,P|106:327|182:332,1,151.999995941162,10|0,0:0|0:0,0:0:0:0:
384,220,210175,6,0,P|244:244|244:412,1,303.999991882324,2|10,3:2|0:0,0:0:0:0:
360,344,210550,1,2,3:2:0:0:
428,292,210675,2,0,P|432:192|428:64,1,151.999995941162,0|0,0:0|3:0,0:0:0:0:
200,240,210925,1,10,0:0:0:0:
384,220,211050,1,0,0:0:0:0:
180,112,211175,53,8,0:0:0:0:
180,112,211425,5,8,0:0:0:0:
208,272,211550,1,0,3:0:0:0:
280,224,211675,53,10,0:0:0:0:
108,160,211800,1,0,3:0:0:0:
124,252,211925,5,10,0:0:0:0:
268,132,212050,1,8,0:0:0:0:
192,192,212175,54,0,P|188:292|364:332,1,303.999991882324,6|10,3:2|0:0,0:0:0:0:
435,196,212550,2,0,P|375:208|267:236,1,151.999995941162,2|0,3:2|0:0,0:0:0:0:
160,336,212800,1,2,3:2:0:0:
56,252,212925,2,0,P|50:177|112:100,1,151.999995941162,10|0,0:0|0:0,0:0:0:0:
288,92,213175,6,0,P|142:119|48:8,2,303.999991882324,2|8|2,3:2|0:0|3:2,0:0:0:0:
164,200,213800,1,2,3:2:0:0:
356,12,213925,2,0,P|364:72|368:196,1,151.999995941162,10|0,0:0|0:0,0:0:0:0:
476,292,214175,54,0,P|448:336|332:364,1,151.999995941162,2|0,3:2|0:0,0:0:0:0:
164,200,214425,1,10,0:0:0:0:
76,372,214550,2,0,B|180:356|180:356|240:276|240:276|337:260,1,303.999991882324,2|2,3:2|3:2,0:0:0:0:
88,112,214925,2,0,P|64:176|72:280,1,151.999995941162,10|0,0:0|0:0,0:0:0:0:
274,152,215175,6,0,B|186:123|116:190|116:190|36:202|8:127,2,303.999991882324,2|8|2,3:2|0:0|3:2,0:0:0:0:
196,56,215800,1,2,3:2:0:0:
172,208,215925,1,10,0:0:0:0:
324,228,216050,1,0,0:0:0:0:
87,111,216175,54,0,P|83:207|83:315,1,151.999995941162,2|0,3:2|0:0,0:0:0:0:
152,364,216425,1,10,0:0:0:0:
370,270,216550,2,0,P|275:233|152:374,1,303.999991882324,2|0,3:2|3:0,0:0:0:0:
328,336,216925,2,0,P|331:260|334:184,1,151.999995941162,10|0,0:0|0:0,0:0:0:0:
120,108,217175,6,0,P|183:149|248:189,1,151.999995941162,2|0,3:2|0:0,0:0:0:0:
421,41,217425,2,0,P|353:75|286:111,1,151.999995941162,10|0,0:0|0:0,0:0:0:0:
108,112,217675,2,0,P|171:153|236:193,1,151.999995941162,2|0,3:2|3:0,0:0:0:0:
336,348,217925,2,0,P|339:272|342:196,1,151.999995941162,10|0,0:0|0:0,0:0:0:0:
192,40,218175,54,0,B|68:84|68:84|76:276,1,303.999991882324,2|10,3:2|0:0,0:0:0:0:
230,345,218550,2,0,P|233:269|236:193,1,151.999995941162,2|0,3:2|0:0,0:0:0:0:
284,96,218800,1,2,3:2:0:0:
480,244,218925,6,0,P|411:276|336:270,1,151.999995941162,10|0,0:0|0:0,0:0:0:0:
228,184,219175,1,10,0:0:0:0:
228,184,219425,53,8,0:0:0:0:
408,136,219550,1,0,3:0:0:0:
316,96,219675,5,10,0:0:0:0:
267,275,219800,1,0,3:0:0:0:
348,216,219925,53,10,0:0:0:0:
217,84,220050,1,10,0:0:0:0:
372,292,220175,6,0,P|456:248|460:72,1,272.000005187988,6|8,3:2|0:0,0:0:0:0:
212,76,220550,2,0,L|235:224,1,136.000002593994,2|0,0:0|3:0,0:0:0:0:
256,312,220800,1,2,0:0:0:0:
348,216,220925,1,10,0:0:0:0:
136,160,221050,1,2,0:0:0:0:
368,312,221175,54,0,P|376:252|384:140,1,136.000002593994,2|0,3:2|0:0,0:0:0:0:
200,84,221425,1,10,0:0:0:0:
120,144,221550,2,0,P|120:208|300:276,1,272.000005187988,2|0,0:0|0:0,0:0:0:0:
132,128,221925,2,0,P|60:124|-28:120,1,136.000002593994,10|0,0:0|0:0,0:0:0:0:
244,204,222175,6,0,P|352:108|316:0,1,272.000005187988,2|10,3:2|0:0,0:0:0:0:
120,104,222550,2,0,P|188:108|255:110,1,136.000002593994,2|0,0:0|0:0,0:0:0:0:
392,108,222800,1,2,0:0:0:0:
280,224,222925,2,0,P|288:292|332:360,1,136.000002593994,10|0,0:0|0:0,0:0:0:0:
432,280,223175,54,0,B|340:272|340:272|264:320|264:320|140:308,2,272.000005187988,2|8|2,3:2|0:0|3:2,0:0:0:0:
364,192,223800,1,0,0:0:0:0:
268,284,223925,1,10,0:0:0:0:
376,360,224050,1,0,0:0:0:0:
252,196,224175,6,0,P|172:176|72:316,1,272.000005187988,6|8,3:2|0:0,0:0:0:0:
204,384,224550,2,0,L|376:360,1,136.000002593994,2|0,0:0|3:0,0:0:0:0:
176,208,224800,1,2,0:0:0:0:
148,320,224925,1,10,0:0:0:0:
348,208,225050,1,2,0:0:0:0:
240,104,225175,54,0,P|172:96|60:80,1,136.000002593994,2|0,3:2|0:0,0:0:0:0:
10,204,225425,1,10,0:0:0:0:
212,276,225550,2,0,P|332:214|331:89,1,272.000005187988,2|0,0:0|0:0,0:0:0:0:
332,90,225925,2,0,P|327:157|330:225,1,136.000002593994,10|0,0:0|0:0,0:0:0:0:
440,348,226175,6,0,B|381:286|296:313|296:313|251:371|161:352,1,272.000005187988,2|10,3:2|0:0,0:0:0:0:
40,144,226550,2,0,L|60:292,1,136.000002593994,2|0,0:0|3:0,0:0:0:0:
12,368,226800,53,2,0:0:0:0:
148,252,226925,1,10,0:0:0:0:
4,212,227050,1,2,0:0:0:0:
140,292,227175,1,2,3:2:0:0:
140,292,227425,6,0,P|152:192|160:116,1,136.000002593994,8|0,0:0|0:0,0:0:0:0:
236,80,227675,1,10,0:0:0:0:
252,232,227800,1,8,0:0:0:0:
360,280,227925,1,10,0:0:0:0:
340,128,228050,1,8,0:0:0:0:
424,60,228175,54,0,P|492:124|460:296,1,272.000005187988,6|8,3:2|0:0,0:0:0:0:
250,335,228550,2,0,B|274:291|274:291|390:275,1,136.000002593994,2|0,0:0|3:0,0:0:0:0:
416,216,228800,1,2,0:0:0:0:
144,144,228925,2,0,L|176:289,1,136.000002593994,10|0,0:0|0:0,0:0:0:0:
316,124,229175,6,0,P|208:28|88:84,1,272.000005187988,2|10,3:2|0:0,0:0:0:0:
44,312,229550,2,0,B|136:288|136:288|164:216|164:216|268:188,1,272.000005187988,2|0,0:0|0:0,0:0:0:0:
0,80,229925,2,0,L|48:224,1,136.000002593994,10|0,0:0|0:0,0:0:0:0:
266,291,230175,54,0,P|163:366|35:297,1,272.000005187988,2|10,3:2|0:0,0:0:0:0:
208,172,230550,2,0,L|348:198,1,136.000002593994,2|0,0:0|3:0,0:0:0:0:
404,276,230800,1,2,0:0:0:0:
316,328,230925,2,0,P|304:160|396:84,2,272.000005187988,10|2|8,0:0|3:2|0:0,0:0:0:0:
380,384,231550,1,0,0:0:0:0:
512,228,231675,6,0,L|377:246,1,136.000002593994,2|0,3:2|0:0,0:0:0:0:
236,376,231925,2,0,L|101:357,1,136.000002593994,10|0,0:0|0:0,0:0:0:0:
12,160,232175,54,0,P|140:156|196:276,1,272.000005187988,6|8,3:2|0:0,0:0:0:0:
292,48,232550,2,0,L|280:192,1,136.000002593994,2|0,0:0|3:0,0:0:0:0:
196,272,232800,1,2,0:0:0:0:
316,336,232925,1,10,0:0:0:0:
368,212,233050,1,2,0:0:0:0:
212,244,233175,6,0,P|146:261|81:280,1,136.000002593994,2|0,3:2|0:0,0:0:0:0:
300,276,233425,1,10,0:0:0:0:
368,212,233550,2,0,P|386:146|402:80,1,136.000002593994,2|0,0:0|3:0,0:0:0:0:
276,8,233800,1,0,0:0:0:0:
196,56,233925,2,0,P|188:108|276:168,1,136.000002593994,10|0,0:0|0:0,0:0:0:0:
320,92,234175,54,0,P|176:108|32:128,1,272.000005187988,2|10,3:2|0:0,0:0:0:0:
46,302,234550,2,0,P|190:318|334:338,1,272.000005187988,2|2,0:0|0:0,0:0:0:0:
420,204,234925,2,0,P|332:208|248:212,1,136.000002593994,10|2,0:0|0:0,0:0:0:0:
168,216,235175,5,10,0:0:0:0:
168,216,235425,53,8,0:0:0:0:
132,312,235550,1,0,3:0:0:0:
284,210,235675,5,10,0:0:0:0:
256,111,235800,1,8,0:0:0:0:
236,292,235925,53,10,0:0:0:0:
339,297,236050,1,8,0:0:0:0:
160,124,236175,6,0,P|72:140|12:292,2,240.000009155274,6|8|0,3:2|0:0|3:0,0:0:0:0:
65,0,236800,1,0,0:0:0:0:
65,0,236925,2,0,P|123:19|207:28,1,120.000004577637,8|0,0:0|0:0,0:0:0:0:
256,111,237175,54,0,P|244:199|370:303,1,240.000009155274,0|10,3:0|0:0,0:0:0:0:
442,272,237550,1,0,0:0:0:0:
475,176,237675,2,0,P|467:124|399:60,1,120.000004577637,2|0,3:2|0:0,0:0:0:0:
327,263,237925,2,0,P|376:282|465:255,1,120.000004577637,10|0,0:0|0:0,0:0:0:0:
324,92,238175,6,0,P|247:133|267:317,2,240.000009155274,2|8|0,3:2|0:0|3:0,0:0:0:0:
441,271,238800,1,0,0:0:0:0:
378,348,238925,2,0,P|322:364|230:380,1,120.000004577637,10|0,0:0|0:0,0:0:0:0:
80,195,239175,54,0,P|91:254|108:312,1,120.000004577637,2|0,3:2|0:0,0:0:0:0:
320,263,239425,2,0,P|308:204|292:146,1,120.000004577637,10|0,0:0|0:0,0:0:0:0:
142,88,239675,6,0,P|153:146|169:204,1,120.000004577637,2|0,3:2|0:0,0:0:0:0:
261,375,239925,2,0,P|249:316|233:258,1,120.000004577637,10|0,0:0|0:0,0:0:0:0:
289,146,240175,54,0,P|169:107|75:171,2,240.000009155274,6|8|0,3:2|0:0|3:0,0:0:0:0:
243,223,240800,1,0,0:0:0:0:
444,249,240925,1,10,0:0:0:0:
346,238,241050,1,2,0:0:0:0:
488,111,241175,6,0,P|482:212|466:359,2,240.000009155274,2|8|0,3:2|0:0|3:0,0:0:0:0:
267,32,241800,1,0,0:0:0:0:
372,74,241925,1,10,0:0:0:0:
154,68,242050,1,2,0:0:0:0:
346,238,242175,54,0,P|392:152|277:134,1,240.000009155274,2|8,3:2|0:0,0:0:0:0:
347,317,242550,1,0,0:0:0:0:
224,218,242675,2,0,B|153:215|122:145|122:144|60:199|-9:182,2,240.000009155274,2|8|2,3:2|0:0|3:2,0:0:0:0:
256,192,243237,12,8,244050,0:0:0:0:
372,74,244175,5,6,3:2:0:0:
372,74,244237,1,2,0:0:0:0:
372,74,244300,1,2,0:0:0:0:
372,74,244362,1,2,0:0:0:0:
372,74,244425,2,0,L|449:67,3,60.0000022888184,10|2|2|2,0:0|0:0|0:0|0:0,0:0:0:0:
316,146,244675,53,2,3:2:0:0:
316,146,244737,1,2,0:0:0:0:
316,146,244800,1,2,0:0:0:0:
316,146,244862,1,2,0:0:0:0:
316,146,244925,2,0,L|239:139,3,60.0000022888184,10|2|2|2,0:0|0:0|0:0|0:0,0:0:0:0:
377,200,245175,6,0,L|454:193,3,60.0000022888184,2|2|2|2,3:2|0:0|0:0|0:0,0:0:0:0:
312,255,245425,2,0,L|235:248,3,60.0000022888184,10|2|2|2,0:0|0:0|0:0|0:0,0:0:0:0:
382,326,245675,54,0,L|459:319,3,60.0000022888184,2|2|2|2,3:2|0:0|0:0|0:0,0:0:0:0:
300,363,245925,2,2,P|212:368|151:306,1,180.000006866455,10|0,0:0|0:0,0:0:0:0:
31,350,246175,6,2,P|19:233|92:142,2,240.000009155274,2|8|2,3:2|0:0|3:2,0:0:0:0:
151,306,246800,1,0,0:0:0:0:
223,261,246925,2,0,P|297:242|395:232,1,120.000004577637,8|0,0:0|0:0,0:0:0:0:
236,115,247175,54,0,B|211:201|211:201|249:256|249:256|225:337,2,240.000009155274,2|8|2,3:2|0:0|3:2,0:0:0:0:
135,225,247800,1,0,0:0:0:0:
312,158,247925,2,0,P|417:146|482:142,1,120.000004577637,10|0,0:0|0:0,0:0:0:0:
432,338,248175,6,0,B|371:359|305:303|345:289|283:239|219:261,1,240.000009155274,6|8,3:2|0:0,0:0:0:0:
248,350,248550,1,0,0:0:0:0:
406,250,248675,2,0,P|412:190|417:130,1,120.000004577637,0|0,3:0|0:0,0:0:0:0:
221,260,248925,2,0,P|225:319|232:379,1,120.000004577637,10|2,0:0|0:0,0:0:0:0:
285,119,249175,54,0,B|201:100|201:100|145:149|145:149|63:130,1,240.000009155274,2|8,3:2|0:0,0:0:0:0:
230,238,249550,1,0,0:0:0:0:
379,166,249675,2,0,P|375:106|369:46,1,120.000004577637,0|0,3:0|0:0,0:0:0:0:
129,236,249925,2,0,P|133:295|140:355,1,120.000004577637,10|2,0:0|0:0,0:0:0:0:
290,296,250175,6,0,B|302:155|215:229|230:72,2,240.000009155274,2|8|2,3:2|0:0|3:2,0:0:0:0:
210,262,250800,1,0,0:0:0:0:
369,237,250925,1,8,0:0:0:0:
314,119,251050,1,2,0:0:0:0:
146,141,251175,53,10,3:2:0:0:
448,336,251425,5,10,3:2:0:0:
256,16,251675,53,4,3:0:0:0:
64,336,251925,5,4,3:0:0:0:
294,204,252175,5,4,3:2:0:0:
