osu file format v14

[General]
AudioFilename: audio.mp3
AudioLeadIn: 0
PreviewTime: 59675
Countdown: 0
SampleSet: Soft
StackLeniency: 0.4
Mode: 0
LetterboxInBreaks: 1
WidescreenStoryboard: 1

[Editor]
Bookmarks: 10064,30064,46064,62064,78064,94064,110064,126064,142064,158064,174064,190064,206064,222064,238064
DistanceSpacing: 1.4
BeatDivisor: 4
GridSize: 32
TimelineZoom: 2.7

[Metadata]
Title:Hana ni Ame o, Kimi ni Uta o
TitleUnicode:花に雨を、君に歌を
Artist:THE BINARY
ArtistUnicode:THE BINARY
Creator:NeonLights
Version:Collab Hard
Source:
Tags:japanese rock j-rock jrock mido あかまる akamaru aka ユリイ・カノン ユリイ カノン yurry canon yurrycanon -_Frontier_- Wanpachi Cycopton Nines Liyac wo rain to a flower song you
BeatmapID:2473066
BeatmapSetID:1186593

[Difficulty]
HPDrainRate:4
CircleSize:3.2
OverallDifficulty:7
ApproachRate:8
SliderMultiplier:1.4
SliderTickRate:1

[Events]
//Background and Video events
Video,-1889,"binary-hana.mp4"
0,0,"hanani.jpg",0,0
//Break Periods
//Storyboard Layer 0 (Background)
//Storyboard Layer 1 (Fail)
//Storyboard Layer 2 (Pass)
//Storyboard Layer 3 (Foreground)
//Storyboard Layer 4 (Overlay)
//Storyboard Sound Samples

[TimingPoints]
175,250,4,2,0,50,1,0
175,-100,4,2,0,50,0,0
8175,-100,4,2,2,70,0,0
8425,-100,4,2,1,70,0,0
16175,-100,4,2,2,70,0,0
16425,-100,4,2,1,70,0,0
23675,-100,4,2,2,70,0,0
24175,-100,4,2,1,70,0,0
24425,-100,4,2,1,68,0,0
24675,-100,4,2,1,66,0,0
24925,-100,4,2,1,64,0,0
25175,-100,4,2,1,62,0,0
25425,-100,4,2,1,60,0,0
25675,-100,4,2,1,65,0,0
26175,-100,4,2,1,70,0,0
27675,-100,4,2,1,60,0,0
28175,-111.111111111111,4,2,3,55,0,0
31675,-111.111111111111,4,2,1,55,0,0
31925,-111.111111111111,4,2,3,55,0,0
35550,-111.111111111111,4,2,1,55,0,0
36175,-111.111111111111,4,2,3,60,0,0
39675,-111.111111111111,4,2,1,60,0,0
44175,-111.111111111111,4,2,2,65,0,0
44362,-111.111111111111,4,2,1,65,0,0
52175,-111.111111111111,4,2,2,65,0,0
52300,-111.111111111111,4,2,1,65,0,0
55175,-111.111111111111,4,2,2,65,0,0
55675,-111.111111111111,4,2,1,70,0,0
58175,-111.111111111111,4,2,2,70,0,0
59050,-111.111111111111,4,2,2,5,0,0
59175,-111.111111111111,4,2,2,70,0,0
59300,-111.111111111111,4,2,2,5,0,0
59675,-111.111111111111,4,2,1,70,0,0
60175,-90.9090909090909,4,2,2,85,0,1
60362,-90.9090909090909,4,2,1,85,0,1
66925,-90.9090909090909,4,2,1,90,0,1
67675,-90.9090909090909,4,2,2,90,0,1
68175,-90.9090909090909,4,2,2,85,0,1
68362,-90.9090909090909,4,2,1,85,0,1
75175,-90.9090909090909,4,2,1,90,0,1
75675,-90.9090909090909,4,2,2,90,0,1
76175,-90.9090909090909,4,2,2,85,0,1
76300,-90.9090909090909,4,2,1,85,0,1
80175,-90.9090909090909,4,2,2,85,0,1
80425,-90.9090909090909,4,2,1,85,0,1
83675,-90.9090909090909,4,2,2,85,0,1
84300,-90.9090909090909,4,2,1,85,0,1
87675,-90.9090909090909,4,2,2,85,0,1
88425,-90.9090909090909,4,2,1,85,0,1
91175,-90.9090909090909,4,2,2,85,0,1
92175,-100,4,2,2,75,0,0
92425,-100,4,2,1,75,0,0
99925,-100,4,2,2,75,0,0
100300,-100,4,2,1,75,0,0
107675,-100,4,2,2,75,0,0
108175,-100,4,2,2,70,0,0
108300,-100,4,2,1,70,0,0
116175,-100,4,2,2,55,0,0
116300,-100,4,2,1,70,0,0
124175,-111.111111111111,4,2,2,65,0,0
135675,-111.111111111111,4,2,1,70,0,0
138175,-111.111111111111,4,2,2,70,0,0
139050,-111.111111111111,4,2,2,5,0,0
139175,-111.111111111111,4,2,2,70,0,0
139300,-111.111111111111,4,2,2,5,0,0
139675,-111.111111111111,4,2,2,75,0,0
140175,-90.9090909090909,4,2,2,85,0,1
140362,-90.9090909090909,4,2,1,85,0,1
147175,-90.9090909090909,4,2,1,90,0,1
147675,-90.9090909090909,4,2,2,90,0,1
148175,-90.9090909090909,4,2,2,85,0,1
148362,-90.9090909090909,4,2,1,85,0,1
155675,-90.9090909090909,4,2,2,85,0,1
156175,-100,4,2,2,80,0,0
156300,-100,4,2,1,80,0,0
160175,-100,4,2,2,80,0,0
160300,-100,4,2,1,80,0,0
163675,-100,4,2,2,80,0,0
164300,-100,4,2,1,80,0,0
164675,-100,4,2,2,80,0,0
164800,-100,4,2,1,80,0,0
165175,-100,4,2,2,80,0,0
165300,-100,4,2,1,80,0,0
165425,-100,4,2,2,80,0,0
165550,-100,4,2,1,80,0,0
165675,-100,4,2,2,80,0,0
165800,-100,4,2,1,80,0,0
165925,-100,4,2,2,80,0,0
166050,-100,4,2,1,80,0,0
166175,-100,4,2,2,80,0,0
166300,-100,4,2,1,80,0,0
166675,-100,4,2,2,80,0,0
166800,-100,4,2,1,80,0,0
167175,-100,4,2,2,80,0,0
167300,-100,4,2,1,80,0,0
167425,-100,4,2,2,80,0,0
167550,-100,4,2,1,80,0,0
167675,-100,4,2,2,80,0,0
167800,-100,4,2,1,80,0,0
167925,-100,4,2,2,80,0,0
168050,-100,4,2,1,80,0,0
168175,-100,4,2,2,80,0,0
168300,-100,4,2,1,80,0,0
170175,-100,4,2,2,80,0,0
170300,-100,4,2,1,80,0,0
171675,-100,4,2,2,80,0,0
172175,-166.666666666667,4,2,1,60,0,0
186175,-100,4,2,2,70,0,0
187050,-100,4,2,2,5,0,0
187175,-100,4,2,2,70,0,0
187300,-100,4,2,2,5,0,0
187675,-100,4,2,2,70,0,0
188175,-95.2380952380952,4,2,2,80,0,0
192175,-90.9090909090909,4,2,2,85,0,1
192300,-90.9090909090909,4,2,1,85,0,1
195675,-90.9090909090909,4,2,2,85,0,1
196362,-90.9090909090909,4,2,1,85,0,1
203175,-90.9090909090909,4,2,2,85,0,1
203550,-90.9090909090909,4,2,2,85,0,1
204175,-90.9090909090909,4,2,2,90,0,1
204362,-90.9090909090909,4,2,1,90,0,1
211675,-90.9090909090909,4,2,2,90,0,1
212362,-90.9090909090909,4,2,1,90,0,1
219675,-90.9090909090909,4,2,2,90,0,1
220425,-90.9090909090909,4,2,1,90,0,1
227675,-90.9090909090909,4,2,2,90,0,1
228300,-90.9090909090909,4,2,1,90,0,1
232175,-90.9090909090909,4,2,2,90,0,1
232425,-90.9090909090909,4,2,1,90,0,1
235675,-90.9090909090909,4,2,2,90,0,1
236175,-100,4,2,2,80,0,0
236300,-100,4,2,1,80,0,0
240175,-100,4,2,2,80,0,0
240425,-100,4,2,1,80,0,0
243675,-100,4,2,2,80,0,0
246425,-100,4,2,1,80,0,0
248175,-100,4,2,2,80,0,0
248425,-100,4,2,1,80,0,0
252175,-100,4,2,2,80,0,0
252206,-100,4,2,1,5,0,0

[Colours]
Combo1 : 242,162,184
Combo2 : 205,238,241
Combo3 : 139,191,222
Combo4 : 85,120,191
Combo5 : 239,232,228
Combo6 : 123,196,151
Combo7 : 179,247,196
Combo8 : 183,83,103

[HitObjects]
485,357,8175,38,0,P|408:345|399:266,1,140,4|8,1:2|0:0,0:0:0:0:
455,220,8550,2,0,P|433:114|411:66,1,140,0|0,1:2|1:0,0:0:0:0:
369,0,8925,1,8,0:0:0:0:
280,169,9175,102,0,B|257:212|257:212|156:202,1,140,0|8,1:2|0:0,0:0:0:0:
100,126,9550,2,0,P|63:172|91:269,1,140,0|0,1:2|1:2,0:0:0:0:
31,338,9925,2,0,P|64:351|114:346,1,70,8|0,0:0|0:0,0:0:0:0:
179,294,10175,6,0,B|229:299|229:299|273:320|273:320|337:324,1,140,0|8,1:2|0:0,0:0:0:0:
396,384,10550,2,0,P|417:331|382:248,1,140,0|0,1:0|1:0,0:0:0:0:
298,221,10925,2,0,P|317:185|353:163,1,70,8|0,0:0|0:0,0:0:0:0:
438,176,11175,2,0,P|470:188|504:187,2,70,2|0|2,1:2|0:0|1:2,0:0:0:0:
395,86,11550,1,0,0:0:0:0:
395,86,11675,2,0,P|417:42|512:56,1,140,2|2,1:2|1:2,0:0:0:0:
341,168,12175,102,0,P|271:157|206:133,1,140,0|8,1:2|0:0,0:0:0:0:
142,59,12550,2,0,P|81:87|78:154,1,140,0|0,1:2|1:2,0:0:0:0:
155,214,12925,2,0,P|148:250|121:286,1,70,8|0,0:0|0:0,0:0:0:0:
42,318,13175,6,0,B|84:313|84:313|129:330|129:330|183:325,1,140,0|8,1:2|0:0,0:0:0:0:
268,365,13550,2,0,P|311:312|379:306,1,140,0|0,1:0|1:0,0:0:0:0:
459,363,13925,2,0,P|478:315|467:274,1,70,8|0,0:0|0:0,0:0:0:0:
416,219,14175,102,0,B|401:177|429:135|429:135|385:154|353:137,1,140,0|8,1:2|0:0,0:0:0:0:
323,62,14550,2,0,L|159:76,1,140,0|0,1:0|1:0,0:0:0:0:
98,25,14925,2,0,P|84:73|88:102,1,70,8|0,0:0|0:0,0:0:0:0:
154,162,15175,6,0,L|147:238,1,70,10|0,0:0|1:0,0:0:0:0:
50,244,15425,2,0,L|56:313,1,70,10|0,0:0|1:0,0:0:0:0:
148,346,15675,2,0,P|191:318|226:320,1,70,10|0,0:0|1:0,0:0:0:0:
299,354,15925,2,0,P|332:347|359:324,1,70,10|8,0:0|0:0,0:0:0:0:
285,259,16175,102,0,B|249:232|249:232|262:123,1,140,4|8,1:2|0:0,0:0:0:0:
318,58,16550,2,0,P|266:101|184:61,1,140,0|0,1:0|1:0,0:0:0:0:
145,2,16925,1,8,0:0:0:0:
18,151,17175,6,0,P|46:90|113:87,1,140,0|8,1:2|0:0,0:0:0:0:
146,180,17550,2,0,P|124:286|102:334,1,140,0|0,1:0|1:0,0:0:0:0:
25,362,17925,1,8,0:0:0:0:
211,302,18175,102,0,P|287:299|364:321,1,140,0|8,1:2|0:0,0:0:0:0:
421,379,18550,2,0,P|493:353|499:289,1,140,0|0,1:0|1:0,0:0:0:0:
418,244,18925,2,0,P|400:201|409:161,1,70,8|0,0:0|0:0,0:0:0:0:
413,81,19175,2,0,P|465:101|482:122,2,70,2|0|2,1:2|0:0|1:2,0:0:0:0:
329,129,19550,1,0,0:0:0:0:
329,129,19675,2,0,B|279:124|279:124|228:141|228:141|177:136,1,140,10|10,1:2|0:2,0:0:0:0:
35,18,20175,6,0,P|112:30|121:109,1,140,0|8,1:2|0:0,0:0:0:0:
65,155,20550,2,0,P|87:261|109:309,1,140,0|0,1:0|1:0,0:0:0:0:
151,375,20925,1,8,0:0:0:0:
252,207,21175,102,0,B|275:164|275:164|376:174,1,140,0|8,1:2|0:0,0:0:0:0:
432,250,21550,2,0,P|469:204|441:107,1,140,0|0,1:0|1:0,0:0:0:0:
501,38,21925,2,0,P|468:25|418:30,1,70,8|0,0:0|0:0,0:0:0:0:
349,88,22175,6,0,B|299:83|299:83|255:62|255:62|191:58,1,140,0|8,1:2|0:0,0:0:0:0:
132,0,22550,2,0,P|111:53|146:136,1,140,0|0,1:0|1:0,0:0:0:0:
230,156,22925,2,0,P|211:192|175:214,1,70,8|0,0:0|0:0,0:0:0:0:
89,203,23175,86,0,P|57:191|23:192,2,70,8|0|8,0:0|1:0|0:0,0:0:0:0:
133,296,23550,1,0,1:0:0:0:
133,296,23675,2,0,P|138:329|156:358,1,70,8|8,0:0|0:0,0:0:0:0:
192,214,23925,1,0,0:0:0:0:
192,214,24050,1,0,0:0:0:0:
192,214,24175,5,0,0:0:0:0:
256,192,24237,12,4,27175,0:0:0:0:
405,48,28175,38,0,L|376:181,1,125.999996154785,6|2,1:2|0:0,0:0:0:0:
388,259,28550,2,0,P|314:196|268:198,1,125.999996154785,6|0,0:0|0:0,0:0:0:0:
225,255,28925,1,6,0:0:0:0:
213,268,29175,2,0,B|144:285|161:233|93:250,1,125.999996154785,6|2,1:2|0:0,0:0:0:0:
17,203,29550,2,0,P|66:116|71:76,1,125.999996154785,6|2,0:0|0:0,0:0:0:0:
29,13,29925,1,6,0:0:0:0:
39,30,30175,86,0,B|63:64|63:64|177:72,1,125.999996154785,6|0,1:2|0:0,0:0:0:0:
233,46,30550,2,0,P|234:84|213:184,2,125.999996154785,6|2|2,0:0|0:0|0:0,0:0:0:0:
316,19,31175,2,0,P|390:20|413:85,1,125.999996154785,6|4,1:2|0:0,0:0:0:0:
377,142,31550,1,4,0:0:0:0:
377,142,31675,1,4,1:2:0:0:
452,298,31925,2,0,P|482:304|512:315,1,62.9999980773926,6|2,0:0|0:0,0:0:0:0:
374,244,32175,22,0,P|333:317|282:324,1,125.999996154785,6|6,1:2|0:0,0:0:0:0:
223,276,32550,2,0,L|254:138,1,125.999996154785,6|0,0:0|0:0,0:0:0:0:
188,90,32925,2,0,L|126:77,1,62.9999980773926,6|2,0:0|0:0,0:0:0:0:
251,28,33175,2,0,B|319:10|302:62|370:45,1,125.999996154785,6|6,1:2|0:0,0:0:0:0:
450,8,33550,2,0,P|419:129|421:156,1,125.999996154785,6|2,0:0|0:0,0:0:0:0:
466,202,33925,1,6,0:0:0:0:
475,190,34175,86,0,P|373:183|321:262,1,188.999994232178,6|4,1:2|0:0,0:0:0:0:
354,327,34675,1,4,1:2:0:0:
184,376,34925,1,6,0:0:0:0:
59,251,35175,2,0,L|69:120,1,125.999996154785,6|6,1:2|0:0,0:0:0:0:
73,37,35550,2,0,P|128:54|161:118,1,125.999996154785,6|2,3:2|3:3,0:0:0:0:
248,104,35925,1,8,3:3:0:0:
244,280,36175,22,0,B|312:298|295:246|363:263,1,125.999996154785,2|6,1:2|0:0,0:0:0:0:
417,334,36550,2,0,P|409:272|420:211,1,125.999996154785,6|0,0:0|0:0,0:0:0:0:
498,140,36925,2,0,L|510:207,1,62.9999980773926,6|2,0:0|0:0,0:0:0:0:
417,93,37175,2,0,B|378:78|378:78|279:118,1,125.999996154785,6|6,1:2|0:0,0:0:0:0:
251,184,37550,2,0,P|213:141|224:49,1,125.999996154785,6|6,0:0|0:0,0:0:0:0:
269,8,37925,1,6,0:0:0:0:
261,16,38175,70,0,P|157:12|128:6,1,125.999996154785,6|2,1:2|0:0,0:0:0:0:
62,56,38550,2,0,B|44:90|44:90|63:192,2,125.999996154785,6|2|2,0:0|0:0|0:0,0:0:0:0:
135,7,39175,2,0,P|200:44|208:98,1,125.999996154785,6|4,1:2|0:0,0:0:0:0:
186,177,39550,1,4,0:0:0:0:
186,177,39675,1,4,1:2:0:0:
336,85,39925,2,0,L|349:23,1,62.9999980773926,6|2,0:0|0:0,0:0:0:0:
398,147,40175,38,0,L|425:269,1,125.999996154785,6|2,1:2|0:0,0:0:0:0:
374,341,40550,2,0,P|298:348|241:305,1,125.999996154785,6|0,0:0|0:0,0:0:0:0:
178,366,40925,1,6,0:0:0:0:
165,354,41175,2,0,B|141:304|141:304|167:215,1,125.999996154785,6|2,1:2|0:0,0:0:0:0:
119,158,41550,2,0,P|158:112|218:123,1,125.999996154785,2|2,0:0|0:0,0:0:0:0:
298,155,41925,1,6,0:0:0:0:
307,163,42175,70,0,B|375:181|358:129|426:146,2,125.999996154785,6|0|0,1:2|0:0|1:2,0:0:0:0:
298,155,42925,2,0,P|280:182|274:212,1,62.9999980773926,6|0,0:2|0:0,0:0:0:0:
312,306,43175,2,0,P|253:256|182:268,1,125.999996154785,6|2,1:2|0:0,0:0:0:0:
139,313,43550,2,0,P|125:324|16:340,2,125.999996154785,6|2|2,0:0|0:0|0:0,0:0:0:0:
127,224,44175,69,4,1:2:0:0:
51,174,44425,1,2,0:0:0:0:
51,174,44550,2,0,P|86:189|131:198,1,62.9999980773926,2|8,0:0|0:0,0:0:0:0:
200,135,44800,2,0,P|218:183|217:219,2,62.9999980773926,2|2|2,0:0|0:0|0:0,0:0:0:0:
154,45,45175,54,0,P|215:95|274:76,1,125.999996154785,2|2,1:2|0:0,0:0:0:0:
343,34,45550,1,2,0:0:0:0:
343,34,45675,1,8,0:0:0:0:
487,174,45925,2,0,L|479:236,1,62.9999980773926,2|2,0:0|0:0,0:0:0:0:
505,334,46175,54,0,P|430:328|386:283,1,125.999996154785,2|2,1:2|0:0,0:0:0:0:
338,211,46550,2,0,P|276:211|226:248,1,125.999996154785,2|0,0:0|0:0,0:0:0:0:
166,329,46925,1,2,0:0:0:0:
144,321,47175,38,0,B|120:271|120:271|146:182,1,125.999996154785,2|0,1:2|0:0,0:0:0:0:
220,18,47675,2,0,B|244:68|244:68|218:157,1,125.999996154785,10|2,0:0|0:0,0:0:0:0:
22,134,48175,70,0,P|60:143|105:144,1,62.9999980773926,2|0,1:2|0:0,0:0:0:0:
154,72,48425,1,0,0:0:0:0:
154,72,48550,1,2,0:0:0:0:
342,143,48800,54,0,P|375:147|411:168,2,62.9999980773926,2|2|0,0:0|0:0|0:0,0:0:0:0:
243,163,49175,2,0,B|217:203|217:203|232:310,1,125.999996154785,2|2,1:2|0:0,0:0:0:0:
242,380,49550,1,2,0:0:0:0:
242,380,49675,1,8,0:0:0:0:
57,298,49925,54,0,B|88:319|88:319|147:312,1,62.9999980773926,2|0,0:0|0:0,0:0:0:0:
227,280,50175,2,0,B|307:259|369:316,1,125.999996154785,2|2,1:2|0:0,0:0:0:0:
421,376,50550,1,2,0:0:0:0:
421,376,50675,1,8,0:0:0:0:
474,181,50925,2,0,B|414:157|414:157|372:204,1,125.999996154785,2|2,0:0|1:2,0:0:0:0:
166,223,51425,38,0,P|220:244|297:245,2,125.999996154785,2|10|2,0:0|0:0|0:0,0:0:0:0:
88,36,52175,69,4,1:2:0:0:
103,54,52425,2,0,P|136:49|166:48,1,62.9999980773926,2|2,0:0|0:0,0:0:0:0:
241,115,52675,2,0,P|272:114|303:109,1,62.9999980773926,10|2,0:0|0:0,0:0:0:0:
382,38,52925,2,0,P|398:66|403:97,1,62.9999980773926,2|0,0:0|0:0,0:0:0:0:
372,193,53175,1,2,1:2:0:0:
256,27,53425,1,2,0:0:0:0:
256,27,53550,1,2,0:0:0:0:
40,212,53925,54,0,P|48:242|46:284,1,62.9999980773926,2|2,0:0|0:0,0:0:0:0:
7,355,54175,2,0,P|98:305|133:338,1,125.999996154785,2|2,1:2|0:0,0:0:0:0:
196,363,54550,2,0,B|231:359|231:359|272:368|272:368|320:362,1,125.999996154785,2|0,0:0|0:0,0:0:0:0:
427,348,54925,1,2,0:0:0:0:
443,334,55175,54,0,L|449:208,1,125.999996154785,4|0,1:2|0:0,0:0:0:0:
289,64,55675,2,0,L|296:139,1,62.9999980773926,2|2,3:0|3:0,0:0:0:0:
362,210,55925,1,8,3:0:0:0:
344,237,56050,1,8,3:0:0:0:
316,241,56175,86,0,B|225:233|225:233|158:268|158:268|51:263,1,251.999992309571,2|0,1:2|0:0,0:0:0:0:
63,50,56925,70,0,P|65:90|53:136,1,62.9999980773926,10|0,0:0|0:0,0:0:0:0:
0,204,57175,2,0,P|51:135|85:133,1,125.999996154785,2|2,1:2|0:0,0:0:0:0:
147,220,57550,1,2,1:2:0:0:
411,37,57925,1,10,0:0:0:0:
428,54,58175,70,0,L|417:179,1,125.999996154785,10|0,0:0|0:0,0:0:0:0:
329,242,58550,2,0,L|318:116,1,125.999996154785,2|0,1:0|0:0,0:0:0:0:
307,9,58925,1,10,0:0:0:0:
511,73,59175,1,10,0:0:0:0:
511,73,59675,53,2,0:0:0:0:
489,236,59925,1,0,0:0:0:0:
300,211,60175,86,0,B|203:197|246:262|152:251,1,154.000004699707,6|8,1:2|0:0,0:0:0:0:
59,208,60550,2,0,P|34:164|76:52,1,154.000004699707,2|2,1:2|1:2,0:0:0:0:
160,37,60925,2,0,L|235:23,1,77.0000023498536,10|0,0:0|0:0,0:0:0:0:
281,122,61175,2,0,P|370:76|381:20,2,154.000004699707,2|8|2,1:2|0:0|1:2,0:0:0:0:
235,22,61800,1,0,1:2:0:0:
235,22,61925,1,10,0:0:0:0:
63,97,62175,22,0,B|49:206|49:206|82:248,1,154.000004699707,2|10,1:2|0:0,0:0:0:0:
14,330,62550,2,0,P|44:353|151:324,1,154.000004699707,2|0,1:2|1:2,0:0:0:0:
252,295,62925,2,0,B|246:371,1,77.0000023498536,10|0,0:0|0:0,0:0:0:0:
344,327,63175,2,0,B|348:273|348:273|323:231|323:231|327:167,2,154.000004699707,2|8|2,1:2|0:0|1:2,0:0:0:0:
443,371,63800,1,2,1:2:0:0:
443,371,63925,1,10,0:0:0:0:
485,159,64175,22,0,P|480:59|434:43,1,154.000004699707,2|10,1:2|0:0,0:0:0:0:
338,11,64550,2,0,L|165:44,1,154.000004699707,2|0,1:2|1:2,0:0:0:0:
171,147,64925,2,0,L|84:163,1,77.0000023498536,10|0,0:0|0:0,0:0:0:0:
18,237,65175,2,0,P|4:275|64:377,1,154.000004699707,2|10,1:2|0:0,0:0:0:0:
158,372,65550,1,0,0:0:0:0:
158,372,65675,2,0,B|214:356|256:343|256:343|274:282,1,154.000004699707,2|10,1:2|0:0,0:0:0:0:
279,77,66175,6,0,B|366:66|323:131|420:117,1,154.000004699707,2|10,1:2|0:0,0:0:0:0:
506,53,66550,2,0,B|466:89|466:89|487:192,1,154.000004699707,0|0,1:2|1:2,0:0:0:0:
501,293,66925,2,0,P|417:273|394:273,1,77.0000023498536,10|0,0:0|0:0,0:0:0:0:
348,350,67175,70,0,L|241:370,1,77.0000023498536,10|0,0:0|1:0,0:0:0:0:
232,270,67425,2,0,L|213:184,1,77.0000023498536,8|0,0:0|1:0,0:0:0:0:
157,33,67675,2,0,P|194:30|229:45,1,77.0000023498536,10|8,1:2|0:0,0:0:0:0:
133,176,67925,2,0,P|111:144|106:106,1,77.0000023498536,10|8,0:0|0:0,0:0:0:0:
268,125,68175,86,0,B|355:121|319:185|415:179,1,154.000004699707,6|10,1:2|0:0,0:0:0:0:
487,96,68550,2,0,B|518:79|518:79|388:95,1,154.000004699707,2|0,1:2|1:2,0:0:0:0:
322,195,68925,2,0,L|326:271,1,77.0000023498536,10|0,0:0|0:0,0:0:0:0:
360,374,69175,2,0,P|437:352|513:351,2,154.000004699707,2|8|2,1:2|0:0|1:2,0:0:0:0:
251,377,69800,1,0,1:2:0:0:
251,377,69925,1,10,0:0:0:0:
175,174,70175,22,0,P|169:98|84:70,1,154.000004699707,2|8,1:2|0:0,0:0:0:0:
4,26,70550,2,0,L|174:-4,1,154.000004699707,2|2,1:2|1:2,0:0:0:0:
252,12,70925,2,0,P|289:39|336:34,1,77.0000023498536,10|0,0:0|0:0,0:0:0:0:
433,23,71175,2,0,B|385:110|385:110|405:164,2,154.000004699707,2|8|2,1:2|0:0|1:2,0:0:0:0:
487,117,71800,1,2,1:2:0:0:
487,117,71925,1,10,0:0:0:0:
469,331,72175,70,0,L|309:303,1,154.000004699707,2|10,1:2|0:0,0:0:0:0:
297,198,72550,2,0,B|248:202|248:202|216:237|216:237|146:245,1,154.000004699707,2|0,1:2|1:2,0:0:0:0:
84,165,72925,2,0,P|114:147|174:157,1,77.0000023498536,10|0,0:0|0:0,0:0:0:0:
71,266,73175,2,0,B|21:270|21:270|-11:308|6:383,1,154.000004699707,2|10,1:2|0:0,0:0:0:0:
107,374,73550,1,0,0:0:0:0:
107,374,73675,2,0,B|154:365|154:365|187:330|187:330|248:321,1,154.000004699707,2|10,1:2|0:0,0:0:0:0:
422,200,74175,102,0,P|491:174|511:103,1,154.000004699707,2|10,1:2|0:0,0:0:0:0:
405,105,74550,2,0,L|369:259,1,154.000004699707,2|0,1:2|1:2,0:0:0:0:
262,298,74925,2,0,L|240:225,1,77.0000023498536,10|0,0:0|0:0,0:0:0:0:
309,140,75175,38,0,P|278:123|227:109,1,77.0000023498536,8|0,0:0|1:2,0:0:0:0:
255,4,75425,2,0,P|218:14|184:33,1,77.0000023498536,8|0,0:0|1:2,0:0:0:0:
83,71,75675,2,0,L|101:165,1,77.0000023498536,10|8,1:2|0:0,0:0:0:0:
189,204,75925,2,0,L|204:280,1,77.0000023498536,10|8,0:0|0:0,0:0:0:0:
301,327,76175,38,0,B|332:295|332:295|306:167,1,154.000004699707,14|8,1:2|0:0,0:0:0:0:
241,104,76550,2,0,P|293:80|343:95,1,77.0000023498536,2|0,1:2|0:0,0:0:0:0:
417,97,76800,2,0,P|414:58|394:26,2,77.0000023498536,2|10|2,0:0|0:0|0:0,0:0:0:0:
386,194,77175,54,0,L|290:185,1,77.0000023498536,2|0,1:2|0:0,0:0:0:0:
239,269,77425,1,10,0:0:0:0:
239,269,77550,2,0,L|143:277,1,77.0000023498536,2|0,0:0|1:2,0:0:0:0:
37,98,77925,2,0,P|53:144|38:191,1,77.0000023498536,10|0,0:0|0:0,0:0:0:0:
21,275,78175,54,0,P|33:207|128:177,1,154.000004699707,2|10,1:2|0:0,0:0:0:0:
199,225,78550,2,0,P|282:237|336:183,1,154.000004699707,2|2,1:2|0:0,0:0:0:0:
448,129,78925,2,0,P|429:82|331:72,1,154.000004699707,10|2,0:0|1:2,0:0:0:0:
87,137,79425,1,8,0:0:0:0:
104,151,79675,2,0,B|134:190|134:190|117:306,1,154.000004699707,2|10,1:2|0:0,0:0:0:0:
326,214,80175,70,0,P|231:198|228:129,1,154.000004699707,6|8,1:2|0:0,0:0:0:0:
160,64,80550,2,0,P|224:32|256:40,1,77.0000023498536,2|0,0:0|1:2,0:0:0:0:
308,90,80800,2,0,P|345:82|374:58,2,77.0000023498536,2|10|2,0:0|0:0|0:0,0:0:0:0:
220,154,81175,38,0,L|212:248,1,77.0000023498536,2|0,1:2|0:0,0:0:0:0:
326,214,81425,1,10,0:0:0:0:
326,214,81550,2,0,B|329:267|329:267|306:321|306:321|310:387,1,154.000004699707,2|0,1:2|0:0,0:0:0:0:
431,342,81925,1,10,0:0:0:0:
418,327,82175,54,0,P|374:278|263:287,1,154.000004699707,2|10,1:2|0:0,0:0:0:0:
204,339,82550,2,0,P|130:346|106:333,1,77.0000023498536,2|0,0:0|1:2,0:0:0:0:
50,271,82800,2,0,P|25:318|26:347,2,77.0000023498536,2|10|2,0:0|0:0|0:0,0:0:0:0:
156,252,83175,22,0,B|189:209|189:209|156:100,1,154.000004699707,0|8,1:2|0:0,0:0:0:0:
0,30,83675,102,0,L|91:38,1,77.0000023498536,10|8,1:2|0:0,0:0:0:0:
160,113,83925,2,0,L|251:104,1,77.0000023498536,10|8,0:0|0:0,0:0:0:0:
319,36,84175,70,0,P|346:107|302:189,1,154.000004699707,6|8,1:2|0:0,0:0:0:0:
210,189,84550,2,0,P|240:256|264:270,1,77.0000023498536,0|0,0:0|1:2,0:0:0:0:
317,332,84800,2,0,P|342:285|341:256,2,77.0000023498536,2|8|2,0:0|0:0|0:0,0:0:0:0:
216,369,85175,22,0,L|112:360,1,77.0000023498536,2|0,1:2|0:0,0:0:0:0:
35,350,85425,1,10,0:0:0:0:
35,350,85550,2,0,B|32:297|32:297|55:243|55:243|51:177,1,154.000004699707,2|0,1:2|0:0,0:0:0:0:
0,105,85925,2,0,P|73:90|100:101,1,77.0000023498536,10|0,0:0|0:0,0:0:0:0:
155,159,86175,86,0,P|218:166|249:80,1,154.000004699707,2|10,1:2|0:0,0:0:0:0:
174,20,86550,1,2,0:0:0:0:
388,37,86800,2,0,L|379:131,1,77.0000023498536,2|10,0:0|0:0,0:0:0:0:
365,329,87175,38,0,P|334:253|245:259,1,154.000004699707,2|8,1:2|0:0,0:0:0:0:
195,331,87550,1,0,0:0:0:0:
195,331,87675,2,0,B|162:296|162:296|183:159,1,154.000004699707,10|10,1:2|0:0,0:0:0:0:
21,41,88175,70,0,P|103:107|156:97,1,154.000004699707,6|8,1:2|0:0,0:0:0:0:
233,39,88550,2,0,P|296:34|323:51,1,77.0000023498536,2|0,0:0|1:0,0:0:0:0:
403,90,88800,2,0,P|418:28|406:0,2,77.0000023498536,2|10|2,0:0|0:0|0:0,0:0:0:0:
304,136,89175,22,0,B|347:165|347:165|336:278,1,154.000004699707,2|10,1:2|0:0,0:0:0:0:
318,372,89550,2,0,B|274:373|247:333|247:333|203:317|157:347,1,154.000004699707,2|0,0:0|0:0,0:0:0:0:
82,381,89925,2,0,P|70:328|82:298,1,77.0000023498536,10|0,0:0|0:0,0:0:0:0:
158,238,90175,6,0,B|164:182|164:182|149:127|149:127|153:76,1,154.000004699707,2|10,1:2|0:0,0:0:0:0:
52,43,90550,2,0,P|77:15|112:-1,1,77.0000023498536,2|0,0:0|1:0,0:0:0:0:
220,13,90800,2,0,P|246:40|261:75,2,77.0000023498536,2|10|2,0:0|0:0|0:0,0:0:0:0:
152,86,91175,6,0,P|143:176|270:157,1,231.000007049561,6|0,1:2|0:0,0:0:0:0:
347,122,91675,2,0,P|383:99|451:219,1,231.000007049561,6|0,0:0|0:0,0:0:0:0:
466,322,92175,86,0,P|398:300|319:291,1,140,6|8,1:2|0:0,0:0:0:0:
286,200,92550,2,0,P|218:222|139:231,1,140,0|0,1:2|1:2,0:0:0:0:
67,284,92925,1,8,0:0:0:0:
54,88,93175,2,0,B|122:77|122:77|165:92|187:123,1,140,0|8,1:2|0:0,0:0:0:0:
260,172,93550,2,0,L|270:32,1,140,0|0,1:2|1:2,0:0:0:0:
364,4,93925,2,0,L|359:74,1,70,8|0,0:0|0:0,0:0:0:0:
439,130,94175,6,0,P|369:124|351:192,1,140,0|8,1:2|0:0,0:0:0:0:
397,264,94550,2,0,B|358:235|358:235|248:265,1,140,0|0,1:2|1:2,0:0:0:0:
184,307,94925,1,8,0:0:0:0:
60,154,95175,2,0,L|68:83,2,70,2|0|10,1:2|0:0|0:0,0:0:0:0:
157,163,95550,1,0,1:2:0:0:
157,163,95675,2,0,P|205:111|293:133,1,140,2|10,0:0|0:0,0:0:0:0:
464,88,96175,102,0,P|442:156|433:235,1,140,0|8,1:2|0:0,0:0:0:0:
456,318,96550,2,0,B|364:290|364:290|309:306,1,140,0|0,1:2|1:2,0:0:0:0:
236,351,96925,1,8,0:0:0:0:
56,271,97175,2,0,P|27:192|73:151,1,140,0|8,1:2|0:0,0:0:0:0:
90,62,97550,2,0,P|163:73|230:72,1,140,0|0,1:2|1:2,0:0:0:0:
320,36,97925,2,0,L|334:125,1,70,8|0,0:0|0:0,0:0:0:0:
426,82,98175,6,0,L|404:220,1,140,0|8,1:2|0:0,3:0:0:0:
433,313,98550,2,0,P|379:252|301:237,1,140,0|0,1:2|1:2,0:0:0:0:
253,303,98925,2,0,P|209:340|171:347,1,70,8|0,0:0|0:0,0:0:0:0:
103,313,99175,6,0,L|95:382,2,70,8|0|8,0:0|1:2|0:0,0:0:0:0:
53,227,99550,1,0,1:2:0:0:
53,227,99675,2,0,L|60:157,1,70,8|0,0:0|1:2,0:0:0:0:
130,87,99925,2,0,L|137:17,1,70,8|8,0:0|0:0,0:0:0:0:
186,157,100175,86,0,B|284:147|284:147|323:118,1,140,4|8,1:2|0:0,0:0:0:0:
416,82,100550,2,0,L|392:242,1,140,0|0,1:2|1:2,0:0:0:0:
465,290,100925,1,8,0:0:0:0:
282,360,101175,2,0,P|200:340|175:284,1,140,0|8,1:2|0:0,2:0:0:0:
112,210,101550,2,0,P|194:190|219:134,1,140,0|0,0:0|1:2,0:0:0:0:
301,93,101925,2,0,P|269:62|221:46,1,70,8|0,0:0|0:0,0:0:0:0:
162,0,102175,6,0,B|136:44|136:44|0:51,1,140,0|8,1:2|0:0,0:0:0:0:
0,134,102550,2,0,L|39:288,1,140,0|0,1:2|1:2,0:0:0:0:
9,364,102925,1,8,0:0:0:0:
196,306,103175,2,0,P|187:347|195:379,2,70,2|0|10,1:2|0:0|0:0,0:0:0:0:
278,251,103550,1,0,0:0:0:0:
278,251,103675,2,0,B|356:242|325:309|429:297,1,140,2|10,1:2|0:0,0:0:0:0:
498,126,104175,102,0,L|336:66,1,140,0|8,1:2|0:0,0:0:0:0:
297,146,104550,2,0,L|135:86,1,140,0|0,1:2|1:2,0:0:0:0:
96,166,104925,1,8,0:0:0:0:
160,351,105175,2,0,P|254:326|320:327,1,140,0|8,1:2|0:0,0:0:0:0:
389,356,105550,2,0,P|467:327|461:268,1,140,0|0,0:0|1:2,0:0:0:0:
508,190,105925,2,0,P|490:149|490:107,1,70,8|0,0:0|0:0,0:0:0:0:
494,26,106175,6,0,B|399:9|399:9|312:63,1,140,0|8,1:2|0:0,0:0:0:0:
298,106,106550,2,0,B|155:131,1,140,0|0,1:2|1:2,0:0:0:0:
62,122,106925,2,0,P|70:168|84:191,1,70,8|0,0:0|0:0,0:0:0:0:
103,284,107175,6,0,L|18:312,2,70,8|0|8,0:0|1:2|0:0,0:0:0:0:
177,220,107550,1,0,1:2:0:0:
177,220,107675,2,0,L|243:241,1,70,8|8,1:2|1:2,0:0:0:0:
335,275,107925,2,0,P|353:305|352:340,1,70,8|8,1:2|1:2,0:0:0:0:
322,178,108175,53,6,1:2:0:0:
197,329,108425,1,10,0:0:0:0:
197,329,108550,2,0,B|177:221|177:221|212:170,1,140,2|0,1:2|0:0,0:0:0:0:
180,99,108925,2,0,P|219:96|274:142,1,70,10|2,0:0|0:0,0:0:0:0:
322,178,109175,54,0,B|371:172|371:172|419:185|419:185|472:178,1,140,2|10,1:2|0:0,0:0:0:0:
431,97,109550,2,0,P|408:129|413:244,1,140,2|2,1:2|1:2,0:0:0:0:
445,315,109925,1,10,0:0:0:0:
452,329,110175,54,0,B|403:335|403:335|355:322|355:322|302:329,1,140,2|10,1:2|0:0,0:0:0:0:
231,359,110550,2,0,B|196:357|142:331|142:331|174:330|196:313,2,140,2|0|0,1:2|0:0|0:0,0:0:0:0:
141,244,111175,1,0,1:0:0:0:
341,72,111425,1,8,0:0:0:0:
341,72,111550,2,0,P|310:55|276:55,2,70
424,155,111925,2,0,L|430:230,1,70,10|2,0:0|0:0,0:0:0:0:
469,314,112175,54,0,P|422:256|337:276,1,140,2|10,1:2|0:0,0:0:0:0:
312,342,112550,2,0,B|275:314|275:314|265:195,1,140,2|0,1:2|0:0,0:0:0:0:
332,146,112925,2,0,P|267:121|250:125,1,70,10|2,0:0|0:0,0:0:0:0:
185,172,113175,2,0,P|123:130|161:62,1,140,2|10,1:2|0:0,0:0:0:0:
208,8,113550,2,0,B|181:39|181:39|51:28,1,140,2|2,1:2|1:2,0:0:0:0:
13,100,113925,1,10,0:0:0:0:
32,107,114175,54,0,P|45:175|46:245,2,140,2|8|0,1:2|0:0|0:0,0:0:0:0:
0,9,114925,1,10,0:0:0:0:
15,22,115175,54,0,L|174:35,1,140,2|10,1:2|0:0,0:0:0:0:
250,16,115550,2,0,P|236:87|225:101,1,70,2|0,1:2|0:0,0:0:0:0:
174,158,115800,1,2,1:2:0:0:
174,158,115925,2,0,P|187:229|198:243,1,70,10|8,0:0|0:0,0:0:0:0:
249,300,116175,38,0,L|405:313,1,140,6|8,1:2|0:0,0:0:0:0:
463,375,116550,2,0,P|485:313|437:226,1,140,2|0,1:2|1:2,0:0:0:0:
364,226,116925,2,0,P|388:172|423:154,1,70,10|2,0:0|0:0,0:0:0:0:
468,99,117175,70,0,P|426:142|333:106,1,140,2|10,1:2|0:0,0:0:0:0:
286,58,117550,2,0,P|219:44|170:90,1,140,2|2,0:0|1:2,0:0:0:0:
75,113,117925,2,0,L|82:196,1,70,10|0,0:0|0:0,0:0:0:0:
35,270,118175,54,0,P|85:286|124:277,1,70,2|0,1:2|0:0,0:0:0:0:
191,242,118425,1,10,0:0:0:0:
191,242,118550,1,2,1:2:0:0:
356,346,118800,2,0,B|327:318|327:318|341:207,1,140,2|2,1:2|0:0,0:0:0:0:
299,129,119175,2,0,P|192:146|144:132,2,140,2|8|0,1:2|0:0|1:2,0:0:0:0:
472,36,119925,54,0,P|466:70|479:116,1,70,10|2,0:0|0:0,0:0:0:0:
507,196,120175,2,0,P|458:149|381:176,1,140,2|10,1:2|0:0,0:0:0:0:
319,229,120550,2,0,P|253:243|204:196,1,140,2|0,1:2|1:2,0:0:0:0:
251,110,120925,2,0,P|200:93|171:99,1,70,10|2,0:0|0:0,0:0:0:0:
99,44,121175,38,0,B|82:82|82:82|111:184,1,140,2|10,1:2|0:0,0:0:0:0:
77,269,121550,2,0,P|107:206|190:216,1,140,2|0,0:0|1:2,0:0:0:0:
229,280,121925,1,10,0:0:0:0:
241,297,122175,70,0,P|311:301|391:287,2,140,2|8|0,1:2|0:0|0:0,0:0:0:0:
170,202,122925,1,10,0:0:0:0:
182,189,123175,54,0,L|174:99,1,70,10|0,0:0|1:2,0:0:0:0:
92,67,123425,2,0,L|84:156,1,70,10|2,0:0|1:2,0:0:0:0:
0,185,123675,2,0,P|21:212|51:229,1,70,0|4,3:2|3:0,0:0:0:0:
87,321,123925,2,0,P|117:304|138:276,1,70,2|2,3:3|1:3,0:0:0:0:
182,189,124175,21,4,1:2:0:0:
324,284,124425,2,0,L|397:275,1,62.9999980773926
452,197,124675,2,0,L|379:188,2,62.9999980773926,10|0|0,0:1|0:0|0:0,0:0:0:0:
493,118,125050,1,0,0:0:0:0:
493,118,125175,2,0,P|452:59|385:53,1,125.999996154785,2|0,1:1|0:0,0:0:0:0:
320,78,125550,1,2,0:1:0:0:
320,78,125675,1,10,1:1:0:0:
154,16,125925,2,0,P|165:64|166:101,1,62.9999980773926,2|0,0:1|0:0,0:0:0:0:
93,128,126175,70,0,L|129:262,1,125.999996154785,2|0,1:1|0:0,0:0:0:0:
104,341,126550,2,0,B|187:319|187:319|234:343,1,125.999996154785
300,373,126925,1,0,0:0:0:0:
464,296,127175,2,0,P|485:217|454:167,1,125.999996154785,2|0,1:1|0:0,0:0:0:0:
362,37,127675,1,10,1:1:0:0:
239,163,127925,1,2,0:1:0:0:
72,104,128175,38,0,L|117:242,1,125.999996154785,2|0,1:1|0:0,0:0:0:0:
70,302,128550,2,0,P|110:345|195:336,1,125.999996154785
238,287,128925,1,0,0:0:0:0:
251,273,129175,2,0,B|263:221|263:221|254:193|254:193|266:151,1,125.999996154785,2|0,1:1|0:0,0:0:0:0:
220,83,129550,1,2,0:1:0:0:
220,83,129675,1,10,1:1:0:0:
386,23,129925,2,0,P|422:36|453:42,1,62.9999980773926,2|0,0:1|0:0,0:0:0:0:
495,114,130175,70,0,L|484:251,1,125.999996154785,2|0,1:1|0:0,0:0:0:0:
443,320,130550,1,0,0:0:0:0:
443,320,130675,1,10,0:1:0:0:
288,235,130925,1,0,0:0:0:0:
163,360,131175,2,0,P|97:324|28:298,1,125.999996154785,2|0,1:1|0:0,0:0:0:0:
27,219,131550,1,2,0:1:0:0:
27,219,131675,2,0,L|42:140,3,62.9999980773926,10|0|8|0,1:1|0:0|0:1|0:0,0:0:0:0:
5,74,132175,37,6,1:1:0:0:
173,21,132425,2,0,P|211:22|246:30,1,62.9999980773926
305,80,132675,2,0,P|268:135|249:207,1,125.999996154785,10|0,0:1|0:0,0:0:0:0:
205,273,133050,1,0,0:0:0:0:
205,273,133175,2,0,L|345:288,1,125.999996154785,2|0,1:1|0:0,0:0:0:0:
416,298,133550,1,2,0:1:0:0:
416,298,133675,1,10,1:1:0:0:
510,174,133925,2,0,L|486:87,1,62.9999980773926,2|0,0:1|0:0,0:0:0:0:
494,25,134175,70,0,P|432:79|367:70,1,125.999996154785,2|0,1:1|0:0,0:0:0:0:
326,138,134550,2,0,P|264:129|223:83,1,125.999996154785
154,27,134925,1,0,0:0:0:0:
28,151,135175,38,0,L|72:289,1,125.999996154785,14|0,1:1|0:0,0:0:0:0:
227,342,135675,2,0,B|257:355|257:355|299:343,1,62.9999980773926,4|4,3:3|3:3,0:0:0:0:
291,257,135925,2,0,B|261:244|261:244|231:252,1,62.9999980773926,10|10,3:3|3:3,0:0:0:0:
363,307,136175,22,0,B|402:249|360:182|347:197|318:132|360:65,1,251.999992309571,6|0,2:0|0:0,0:0:0:0:
175,29,136925,54,0,P|157:72|161:89,1,62.9999980773926,10|0,0:0|0:0,0:0:0:0:
211,159,137175,2,0,B|169:135|169:135|74:143,1,125.999996154785,2|2,1:2|0:0,0:0:0:0:
22,196,137550,2,0,P|80:247|71:314,1,125.999996154785,2|0,1:2|1:2,0:0:0:0:
23,357,137925,1,10,0:0:0:0:
193,311,138175,22,0,P|258:317|336:335,1,125.999996154785,10|0,0:0|0:0,0:0:0:0:
334,242,138550,2,0,P|395:229|458:223,1,125.999996154785,2|0,1:2|0:0,0:0:0:0:
485,139,138925,1,10,0:0:0:0:
340,37,139175,1,10,0:0:0:0:
58,249,139675,86,0,L|65:311,1,62.9999980773926,10|8,0:0|0:0,0:0:0:0:
48,161,139925,2,0,L|40:98,1,62.9999980773926,10|8,0:0|0:0,0:0:0:0:
100,9,140175,86,0,B|197:-5|154:60|248:49,1,154.000004699707,6|10,1:2|0:0,0:0:0:0:
347,28,140550,2,0,B|321:67|321:67|336:195,1,154.000004699707,2|0,1:2|1:2,0:0:0:0:
420,239,140925,2,0,P|366:283|340:285,1,77.0000023498536,10|0,0:0|0:0,0:0:0:0:
261,242,141175,2,0,P|235:279|229:388,2,154.000004699707,2|8|2,1:2|0:0|1:2,0:0:0:0:
348,191,141800,1,0,1:0:0:0:
348,191,141925,1,10,0:0:0:0:
196,52,142175,22,0,B|233:99|233:99|355:88,1,154.000004699707,2|10,1:2|0:0,0:0:0:0:
375,0,142550,2,0,P|434:67|423:145,1,154.000004699707,2|0,1:2|1:2,0:0:0:0:
348,191,142925,2,0,L|355:280,1,77.0000023498536,10|0,0:0|0:0,0:0:0:0:
366,374,143175,2,0,B|410:375|437:335|437:335|481:319|527:349,2,154.000004699707,2|8|2,1:2|0:0|1:2,0:0:0:0:
262,375,143800,1,0,1:0:0:0:
262,375,143925,1,10,0:0:0:0:
210,131,144175,54,0,B|244:166|244:166|233:288,1,154.000004699707,2|10,1:2|0:0,0:0:0:0:
153,339,144550,2,0,B|56:353|99:288|5:299,1,154.000004699707,2|0,1:2|1:2,0:0:0:0:
67,205,144925,2,0,L|74:108,1,77.0000023498536,10|0,0:0|0:0,0:0:0:0:
99,23,145175,38,0,B|143:22|170:62|170:62|214:79|260:48,1,154.000004699707,2|10,1:2|0:0,0:0:0:0:
330,6,145550,1,0,0:0:0:0:
330,6,145675,2,0,B|337:57|337:57|325:110|325:110|332:158,1,154.000004699707,2|10,1:2|0:0,0:0:0:0:
116,170,146175,86,0,P|206:183|240:240,1,154.000004699707,2|10,1:2|0:0,0:0:0:0:
280,330,146550,2,0,P|344:380|413:355,1,154.000004699707,2|0,1:2|1:2,0:0:0:0:
480,279,146925,1,10,0:0:0:0:
435,68,147175,38,0,L|427:158,1,77.0000023498536,10|0,0:0|1:2,0:0:0:0:
335,199,147425,2,0,L|328:122,1,77.0000023498536,8|0,0:0|1:2,0:0:0:0:
362,20,147675,2,0,P|326:10|289:19,1,77.0000023498536,10|8,1:2|0:0,0:0:0:0:
219,104,147925,2,0,P|183:113|146:104,1,77.0000023498536,10|8,0:0|0:0,0:0:0:0:
61,35,148175,86,0,B|33:72|33:72|42:197,1,154.000004699707,6|10,1:2|0:0,0:0:0:0:
17,285,148550,2,0,B|106:300|87:239|167:258,1,154.000004699707,2|2,1:2|1:2,0:0:0:0:
259,305,148925,1,10,0:0:0:0:
272,319,149175,6,0,P|361:261|422:248,2,154.000004699707,2|8|2,1:2|0:0|1:2,0:0:0:0:
376,361,149800,1,0,1:0:0:0:
376,361,149925,1,10,0:0:0:0:
493,145,150175,6,0,P|481:195|368:195,1,154.000004699707,2|10,1:2|0:0,0:0:0:0:
339,115,150550,2,0,B|262:93|262:93|197:153,1,154.000004699707,2|0,1:2|0:0,0:0:0:0:
101,128,150925,1,10,0:0:0:0:
93,145,151175,86,0,B|104:203|104:203|94:251|94:251|105:306,2,154.000004699707,2|8|2,1:2|0:0|1:2,0:0:0:0:
16,205,151800,1,0,1:0:0:0:
16,205,151925,1,10,0:0:0:0:
236,310,152175,54,0,B|325:295|306:356|386:337,1,154.000004699707,2|10,1:2|0:0,0:0:0:0:
484,382,152550,2,0,P|488:299|429:237,1,154.000004699707,2|0,1:2|0:0,3:0:0:0:
371,175,152925,2,0,P|353:129|363:74,1,77.0000023498536,10|0,0:0|0:0,0:0:0:0:
398,4,153175,86,0,P|338:70|256:56,1,154.000004699707,2|10,1:2|0:0,0:0:0:0:
198,4,153550,1,0,0:0:0:0:
198,4,153675,2,0,B|166:45|166:45|180:161,1,154.000004699707,2|10,1:2|0:0,0:0:0:0:
31,304,154175,38,0,P|42:237|126:223,1,154.000004699707,2|10,1:2|0:0,0:0:0:0:
200,288,154550,2,0,L|362:273,1,154.000004699707,2|0,1:2|1:2,0:0:0:0:
444,331,154925,2,0,P|461:298|463:259,1,77.0000023498536,10|0,0:0|0:0,0:0:0:0:
398,172,155175,102,0,L|406:80,1,77.0000023498536,10|0,0:0|0:0,0:0:0:0:
315,33,155425,2,0,L|223:41,1,77.0000023498536,10|0,0:0|0:0,0:0:0:0:
221,146,155675,2,0,P|184:134|154:110,1,77.0000023498536,10|8,1:2|0:0,0:0:0:0:
143,2,155925,2,0,P|86:28|63:59,1,77.0000023498536,10|8,0:0|0:0,0:0:0:0:
26,121,156175,70,0,L|43:273,1,140,6|10,1:2|0:0,0:0:0:0:
112,328,156550,2,0,P|182:358|231:313,1,140,2|2,0:0|0:0,0:0:0:0:
320,353,156925,1,10,0:0:0:0:
221,183,157175,2,0,B|200:132|200:132|233:42,1,140,2|10,1:2|0:0,0:0:0:0:
324,75,157550,2,0,L|473:41,1,140,2|2,0:0|0:0,0:0:0:0:
503,132,157925,2,0,P|490:193|489:219,1,70,10|2,0:0|0:0,0:0:0:0:
507,297,158175,102,0,P|443:234|378:234,1,140,2|10,1:2|0:0,0:0:0:0:
326,159,158550,2,0,P|262:222|197:222,1,140,2|2,0:0|0:0,0:0:0:0:
145,296,158925,1,10,0:0:0:0:
59,119,159175,2,0,L|210:87,1,140,2|10,1:2|0:0,0:0:0:0:
265,20,159550,1,2,0:0:0:0:
265,20,159675,2,0,L|340:36,1,70,2|2,1:2|0:0,0:0:0:0:
402,103,159925,1,10,0:0:0:0:
476,284,160175,22,0,P|416:335|341:335,1,140,6|10,1:2|0:0,0:0:0:0:
262,365,160550,2,0,L|268:213,1,140,2|2,0:0|0:0,0:0:0:0:
324,145,160925,1,10,0:0:0:0:
164,30,161175,2,0,B|109:25|109:25|76:45|76:45|19:40,1,140,2|10,1:2|0:0,0:0:0:0:
17,138,161550,2,0,P|83:195|69:256,1,140,2|2,0:0|0:0,0:0:0:0:
38,330,161925,2,0,L|120:347,1,70,10|2,0:0|0:0,0:0:0:0:
199,375,162175,86,0,B|223:339|223:339|337:342,1,140,2|10,1:2|0:0,0:0:0:0:
401,285,162550,2,0,B|377:249|377:249|263:252,1,140,2|2,0:0|0:0,0:0:0:0:
199,196,162925,1,10,0:0:0:0:
314,38,163175,22,0,P|415:35|437:74,1,140,2|8,1:2|0:0,0:0:0:0:
443,70,163675,2,0,L|433:153,1,70,10|10,0:0|0:0,0:0:0:0:
504,209,163925,2,0,L|494:292,1,70,10|10,0:0|0:0,0:0:0:0:
336,259,164175,86,0,P|363:281|397:292,2,70,6|2|10,1:2|0:0|0:0,0:0:0:0:
284,177,164550,1,2,0:0:0:0:
219,251,164675,2,0,L|74:284,1,140,2|10,1:2|0:0,0:0:0:0:
29,199,165050,1,2,0:0:0:0:
29,199,165175,2,0,P|26:142|10:113,2,70,2|0|10,1:2|0:0|0:0,0:0:0:0:
125,217,165550,2,0,P|129:147|109:80,1,140
22,34,165925,1,10,0:0:0:0:
217,39,166175,6,0,L|210:108,2,70,6|2|10,1:2|0:0|0:0,0:0:0:0:
309,7,166550,1,2,0:0:0:0:
400,42,166675,2,0,L|413:181,1,140,2|10,1:2|0:0,0:0:0:0:
383,274,167050,1,2,0:0:0:0:
383,274,167175,2,0,L|455:296,2,70,2|0|10,1:2|0:0|0:0,0:0:0:0:
314,203,167550,2,0,B|268:195|241:212|254:225|221:241|181:233,1,140
123,154,167925,1,10,0:0:0:0:
303,78,168175,6,0,L|371:90,2,70,6|2|10,1:2|0:0|0:0,0:0:0:0:
236,6,168550,2,0,P|203:70|227:136,1,140,2|2,0:0|0:0,0:0:0:0:
246,227,168925,2,0,P|211:232|178:244,1,70,10|2,0:0|0:0,0:0:0:0:
155,148,169175,2,0,P|197:134|228:130,1,70,2|0,1:2|0:0,0:0:0:0:
303,78,169425,2,0,P|336:107|355:132,1,70,10|0,0:0|0:0,0:0:0:0:
437,171,169675,2,0,P|428:214|416:243,1,70,2|0,1:2|0:0,0:0:0:0:
423,333,169925,1,10,0:0:0:0:
228,353,170175,6,0,L|236:265,2,70,6|2|10,1:2|0:0|0:0,0:0:0:0:
132,372,170550,2,0,L|144:232,1,140,2|0,0:0|0:0,0:0:0:0:
121,137,170925,2,0,P|77:123|35:120,1,70,10|0,0:0|0:0,0:0:0:0:
12,31,171175,2,0,L|80:17,1,70,2|0,1:2|0:0,0:0:0:0:
174,46,171425,2,0,L|242:59,1,70,2|0,1:2|0:0,0:0:0:0:
312,128,171675,2,0,L|380:114,2,70,10|8|10,0:0|0:0|0:0,0:0:0:0:
242,197,172050,1,8,0:0:0:0:
242,197,172175,6,0,P|253:237|243:287,1,83.9999974365235,2|0,1:2|0:0,0:0:0:0:
125,323,172675,2,0,P|114:283|124:233,1,83.9999974365235,8|2,0:0|0:0,0:0:0:0:
73,133,173175,86,0,P|113:121|154:128,1,83.9999974365235,2|0,1:2|0:0,0:0:0:0:
242,197,173675,2,0,P|283:203|323:192,1,83.9999974365235,10|2,0:0|0:0,0:0:0:0:
401,104,174175,22,0,P|441:154|445:179,1,83.9999974365235,2|2,1:2|0:0,0:0:0:0:
511,268,174675,2,0,P|487:327|468:343,1,83.9999974365235,8|2,0:0|0:0,0:0:0:0:
358,364,175175,85,2,1:2:0:0:
400,254,175425,1,0,0:0:0:0:
285,282,175675,1,8,0:0:0:0:
243,172,175925,1,2,0:0:0:0:
249,159,176175,22,0,P|185:149|162:158,1,83.9999974365235,2|0,1:2|0:0,0:0:0:0:
60,106,176675,2,0,P|50:169|59:192,1,83.9999974365235,8|2,0:0|0:0,0:0:0:0:
18,298,177175,70,0,P|81:307|104:298,1,83.9999974365235,2|0,1:2|0:0,0:0:0:0:
207,351,177675,2,0,P|216:287|207:264,1,83.9999974365235,10|2,0:0|0:0,0:0:0:0:
168,155,178175,38,0,P|208:162|248:151,1,83.9999974365235,2|0,1:2|0:0,0:0:0:0:
336,72,178675,2,0,P|375:60|416:68,1,83.9999974365235,8|2,0:0|0:0,0:0:0:0:
496,155,179175,70,0,L|487:251,1,83.9999974365235,2|0,1:2|0:0,0:0:0:0:
480,297,179550,1,4,1:2:0:0:
369,337,179800,1,0,3:0:0:0:
369,337,179925,2,0,L|315:332,1,41.9999987182618,10|10,3:3|1:3,0:0:0:0:
283,292,180175,70,0,P|242:280|201:287,1,83.9999974365235,6|0,1:2|0:0,0:0:0:0:
114,356,180675,2,0,P|72:362|32:351,1,83.9999974365235,8|6,0:0|0:0,0:0:0:0:
87,246,181175,54,0,P|91:193|106:147,1,83.9999974365235,6|0,1:2|0:0,0:0:0:0:
196,108,181675,2,0,P|207:147|204:208,1,83.9999974365235,14|6,0:0|0:0,0:0:0:0:
301,256,182175,54,0,P|315:186|316:163,1,83.9999974365235,2|2,1:2|0:0,0:0:0:0:
247,77,182675,2,0,P|233:147|232:170,1,83.9999974365235,8|6,0:0|0:0,0:0:0:0:
301,255,183175,37,6,1:2:0:0:
413,222,183425,1,0,0:0:0:0:
329,139,183675,1,14,0:0:0:0:
362,27,183925,1,6,0:0:0:0:
248,59,184175,70,0,L|251:17,2,41.9999987182618,14|0|2,1:2|0:0|0:0,0:0:0:0:
230,108,184550,2,0,P|238:146|230:194,1,83.9999974365235,6|0,0:0|0:0,0:0:0:0:
196,237,184925,1,6,0:0:0:0:
219,352,185175,38,0,L|159:359,2,41.9999987182618,14|0|2,0:0|0:0|0:0,0:0:0:0:
251,302,185550,2,0,P|289:294|337:302,1,83.9999974365235,6|0,0:0|0:0,0:0:0:0:
383,331,185925,1,6,0:0:0:0:
408,93,186175,102,0,L|395:251,1,140,10|0,0:2|0:0,0:0:0:0:
304,196,186550,2,0,L|291:37,1,140,2|0,1:2|0:0,0:0:0:0:
201,19,186925,2,0,L|193:100,1,70,10|0,1:2|0:0,0:0:0:0:
111,139,187175,2,0,L|103:57,1,70,10|0,1:2|0:0,0:0:0:0:
134,339,187675,38,0,B|218:352|181:295|262:305,1,140
279,292,188175,102,0,P|352:323|365:386,1,146.999995513916,14|0,1:2|0:0,0:0:0:0:
464,354,188550,2,0,L|481:200,1,146.999995513916,14|0,1:2|0:0,0:0:0:0:
506,108,188925,1,14,1:2:0:0:
491,96,189175,102,0,B|433:99|433:99|406:118|406:118|346:122,1,146.999995513916,14|0,1:2|3:3,0:0:0:0:
259,73,189550,1,0,3:3:0:0:
259,73,189675,2,0,P|252:36|255:0,3,73.4999977569581,6|4|10|8,3:3|3:3|3:3|3:3,0:0:0:0:
216,166,190175,6,0,P|126:169|82:101,1,146.999995513916,14|0,1:2|0:0,0:0:0:0:
11,197,190550,2,0,B|46:294|46:294|19:348,1,146.999995513916,14|0,1:2|0:0,0:0:0:0:
121,373,190925,1,14,1:2:0:0:
131,383,191175,102,0,L|286:370,1,146.999995513916,14|8,1:2|3:3,0:0:0:0:
371,329,191550,1,8,3:3:0:0:
371,329,191675,2,0,P|382:284|380:242,1,73.4999977569581,10|8,0:0|0:0,0:0:0:0:
463,194,191925,1,10,0:0:0:0:
463,194,192050,1,8,0:0:0:0:
391,113,192175,38,0,B|299:98|334:157|241:140,1,154.000004699707,4|8,1:2|0:0,0:0:0:0:
192,46,192550,2,0,P|139:100|138:175,1,154.000004699707,2|0,1:2|1:2,0:0:0:0:
101,277,192925,2,0,L|24:267,1,77.0000023498536,10|0,0:0|0:0,0:0:0:0:
164,365,193175,2,0,L|316:384,1,154.000004699707,2|10,1:2|0:0,0:0:0:0:
412,333,193550,1,0,0:0:0:0:
412,333,193675,2,0,B|429:275|429:275|397:180,1,154.000004699707,2|10,1:2|0:0,0:0:0:0:
232,48,194175,6,0,L|70:80,1,154.000004699707,2|10,1:2|0:0,0:0:0:0:
21,168,194550,2,0,P|3:250|74:313,1,154.000004699707,2|0,1:2|1:2,0:0:0:0:
140,346,194925,2,0,L|154:255,1,77.0000023498536,10|0,0:0|0:0,0:0:0:0:
228,193,195175,54,0,L|214:102,1,77.0000023498536,10|0,0:0|1:2,0:0:0:0:
323,102,195425,2,0,L|334:178,1,77.0000023498536,8|0,0:0|1:2,0:0:0:0:
380,276,195675,2,0,P|334:284|288:270,1,77.0000023498536,10|8,1:2|0:0,0:0:0:0:
152,194,195925,2,0,P|189:185|227:192,1,77.0000023498536,10|8,0:0|0:0,0:0:0:0:
94,269,196175,102,0,B|57:224|57:224|77:113,1,154.000004699707,6|10,1:2|0:0,0:0:0:0:
44,25,196550,2,0,P|109:98|166:69,1,154.000004699707,2|0,1:2|1:2,0:0:0:0:
235,17,196925,2,0,P|280:38|332:43,1,77.0000023498536,10|0,0:0|0:0,0:0:0:0:
412,17,197175,2,0,L|390:194,2,154.000004699707,2|10|2,1:2|0:0|1:2,0:0:0:0:
503,73,197800,1,0,1:2:0:0:
503,73,197925,1,10,0:0:0:0:
406,266,198175,6,0,B|316:278|354:217|255:232,1,154.000004699707,2|10,1:2|0:0,0:0:0:0:
179,301,198550,2,0,P|101:275|121:208,1,154.000004699707,2|2,1:2|1:2,0:0:0:0:
193,149,198925,2,0,P|177:103|150:80,1,77.0000023498536,10|0,0:0|0:0,0:0:0:0:
66,25,199175,2,0,B|129:18|129:18|160:32|160:32|216:25,2,154.000004699707,2|8|2,1:2|0:0|1:2,0:0:0:0:
29,127,199800,1,2,1:2:0:0:
29,127,199925,1,10,0:0:0:0:
123,320,200175,70,0,L|280:299,1,154.000004699707,2|8,1:2|0:0,0:0:0:0:
373,346,200550,2,0,P|445:323|467:244,1,154.000004699707,2|0,1:2|1:2,0:0:0:0:
435,151,200925,2,0,L|512:151,1,77.0000023498536,10|0,0:0|0:0,0:0:0:0:
394,50,201175,2,0,B|350:76|350:76|234:77,1,154.000004699707,2|10,1:2|0:0,0:0:0:0:
146,118,201550,1,0,0:0:0:0:
146,118,201675,2,0,B|117:145|75:146|75:146|54:108|16:101,1,154.000004699707,2|10,1:2|0:0,0:0:0:0:
64,311,202175,6,0,B|161:323|161:323|225:292,1,154.000004699707,2|10,1:2|0:0,0:0:0:0:
301,358,202550,2,0,P|312:281|271:213,1,154.000004699707,2|0,1:2|1:2,0:0:0:0:
204,135,202925,2,0,L|208:41,1,77.0000023498536,10|0,0:0|0:0,0:0:0:0:
307,15,203175,1,6,1:2:0:0:
328,5,203675,38,0,P|374:30|393:58,1,77.0000023498536,10|8,0:0|0:0,0:0:0:0:
474,115,203925,1,10,0:0:0:0:
474,115,204050,1,8,0:0:0:0:
452,220,204175,6,0,P|401:201|364:164,1,77.0000023498536,6|0,1:2|0:0,0:0:0:0:
307,119,204425,1,10,0:0:0:0:
307,119,204550,2,0,B|254:123|254:123|202:159|202:159|147:164,1,154.000004699707,2|2,1:2|0:0,0:0:0:0:
77,97,204925,1,10,0:0:0:0:
40,309,205175,22,8,P|8:229|33:140,2,154.000004699707,2|8|2,1:2|0:0|1:2,0:0:0:0:
143,357,205800,1,0,1:0:0:0:
143,357,205925,1,10,0:0:0:0:
195,145,206175,22,0,B|223:183|223:183|338:169,1,154.000004699707,2|10,1:2|0:0,0:0:0:0:
412,100,206550,2,0,P|366:154|408:241,1,154.000004699707,2|2,1:2|0:0,0:0:0:0:
490,264,206925,1,10,0:0:0:0:
276,329,207175,54,0,P|337:351|447:337,2,154.000004699707,2|8|2,1:2|0:0|1:2,0:0:0:0:
187,277,207800,1,0,1:0:0:0:
187,277,207925,1,10,0:0:0:0:
329,115,208175,22,0,P|352:171|279:248,1,154.000004699707,2|10,1:2|0:0,0:0:0:0:
196,196,208550,2,0,P|136:207|110:305,1,154.000004699707,2|0,1:2|1:0,0:0:0:0:
184,366,208925,1,10,0:0:0:0:
273,168,209175,22,0,B|244:202|244:202|269:341,1,154.000004699707,2|10,1:2|0:0,0:0:0:0:
461,223,209675,2,0,B|490:257|490:257|465:396,1,154.000004699707,2|10,1:2|0:0,0:0:0:0:
376,169,210175,54,0,P|359:110|264:69,1,154.000004699707,2|10,1:2|0:0,0:0:0:0:
188,11,210550,2,0,P|114:21|59:104,1,154.000004699707,2|0,1:2|1:2,0:0:0:0:
80,186,210925,1,10,0:0:0:0:
230,325,211175,70,0,L|238:230,1,77.0000023498536,10|0,0:0|1:2,0:0:0:0:
344,248,211425,2,0,L|335:153,1,77.0000023498536,8|0,0:0|1:2,0:0:0:0:
422,105,211675,2,0,P|357:65|324:68,1,77.0000023498536,10|8,1:2|0:0,0:0:0:0:
262,114,211925,2,0,P|223:114|188:98,1,77.0000023498536,10|8,0:0|0:0,0:0:0:0:
115,18,212175,38,0,B|78:65|78:65|92:185,1,154.000004699707,6|10,1:2|0:0,0:0:0:0:
149,271,212550,2,0,B|157:221|157:221|197:192|271:216,1,154.000004699707,2|2,1:2|1:2,0:0:0:0:
347,272,212925,1,10,0:0:0:0:
358,56,213175,22,0,P|404:142|409:225,2,154.000004699707,2|10|2,1:2|0:0|1:2,0:0:0:0:
260,23,213800,1,0,1:0:0:0:
260,23,213925,1,10,0:0:0:0:
110,243,214175,22,0,B|157:246|157:246|214:224|214:224|268:228,1,154.000004699707,2|10,1:2|0:0,0:0:0:0:
318,318,214550,2,0,P|364:254|340:154,1,154.000004699707,2|0,1:2|1:2,0:0:0:0:
266,126,214925,1,10,0:0:0:0:
52,153,215175,54,0,P|6:217|30:317,2,154.000004699707,2|8|2,1:2|0:0|1:2,0:0:0:0:
148,167,215800,1,2,1:2:0:0:
148,167,215925,1,10,2:0:0:0:
334,58,216175,22,0,B|296:86|296:86|310:201,1,154.000004699707,2|10,1:2|0:0,0:0:0:0:
379,275,216550,2,0,P|325:229|238:271,1,154.000004699707,2|0,1:2|1:2,0:0:0:0:
191,341,216925,2,0,L|106:333,1,77.0000023498536,10|0,0:0|0:0,0:0:0:0:
6,322,217175,22,0,B|10:273|10:273|45:241|45:241|51:183,1,154.000004699707,2|10,1:2|0:0,0:0:0:0:
205,31,217675,2,0,B|295:19|275:83|356:65,1,154.000004699707,2|10,1:2|0:0,0:0:0:0:
230,257,218175,54,0,P|255:202|188:118,1,154.000004699707,2|10,1:2|0:0,0:0:0:0:
119,91,218550,2,0,B|83:122|83:122|100:258,1,154.000004699707,2|0,1:2|1:2,0:0:0:0:
113,330,218925,1,10,0:0:0:0:
327,308,219175,70,0,L|403:301,1,77.0000023498536,10|0,0:0|1:2,0:0:0:0:
426,195,219425,2,0,L|419:118,1,77.0000023498536,8|0,0:0|1:2,0:0:0:0:
506,55,219675,2,0,P|441:15|408:18,1,77.0000023498536,10|8,1:2|0:0,0:0:0:0:
272,48,219925,2,0,P|307:64|346:64,1,77.0000023498536,10|8,0:0|0:0,0:0:0:0:
170,14,220175,54,0,L|205:179,1,154.000004699707,6|8,1:2|0:0,0:0:0:0:
178,270,220550,2,0,P|216:270|253:261,1,77.0000023498536,2|0,1:2|0:0,0:0:0:0:
329,184,220800,2,0,P|367:184|404:193,2,77.0000023498536,2|10|2,0:0|0:0|0:0,0:0:0:0:
477,272,221175,102,0,B|510:236|510:236|503:122,1,154.000004699707,2|10,1:2|0:0,0:0:0:0:
479,25,221550,1,2,0:0:0:0:
479,25,221675,1,0,1:2:0:0:
265,52,221925,2,0,L|174:43,1,77.0000023498536,10|0,0:0|0:0,0:0:0:0:
85,12,222175,6,0,B|66:111|66:111|101:185,1,154.000004699707,2|10,1:2|0:0,0:0:0:0:
159,241,222550,2,0,P|60:218|53:270,1,154.000004699707,2|2,0:0|0:0,0:0:0:0:
107,332,222925,1,10,0:0:0:0:
312,266,223175,102,0,B|405:274|353:314|456:328,1,154.000004699707,2|8,1:2|0:0,0:0:0:0:
462,318,223675,2,0,P|456:264|458:228,1,77.0000023498536,2|0,1:2|0:0,0:0:0:0:
394,152,223925,2,0,P|400:113|400:75,1,77.0000023498536,10|0,0:0|0:0,0:0:0:0:
286,156,224175,22,0,L|106:139,1,154.000004699707,6|8,1:2|0:0,0:0:0:0:
26,123,224550,1,2,0:0:0:0:
26,123,224675,2,0,L|35:206,1,77.0000023498536,0|2,1:2|0:0,0:0:0:0:
139,230,224925,2,0,L|148:153,1,77.0000023498536,10|2,0:0|0:0,0:0:0:0:
237,91,225175,86,0,L|255:243,1,154.000004699707,2|10,1:2|0:0,0:0:0:0:
265,356,225550,2,0,B|318:315|318:315|373:313|412:370,1,154.000004699707,2|0,0:0|0:0,0:0:0:0:
499,317,225925,1,10,0:0:0:0:
441,109,226175,22,0,B|381:115|381:115|363:136|363:136|285:146,1,154.000004699707,2|10,1:2|0:0,0:0:0:0:
221,68,226550,2,0,B|143:58,1,77.0000023498536,2|0,0:0|1:2,0:0:0:0:
67,135,226800,2,0,B|76:211,2,77.0000023498536,2|8|2,0:0|0:0|0:0,0:0:0:0:
144,58,227175,38,0,P|206:85|205:166,1,154.000004699707,2|8,1:2|0:0,0:0:0:0:
221,173,227675,2,0,L|309:187,1,77.0000023498536,10|8,1:2|0:0,0:0:0:0:
318,282,227925,2,0,L|241:294,1,77.0000023498536,10|8,0:0|0:0,0:0:0:0:
395,371,228175,86,0,L|419:218,1,154.000004699707,6|8,1:2|0:0,0:0:0:0:
496,142,228550,2,0,B|506:100|485:68|485:68|441:75|401:34,1,154.000004699707,2|2,0:0|0:0,0:0:0:0:
312,8,228925,2,0,P|274:24|226:24,1,77.0000023498536,10|2,0:0|0:0,0:0:0:0:
124,14,229175,70,0,L|145:180,1,154.000004699707,2|10,1:2|0:0,0:0:0:0:
161,273,229550,2,0,B|93:290|101:233|12:257,1,154.000004699707,2|0,0:0|0:0,0:0:0:0:
52,358,229925,1,10,0:0:0:0:
7,125,230175,38,0,P|87:124|143:167,1,154.000004699707,2|10,1:2|0:0,0:0:0:0:
250,188,230550,2,0,L|268:21,1,154.000004699707,2|2,0:0|0:0,0:0:0:0:
372,10,230925,1,10,0:0:0:0:
482,195,231175,70,0,P|454:275|454:357,1,154.000004699707,2|8,1:2|0:0,0:0:0:0:
440,356,231675,2,0,P|403:342|366:334,1,77.0000023498536,2|0,1:2|0:0,0:0:0:0:
286,260,231925,2,0,P|248:268|212:281,1,77.0000023498536,10|0,0:0|0:0,0:0:0:0:
368,188,232175,54,0,L|387:20,1,154.000004699707,6|8,1:2|0:0,0:0:0:0:
278,53,232550,2,0,L|194:62,1,77.0000023498536,2|0,0:0|1:2,0:0:0:0:
110,121,232800,2,0,L|59:53,2,77.0000023498536,2|10|2,0:0|0:0|0:0,0:0:0:0:
174,208,233175,54,0,B|137:236|91:227|91:227|67:252|64:286,1,154.000004699707,2|10,1:2|0:0,0:0:0:0:
146,357,233550,2,0,P|225:344|311:337,1,154.000004699707,2|0,0:0|0:0,0:0:0:0:
401,372,233925,1,10,0:0:0:0:
482,172,234175,38,0,B|505:126|505:126|491:65|426:59,1,154.000004699707,2|10,1:2|0:0,0:0:0:0:
342,5,234550,2,0,P|302:26|248:31,1,77.0000023498536,2|0,0:0|1:2,0:0:0:0:
198,111,234800,2,0,L|203:202,2,77.0000023498536,2|10|2,0:0|0:0|0:0,0:0:0:0:
106,52,235175,6,0,B|81:53|63:71|63:71|96:111|83:176,1,154.000004699707,10|8,0:0|0:0,0:0:0:0:
75,182,235675,2,0,P|39:192|0:191,1,77.0000023498536,10|8,1:2|0:0,0:0:0:0:
153,257,235925,2,0,P|189:267|228:266,1,77.0000023498536,8|8,0:0|0:0,0:0:0:0:
302,331,236175,6,0,P|324:260|289:187,1,140,6|8,1:2|0:0,0:0:0:0:
230,133,236550,2,0,B|269:177|269:177|377:157,1,140
441,192,236925,2,0,P|446:136|421:100,1,70,8|0,0:0|0:0,0:0:0:0:
425,27,237175,38,0,B|380:30|361:58|361:58|334:36|285:50,1,140,0|8,1:2|0:0,0:0:0:0:
200,33,237550,1,0,0:0:0:0:
200,33,237675,2,0,P|134:92|134:164,1,140,0|8,0:0|0:0,0:0:0:0:
135,335,238175,70,0,B|217:346|182:290|273:303,1,140,0|8,1:2|0:0,0:0:0:0:
355,355,238550,1,0,0:0:0:0:
355,355,238675,2,0,B|385:318|385:318|365:222,1,140,0|8,1:2|0:0,0:0:0:0:
223,69,239175,6,0,P|224:149|282:197,1,140,0|8,1:2|0:0,0:0:0:0:
459,200,239675,1,2,1:2:0:0:
287,295,239925,1,10,0:0:0:0:
316,109,240175,54,0,B|233:97|268:153|177:140,2,140,6|8|0,1:2|0:0|1:0,0:0:0:0:
310,305,240925,2,0,P|298:243|304:226,1,70,10|2,0:0|0:0,0:0:0:0:
383,187,241175,22,0,P|418:129|398:50,2,140,2|8|0,1:2|0:0|1:0,0:0:0:0:
202,262,241925,2,0,L|126:255,1,70,10|2,0:0|0:0,0:0:0:0:
58,320,242175,54,0,P|32:250|78:178,1,140,2|8,1:2|0:0,0:0:0:0:
162,27,242675,2,0,P|187:90|161:153,1,140,2|8,1:2|0:0,0:0:0:0:
338,67,243175,1,2,1:2:0:0:
359,261,243425,1,8,0:0:0:0:
512,139,243675,70,0,L|424:131,1,70,8|8,1:2|0:0,0:0:0:0:
349,164,243925,2,0,L|261:171,1,70,8|8,0:0|0:0,0:0:0:0:
199,118,244175,38,0,P|180:183|214:243,1,140,6|8,1:2|0:0,0:0:0:0:
378,290,244675,2,0,P|411:299|442:316,3,70,2|2|10|0,1:2|0:0|0:0|0:0,0:0:0:0:
295,329,245175,2,0,P|249:356|157:344,1,140,2|10,1:2|0:0,0:0:0:0:
56,185,245675,2,0,P|31:210|13:239,3,70,2|0|10|0,1:2|0:0|0:0|0:0,0:0:0:0:
150,178,246175,70,0,B|183:144|183:144|173:49,1,140,2|8,1:2|0:0,0:0:0:0:
231,238,246675,2,0,B|227:280|227:280|245:333|245:333|239:376,1,140,0|8,1:2|0:0,0:0:0:0:
421,299,247175,6,0,B|376:237|376:237|310:273,1,140,0|8,1:2|0:0,0:0:0:0:
141,347,247675,1,2,1:2:0:0:
175,154,247925,1,10,0:0:0:0:
2,211,248175,38,0,P|1:84|12:55,2,140,6|8|0,1:2|0:0|0:0,0:0:0:0:
141,347,248925,2,0,P|150:301|147:272,1,70,10|2,0:0|0:0,0:0:0:0:
103,202,249175,22,0,B|136:245|136:245|248:228,2,140,2|8|0,1:2|0:0|1:2,0:0:0:0:
294,155,249925,2,0,P|327:199|331:242,1,70,10|2,0:0|0:0,0:0:0:0:
354,308,250175,70,0,P|359:230|415:191,1,140,2|8,1:2|0:0,0:0:0:0:
494,19,250675,2,0,P|449:92|389:90,1,140,2|8,1:2|0:0,0:0:0:0:
218,25,251175,21,10,1:2:0:0:
58,137,251425,1,10,1:2:0:0:
170,298,251675,21,10,1:2:0:0:
331,185,251925,1,10,1:2:0:0:
194,162,252175,53,2,1:2:0:0:
